osu file format v14

[General]
AudioFilename: audio130.mp3
AudioLeadIn: 0
PreviewTime: 117520
Countdown: 0
SampleSet: Soft
StackLeniency: 0.7
Mode: 3
LetterboxInBreaks: 0
SpecialStyle: 0
WidescreenStoryboard: 0

[Editor]
DistanceSpacing: 1.6
BeatDivisor: 4
GridSize: 4
TimelineZoom: 1.8

[Metadata]
Title:Teo
TitleUnicode:テオ
Artist:Omoi
ArtistUnicode:Omoi
Creator:Lyz-
Version:More x1.3
Source:
Tags:vocaloid hatsune miku synth rock the first waltz japanese jrock PROJECT DIVA MEGA39'S 10TH ANNIVERSARY COLLECTION SEGA fa featured artist 初音ミク j-rock ボーカロイド ファーストワルツ Kagamine Rin 鏡音リン GUMI グミ IA イア Video Game js jumpstream rice
BeatmapID:5285208
BeatmapSetID:2427652

[Difficulty]
HPDrainRate:8
CircleSize:4
OverallDifficulty:8
ApproachRate:5
SliderMultiplier:1.4
SliderTickRate:1

[Events]
//Background and Video events
0,0,"bg.jpg",0,0
//Break Periods
//Storyboard Layer 0 (Background)
//Storyboard Layer 1 (Fail)
//Storyboard Layer 2 (Pass)
//Storyboard Layer 3 (Foreground)
//Storyboard Layer 4 (Overlay)
//Storyboard Sound Samples

[TimingPoints]
2011,249.480249480249,4,2,1,30,1,0

[HitObjects]
320,192,1886,5,0,0:0:0:0:
64,192,1886,1,0,0:0:0:0:
192,192,1948,1,0,0:0:0:0:
64,192,2011,1,0,0:0:0:0:
320,192,2011,1,0,0:0:0:0:
448,192,2011,1,0,0:0:0:0:
320,192,2135,1,0,0:0:0:0:
64,192,2260,1,0,0:0:0:0:
192,192,2260,1,0,0:0:0:0:
448,192,2260,1,0,0:0:0:0:
64,192,2385,1,0,0:0:0:0:
320,192,2509,1,0,0:0:0:0:
448,192,2509,1,0,0:0:0:0:
448,192,2634,1,0,0:0:0:0:
320,192,2759,1,0,0:0:0:0:
192,192,2759,1,0,0:0:0:0:
64,192,2759,1,0,0:0:0:0:
192,192,2884,1,0,0:0:0:0:
320,192,3008,1,0,0:0:0:0:
448,192,3008,1,0,0:0:0:0:
320,192,3133,1,0,0:0:0:0:
448,192,3258,1,0,0:0:0:0:
192,192,3258,1,0,0:0:0:0:
64,192,3258,1,0,0:0:0:0:
64,192,3383,1,0,0:0:0:0:
448,192,3507,1,0,0:0:0:0:
320,192,3507,1,0,0:0:0:0:
448,192,3632,1,0,0:0:0:0:
320,192,3757,1,0,0:0:0:0:
192,192,3757,1,0,0:0:0:0:
64,192,3757,1,0,0:0:0:0:
192,192,3882,1,0,0:0:0:0:
320,192,4006,1,0,0:0:0:0:
448,192,4006,1,0,0:0:0:0:
320,192,4131,1,0,0:0:0:0:
192,192,4256,1,0,0:0:0:0:
64,192,4256,1,0,0:0:0:0:
448,192,4256,1,0,0:0:0:0:
64,192,4381,1,0,0:0:0:0:
448,192,4505,1,0,0:0:0:0:
320,192,4505,1,0,0:0:0:0:
448,192,4630,1,0,0:0:0:0:
320,192,4755,1,0,0:0:0:0:
192,192,4755,1,0,0:0:0:0:
64,192,4755,1,0,0:0:0:0:
192,192,4880,1,0,0:0:0:0:
320,192,5004,1,0,0:0:0:0:
448,192,5004,1,0,0:0:0:0:
320,192,5129,1,0,0:0:0:0:
448,192,5254,1,0,0:0:0:0:
192,192,5254,1,0,0:0:0:0:
64,192,5254,1,0,0:0:0:0:
64,192,5378,1,0,0:0:0:0:
320,192,5503,1,0,0:0:0:0:
448,192,5503,1,0,0:0:0:0:
320,192,5628,1,0,0:0:0:0:
192,192,5628,1,0,0:0:0:0:
64,192,5628,1,0,0:0:0:0:
64,192,5753,1,0,0:0:0:0:
320,192,5753,1,0,0:0:0:0:
448,192,5753,1,0,0:0:0:0:
192,192,5877,1,0,0:0:0:0:
64,192,5877,1,0,0:0:0:0:
320,192,5940,1,0,0:0:0:0:
448,192,5940,1,0,0:0:0:0:
64,192,6002,1,0,0:0:0:0:
192,192,6002,128,0,6127:0:0:0:0:
448,192,6127,128,0,6252:0:0:0:0:
320,192,6252,128,0,6376:0:0:0:0:
192,192,6252,1,0,0:0:0:0:
64,192,6252,1,0,0:0:0:0:
64,192,6376,128,0,6501:0:0:0:0:
192,192,6501,128,0,6626:0:0:0:0:
320,192,6501,1,0,0:0:0:0:
448,192,6626,128,0,6751:0:0:0:0:
320,192,6751,128,0,6875:0:0:0:0:
192,192,6751,1,0,0:0:0:0:
64,192,6751,1,0,0:0:0:0:
64,192,6875,128,0,7000:0:0:0:0:
192,192,7000,128,0,7125:0:0:0:0:
320,192,7000,1,0,0:0:0:0:
448,192,7125,128,0,7250:0:0:0:0:
320,192,7250,128,0,7374:0:0:0:0:
192,192,7250,1,0,0:0:0:0:
64,192,7250,1,0,0:0:0:0:
64,192,7374,128,0,7499:0:0:0:0:
192,192,7499,128,0,7624:0:0:0:0:
448,192,7499,1,0,0:0:0:0:
320,192,7624,128,0,7749:0:0:0:0:
64,192,7749,128,0,7873:0:0:0:0:
192,192,7749,1,0,0:0:0:0:
448,192,7749,1,0,0:0:0:0:
448,192,7873,128,0,7998:0:0:0:0:
192,192,7998,128,0,8123:0:0:0:0:
320,192,7998,1,0,0:0:0:0:
64,192,8123,128,0,8248:0:0:0:0:
320,192,8248,128,0,8372:0:0:0:0:
192,192,8248,1,0,0:0:0:0:
448,192,8248,1,0,0:0:0:0:
448,192,8372,128,0,8497:0:0:0:0:
192,192,8497,128,0,8622:0:0:0:0:
64,192,8497,1,0,0:0:0:0:
64,192,8622,128,0,8746:0:0:0:0:
448,192,8746,1,0,0:0:0:0:
320,192,8746,1,0,0:0:0:0:
192,192,8809,1,0,0:0:0:0:
320,192,8871,1,0,0:0:0:0:
192,192,8934,1,0,0:0:0:0:
64,192,8996,1,0,0:0:0:0:
448,192,8996,1,0,0:0:0:0:
192,192,9183,1,0,0:0:0:0:
448,192,9183,1,0,0:0:0:0:
320,192,9370,1,0,0:0:0:0:
64,192,9370,1,0,0:0:0:0:
320,192,9620,1,0,0:0:0:0:
448,192,9620,1,0,0:0:0:0:
192,192,9682,1,0,0:0:0:0:
64,192,9682,1,0,0:0:0:0:
320,192,9744,1,0,0:0:0:0:
448,192,9744,1,0,0:0:0:0:
192,192,9807,1,0,0:0:0:0:
64,192,9807,1,0,0:0:0:0:
320,192,9869,1,0,0:0:0:0:
448,192,9869,1,0,0:0:0:0:
192,192,9931,1,0,0:0:0:0:
64,192,9931,1,0,0:0:0:0:
320,192,9994,1,0,0:0:0:0:
448,192,9994,1,0,0:0:0:0:
64,192,10056,1,0,0:0:0:0:
192,192,10119,1,0,0:0:0:0:
448,192,10119,1,0,0:0:0:0:
320,192,10181,1,0,0:0:0:0:
64,192,10243,1,0,0:0:0:0:
192,192,10243,1,0,0:0:0:0:
448,192,10306,1,0,0:0:0:0:
320,192,10368,1,0,0:0:0:0:
64,192,10368,1,0,0:0:0:0:
192,192,10430,1,0,0:0:0:0:
448,192,10493,1,0,0:0:0:0:
320,192,10493,1,0,0:0:0:0:
64,192,10555,1,0,0:0:0:0:
192,192,10618,1,0,0:0:0:0:
448,192,10618,1,0,0:0:0:0:
320,192,10680,1,0,0:0:0:0:
192,192,10742,1,0,0:0:0:0:
64,192,10742,1,0,0:0:0:0:
448,192,10805,1,0,0:0:0:0:
320,192,10867,1,0,0:0:0:0:
64,192,10867,1,0,0:0:0:0:
192,192,10929,1,0,0:0:0:0:
320,192,10992,1,0,0:0:0:0:
448,192,10992,1,0,0:0:0:0:
64,192,11054,1,0,0:0:0:0:
192,192,11117,1,0,0:0:0:0:
448,192,11117,1,0,0:0:0:0:
320,192,11179,1,0,0:0:0:0:
192,192,11241,1,0,0:0:0:0:
64,192,11241,1,0,0:0:0:0:
448,192,11304,1,0,0:0:0:0:
320,192,11366,1,0,0:0:0:0:
64,192,11366,1,0,0:0:0:0:
192,192,11428,1,0,0:0:0:0:
320,192,11491,1,0,0:0:0:0:
448,192,11491,1,0,0:0:0:0:
192,192,11553,1,0,0:0:0:0:
64,192,11553,1,0,0:0:0:0:
320,192,11615,1,0,0:0:0:0:
448,192,11615,1,0,0:0:0:0:
192,192,11678,1,0,0:0:0:0:
64,192,11740,1,0,0:0:0:0:
448,192,11740,1,0,0:0:0:0:
320,192,11803,1,0,0:0:0:0:
192,192,11865,1,0,0:0:0:0:
448,192,11927,1,0,0:0:0:0:
192,192,11990,1,0,0:0:0:0:
64,192,11990,1,0,0:0:0:0:
320,192,12052,1,0,0:0:0:0:
448,192,12114,1,0,0:0:0:0:
64,192,12114,1,0,0:0:0:0:
192,192,12177,1,0,0:0:0:0:
320,192,12239,1,0,0:0:0:0:
448,192,12239,1,0,0:0:0:0:
192,192,12302,1,0,0:0:0:0:
64,192,12364,1,0,0:0:0:0:
448,192,12364,1,0,0:0:0:0:
320,192,12426,1,0,0:0:0:0:
192,192,12489,1,0,0:0:0:0:
64,192,12489,1,0,0:0:0:0:
320,192,12551,1,0,0:0:0:0:
448,192,12613,1,0,0:0:0:0:
64,192,12613,1,0,0:0:0:0:
192,192,12676,1,0,0:0:0:0:
320,192,12738,1,0,0:0:0:0:
448,192,12738,1,0,0:0:0:0:
192,192,12801,1,0,0:0:0:0:
64,192,12863,1,0,0:0:0:0:
448,192,12863,1,0,0:0:0:0:
320,192,12925,1,0,0:0:0:0:
192,192,12988,1,0,0:0:0:0:
64,192,12988,1,0,0:0:0:0:
320,192,13050,1,0,0:0:0:0:
448,192,13112,1,0,0:0:0:0:
64,192,13112,1,0,0:0:0:0:
192,192,13175,1,0,0:0:0:0:
320,192,13237,1,0,0:0:0:0:
448,192,13237,1,0,0:0:0:0:
192,192,13299,1,0,0:0:0:0:
64,192,13362,1,0,0:0:0:0:
448,192,13362,1,0,0:0:0:0:
320,192,13424,1,0,0:0:0:0:
192,192,13487,1,0,0:0:0:0:
64,192,13487,1,0,0:0:0:0:
320,192,13549,1,0,0:0:0:0:
448,192,13549,1,0,0:0:0:0:
64,192,13611,1,0,0:0:0:0:
192,192,13611,1,0,0:0:0:0:
320,192,13674,1,0,0:0:0:0:
448,192,13736,1,0,0:0:0:0:
64,192,13736,1,0,0:0:0:0:
192,192,13798,1,0,0:0:0:0:
320,192,13861,1,0,0:0:0:0:
448,192,13923,1,0,0:0:0:0:
64,192,13986,1,0,0:0:0:0:
192,192,13986,1,0,0:0:0:0:
320,192,13986,1,0,0:0:0:0:
448,192,14048,1,0,0:0:0:0:
320,192,14110,1,0,0:0:0:0:
64,192,14110,1,0,0:0:0:0:
192,192,14173,1,0,0:0:0:0:
320,192,14235,1,0,0:0:0:0:
448,192,14235,1,0,0:0:0:0:
64,192,14297,1,0,0:0:0:0:
192,192,14360,1,0,0:0:0:0:
448,192,14360,1,0,0:0:0:0:
320,192,14422,1,0,0:0:0:0:
192,192,14485,1,0,0:0:0:0:
64,192,14485,1,0,0:0:0:0:
448,192,14547,1,0,0:0:0:0:
320,192,14609,1,0,0:0:0:0:
64,192,14609,1,0,0:0:0:0:
192,192,14672,1,0,0:0:0:0:
320,192,14734,1,0,0:0:0:0:
448,192,14734,1,0,0:0:0:0:
64,192,14796,1,0,0:0:0:0:
192,192,14859,1,0,0:0:0:0:
448,192,14859,1,0,0:0:0:0:
320,192,14921,1,0,0:0:0:0:
192,192,14983,1,0,0:0:0:0:
64,192,14983,1,0,0:0:0:0:
448,192,15046,1,0,0:0:0:0:
320,192,15108,1,0,0:0:0:0:
64,192,15108,1,0,0:0:0:0:
192,192,15171,1,0,0:0:0:0:
320,192,15233,1,0,0:0:0:0:
448,192,15233,1,0,0:0:0:0:
64,192,15295,1,0,0:0:0:0:
192,192,15358,1,0,0:0:0:0:
448,192,15358,1,0,0:0:0:0:
320,192,15420,1,0,0:0:0:0:
192,192,15482,1,0,0:0:0:0:
64,192,15482,1,0,0:0:0:0:
320,192,15545,1,0,0:0:0:0:
448,192,15545,1,0,0:0:0:0:
192,192,15607,1,0,0:0:0:0:
64,192,15607,1,0,0:0:0:0:
320,192,15670,1,0,0:0:0:0:
448,192,15732,1,0,0:0:0:0:
64,192,15732,1,0,0:0:0:0:
192,192,15794,1,0,0:0:0:0:
448,192,15857,1,0,0:0:0:0:
320,192,15919,1,0,0:0:0:0:
192,192,15981,1,0,0:0:0:0:
64,192,15981,1,0,0:0:0:0:
448,192,15981,1,0,0:0:0:0:
320,192,16044,1,0,0:0:0:0:
448,192,16106,1,0,0:0:0:0:
64,192,16106,1,0,0:0:0:0:
192,192,16169,1,0,0:0:0:0:
320,192,16231,1,0,0:0:0:0:
448,192,16231,1,0,0:0:0:0:
192,192,16293,1,0,0:0:0:0:
64,192,16356,1,0,0:0:0:0:
448,192,16356,1,0,0:0:0:0:
320,192,16418,1,0,0:0:0:0:
192,192,16480,1,0,0:0:0:0:
64,192,16480,1,0,0:0:0:0:
320,192,16543,1,0,0:0:0:0:
448,192,16605,1,0,0:0:0:0:
192,192,16605,1,0,0:0:0:0:
64,192,16605,1,0,0:0:0:0:
64,192,16730,1,0,0:0:0:0:
320,192,16730,1,0,0:0:0:0:
448,192,16730,1,0,0:0:0:0:
192,192,16792,1,0,0:0:0:0:
320,192,16855,1,0,0:0:0:0:
64,192,16917,1,0,0:0:0:0:
320,192,16979,1,0,0:0:0:0:
448,192,16979,1,0,0:0:0:0:
192,192,17042,1,0,0:0:0:0:
64,192,17042,1,0,0:0:0:0:
320,192,17104,1,0,0:0:0:0:
448,192,17104,1,0,0:0:0:0:
192,192,17166,1,0,0:0:0:0:
64,192,17229,1,0,0:0:0:0:
448,192,17229,1,0,0:0:0:0:
320,192,17291,1,0,0:0:0:0:
192,192,17354,1,0,0:0:0:0:
64,192,17354,1,0,0:0:0:0:
320,192,17416,1,0,0:0:0:0:
448,192,17478,1,0,0:0:0:0:
64,192,17478,1,0,0:0:0:0:
192,192,17541,1,0,0:0:0:0:
320,192,17541,1,0,0:0:0:0:
64,192,17603,1,0,0:0:0:0:
448,192,17603,1,0,0:0:0:0:
192,192,17665,1,0,0:0:0:0:
320,192,17728,1,0,0:0:0:0:
448,192,17728,1,0,0:0:0:0:
192,192,17790,1,0,0:0:0:0:
64,192,17790,1,0,0:0:0:0:
320,192,17852,1,0,0:0:0:0:
448,192,17852,1,0,0:0:0:0:
192,192,17915,1,0,0:0:0:0:
64,192,17977,1,0,0:0:0:0:
448,192,17977,1,0,0:0:0:0:
64,192,18102,1,0,0:0:0:0:
448,192,18102,1,0,0:0:0:0:
320,192,18227,1,0,0:0:0:0:
192,192,18227,1,0,0:0:0:0:
64,192,18227,1,0,0:0:0:0:
192,192,18351,1,0,0:0:0:0:
320,192,18476,1,0,0:0:0:0:
448,192,18476,1,0,0:0:0:0:
448,192,18601,1,0,0:0:0:0:
320,192,18601,1,0,0:0:0:0:
448,192,18726,1,0,0:0:0:0:
192,192,18726,1,0,0:0:0:0:
64,192,18726,1,0,0:0:0:0:
64,192,18850,1,0,0:0:0:0:
320,192,18975,1,0,0:0:0:0:
192,192,18975,1,0,0:0:0:0:
192,192,19100,1,0,0:0:0:0:
320,192,19100,1,0,0:0:0:0:
64,192,19225,1,0,0:0:0:0:
320,192,19225,1,0,0:0:0:0:
448,192,19225,1,0,0:0:0:0:
448,192,19349,1,0,0:0:0:0:
192,192,19474,1,0,0:0:0:0:
64,192,19474,1,0,0:0:0:0:
64,192,19599,1,0,0:0:0:0:
192,192,19599,1,0,0:0:0:0:
192,192,19724,1,0,0:0:0:0:
320,192,19724,1,0,0:0:0:0:
448,192,19724,1,0,0:0:0:0:
320,192,19848,1,0,0:0:0:0:
448,192,19973,1,0,0:0:0:0:
64,192,19973,1,0,0:0:0:0:
64,192,20098,1,0,0:0:0:0:
448,192,20098,1,0,0:0:0:0:
320,192,20223,1,0,0:0:0:0:
192,192,20223,1,0,0:0:0:0:
64,192,20223,1,0,0:0:0:0:
192,192,20347,1,0,0:0:0:0:
320,192,20472,1,0,0:0:0:0:
448,192,20472,1,0,0:0:0:0:
448,192,20597,1,0,0:0:0:0:
320,192,20597,1,0,0:0:0:0:
448,192,20722,1,0,0:0:0:0:
192,192,20722,1,0,0:0:0:0:
64,192,20722,1,0,0:0:0:0:
64,192,20846,1,0,0:0:0:0:
320,192,20971,1,0,0:0:0:0:
192,192,20971,1,0,0:0:0:0:
192,192,21096,1,0,0:0:0:0:
320,192,21096,1,0,0:0:0:0:
64,192,21220,1,0,0:0:0:0:
320,192,21220,1,0,0:0:0:0:
448,192,21220,1,0,0:0:0:0:
448,192,21345,1,0,0:0:0:0:
192,192,21470,1,0,0:0:0:0:
64,192,21470,1,0,0:0:0:0:
64,192,21595,1,0,0:0:0:0:
320,192,21595,1,0,0:0:0:0:
448,192,21595,1,0,0:0:0:0:
192,192,21719,1,0,0:0:0:0:
448,192,21719,1,0,0:0:0:0:
192,192,21844,1,0,0:0:0:0:
448,192,21969,1,0,0:0:0:0:
64,192,21969,1,0,0:0:0:0:
320,192,21969,1,0,0:0:0:0:
320,192,22094,1,0,0:0:0:0:
192,192,22218,1,0,0:0:0:0:
64,192,22218,1,0,0:0:0:0:
448,192,22218,1,0,0:0:0:0:
64,192,22343,1,0,0:0:0:0:
320,192,22468,1,0,0:0:0:0:
192,192,22468,1,0,0:0:0:0:
192,192,22593,1,0,0:0:0:0:
64,192,22717,1,0,0:0:0:0:
320,192,22717,1,0,0:0:0:0:
448,192,22717,1,0,0:0:0:0:
448,192,22842,1,0,0:0:0:0:
320,192,22967,1,0,0:0:0:0:
192,192,22967,1,0,0:0:0:0:
320,192,23092,1,0,0:0:0:0:
448,192,23216,1,0,0:0:0:0:
192,192,23216,1,0,0:0:0:0:
64,192,23216,1,0,0:0:0:0:
192,192,23341,1,0,0:0:0:0:
320,192,23466,1,0,0:0:0:0:
64,192,23466,1,0,0:0:0:0:
64,192,23591,1,0,0:0:0:0:
192,192,23715,1,0,0:0:0:0:
320,192,23715,1,0,0:0:0:0:
448,192,23715,1,0,0:0:0:0:
192,192,23840,1,0,0:0:0:0:
320,192,23965,1,0,0:0:0:0:
64,192,23965,1,0,0:0:0:0:
320,192,24090,1,0,0:0:0:0:
448,192,24214,1,0,0:0:0:0:
192,192,24214,1,0,0:0:0:0:
64,192,24214,1,0,0:0:0:0:
448,192,24339,1,0,0:0:0:0:
320,192,24464,1,0,0:0:0:0:
192,192,24464,1,0,0:0:0:0:
192,192,24588,1,0,0:0:0:0:
320,192,24713,1,0,0:0:0:0:
448,192,24713,1,0,0:0:0:0:
64,192,24713,1,0,0:0:0:0:
320,192,24838,1,0,0:0:0:0:
192,192,24963,1,0,0:0:0:0:
64,192,24963,1,0,0:0:0:0:
64,192,25087,1,0,0:0:0:0:
192,192,25212,1,0,0:0:0:0:
320,192,25212,1,0,0:0:0:0:
448,192,25212,1,0,0:0:0:0:
448,192,25337,1,0,0:0:0:0:
192,192,25462,1,0,0:0:0:0:
64,192,25462,1,0,0:0:0:0:
192,192,25586,1,0,0:0:0:0:
320,192,25711,1,0,0:0:0:0:
448,192,25711,1,0,0:0:0:0:
192,192,25773,1,0,0:0:0:0:
64,192,25773,1,0,0:0:0:0:
320,192,25836,1,0,0:0:0:0:
448,192,25836,1,0,0:0:0:0:
192,192,25898,1,0,0:0:0:0:
64,192,25898,1,0,0:0:0:0:
320,192,25961,1,0,0:0:0:0:
448,192,25961,1,0,0:0:0:0:
320,192,26085,1,0,0:0:0:0:
448,192,26085,1,0,0:0:0:0:
448,192,26210,1,0,0:0:0:0:
192,192,26210,1,0,0:0:0:0:
64,192,26210,1,0,0:0:0:0:
192,192,26335,1,0,0:0:0:0:
320,192,26460,1,0,0:0:0:0:
64,192,26460,1,0,0:0:0:0:
64,192,26584,1,0,0:0:0:0:
320,192,26584,1,0,0:0:0:0:
192,192,26709,1,0,0:0:0:0:
320,192,26709,1,0,0:0:0:0:
448,192,26709,1,0,0:0:0:0:
448,192,26834,1,0,0:0:0:0:
192,192,26959,1,0,0:0:0:0:
64,192,26959,1,0,0:0:0:0:
64,192,27083,1,0,0:0:0:0:
192,192,27083,1,0,0:0:0:0:
64,192,27208,1,0,0:0:0:0:
320,192,27208,1,0,0:0:0:0:
448,192,27208,1,0,0:0:0:0:
320,192,27333,1,0,0:0:0:0:
192,192,27457,1,0,0:0:0:0:
448,192,27457,1,0,0:0:0:0:
448,192,27582,1,0,0:0:0:0:
192,192,27582,1,0,0:0:0:0:
320,192,27707,1,0,0:0:0:0:
192,192,27707,1,0,0:0:0:0:
64,192,27707,1,0,0:0:0:0:
64,192,27832,1,0,0:0:0:0:
320,192,27956,1,0,0:0:0:0:
448,192,27956,1,0,0:0:0:0:
448,192,28081,1,0,0:0:0:0:
320,192,28081,1,0,0:0:0:0:
448,192,28206,1,0,0:0:0:0:
64,192,28206,1,0,0:0:0:0:
192,192,28206,1,0,0:0:0:0:
192,192,28331,1,0,0:0:0:0:
320,192,28455,1,0,0:0:0:0:
64,192,28455,1,0,0:0:0:0:
64,192,28580,1,0,0:0:0:0:
320,192,28580,1,0,0:0:0:0:
192,192,28705,1,0,0:0:0:0:
320,192,28705,1,0,0:0:0:0:
448,192,28705,1,0,0:0:0:0:
448,192,28830,1,0,0:0:0:0:
320,192,28954,1,0,0:0:0:0:
192,192,28954,1,0,0:0:0:0:
320,192,29079,1,0,0:0:0:0:
192,192,29079,1,0,0:0:0:0:
448,192,29204,1,0,0:0:0:0:
192,192,29204,1,0,0:0:0:0:
64,192,29204,1,0,0:0:0:0:
64,192,29329,1,0,0:0:0:0:
320,192,29453,1,0,0:0:0:0:
448,192,29453,1,0,0:0:0:0:
320,192,29578,1,0,0:0:0:0:
192,192,29578,1,0,0:0:0:0:
64,192,29578,1,0,0:0:0:0:
192,192,29703,1,0,0:0:0:0:
448,192,29703,1,0,0:0:0:0:
64,192,29828,1,0,0:0:0:0:
64,192,29952,1,0,0:0:0:0:
320,192,29952,1,0,0:0:0:0:
448,192,29952,1,0,0:0:0:0:
320,192,30077,1,0,0:0:0:0:
448,192,30202,1,0,0:0:0:0:
192,192,30202,1,0,0:0:0:0:
64,192,30202,1,0,0:0:0:0:
192,192,30327,1,0,0:0:0:0:
320,192,30451,1,0,0:0:0:0:
64,192,30451,1,0,0:0:0:0:
64,192,30576,1,0,0:0:0:0:
192,192,30701,1,0,0:0:0:0:
320,192,30701,1,0,0:0:0:0:
448,192,30701,1,0,0:0:0:0:
448,192,30825,1,0,0:0:0:0:
192,192,30950,1,0,0:0:0:0:
64,192,30950,1,0,0:0:0:0:
192,192,31075,1,0,0:0:0:0:
320,192,31200,1,0,0:0:0:0:
448,192,31200,1,0,0:0:0:0:
64,192,31200,1,0,0:0:0:0:
320,192,31324,1,0,0:0:0:0:
448,192,31449,1,0,0:0:0:0:
64,192,31449,1,0,0:0:0:0:
64,192,31574,1,0,0:0:0:0:
192,192,31699,1,0,0:0:0:0:
320,192,31699,1,0,0:0:0:0:
448,192,31699,1,0,0:0:0:0:
192,192,31823,1,0,0:0:0:0:
320,192,31948,1,0,0:0:0:0:
64,192,31948,1,0,0:0:0:0:
320,192,32073,1,0,0:0:0:0:
448,192,32198,1,0,0:0:0:0:
192,192,32198,1,0,0:0:0:0:
64,192,32198,1,0,0:0:0:0:
448,192,32322,1,0,0:0:0:0:
320,192,32447,1,0,0:0:0:0:
192,192,32447,1,0,0:0:0:0:
320,192,32572,1,0,0:0:0:0:
192,192,32697,1,0,0:0:0:0:
64,192,32697,1,0,0:0:0:0:
448,192,32697,1,0,0:0:0:0:
192,192,32821,1,0,0:0:0:0:
64,192,32946,1,0,0:0:0:0:
320,192,32946,1,0,0:0:0:0:
448,192,32946,1,0,0:0:0:0:
64,192,33071,1,0,0:0:0:0:
192,192,33071,1,0,0:0:0:0:
320,192,33133,1,0,0:0:0:0:
448,192,33133,1,0,0:0:0:0:
192,192,33196,1,0,0:0:0:0:
64,192,33196,1,0,0:0:0:0:
320,192,33258,1,0,0:0:0:0:
448,192,33258,1,0,0:0:0:0:
192,192,33320,1,0,0:0:0:0:
64,192,33320,1,0,0:0:0:0:
320,192,33383,1,0,0:0:0:0:
448,192,33383,1,0,0:0:0:0:
192,192,33445,1,0,0:0:0:0:
64,192,33445,1,0,0:0:0:0:
320,192,33507,1,0,0:0:0:0:
448,192,33507,1,0,0:0:0:0:
192,192,33570,1,0,0:0:0:0:
64,192,33570,1,0,0:0:0:0:
320,192,33632,1,0,0:0:0:0:
448,192,33632,1,0,0:0:0:0:
192,192,33694,1,0,0:0:0:0:
64,192,33694,1,0,0:0:0:0:
320,192,33757,1,0,0:0:0:0:
448,192,33757,1,0,0:0:0:0:
192,192,33819,1,0,0:0:0:0:
64,192,33819,1,0,0:0:0:0:
320,192,33882,1,0,0:0:0:0:
448,192,33882,1,0,0:0:0:0:
192,192,33944,1,0,0:0:0:0:
64,192,33944,1,0,0:0:0:0:
448,192,34006,1,0,0:0:0:0:
320,192,34069,1,0,0:0:0:0:
64,192,34069,1,0,0:0:0:0:
192,192,34131,1,0,0:0:0:0:
320,192,34193,1,0,0:0:0:0:
448,192,34193,1,0,0:0:0:0:
64,192,34256,1,0,0:0:0:0:
192,192,34318,1,0,0:0:0:0:
448,192,34318,1,0,0:0:0:0:
320,192,34381,1,0,0:0:0:0:
192,192,34443,1,0,0:0:0:0:
64,192,34443,1,0,0:0:0:0:
448,192,34505,1,0,0:0:0:0:
320,192,34568,1,0,0:0:0:0:
64,192,34568,1,0,0:0:0:0:
192,192,34630,1,0,0:0:0:0:
320,192,34692,1,0,0:0:0:0:
448,192,34692,1,0,0:0:0:0:
64,192,34755,1,0,0:0:0:0:
192,192,34817,1,0,0:0:0:0:
448,192,34817,1,0,0:0:0:0:
320,192,34880,1,0,0:0:0:0:
192,192,34942,1,0,0:0:0:0:
64,192,34942,1,0,0:0:0:0:
448,192,35004,1,0,0:0:0:0:
320,192,35067,1,0,0:0:0:0:
64,192,35067,1,0,0:0:0:0:
192,192,35129,1,0,0:0:0:0:
320,192,35191,1,0,0:0:0:0:
448,192,35191,1,0,0:0:0:0:
64,192,35254,1,0,0:0:0:0:
192,192,35316,1,0,0:0:0:0:
448,192,35316,1,0,0:0:0:0:
320,192,35378,1,0,0:0:0:0:
192,192,35441,1,0,0:0:0:0:
64,192,35441,1,0,0:0:0:0:
320,192,35503,1,0,0:0:0:0:
448,192,35503,1,0,0:0:0:0:
192,192,35566,1,0,0:0:0:0:
64,192,35566,1,0,0:0:0:0:
320,192,35628,1,0,0:0:0:0:
448,192,35690,1,0,0:0:0:0:
64,192,35690,1,0,0:0:0:0:
192,192,35753,1,0,0:0:0:0:
320,192,35815,1,0,0:0:0:0:
448,192,35877,1,0,0:0:0:0:
192,192,35940,1,0,0:0:0:0:
64,192,35940,1,0,0:0:0:0:
320,192,36002,1,0,0:0:0:0:
448,192,36065,1,0,0:0:0:0:
64,192,36065,1,0,0:0:0:0:
192,192,36127,1,0,0:0:0:0:
320,192,36189,1,0,0:0:0:0:
448,192,36189,1,0,0:0:0:0:
192,192,36252,1,0,0:0:0:0:
64,192,36314,1,0,0:0:0:0:
448,192,36314,1,0,0:0:0:0:
320,192,36376,1,0,0:0:0:0:
192,192,36439,1,0,0:0:0:0:
64,192,36439,1,0,0:0:0:0:
320,192,36501,1,0,0:0:0:0:
448,192,36564,1,0,0:0:0:0:
64,192,36564,1,0,0:0:0:0:
192,192,36626,1,0,0:0:0:0:
320,192,36688,1,0,0:0:0:0:
448,192,36688,1,0,0:0:0:0:
192,192,36751,1,0,0:0:0:0:
64,192,36813,1,0,0:0:0:0:
448,192,36813,1,0,0:0:0:0:
320,192,36875,1,0,0:0:0:0:
192,192,36875,1,0,0:0:0:0:
64,192,36938,1,0,0:0:0:0:
448,192,36938,1,0,0:0:0:0:
320,192,37000,1,0,0:0:0:0:
192,192,37062,1,0,0:0:0:0:
64,192,37062,1,0,0:0:0:0:
320,192,37125,1,0,0:0:0:0:
448,192,37125,1,0,0:0:0:0:
192,192,37187,1,0,0:0:0:0:
64,192,37187,1,0,0:0:0:0:
320,192,37250,1,0,0:0:0:0:
64,192,37312,1,0,0:0:0:0:
448,192,37312,1,0,0:0:0:0:
192,192,37374,1,0,0:0:0:0:
320,192,37437,1,0,0:0:0:0:
448,192,37437,1,0,0:0:0:0:
192,192,37499,1,0,0:0:0:0:
64,192,37499,1,0,0:0:0:0:
320,192,37561,1,0,0:0:0:0:
448,192,37561,1,0,0:0:0:0:
192,192,37624,1,0,0:0:0:0:
64,192,37686,1,0,0:0:0:0:
448,192,37686,1,0,0:0:0:0:
320,192,37749,1,0,0:0:0:0:
192,192,37811,1,0,0:0:0:0:
64,192,37811,1,0,0:0:0:0:
320,192,37873,1,0,0:0:0:0:
448,192,37873,1,0,0:0:0:0:
192,192,37936,1,0,0:0:0:0:
64,192,37936,1,0,0:0:0:0:
320,192,37998,1,0,0:0:0:0:
64,192,38060,1,0,0:0:0:0:
448,192,38060,1,0,0:0:0:0:
192,192,38185,1,0,0:0:0:0:
320,192,38185,1,0,0:0:0:0:
448,192,38185,1,0,0:0:0:0:
320,192,38310,1,0,0:0:0:0:
192,192,38435,1,0,0:0:0:0:
64,192,38435,1,0,0:0:0:0:
64,192,38559,1,0,0:0:0:0:
192,192,38559,1,0,0:0:0:0:
64,192,38684,1,0,0:0:0:0:
320,192,38684,1,0,0:0:0:0:
448,192,38684,1,0,0:0:0:0:
448,192,38809,1,0,0:0:0:0:
192,192,38934,1,0,0:0:0:0:
320,192,38934,1,0,0:0:0:0:
320,192,39058,1,0,0:0:0:0:
192,192,39058,1,0,0:0:0:0:
448,192,39183,1,0,0:0:0:0:
192,192,39183,1,0,0:0:0:0:
64,192,39183,1,0,0:0:0:0:
64,192,39308,1,0,0:0:0:0:
320,192,39433,1,0,0:0:0:0:
448,192,39433,1,0,0:0:0:0:
448,192,39557,1,0,0:0:0:0:
320,192,39557,1,0,0:0:0:0:
320,192,39682,1,0,0:0:0:0:
192,192,39682,1,0,0:0:0:0:
64,192,39682,1,0,0:0:0:0:
192,192,39807,1,0,0:0:0:0:
64,192,39931,1,0,0:0:0:0:
448,192,39931,1,0,0:0:0:0:
448,192,40056,1,0,0:0:0:0:
64,192,40056,1,0,0:0:0:0:
192,192,40181,1,0,0:0:0:0:
320,192,40181,1,0,0:0:0:0:
448,192,40181,1,0,0:0:0:0:
320,192,40306,1,0,0:0:0:0:
192,192,40430,1,0,0:0:0:0:
64,192,40430,1,0,0:0:0:0:
64,192,40555,1,0,0:0:0:0:
192,192,40555,1,0,0:0:0:0:
64,192,40680,1,0,0:0:0:0:
320,192,40680,1,0,0:0:0:0:
448,192,40680,1,0,0:0:0:0:
448,192,40805,1,0,0:0:0:0:
192,192,40929,1,0,0:0:0:0:
320,192,40929,1,0,0:0:0:0:
320,192,41054,1,0,0:0:0:0:
192,192,41054,1,0,0:0:0:0:
448,192,41179,1,0,0:0:0:0:
192,192,41179,1,0,0:0:0:0:
64,192,41179,1,0,0:0:0:0:
64,192,41304,1,0,0:0:0:0:
320,192,41428,1,0,0:0:0:0:
448,192,41428,1,0,0:0:0:0:
448,192,41553,1,0,0:0:0:0:
192,192,41553,1,0,0:0:0:0:
64,192,41553,1,0,0:0:0:0:
320,192,41678,1,0,0:0:0:0:
64,192,41678,1,0,0:0:0:0:
320,192,41803,1,0,0:0:0:0:
64,192,41927,1,0,0:0:0:0:
448,192,41927,1,0,0:0:0:0:
192,192,41927,1,0,0:0:0:0:
192,192,42052,1,0,0:0:0:0:
320,192,42177,1,0,0:0:0:0:
448,192,42177,1,0,0:0:0:0:
64,192,42177,1,0,0:0:0:0:
448,192,42302,1,0,0:0:0:0:
192,192,42426,1,0,0:0:0:0:
320,192,42426,1,0,0:0:0:0:
320,192,42551,1,0,0:0:0:0:
448,192,42676,1,0,0:0:0:0:
192,192,42676,1,0,0:0:0:0:
64,192,42676,1,0,0:0:0:0:
64,192,42801,1,0,0:0:0:0:
192,192,42925,1,0,0:0:0:0:
320,192,42925,1,0,0:0:0:0:
192,192,43050,1,0,0:0:0:0:
64,192,43175,1,0,0:0:0:0:
320,192,43175,1,0,0:0:0:0:
448,192,43175,1,0,0:0:0:0:
320,192,43299,1,0,0:0:0:0:
192,192,43424,1,0,0:0:0:0:
448,192,43424,1,0,0:0:0:0:
448,192,43549,1,0,0:0:0:0:
320,192,43674,1,0,0:0:0:0:
192,192,43674,1,0,0:0:0:0:
64,192,43674,1,0,0:0:0:0:
320,192,43798,1,0,0:0:0:0:
192,192,43923,1,0,0:0:0:0:
448,192,43923,1,0,0:0:0:0:
192,192,44048,1,0,0:0:0:0:
64,192,44173,1,0,0:0:0:0:
320,192,44173,1,0,0:0:0:0:
448,192,44173,1,0,0:0:0:0:
64,192,44297,1,0,0:0:0:0:
192,192,44422,1,0,0:0:0:0:
320,192,44422,1,0,0:0:0:0:
320,192,44547,1,0,0:0:0:0:
192,192,44672,1,0,0:0:0:0:
64,192,44672,1,0,0:0:0:0:
448,192,44672,1,0,0:0:0:0:
192,192,44796,1,0,0:0:0:0:
320,192,44921,1,0,0:0:0:0:
448,192,44921,1,0,0:0:0:0:
448,192,45046,1,0,0:0:0:0:
320,192,45171,1,0,0:0:0:0:
192,192,45171,1,0,0:0:0:0:
64,192,45171,1,0,0:0:0:0:
64,192,45295,1,0,0:0:0:0:
320,192,45420,1,0,0:0:0:0:
448,192,45420,1,0,0:0:0:0:
320,192,45545,1,0,0:0:0:0:
192,192,45670,1,0,0:0:0:0:
64,192,45670,1,0,0:0:0:0:
320,192,45732,1,0,0:0:0:0:
448,192,45732,1,0,0:0:0:0:
192,192,45794,1,0,0:0:0:0:
64,192,45794,1,0,0:0:0:0:
320,192,45857,1,0,0:0:0:0:
448,192,45857,1,0,0:0:0:0:
192,192,45919,1,0,0:0:0:0:
64,192,45919,1,0,0:0:0:0:
192,192,46044,1,0,0:0:0:0:
64,192,46044,1,0,0:0:0:0:
64,192,46169,1,0,0:0:0:0:
320,192,46169,1,0,0:0:0:0:
448,192,46169,1,0,0:0:0:0:
320,192,46293,1,0,0:0:0:0:
192,192,46418,1,0,0:0:0:0:
448,192,46418,1,0,0:0:0:0:
448,192,46543,1,0,0:0:0:0:
192,192,46543,1,0,0:0:0:0:
320,192,46667,1,0,0:0:0:0:
192,192,46667,1,0,0:0:0:0:
64,192,46667,1,0,0:0:0:0:
64,192,46792,1,0,0:0:0:0:
320,192,46917,1,0,0:0:0:0:
448,192,46917,1,0,0:0:0:0:
448,192,47042,1,0,0:0:0:0:
320,192,47042,1,0,0:0:0:0:
448,192,47166,1,0,0:0:0:0:
192,192,47166,1,0,0:0:0:0:
64,192,47166,1,0,0:0:0:0:
192,192,47291,1,0,0:0:0:0:
320,192,47416,1,0,0:0:0:0:
64,192,47416,1,0,0:0:0:0:
64,192,47541,1,0,0:0:0:0:
320,192,47541,1,0,0:0:0:0:
192,192,47665,1,0,0:0:0:0:
320,192,47665,1,0,0:0:0:0:
448,192,47665,1,0,0:0:0:0:
448,192,47790,1,0,0:0:0:0:
192,192,47915,1,0,0:0:0:0:
64,192,47915,1,0,0:0:0:0:
64,192,48040,1,0,0:0:0:0:
192,192,48040,1,0,0:0:0:0:
64,192,48164,1,0,0:0:0:0:
448,192,48164,1,0,0:0:0:0:
320,192,48164,1,0,0:0:0:0:
320,192,48289,1,0,0:0:0:0:
192,192,48414,1,0,0:0:0:0:
448,192,48414,1,0,0:0:0:0:
448,192,48539,1,0,0:0:0:0:
192,192,48539,1,0,0:0:0:0:
320,192,48663,1,0,0:0:0:0:
192,192,48663,1,0,0:0:0:0:
64,192,48663,1,0,0:0:0:0:
64,192,48788,1,0,0:0:0:0:
192,192,48913,1,0,0:0:0:0:
320,192,48913,1,0,0:0:0:0:
192,192,49038,1,0,0:0:0:0:
320,192,49038,1,0,0:0:0:0:
64,192,49162,1,0,0:0:0:0:
320,192,49162,1,0,0:0:0:0:
448,192,49162,1,0,0:0:0:0:
448,192,49287,1,0,0:0:0:0:
192,192,49412,1,0,0:0:0:0:
64,192,49412,1,0,0:0:0:0:
192,192,49536,1,0,0:0:0:0:
320,192,49536,1,0,0:0:0:0:
448,192,49536,1,0,0:0:0:0:
320,192,49661,1,0,0:0:0:0:
64,192,49661,1,0,0:0:0:0:
448,192,49661,1,0,0:0:0:0:
192,192,49786,1,0,0:0:0:0:
64,192,49786,1,0,0:0:0:0:
320,192,49848,1,0,0:0:0:0:
448,192,49848,1,0,0:0:0:0:
192,192,49911,1,0,0:0:0:0:
64,192,49911,1,0,0:0:0:0:
320,192,49973,1,0,0:0:0:0:
448,192,50035,1,0,0:0:0:0:
192,192,50098,1,0,0:0:0:0:
64,192,50160,1,0,0:0:0:0:
448,192,50160,1,0,0:0:0:0:
320,192,50223,1,0,0:0:0:0:
192,192,50285,1,0,0:0:0:0:
448,192,50347,1,0,0:0:0:0:
192,192,50410,1,0,0:0:0:0:
64,192,50410,1,0,0:0:0:0:
320,192,50472,1,0,0:0:0:0:
448,192,50534,1,0,0:0:0:0:
64,192,50597,1,0,0:0:0:0:
320,192,50659,1,0,0:0:0:0:
448,192,50659,1,0,0:0:0:0:
192,192,50722,1,0,0:0:0:0:
64,192,50784,1,0,0:0:0:0:
448,192,50846,1,0,0:0:0:0:
320,192,50909,1,0,0:0:0:0:
192,192,50909,1,0,0:0:0:0:
64,192,50971,1,0,0:0:0:0:
448,192,51033,1,0,0:0:0:0:
320,192,51096,1,0,0:0:0:0:
192,192,51158,1,0,0:0:0:0:
64,192,51158,1,0,0:0:0:0:
320,192,51220,1,0,0:0:0:0:
448,192,51283,1,0,0:0:0:0:
64,192,51345,1,0,0:0:0:0:
192,192,51408,1,0,0:0:0:0:
320,192,51408,1,0,0:0:0:0:
448,192,51470,1,0,0:0:0:0:
64,192,51532,1,0,0:0:0:0:
192,192,51595,1,0,0:0:0:0:
320,192,51657,1,0,0:0:0:0:
448,192,51657,1,0,0:0:0:0:
192,192,51719,1,0,0:0:0:0:
64,192,51782,1,0,0:0:0:0:
448,192,51782,1,0,0:0:0:0:
320,192,51844,1,0,0:0:0:0:
192,192,51907,1,0,0:0:0:0:
64,192,51907,1,0,0:0:0:0:
320,192,51969,1,0,0:0:0:0:
448,192,51969,1,0,0:0:0:0:
192,192,52031,1,0,0:0:0:0:
64,192,52031,1,0,0:0:0:0:
320,192,52094,1,0,0:0:0:0:
448,192,52094,1,0,0:0:0:0:
64,192,52156,1,0,0:0:0:0:
192,192,52156,1,0,0:0:0:0:
320,192,52218,1,0,0:0:0:0:
448,192,52218,1,0,0:0:0:0:
64,192,52281,1,0,0:0:0:0:
192,192,52281,1,0,0:0:0:0:
320,192,52343,1,0,0:0:0:0:
448,192,52343,1,0,0:0:0:0:
192,192,52406,1,0,0:0:0:0:
64,192,52406,1,0,0:0:0:0:
320,192,52468,1,0,0:0:0:0:
448,192,52468,1,0,0:0:0:0:
192,192,52530,1,0,0:0:0:0:
64,192,52530,1,0,0:0:0:0:
320,192,52593,1,0,0:0:0:0:
448,192,52593,1,0,0:0:0:0:
64,192,52655,1,0,0:0:0:0:
192,192,52655,1,0,0:0:0:0:
320,192,52717,1,0,0:0:0:0:
448,192,52717,1,0,0:0:0:0:
192,192,52780,1,0,0:0:0:0:
64,192,52780,1,0,0:0:0:0:
320,192,52842,1,0,0:0:0:0:
448,192,52842,1,0,0:0:0:0:
192,192,52904,1,0,0:0:0:0:
64,192,52904,1,0,0:0:0:0:
64,192,53154,1,0,0:0:0:0:
192,192,53154,1,0,0:0:0:0:
320,192,53154,1,0,0:0:0:0:
448,192,53154,1,0,0:0:0:0:
448,192,53403,1,0,0:0:0:0:
320,192,53403,1,0,0:0:0:0:
192,192,53403,1,0,0:0:0:0:
64,192,53403,1,0,0:0:0:0:
320,192,53528,1,0,0:0:0:0:
448,192,53528,1,0,0:0:0:0:
192,192,53591,1,0,0:0:0:0:
64,192,53653,1,0,0:0:0:0:
320,192,53653,1,0,0:0:0:0:
448,192,53653,1,0,0:0:0:0:
192,192,53715,1,0,0:0:0:0:
448,192,53778,1,0,0:0:0:0:
320,192,53840,1,0,0:0:0:0:
192,192,53902,1,0,0:0:0:0:
64,192,53902,1,0,0:0:0:0:
448,192,53902,1,0,0:0:0:0:
320,192,53965,1,0,0:0:0:0:
192,192,54027,1,0,0:0:0:0:
64,192,54090,1,0,0:0:0:0:
320,192,54152,1,0,0:0:0:0:
448,192,54152,1,0,0:0:0:0:
192,192,54214,1,0,0:0:0:0:
64,192,54277,1,0,0:0:0:0:
320,192,54339,1,0,0:0:0:0:
64,192,54401,1,0,0:0:0:0:
192,192,54401,1,0,0:0:0:0:
320,192,54464,1,0,0:0:0:0:
448,192,54526,1,0,0:0:0:0:
192,192,54588,1,0,0:0:0:0:
320,192,54651,1,0,0:0:0:0:
448,192,54651,1,0,0:0:0:0:
192,192,54713,1,0,0:0:0:0:
64,192,54776,1,0,0:0:0:0:
320,192,54838,1,0,0:0:0:0:
192,192,54900,1,0,0:0:0:0:
64,192,54900,1,0,0:0:0:0:
320,192,54963,1,0,0:0:0:0:
448,192,55025,1,0,0:0:0:0:
192,192,55087,1,0,0:0:0:0:
320,192,55150,1,0,0:0:0:0:
448,192,55150,1,0,0:0:0:0:
192,192,55212,1,0,0:0:0:0:
64,192,55275,1,0,0:0:0:0:
320,192,55337,1,0,0:0:0:0:
192,192,55399,1,0,0:0:0:0:
64,192,55399,1,0,0:0:0:0:
320,192,55462,1,0,0:0:0:0:
448,192,55462,1,0,0:0:0:0:
192,192,55524,1,0,0:0:0:0:
64,192,55524,1,0,0:0:0:0:
320,192,55586,1,0,0:0:0:0:
448,192,55649,1,0,0:0:0:0:
64,192,55649,1,0,0:0:0:0:
192,192,55711,1,0,0:0:0:0:
320,192,55773,1,0,0:0:0:0:
448,192,55773,1,0,0:0:0:0:
192,192,55836,1,0,0:0:0:0:
64,192,55898,1,0,0:0:0:0:
448,192,55898,1,0,0:0:0:0:
320,192,55961,1,0,0:0:0:0:
192,192,56023,1,0,0:0:0:0:
320,192,56085,1,0,0:0:0:0:
192,192,56148,1,0,0:0:0:0:
64,192,56148,1,0,0:0:0:0:
448,192,56210,1,0,0:0:0:0:
320,192,56272,1,0,0:0:0:0:
192,192,56335,1,0,0:0:0:0:
448,192,56397,1,0,0:0:0:0:
320,192,56397,1,0,0:0:0:0:
64,192,56460,1,0,0:0:0:0:
192,192,56522,1,0,0:0:0:0:
320,192,56584,1,0,0:0:0:0:
64,192,56647,1,0,0:0:0:0:
192,192,56647,1,0,0:0:0:0:
448,192,56709,1,0,0:0:0:0:
320,192,56771,1,0,0:0:0:0:
192,192,56834,1,0,0:0:0:0:
320,192,56896,1,0,0:0:0:0:
448,192,56896,1,0,0:0:0:0:
64,192,56959,1,0,0:0:0:0:
192,192,57021,1,0,0:0:0:0:
320,192,57083,1,0,0:0:0:0:
64,192,57146,1,0,0:0:0:0:
192,192,57146,1,0,0:0:0:0:
448,192,57208,1,0,0:0:0:0:
320,192,57270,1,0,0:0:0:0:
192,192,57333,1,0,0:0:0:0:
320,192,57395,1,0,0:0:0:0:
448,192,57395,1,0,0:0:0:0:
192,192,57457,1,0,0:0:0:0:
64,192,57520,1,0,0:0:0:0:
448,192,57520,1,0,0:0:0:0:
320,192,57520,1,0,0:0:0:0:
192,192,57645,1,0,0:0:0:0:
64,192,57645,1,0,0:0:0:0:
448,192,57645,1,0,0:0:0:0:
320,192,57707,1,0,0:0:0:0:
192,192,57769,1,0,0:0:0:0:
64,192,57832,1,0,0:0:0:0:
192,192,57894,1,0,0:0:0:0:
320,192,57894,1,0,0:0:0:0:
448,192,57894,1,0,0:0:0:0:
64,192,57956,1,0,0:0:0:0:
320,192,58019,1,0,0:0:0:0:
192,192,58081,1,0,0:0:0:0:
320,192,58144,1,0,0:0:0:0:
448,192,58144,1,0,0:0:0:0:
192,192,58206,1,0,0:0:0:0:
64,192,58268,1,0,0:0:0:0:
448,192,58331,1,0,0:0:0:0:
64,192,58393,1,0,0:0:0:0:
192,192,58393,1,0,0:0:0:0:
320,192,58455,1,0,0:0:0:0:
448,192,58518,1,0,0:0:0:0:
64,192,58580,1,0,0:0:0:0:
320,192,58643,1,0,0:0:0:0:
448,192,58643,1,0,0:0:0:0:
192,192,58705,1,0,0:0:0:0:
64,192,58767,1,0,0:0:0:0:
448,192,58830,1,0,0:0:0:0:
64,192,58892,1,0,0:0:0:0:
192,192,58892,1,0,0:0:0:0:
320,192,58954,1,0,0:0:0:0:
448,192,59017,1,0,0:0:0:0:
64,192,59079,1,0,0:0:0:0:
320,192,59141,1,0,0:0:0:0:
448,192,59141,1,0,0:0:0:0:
192,192,59204,1,0,0:0:0:0:
64,192,59266,1,0,0:0:0:0:
448,192,59329,1,0,0:0:0:0:
192,192,59391,1,0,0:0:0:0:
64,192,59391,1,0,0:0:0:0:
320,192,59453,1,0,0:0:0:0:
448,192,59453,1,0,0:0:0:0:
192,192,59516,1,0,0:0:0:0:
64,192,59516,1,0,0:0:0:0:
320,192,59578,1,0,0:0:0:0:
448,192,59640,1,0,0:0:0:0:
64,192,59640,1,0,0:0:0:0:
192,192,59703,1,0,0:0:0:0:
320,192,59765,1,0,0:0:0:0:
64,192,59828,1,0,0:0:0:0:
320,192,59890,1,0,0:0:0:0:
448,192,59890,1,0,0:0:0:0:
192,192,59890,1,0,0:0:0:0:
64,192,59952,1,0,0:0:0:0:
448,192,60015,1,0,0:0:0:0:
320,192,60077,1,0,0:0:0:0:
192,192,60139,1,0,0:0:0:0:
64,192,60139,1,0,0:0:0:0:
320,192,60202,1,0,0:0:0:0:
448,192,60264,1,0,0:0:0:0:
192,192,60327,1,0,0:0:0:0:
64,192,60389,1,0,0:0:0:0:
320,192,60389,1,0,0:0:0:0:
448,192,60451,1,0,0:0:0:0:
192,192,60514,1,0,0:0:0:0:
64,192,60514,1,0,0:0:0:0:
320,192,60576,1,0,0:0:0:0:
448,192,60576,1,0,0:0:0:0:
192,192,60638,1,0,0:0:0:0:
64,192,60638,1,0,0:0:0:0:
320,192,60701,1,0,0:0:0:0:
448,192,60763,1,0,0:0:0:0:
64,192,60763,1,0,0:0:0:0:
192,192,60825,1,0,0:0:0:0:
320,192,60888,1,0,0:0:0:0:
448,192,60888,1,0,0:0:0:0:
192,192,60950,1,0,0:0:0:0:
64,192,60950,1,0,0:0:0:0:
320,192,61013,1,0,0:0:0:0:
448,192,61013,1,0,0:0:0:0:
192,192,61075,1,0,0:0:0:0:
64,192,61137,1,0,0:0:0:0:
448,192,61137,1,0,0:0:0:0:
320,192,61200,1,0,0:0:0:0:
192,192,61262,1,0,0:0:0:0:
64,192,61262,1,0,0:0:0:0:
320,192,61324,1,0,0:0:0:0:
448,192,61387,1,0,0:0:0:0:
64,192,61387,1,0,0:0:0:0:
192,192,61449,1,0,0:0:0:0:
320,192,61449,1,0,0:0:0:0:
448,192,61512,1,0,0:0:0:0:
64,192,61512,1,0,0:0:0:0:
192,192,61574,1,0,0:0:0:0:
320,192,61636,1,0,0:0:0:0:
448,192,61636,1,0,0:0:0:0:
192,192,61699,1,0,0:0:0:0:
64,192,61699,1,0,0:0:0:0:
320,192,61761,1,0,0:0:0:0:
448,192,61761,1,0,0:0:0:0:
192,192,61823,1,0,0:0:0:0:
64,192,61886,1,0,0:0:0:0:
448,192,61886,1,0,0:0:0:0:
320,192,61948,1,0,0:0:0:0:
192,192,62010,1,0,0:0:0:0:
64,192,62073,1,0,0:0:0:0:
320,192,62135,1,0,0:0:0:0:
448,192,62135,1,0,0:0:0:0:
192,192,62198,1,0,0:0:0:0:
448,192,62260,1,0,0:0:0:0:
320,192,62260,1,0,0:0:0:0:
64,192,62322,1,0,0:0:0:0:
192,192,62385,1,0,0:0:0:0:
448,192,62385,1,0,0:0:0:0:
320,192,62447,1,0,0:0:0:0:
192,192,62509,1,0,0:0:0:0:
64,192,62509,1,0,0:0:0:0:
320,192,62572,1,0,0:0:0:0:
192,192,62634,1,0,0:0:0:0:
64,192,62634,1,0,0:0:0:0:
448,192,62697,1,0,0:0:0:0:
320,192,62759,1,0,0:0:0:0:
64,192,62759,1,0,0:0:0:0:
192,192,62821,1,0,0:0:0:0:
320,192,62884,1,0,0:0:0:0:
448,192,62884,1,0,0:0:0:0:
192,192,62946,1,0,0:0:0:0:
64,192,63008,1,0,0:0:0:0:
448,192,63071,1,0,0:0:0:0:
192,192,63133,1,0,0:0:0:0:
320,192,63133,1,0,0:0:0:0:
64,192,63196,1,0,0:0:0:0:
320,192,63258,1,0,0:0:0:0:
448,192,63258,1,0,0:0:0:0:
192,192,63320,1,0,0:0:0:0:
64,192,63383,1,0,0:0:0:0:
448,192,63383,1,0,0:0:0:0:
320,192,63445,1,0,0:0:0:0:
192,192,63507,1,0,0:0:0:0:
64,192,63507,1,0,0:0:0:0:
448,192,63570,1,0,0:0:0:0:
320,192,63632,1,0,0:0:0:0:
192,192,63632,1,0,0:0:0:0:
64,192,63694,1,0,0:0:0:0:
320,192,63757,1,0,0:0:0:0:
448,192,63757,1,0,0:0:0:0:
192,192,63819,1,0,0:0:0:0:
64,192,63882,1,0,0:0:0:0:
448,192,63882,1,0,0:0:0:0:
320,192,63944,1,0,0:0:0:0:
192,192,64006,1,0,0:0:0:0:
448,192,64069,1,0,0:0:0:0:
192,192,64131,1,0,0:0:0:0:
64,192,64131,1,0,0:0:0:0:
320,192,64193,1,0,0:0:0:0:
64,192,64256,1,0,0:0:0:0:
192,192,64256,1,0,0:0:0:0:
448,192,64318,1,0,0:0:0:0:
320,192,64381,1,0,0:0:0:0:
64,192,64381,1,0,0:0:0:0:
192,192,64443,1,0,0:0:0:0:
320,192,64505,1,0,0:0:0:0:
448,192,64505,1,0,0:0:0:0:
192,192,64568,1,0,0:0:0:0:
320,192,64630,1,0,0:0:0:0:
448,192,64630,1,0,0:0:0:0:
64,192,64692,1,0,0:0:0:0:
192,192,64755,1,0,0:0:0:0:
448,192,64755,1,0,0:0:0:0:
320,192,64817,1,0,0:0:0:0:
192,192,64880,1,0,0:0:0:0:
64,192,64880,1,0,0:0:0:0:
320,192,64942,1,0,0:0:0:0:
448,192,65004,1,0,0:0:0:0:
64,192,65067,1,0,0:0:0:0:
320,192,65129,1,0,0:0:0:0:
192,192,65129,1,0,0:0:0:0:
448,192,65191,1,0,0:0:0:0:
192,192,65254,1,0,0:0:0:0:
64,192,65254,1,0,0:0:0:0:
320,192,65316,1,0,0:0:0:0:
448,192,65378,1,0,0:0:0:0:
64,192,65378,1,0,0:0:0:0:
192,192,65441,1,0,0:0:0:0:
320,192,65503,1,0,0:0:0:0:
448,192,65503,1,0,0:0:0:0:
64,192,65566,1,0,0:0:0:0:
192,192,65628,1,0,0:0:0:0:
320,192,65628,1,0,0:0:0:0:
448,192,65690,1,0,0:0:0:0:
192,192,65753,1,0,0:0:0:0:
64,192,65753,1,0,0:0:0:0:
320,192,65815,1,0,0:0:0:0:
448,192,65877,1,0,0:0:0:0:
64,192,65877,1,0,0:0:0:0:
192,192,65877,1,0,0:0:0:0:
320,192,65940,1,0,0:0:0:0:
192,192,66002,1,0,0:0:0:0:
64,192,66065,1,0,0:0:0:0:
448,192,66127,1,0,0:0:0:0:
320,192,66127,1,0,0:0:0:0:
192,192,66189,1,0,0:0:0:0:
448,192,66252,1,0,0:0:0:0:
320,192,66252,1,0,0:0:0:0:
192,192,66314,1,0,0:0:0:0:
64,192,66376,1,0,0:0:0:0:
448,192,66376,1,0,0:0:0:0:
320,192,66439,1,0,0:0:0:0:
192,192,66501,1,0,0:0:0:0:
64,192,66501,1,0,0:0:0:0:
320,192,66564,1,0,0:0:0:0:
192,192,66626,1,0,0:0:0:0:
64,192,66626,1,0,0:0:0:0:
320,192,66688,1,0,0:0:0:0:
448,192,66751,1,0,0:0:0:0:
64,192,66751,1,0,0:0:0:0:
192,192,66813,1,0,0:0:0:0:
320,192,66875,1,0,0:0:0:0:
448,192,66875,1,0,0:0:0:0:
64,192,66875,1,0,0:0:0:0:
192,192,66938,1,0,0:0:0:0:
320,192,67000,1,0,0:0:0:0:
448,192,67000,1,0,0:0:0:0:
192,192,67062,1,0,0:0:0:0:
64,192,67125,1,0,0:0:0:0:
448,192,67125,1,0,0:0:0:0:
320,192,67187,1,0,0:0:0:0:
192,192,67250,1,0,0:0:0:0:
64,192,67250,1,0,0:0:0:0:
320,192,67312,1,0,0:0:0:0:
192,192,67374,1,0,0:0:0:0:
64,192,67374,1,0,0:0:0:0:
320,192,67437,1,0,0:0:0:0:
448,192,67499,1,0,0:0:0:0:
64,192,67499,1,0,0:0:0:0:
192,192,67561,1,0,0:0:0:0:
320,192,67624,1,0,0:0:0:0:
448,192,67624,1,0,0:0:0:0:
64,192,67686,1,0,0:0:0:0:
192,192,67749,1,0,0:0:0:0:
320,192,67811,1,0,0:0:0:0:
448,192,67873,1,0,0:0:0:0:
64,192,67873,1,0,0:0:0:0:
192,192,67936,1,0,0:0:0:0:
320,192,67998,1,0,0:0:0:0:
64,192,68060,1,0,0:0:0:0:
192,192,68123,1,0,0:0:0:0:
448,192,68123,1,0,0:0:0:0:
320,192,68185,1,0,0:0:0:0:
192,192,68248,1,0,0:0:0:0:
64,192,68310,1,0,0:0:0:0:
320,192,68372,1,0,0:0:0:0:
448,192,68372,1,0,0:0:0:0:
192,192,68435,1,0,0:0:0:0:
448,192,68497,1,0,0:0:0:0:
320,192,68559,1,0,0:0:0:0:
192,192,68622,1,0,0:0:0:0:
64,192,68622,1,0,0:0:0:0:
448,192,68684,1,0,0:0:0:0:
192,192,68746,1,0,0:0:0:0:
320,192,68809,1,0,0:0:0:0:
64,192,68871,1,0,0:0:0:0:
448,192,68871,1,0,0:0:0:0:
192,192,68934,1,0,0:0:0:0:
320,192,68996,1,0,0:0:0:0:
448,192,68996,1,0,0:0:0:0:
192,192,69058,1,0,0:0:0:0:
64,192,69058,1,0,0:0:0:0:
320,192,69121,1,0,0:0:0:0:
448,192,69121,1,0,0:0:0:0:
192,192,69183,1,0,0:0:0:0:
64,192,69183,1,0,0:0:0:0:
320,192,69245,1,0,0:0:0:0:
448,192,69245,1,0,0:0:0:0:
192,192,69308,1,0,0:0:0:0:
64,192,69308,1,0,0:0:0:0:
320,192,69370,1,0,0:0:0:0:
448,192,69370,1,0,0:0:0:0:
192,192,69433,1,0,0:0:0:0:
64,192,69433,1,0,0:0:0:0:
320,192,69495,1,0,0:0:0:0:
448,192,69495,1,0,0:0:0:0:
192,192,69557,1,0,0:0:0:0:
64,192,69557,1,0,0:0:0:0:
320,192,69620,1,0,0:0:0:0:
448,192,69620,1,0,0:0:0:0:
192,192,69682,1,0,0:0:0:0:
64,192,69682,1,0,0:0:0:0:
320,192,69744,1,0,0:0:0:0:
448,192,69744,1,0,0:0:0:0:
192,192,69807,1,0,0:0:0:0:
64,192,69807,1,0,0:0:0:0:
320,192,69869,1,0,0:0:0:0:
448,192,69869,1,0,0:0:0:0:
192,192,69931,1,0,0:0:0:0:
64,192,69994,1,0,0:0:0:0:
448,192,69994,1,0,0:0:0:0:
320,192,70056,1,0,0:0:0:0:
192,192,70119,1,0,0:0:0:0:
64,192,70119,1,0,0:0:0:0:
320,192,70181,1,0,0:0:0:0:
448,192,70243,1,0,0:0:0:0:
192,192,70306,1,0,0:0:0:0:
320,192,70368,1,0,0:0:0:0:
448,192,70368,1,0,0:0:0:0:
64,192,70430,1,0,0:0:0:0:
192,192,70493,1,0,0:0:0:0:
448,192,70493,1,0,0:0:0:0:
320,192,70555,1,0,0:0:0:0:
192,192,70618,1,0,0:0:0:0:
64,192,70618,1,0,0:0:0:0:
320,192,70680,1,0,0:0:0:0:
448,192,70742,1,0,0:0:0:0:
64,192,70805,1,0,0:0:0:0:
320,192,70867,1,0,0:0:0:0:
448,192,70867,1,0,0:0:0:0:
192,192,70929,1,0,0:0:0:0:
64,192,70992,1,0,0:0:0:0:
448,192,70992,1,0,0:0:0:0:
320,192,71054,1,0,0:0:0:0:
64,192,71117,1,0,0:0:0:0:
192,192,71117,1,0,0:0:0:0:
320,192,71179,1,0,0:0:0:0:
448,192,71241,1,0,0:0:0:0:
192,192,71304,1,0,0:0:0:0:
320,192,71366,1,0,0:0:0:0:
448,192,71366,1,0,0:0:0:0:
64,192,71428,1,0,0:0:0:0:
192,192,71491,1,0,0:0:0:0:
448,192,71491,1,0,0:0:0:0:
320,192,71553,1,0,0:0:0:0:
64,192,71615,1,0,0:0:0:0:
192,192,71615,1,0,0:0:0:0:
320,192,71678,1,0,0:0:0:0:
448,192,71740,1,0,0:0:0:0:
320,192,71803,1,0,0:0:0:0:
192,192,71865,1,0,0:0:0:0:
64,192,71865,1,0,0:0:0:0:
448,192,71927,1,0,0:0:0:0:
320,192,71990,1,0,0:0:0:0:
64,192,71990,1,0,0:0:0:0:
192,192,72052,1,0,0:0:0:0:
320,192,72114,1,0,0:0:0:0:
448,192,72114,1,0,0:0:0:0:
192,192,72177,1,0,0:0:0:0:
64,192,72239,1,0,0:0:0:0:
448,192,72302,1,0,0:0:0:0:
192,192,72364,1,0,0:0:0:0:
64,192,72364,1,0,0:0:0:0:
320,192,72426,1,0,0:0:0:0:
448,192,72489,1,0,0:0:0:0:
64,192,72489,1,0,0:0:0:0:
192,192,72551,1,0,0:0:0:0:
320,192,72613,1,0,0:0:0:0:
448,192,72613,1,0,0:0:0:0:
192,192,72676,1,0,0:0:0:0:
64,192,72738,1,0,0:0:0:0:
448,192,72801,1,0,0:0:0:0:
192,192,72863,1,0,0:0:0:0:
64,192,72863,1,0,0:0:0:0:
320,192,72925,1,0,0:0:0:0:
448,192,72988,1,0,0:0:0:0:
64,192,72988,1,0,0:0:0:0:
192,192,73050,1,0,0:0:0:0:
320,192,73112,1,0,0:0:0:0:
448,192,73112,1,0,0:0:0:0:
192,192,73175,1,0,0:0:0:0:
64,192,73237,1,0,0:0:0:0:
320,192,73299,1,0,0:0:0:0:
192,192,73362,1,0,0:0:0:0:
64,192,73362,1,0,0:0:0:0:
448,192,73424,1,0,0:0:0:0:
320,192,73487,1,0,0:0:0:0:
64,192,73487,1,0,0:0:0:0:
192,192,73549,1,0,0:0:0:0:
320,192,73611,1,0,0:0:0:0:
448,192,73611,1,0,0:0:0:0:
192,192,73674,1,0,0:0:0:0:
64,192,73736,1,0,0:0:0:0:
192,192,73798,1,0,0:0:0:0:
320,192,73861,1,0,0:0:0:0:
448,192,73861,1,0,0:0:0:0:
64,192,73923,1,0,0:0:0:0:
448,192,73986,1,0,0:0:0:0:
192,192,73986,1,0,0:0:0:0:
320,192,74048,1,0,0:0:0:0:
192,192,74110,1,0,0:0:0:0:
64,192,74110,1,0,0:0:0:0:
320,192,74173,1,0,0:0:0:0:
448,192,74235,1,0,0:0:0:0:
64,192,74297,1,0,0:0:0:0:
320,192,74360,1,0,0:0:0:0:
448,192,74360,1,0,0:0:0:0:
192,192,74422,1,0,0:0:0:0:
64,192,74485,1,0,0:0:0:0:
448,192,74485,1,0,0:0:0:0:
320,192,74547,1,0,0:0:0:0:
192,192,74609,1,0,0:0:0:0:
64,192,74609,1,0,0:0:0:0:
320,192,74672,1,0,0:0:0:0:
448,192,74734,1,0,0:0:0:0:
192,192,74796,1,0,0:0:0:0:
320,192,74859,1,0,0:0:0:0:
448,192,74859,1,0,0:0:0:0:
64,192,74921,1,0,0:0:0:0:
192,192,74983,1,0,0:0:0:0:
448,192,74983,1,0,0:0:0:0:
320,192,75046,1,0,0:0:0:0:
192,192,75108,1,0,0:0:0:0:
64,192,75108,1,0,0:0:0:0:
320,192,75171,1,0,0:0:0:0:
448,192,75233,1,0,0:0:0:0:
64,192,75295,1,0,0:0:0:0:
448,192,75358,1,0,0:0:0:0:
320,192,75358,1,0,0:0:0:0:
192,192,75420,1,0,0:0:0:0:
64,192,75482,1,0,0:0:0:0:
448,192,75482,1,0,0:0:0:0:
320,192,75545,1,0,0:0:0:0:
192,192,75607,1,0,0:0:0:0:
64,192,75607,1,0,0:0:0:0:
448,192,75670,1,0,0:0:0:0:
192,192,75732,1,0,0:0:0:0:
64,192,75732,1,0,0:0:0:0:
320,192,75794,1,0,0:0:0:0:
448,192,75794,1,0,0:0:0:0:
192,192,75857,1,0,0:0:0:0:
64,192,75857,1,0,0:0:0:0:
448,192,75919,1,0,0:0:0:0:
320,192,75981,1,0,0:0:0:0:
64,192,75981,1,0,0:0:0:0:
192,192,76044,1,0,0:0:0:0:
320,192,76106,1,0,0:0:0:0:
448,192,76106,1,0,0:0:0:0:
192,192,76169,1,0,0:0:0:0:
64,192,76231,1,0,0:0:0:0:
448,192,76231,1,0,0:0:0:0:
320,192,76293,1,0,0:0:0:0:
192,192,76356,1,0,0:0:0:0:
64,192,76356,1,0,0:0:0:0:
448,192,76418,1,0,0:0:0:0:
320,192,76480,1,0,0:0:0:0:
64,192,76480,1,0,0:0:0:0:
192,192,76543,1,0,0:0:0:0:
320,192,76605,1,0,0:0:0:0:
448,192,76605,1,0,0:0:0:0:
192,192,76667,1,0,0:0:0:0:
64,192,76730,1,0,0:0:0:0:
448,192,76730,1,0,0:0:0:0:
320,192,76792,1,0,0:0:0:0:
192,192,76792,1,0,0:0:0:0:
64,192,76855,1,0,0:0:0:0:
448,192,76855,1,0,0:0:0:0:
320,192,76917,1,0,0:0:0:0:
192,192,76979,1,0,0:0:0:0:
64,192,76979,1,0,0:0:0:0:
320,192,77042,1,0,0:0:0:0:
448,192,77042,1,0,0:0:0:0:
192,192,77104,1,0,0:0:0:0:
64,192,77104,1,0,0:0:0:0:
320,192,77166,1,0,0:0:0:0:
448,192,77229,1,0,0:0:0:0:
64,192,77229,1,0,0:0:0:0:
192,192,77291,1,0,0:0:0:0:
320,192,77291,1,0,0:0:0:0:
64,192,77354,1,0,0:0:0:0:
448,192,77354,1,0,0:0:0:0:
192,192,77416,1,0,0:0:0:0:
320,192,77478,1,0,0:0:0:0:
448,192,77478,1,0,0:0:0:0:
192,192,77541,1,0,0:0:0:0:
64,192,77541,1,0,0:0:0:0:
320,192,77603,1,0,0:0:0:0:
448,192,77603,1,0,0:0:0:0:
64,192,77665,1,0,0:0:0:0:
320,192,77728,1,0,0:0:0:0:
448,192,77728,1,0,0:0:0:0:
192,192,77790,1,0,0:0:0:0:
64,192,77852,1,0,0:0:0:0:
320,192,77852,1,0,0:0:0:0:
448,192,77852,1,0,0:0:0:0:
64,192,77977,1,0,0:0:0:0:
192,192,78102,1,0,0:0:0:0:
320,192,78102,1,0,0:0:0:0:
448,192,78102,1,0,0:0:0:0:
320,192,78227,1,0,0:0:0:0:
448,192,78351,1,0,0:0:0:0:
64,192,78351,1,0,0:0:0:0:
448,192,78476,1,0,0:0:0:0:
192,192,78601,1,0,0:0:0:0:
320,192,78601,1,0,0:0:0:0:
64,192,78601,1,0,0:0:0:0:
192,192,78726,1,0,0:0:0:0:
320,192,78850,1,0,0:0:0:0:
64,192,78850,1,0,0:0:0:0:
64,192,78975,1,0,0:0:0:0:
320,192,79100,1,0,0:0:0:0:
448,192,79100,1,0,0:0:0:0:
192,192,79100,1,0,0:0:0:0:
192,192,79225,1,0,0:0:0:0:
320,192,79349,1,0,0:0:0:0:
64,192,79349,1,0,0:0:0:0:
320,192,79474,1,0,0:0:0:0:
448,192,79599,1,0,0:0:0:0:
192,192,79599,1,0,0:0:0:0:
64,192,79599,1,0,0:0:0:0:
448,192,79724,1,0,0:0:0:0:
320,192,79848,1,0,0:0:0:0:
192,192,79848,1,0,0:0:0:0:
320,192,79973,1,0,0:0:0:0:
448,192,80098,1,0,0:0:0:0:
192,192,80098,1,0,0:0:0:0:
64,192,80098,1,0,0:0:0:0:
192,192,80223,1,0,0:0:0:0:
64,192,80347,1,0,0:0:0:0:
320,192,80347,1,0,0:0:0:0:
64,192,80472,1,0,0:0:0:0:
192,192,80597,1,0,0:0:0:0:
320,192,80597,1,0,0:0:0:0:
448,192,80597,1,0,0:0:0:0:
320,192,80722,1,0,0:0:0:0:
192,192,80846,1,0,0:0:0:0:
64,192,80846,1,0,0:0:0:0:
192,192,80971,1,0,0:0:0:0:
64,192,81096,1,0,0:0:0:0:
320,192,81096,1,0,0:0:0:0:
448,192,81096,1,0,0:0:0:0:
448,192,81220,1,0,0:0:0:0:
192,192,81220,1,0,0:0:0:0:
320,192,81345,1,0,0:0:0:0:
64,192,81345,1,0,0:0:0:0:
192,192,81470,1,0,0:0:0:0:
64,192,81470,1,0,0:0:0:0:
448,192,81470,1,0,0:0:0:0:
320,192,81595,1,0,0:0:0:0:
192,192,81595,1,0,0:0:0:0:
64,192,81719,1,0,0:0:0:0:
320,192,81719,1,0,0:0:0:0:
448,192,81719,1,0,0:0:0:0:
192,192,81844,1,0,0:0:0:0:
64,192,81844,1,0,0:0:0:0:
192,192,81969,1,0,0:0:0:0:
64,192,82094,1,0,0:0:0:0:
320,192,82094,1,0,0:0:0:0:
448,192,82094,1,0,0:0:0:0:
320,192,82218,1,0,0:0:0:0:
448,192,82343,1,0,0:0:0:0:
192,192,82343,1,0,0:0:0:0:
448,192,82468,1,0,0:0:0:0:
320,192,82593,1,0,0:0:0:0:
192,192,82593,1,0,0:0:0:0:
64,192,82593,1,0,0:0:0:0:
64,192,82717,1,0,0:0:0:0:
320,192,82842,1,0,0:0:0:0:
448,192,82842,1,0,0:0:0:0:
320,192,82967,1,0,0:0:0:0:
448,192,83092,1,0,0:0:0:0:
192,192,83092,1,0,0:0:0:0:
64,192,83092,1,0,0:0:0:0:
192,192,83216,1,0,0:0:0:0:
64,192,83341,1,0,0:0:0:0:
320,192,83341,1,0,0:0:0:0:
64,192,83466,1,0,0:0:0:0:
192,192,83591,1,0,0:0:0:0:
320,192,83591,1,0,0:0:0:0:
448,192,83591,1,0,0:0:0:0:
448,192,83715,1,0,0:0:0:0:
320,192,83840,1,0,0:0:0:0:
192,192,83840,1,0,0:0:0:0:
64,192,83840,1,0,0:0:0:0:
192,192,83965,1,0,0:0:0:0:
64,192,84090,1,0,0:0:0:0:
320,192,84090,1,0,0:0:0:0:
448,192,84090,1,0,0:0:0:0:
320,192,84214,1,0,0:0:0:0:
192,192,84339,1,0,0:0:0:0:
64,192,84339,1,0,0:0:0:0:
320,192,84464,1,0,0:0:0:0:
448,192,84464,1,0,0:0:0:0:
192,192,84526,1,0,0:0:0:0:
64,192,84526,1,0,0:0:0:0:
320,192,84588,1,0,0:0:0:0:
448,192,84588,1,0,0:0:0:0:
192,192,84651,1,0,0:0:0:0:
64,192,84651,1,0,0:0:0:0:
448,192,84713,1,0,0:0:0:0:
320,192,84776,1,0,0:0:0:0:
192,192,84776,1,0,0:0:0:0:
64,192,84838,1,0,0:0:0:0:
320,192,84900,1,0,0:0:0:0:
448,192,84900,1,0,0:0:0:0:
64,192,84963,1,0,0:0:0:0:
192,192,84963,1,0,0:0:0:0:
320,192,85025,1,0,0:0:0:0:
448,192,85025,1,0,0:0:0:0:
64,192,85087,1,0,0:0:0:0:
320,192,85150,1,0,0:0:0:0:
192,192,85150,1,0,0:0:0:0:
448,192,85212,1,0,0:0:0:0:
64,192,85275,1,0,0:0:0:0:
320,192,85337,1,0,0:0:0:0:
448,192,85337,1,0,0:0:0:0:
192,192,85399,1,0,0:0:0:0:
64,192,85399,1,0,0:0:0:0:
448,192,85462,1,0,0:0:0:0:
320,192,85524,1,0,0:0:0:0:
192,192,85586,1,0,0:0:0:0:
64,192,85586,1,0,0:0:0:0:
320,192,85649,1,0,0:0:0:0:
448,192,85649,1,0,0:0:0:0:
64,192,85711,1,0,0:0:0:0:
192,192,85773,1,0,0:0:0:0:
64,192,85836,1,0,0:0:0:0:
448,192,85836,1,0,0:0:0:0:
320,192,85836,128,0,85961:0:0:0:0:
192,192,85961,128,0,86085:0:0:0:0:
448,192,86085,128,0,86210:0:0:0:0:
64,192,86085,1,0,0:0:0:0:
320,192,86085,1,0,0:0:0:0:
64,192,86210,128,0,86335:0:0:0:0:
320,192,86335,128,0,86460:0:0:0:0:
448,192,86335,1,0,0:0:0:0:
192,192,86460,128,0,86584:0:0:0:0:
448,192,86584,128,0,86709:0:0:0:0:
320,192,86584,1,0,0:0:0:0:
64,192,86584,1,0,0:0:0:0:
64,192,86709,128,0,86834:0:0:0:0:
320,192,86834,128,0,86959:0:0:0:0:
448,192,86834,1,0,0:0:0:0:
192,192,86959,128,0,87083:0:0:0:0:
448,192,87083,128,0,87208:0:0:0:0:
320,192,87083,1,0,0:0:0:0:
64,192,87083,1,0,0:0:0:0:
64,192,87208,128,0,87333:0:0:0:0:
320,192,87333,128,0,87457:0:0:0:0:
448,192,87333,1,0,0:0:0:0:
192,192,87457,128,0,87582:0:0:0:0:
448,192,87582,128,0,87707:0:0:0:0:
320,192,87582,1,0,0:0:0:0:
64,192,87582,1,0,0:0:0:0:
64,192,87707,128,0,87832:0:0:0:0:
320,192,87832,128,0,87956:0:0:0:0:
448,192,87832,1,0,0:0:0:0:
192,192,87956,128,0,88081:0:0:0:0:
448,192,88081,128,0,88206:0:0:0:0:
320,192,88081,1,0,0:0:0:0:
64,192,88081,1,0,0:0:0:0:
64,192,88206,128,0,88331:0:0:0:0:
320,192,88331,128,0,88455:0:0:0:0:
448,192,88331,1,0,0:0:0:0:
192,192,88455,128,0,88580:0:0:0:0:
448,192,88580,1,0,0:0:0:0:
64,192,88643,1,0,0:0:0:0:
448,192,88705,1,0,0:0:0:0:
64,192,88767,1,0,0:0:0:0:
320,192,88830,1,0,0:0:0:0:
448,192,88830,1,0,0:0:0:0:
320,192,89017,1,0,0:0:0:0:
192,192,89017,1,0,0:0:0:0:
192,192,89204,1,0,0:0:0:0:
64,192,89204,1,0,0:0:0:0:
320,192,89453,1,0,0:0:0:0:
448,192,89453,1,0,0:0:0:0:
192,192,89516,1,0,0:0:0:0:
64,192,89578,1,0,0:0:0:0:
320,192,89578,1,0,0:0:0:0:
448,192,89578,1,0,0:0:0:0:
192,192,89640,1,0,0:0:0:0:
320,192,89703,1,0,0:0:0:0:
448,192,89765,1,0,0:0:0:0:
320,192,89828,1,0,0:0:0:0:
192,192,89828,1,0,0:0:0:0:
64,192,89828,1,0,0:0:0:0:
448,192,89890,1,0,0:0:0:0:
192,192,89952,1,0,0:0:0:0:
64,192,89952,1,0,0:0:0:0:
320,192,90015,1,0,0:0:0:0:
192,192,90077,1,0,0:0:0:0:
64,192,90077,1,0,0:0:0:0:
448,192,90139,1,0,0:0:0:0:
320,192,90202,1,0,0:0:0:0:
192,192,90202,1,0,0:0:0:0:
64,192,90264,1,0,0:0:0:0:
320,192,90327,1,0,0:0:0:0:
448,192,90327,1,0,0:0:0:0:
192,192,90389,1,0,0:0:0:0:
320,192,90451,1,0,0:0:0:0:
448,192,90451,1,0,0:0:0:0:
64,192,90514,1,0,0:0:0:0:
192,192,90576,1,0,0:0:0:0:
320,192,90576,1,0,0:0:0:0:
448,192,90638,1,0,0:0:0:0:
192,192,90701,1,0,0:0:0:0:
64,192,90701,1,0,0:0:0:0:
320,192,90763,1,0,0:0:0:0:
192,192,90825,1,0,0:0:0:0:
64,192,90825,1,0,0:0:0:0:
448,192,90888,1,0,0:0:0:0:
320,192,90950,1,0,0:0:0:0:
192,192,90950,1,0,0:0:0:0:
64,192,91013,1,0,0:0:0:0:
320,192,91075,1,0,0:0:0:0:
448,192,91075,1,0,0:0:0:0:
192,192,91137,1,0,0:0:0:0:
64,192,91200,1,0,0:0:0:0:
448,192,91200,1,0,0:0:0:0:
320,192,91262,1,0,0:0:0:0:
192,192,91324,1,0,0:0:0:0:
64,192,91324,1,0,0:0:0:0:
448,192,91387,1,0,0:0:0:0:
320,192,91449,1,0,0:0:0:0:
64,192,91449,1,0,0:0:0:0:
192,192,91512,1,0,0:0:0:0:
320,192,91574,1,0,0:0:0:0:
448,192,91574,1,0,0:0:0:0:
64,192,91636,1,0,0:0:0:0:
192,192,91699,1,0,0:0:0:0:
448,192,91699,1,0,0:0:0:0:
320,192,91761,1,0,0:0:0:0:
192,192,91823,1,0,0:0:0:0:
64,192,91823,1,0,0:0:0:0:
448,192,91886,1,0,0:0:0:0:
320,192,91948,1,0,0:0:0:0:
192,192,91948,1,0,0:0:0:0:
64,192,92010,1,0,0:0:0:0:
320,192,92073,1,0,0:0:0:0:
448,192,92073,1,0,0:0:0:0:
192,192,92135,1,0,0:0:0:0:
64,192,92198,1,0,0:0:0:0:
448,192,92198,1,0,0:0:0:0:
320,192,92260,1,0,0:0:0:0:
192,192,92322,1,0,0:0:0:0:
64,192,92322,1,0,0:0:0:0:
320,192,92385,1,0,0:0:0:0:
448,192,92447,1,0,0:0:0:0:
64,192,92447,1,0,0:0:0:0:
192,192,92509,1,0,0:0:0:0:
320,192,92572,1,0,0:0:0:0:
448,192,92572,1,0,0:0:0:0:
64,192,92634,1,0,0:0:0:0:
192,192,92697,1,0,0:0:0:0:
320,192,92697,1,0,0:0:0:0:
448,192,92759,1,0,0:0:0:0:
192,192,92821,1,0,0:0:0:0:
64,192,92821,1,0,0:0:0:0:
448,192,92884,1,0,0:0:0:0:
320,192,92946,1,0,0:0:0:0:
64,192,92946,1,0,0:0:0:0:
192,192,93008,1,0,0:0:0:0:
320,192,93071,1,0,0:0:0:0:
448,192,93071,1,0,0:0:0:0:
64,192,93133,1,0,0:0:0:0:
192,192,93196,1,0,0:0:0:0:
448,192,93196,1,0,0:0:0:0:
320,192,93258,1,0,0:0:0:0:
192,192,93320,1,0,0:0:0:0:
64,192,93320,1,0,0:0:0:0:
320,192,93383,1,0,0:0:0:0:
448,192,93445,1,0,0:0:0:0:
64,192,93445,1,0,0:0:0:0:
192,192,93445,1,0,0:0:0:0:
64,192,93570,1,0,0:0:0:0:
320,192,93570,1,0,0:0:0:0:
448,192,93570,1,0,0:0:0:0:
192,192,93694,1,0,0:0:0:0:
64,192,93694,1,0,0:0:0:0:
320,192,93757,1,0,0:0:0:0:
448,192,93757,1,0,0:0:0:0:
192,192,93819,1,0,0:0:0:0:
64,192,93819,1,0,0:0:0:0:
320,192,93882,1,0,0:0:0:0:
192,192,93944,1,0,0:0:0:0:
64,192,93944,1,0,0:0:0:0:
448,192,94006,1,0,0:0:0:0:
320,192,94069,1,0,0:0:0:0:
192,192,94069,1,0,0:0:0:0:
64,192,94131,1,0,0:0:0:0:
320,192,94193,1,0,0:0:0:0:
448,192,94193,1,0,0:0:0:0:
192,192,94256,1,0,0:0:0:0:
320,192,94318,1,0,0:0:0:0:
448,192,94318,1,0,0:0:0:0:
64,192,94381,1,0,0:0:0:0:
192,192,94443,1,0,0:0:0:0:
320,192,94443,1,0,0:0:0:0:
448,192,94505,1,0,0:0:0:0:
64,192,94568,1,0,0:0:0:0:
192,192,94568,1,0,0:0:0:0:
320,192,94630,1,0,0:0:0:0:
192,192,94692,1,0,0:0:0:0:
64,192,94692,1,0,0:0:0:0:
448,192,94755,1,0,0:0:0:0:
320,192,94817,1,0,0:0:0:0:
192,192,94817,1,0,0:0:0:0:
64,192,94880,1,0,0:0:0:0:
320,192,94942,1,0,0:0:0:0:
448,192,94942,1,0,0:0:0:0:
192,192,95004,1,0,0:0:0:0:
320,192,95067,1,0,0:0:0:0:
448,192,95067,1,0,0:0:0:0:
64,192,95129,1,0,0:0:0:0:
192,192,95191,1,0,0:0:0:0:
320,192,95191,1,0,0:0:0:0:
448,192,95254,1,0,0:0:0:0:
192,192,95316,1,0,0:0:0:0:
64,192,95316,1,0,0:0:0:0:
320,192,95378,1,0,0:0:0:0:
448,192,95441,1,0,0:0:0:0:
64,192,95441,1,0,0:0:0:0:
192,192,95503,1,0,0:0:0:0:
320,192,95566,1,0,0:0:0:0:
448,192,95566,1,0,0:0:0:0:
64,192,95628,1,0,0:0:0:0:
192,192,95690,1,0,0:0:0:0:
448,192,95690,1,0,0:0:0:0:
320,192,95753,1,0,0:0:0:0:
192,192,95815,1,0,0:0:0:0:
64,192,95815,1,0,0:0:0:0:
448,192,95877,1,0,0:0:0:0:
320,192,95940,1,0,0:0:0:0:
192,192,96002,1,0,0:0:0:0:
64,192,96065,1,0,0:0:0:0:
448,192,96065,1,0,0:0:0:0:
320,192,96065,1,0,0:0:0:0:
192,192,96127,1,0,0:0:0:0:
64,192,96189,1,0,0:0:0:0:
320,192,96252,1,0,0:0:0:0:
448,192,96314,1,0,0:0:0:0:
192,192,96314,1,0,0:0:0:0:
64,192,96376,1,0,0:0:0:0:
320,192,96439,1,0,0:0:0:0:
448,192,96501,1,0,0:0:0:0:
320,192,96564,1,0,0:0:0:0:
192,192,96564,1,0,0:0:0:0:
64,192,96564,1,0,0:0:0:0:
448,192,96626,1,0,0:0:0:0:
192,192,96688,1,0,0:0:0:0:
64,192,96688,1,0,0:0:0:0:
320,192,96751,1,0,0:0:0:0:
448,192,96813,1,0,0:0:0:0:
64,192,96875,1,0,0:0:0:0:
320,192,96938,1,0,0:0:0:0:
448,192,96938,1,0,0:0:0:0:
64,192,97000,1,0,0:0:0:0:
192,192,97000,1,0,0:0:0:0:
320,192,97062,1,0,0:0:0:0:
448,192,97062,1,0,0:0:0:0:
192,192,97125,1,0,0:0:0:0:
64,192,97125,1,0,0:0:0:0:
320,192,97187,1,0,0:0:0:0:
448,192,97187,1,0,0:0:0:0:
192,192,97250,1,0,0:0:0:0:
64,192,97312,1,0,0:0:0:0:
448,192,97312,1,0,0:0:0:0:
320,192,97374,1,0,0:0:0:0:
192,192,97437,1,0,0:0:0:0:
64,192,97437,1,0,0:0:0:0:
320,192,97499,1,0,0:0:0:0:
448,192,97499,1,0,0:0:0:0:
192,192,97561,1,0,0:0:0:0:
64,192,97561,1,0,0:0:0:0:
320,192,97624,1,0,0:0:0:0:
448,192,97624,1,0,0:0:0:0:
192,192,97686,1,0,0:0:0:0:
64,192,97686,1,0,0:0:0:0:
320,192,97749,1,0,0:0:0:0:
448,192,97749,1,0,0:0:0:0:
192,192,97811,1,0,0:0:0:0:
64,192,97811,1,0,0:0:0:0:
448,192,97873,1,0,0:0:0:0:
320,192,97936,1,0,0:0:0:0:
192,192,97936,1,0,0:0:0:0:
64,192,97998,1,0,0:0:0:0:
320,192,98060,1,0,0:0:0:0:
448,192,98060,1,0,0:0:0:0:
192,192,98123,1,0,0:0:0:0:
64,192,98185,1,0,0:0:0:0:
320,192,98185,1,0,0:0:0:0:
448,192,98248,1,0,0:0:0:0:
192,192,98310,1,0,0:0:0:0:
64,192,98310,1,0,0:0:0:0:
320,192,98372,1,0,0:0:0:0:
448,192,98435,1,0,0:0:0:0:
192,192,98435,1,0,0:0:0:0:
64,192,98497,1,0,0:0:0:0:
320,192,98559,1,0,0:0:0:0:
448,192,98559,1,0,0:0:0:0:
192,192,98622,1,0,0:0:0:0:
64,192,98684,1,0,0:0:0:0:
448,192,98684,1,0,0:0:0:0:
320,192,98746,1,0,0:0:0:0:
192,192,98809,1,0,0:0:0:0:
64,192,98809,1,0,0:0:0:0:
320,192,98871,1,0,0:0:0:0:
448,192,98934,1,0,0:0:0:0:
64,192,98934,1,0,0:0:0:0:
192,192,98996,1,0,0:0:0:0:
320,192,99058,1,0,0:0:0:0:
448,192,99058,1,0,0:0:0:0:
64,192,99121,1,0,0:0:0:0:
192,192,99183,1,0,0:0:0:0:
320,192,99183,1,0,0:0:0:0:
448,192,99245,1,0,0:0:0:0:
192,192,99308,1,0,0:0:0:0:
64,192,99308,1,0,0:0:0:0:
448,192,99370,1,0,0:0:0:0:
320,192,99433,1,0,0:0:0:0:
64,192,99433,1,0,0:0:0:0:
192,192,99495,1,0,0:0:0:0:
320,192,99557,1,0,0:0:0:0:
448,192,99557,1,0,0:0:0:0:
64,192,99620,1,0,0:0:0:0:
192,192,99682,1,0,0:0:0:0:
448,192,99682,1,0,0:0:0:0:
320,192,99744,1,0,0:0:0:0:
192,192,99807,1,0,0:0:0:0:
64,192,99807,1,0,0:0:0:0:
320,192,99869,1,0,0:0:0:0:
448,192,99931,1,0,0:0:0:0:
64,192,99994,1,0,0:0:0:0:
192,192,100056,1,0,0:0:0:0:
448,192,100056,1,0,0:0:0:0:
320,192,100119,1,0,0:0:0:0:
192,192,100181,1,0,0:0:0:0:
64,192,100181,1,0,0:0:0:0:
448,192,100243,1,0,0:0:0:0:
320,192,100306,1,0,0:0:0:0:
192,192,100306,1,0,0:0:0:0:
64,192,100368,1,0,0:0:0:0:
448,192,100430,1,0,0:0:0:0:
320,192,100430,1,0,0:0:0:0:
192,192,100493,1,0,0:0:0:0:
64,192,100555,1,0,0:0:0:0:
448,192,100555,1,0,0:0:0:0:
320,192,100618,1,0,0:0:0:0:
192,192,100680,1,0,0:0:0:0:
64,192,100680,1,0,0:0:0:0:
320,192,100742,1,0,0:0:0:0:
448,192,100805,1,0,0:0:0:0:
192,192,100805,1,0,0:0:0:0:
64,192,100867,1,0,0:0:0:0:
320,192,100929,1,0,0:0:0:0:
448,192,100929,1,0,0:0:0:0:
192,192,100992,1,0,0:0:0:0:
64,192,101054,1,0,0:0:0:0:
320,192,101054,1,0,0:0:0:0:
448,192,101117,1,0,0:0:0:0:
192,192,101179,1,0,0:0:0:0:
64,192,101179,1,0,0:0:0:0:
320,192,101241,1,0,0:0:0:0:
448,192,101304,1,0,0:0:0:0:
64,192,101304,1,0,0:0:0:0:
192,192,101366,1,0,0:0:0:0:
320,192,101428,1,0,0:0:0:0:
448,192,101428,1,0,0:0:0:0:
192,192,101491,1,0,0:0:0:0:
64,192,101491,1,0,0:0:0:0:
320,192,101553,1,0,0:0:0:0:
448,192,101553,1,0,0:0:0:0:
192,192,101615,1,0,0:0:0:0:
64,192,101678,1,0,0:0:0:0:
448,192,101678,1,0,0:0:0:0:
320,192,101740,1,0,0:0:0:0:
192,192,101740,1,0,0:0:0:0:
64,192,101803,1,0,0:0:0:0:
448,192,101803,1,0,0:0:0:0:
320,192,101865,1,0,0:0:0:0:
192,192,101927,1,0,0:0:0:0:
64,192,101927,1,0,0:0:0:0:
448,192,101990,1,0,0:0:0:0:
320,192,102052,1,0,0:0:0:0:
64,192,102052,1,0,0:0:0:0:
192,192,102114,1,0,0:0:0:0:
320,192,102177,1,0,0:0:0:0:
448,192,102177,1,0,0:0:0:0:
64,192,102239,1,0,0:0:0:0:
192,192,102302,1,0,0:0:0:0:
448,192,102302,1,0,0:0:0:0:
320,192,102364,1,0,0:0:0:0:
192,192,102426,1,0,0:0:0:0:
64,192,102426,1,0,0:0:0:0:
320,192,102489,1,0,0:0:0:0:
448,192,102551,1,0,0:0:0:0:
64,192,102551,1,0,0:0:0:0:
192,192,102613,1,0,0:0:0:0:
320,192,102676,1,0,0:0:0:0:
448,192,102676,1,0,0:0:0:0:
192,192,102738,1,0,0:0:0:0:
64,192,102801,1,0,0:0:0:0:
448,192,102801,1,0,0:0:0:0:
320,192,102863,1,0,0:0:0:0:
192,192,102925,1,0,0:0:0:0:
64,192,102925,1,0,0:0:0:0:
320,192,102988,1,0,0:0:0:0:
448,192,103050,1,0,0:0:0:0:
192,192,103050,1,0,0:0:0:0:
64,192,103112,1,0,0:0:0:0:
320,192,103175,1,0,0:0:0:0:
448,192,103175,1,0,0:0:0:0:
192,192,103237,1,0,0:0:0:0:
64,192,103299,1,0,0:0:0:0:
320,192,103299,1,0,0:0:0:0:
448,192,103362,1,0,0:0:0:0:
192,192,103424,1,0,0:0:0:0:
64,192,103424,1,0,0:0:0:0:
320,192,103487,1,0,0:0:0:0:
448,192,103549,1,0,0:0:0:0:
64,192,103549,1,0,0:0:0:0:
192,192,103611,1,0,0:0:0:0:
320,192,103674,1,0,0:0:0:0:
448,192,103674,1,0,0:0:0:0:
192,192,103736,1,0,0:0:0:0:
64,192,103798,1,0,0:0:0:0:
448,192,103798,1,0,0:0:0:0:
320,192,103798,1,0,0:0:0:0:
192,192,103861,1,0,0:0:0:0:
64,192,103923,1,0,0:0:0:0:
320,192,103923,1,0,0:0:0:0:
448,192,103923,1,0,0:0:0:0:
192,192,103986,1,0,0:0:0:0:
448,192,104048,1,0,0:0:0:0:
320,192,104110,1,0,0:0:0:0:
448,192,104173,1,0,0:0:0:0:
192,192,104173,1,0,0:0:0:0:
64,192,104173,1,0,0:0:0:0:
320,192,104235,1,0,0:0:0:0:
448,192,104297,1,0,0:0:0:0:
64,192,104297,1,0,0:0:0:0:
192,192,104297,1,0,0:0:0:0:
320,192,104360,1,0,0:0:0:0:
192,192,104422,1,0,0:0:0:0:
64,192,104485,1,0,0:0:0:0:
192,192,104547,1,0,0:0:0:0:
320,192,104547,1,0,0:0:0:0:
448,192,104547,1,0,0:0:0:0:
64,192,104609,1,0,0:0:0:0:
192,192,104672,1,0,0:0:0:0:
320,192,104672,1,0,0:0:0:0:
448,192,104672,1,0,0:0:0:0:
64,192,104734,1,0,0:0:0:0:
320,192,104796,1,0,0:0:0:0:
448,192,104859,1,0,0:0:0:0:
320,192,104921,1,0,0:0:0:0:
192,192,104921,1,0,0:0:0:0:
64,192,104921,1,0,0:0:0:0:
448,192,104983,1,0,0:0:0:0:
320,192,105046,1,0,0:0:0:0:
192,192,105046,1,0,0:0:0:0:
64,192,105046,1,0,0:0:0:0:
448,192,105108,1,0,0:0:0:0:
320,192,105171,1,0,0:0:0:0:
192,192,105233,1,0,0:0:0:0:
64,192,105295,1,0,0:0:0:0:
320,192,105295,1,0,0:0:0:0:
448,192,105295,1,0,0:0:0:0:
192,192,105358,1,0,0:0:0:0:
64,192,105420,1,0,0:0:0:0:
320,192,105482,1,0,0:0:0:0:
448,192,105545,1,0,0:0:0:0:
192,192,105545,1,0,0:0:0:0:
64,192,105545,1,0,0:0:0:0:
320,192,105607,1,0,0:0:0:0:
192,192,105670,1,0,0:0:0:0:
64,192,105732,1,0,0:0:0:0:
192,192,105794,1,0,0:0:0:0:
320,192,105794,1,0,0:0:0:0:
448,192,105794,1,0,0:0:0:0:
64,192,105857,1,0,0:0:0:0:
320,192,105919,1,0,0:0:0:0:
448,192,105919,1,0,0:0:0:0:
192,192,105981,1,0,0:0:0:0:
320,192,106044,1,0,0:0:0:0:
448,192,106044,1,0,0:0:0:0:
64,192,106106,1,0,0:0:0:0:
192,192,106169,1,0,0:0:0:0:
320,192,106169,1,0,0:0:0:0:
448,192,106231,1,0,0:0:0:0:
192,192,106293,1,0,0:0:0:0:
64,192,106293,1,0,0:0:0:0:
320,192,106356,1,0,0:0:0:0:
192,192,106418,1,0,0:0:0:0:
64,192,106418,1,0,0:0:0:0:
448,192,106480,1,0,0:0:0:0:
320,192,106543,1,0,0:0:0:0:
192,192,106543,1,0,0:0:0:0:
64,192,106605,1,0,0:0:0:0:
320,192,106667,1,0,0:0:0:0:
448,192,106667,1,0,0:0:0:0:
192,192,106730,1,0,0:0:0:0:
64,192,106792,1,0,0:0:0:0:
448,192,106792,1,0,0:0:0:0:
320,192,106855,1,0,0:0:0:0:
192,192,106917,1,0,0:0:0:0:
64,192,106917,1,0,0:0:0:0:
320,192,106979,1,0,0:0:0:0:
448,192,106979,1,0,0:0:0:0:
192,192,107042,1,0,0:0:0:0:
64,192,107042,1,0,0:0:0:0:
320,192,107104,1,0,0:0:0:0:
448,192,107104,1,0,0:0:0:0:
192,192,107166,1,0,0:0:0:0:
64,192,107166,1,0,0:0:0:0:
320,192,107229,1,0,0:0:0:0:
448,192,107291,1,0,0:0:0:0:
320,192,107354,1,0,0:0:0:0:
192,192,107354,1,0,0:0:0:0:
64,192,107416,1,0,0:0:0:0:
320,192,107478,1,0,0:0:0:0:
448,192,107478,1,0,0:0:0:0:
192,192,107541,1,0,0:0:0:0:
64,192,107541,1,0,0:0:0:0:
448,192,107603,1,0,0:0:0:0:
320,192,107603,1,0,0:0:0:0:
192,192,107665,1,0,0:0:0:0:
64,192,107665,1,0,0:0:0:0:
320,192,107728,1,0,0:0:0:0:
448,192,107728,1,0,0:0:0:0:
64,192,107790,1,0,0:0:0:0:
192,192,107790,1,0,0:0:0:0:
448,192,107852,1,0,0:0:0:0:
320,192,107915,1,0,0:0:0:0:
192,192,107915,1,0,0:0:0:0:
64,192,107977,1,0,0:0:0:0:
448,192,108040,1,0,0:0:0:0:
320,192,108040,1,0,0:0:0:0:
64,192,108102,1,0,0:0:0:0:
192,192,108164,1,0,0:0:0:0:
320,192,108164,1,0,0:0:0:0:
448,192,108227,1,0,0:0:0:0:
64,192,108289,1,0,0:0:0:0:
192,192,108289,1,0,0:0:0:0:
448,192,108351,1,0,0:0:0:0:
320,192,108414,1,0,0:0:0:0:
192,192,108414,1,0,0:0:0:0:
64,192,108476,1,0,0:0:0:0:
448,192,108539,1,0,0:0:0:0:
320,192,108539,1,0,0:0:0:0:
64,192,108601,1,0,0:0:0:0:
192,192,108663,1,0,0:0:0:0:
320,192,108663,1,0,0:0:0:0:
448,192,108726,1,0,0:0:0:0:
64,192,108788,1,0,0:0:0:0:
192,192,108788,1,0,0:0:0:0:
320,192,108788,1,0,0:0:0:0:
448,192,108850,1,0,0:0:0:0:
192,192,108913,1,0,0:0:0:0:
64,192,108913,1,0,0:0:0:0:
320,192,109162,1,0,0:0:0:0:
448,192,109162,1,0,0:0:0:0:
320,192,109412,1,0,0:0:0:0:
448,192,109412,1,0,0:0:0:0:
192,192,109474,1,0,0:0:0:0:
64,192,109536,1,0,0:0:0:0:
320,192,109536,1,0,0:0:0:0:
448,192,109536,1,0,0:0:0:0:
192,192,109786,1,0,0:0:0:0:
320,192,109786,1,0,0:0:0:0:
448,192,109786,1,0,0:0:0:0:
64,192,109786,1,0,0:0:0:0:
192,192,110035,1,0,0:0:0:0:
320,192,110160,1,0,0:0:0:0:
320,192,110285,1,0,0:0:0:0:
448,192,110410,1,0,0:0:0:0:
64,192,110534,1,0,0:0:0:0:
320,192,110659,1,0,0:0:0:0:
192,192,110784,1,0,0:0:0:0:
64,192,110784,1,0,0:0:0:0:
448,192,110784,1,0,0:0:0:0:
192,192,110909,1,0,0:0:0:0:
448,192,111033,1,0,0:0:0:0:
320,192,111158,1,0,0:0:0:0:
192,192,111283,1,0,0:0:0:0:
64,192,111408,1,0,0:0:0:0:
320,192,111532,1,0,0:0:0:0:
192,192,111657,1,0,0:0:0:0:
64,192,111782,1,0,0:0:0:0:
320,192,111782,1,0,0:0:0:0:
448,192,111782,1,0,0:0:0:0:
320,192,112031,1,0,0:0:0:0:
320,192,112156,1,0,0:0:0:0:
192,192,112281,1,0,0:0:0:0:
64,192,112406,1,0,0:0:0:0:
320,192,112530,1,0,0:0:0:0:
448,192,112655,1,0,0:0:0:0:
320,192,112780,1,0,0:0:0:0:
192,192,112780,1,0,0:0:0:0:
64,192,112780,1,0,0:0:0:0:
192,192,112904,1,0,0:0:0:0:
448,192,113029,1,0,0:0:0:0:
64,192,113154,1,0,0:0:0:0:
192,192,113279,1,0,0:0:0:0:
320,192,113403,1,0,0:0:0:0:
448,192,113528,1,0,0:0:0:0:
64,192,113653,1,0,0:0:0:0:
192,192,113653,1,0,0:0:0:0:
64,192,113778,1,0,0:0:0:0:
320,192,113778,1,0,0:0:0:0:
448,192,113778,1,0,0:0:0:0:
192,192,113840,1,0,0:0:0:0:
320,192,113902,1,0,0:0:0:0:
448,192,113965,1,0,0:0:0:0:
192,192,114027,1,0,0:0:0:0:
64,192,114027,1,0,0:0:0:0:
320,192,114090,1,0,0:0:0:0:
192,192,114152,1,0,0:0:0:0:
448,192,114214,1,0,0:0:0:0:
320,192,114277,1,0,0:0:0:0:
64,192,114277,1,0,0:0:0:0:
192,192,114339,1,0,0:0:0:0:
320,192,114401,1,0,0:0:0:0:
64,192,114464,1,0,0:0:0:0:
320,192,114526,1,0,0:0:0:0:
448,192,114526,1,0,0:0:0:0:
192,192,114588,1,0,0:0:0:0:
64,192,114651,1,0,0:0:0:0:
448,192,114713,1,0,0:0:0:0:
320,192,114776,1,0,0:0:0:0:
192,192,114776,1,0,0:0:0:0:
64,192,114838,1,0,0:0:0:0:
448,192,114900,1,0,0:0:0:0:
320,192,114963,1,0,0:0:0:0:
192,192,115025,1,0,0:0:0:0:
64,192,115025,1,0,0:0:0:0:
320,192,115087,1,0,0:0:0:0:
448,192,115150,1,0,0:0:0:0:
64,192,115212,1,0,0:0:0:0:
320,192,115275,1,0,0:0:0:0:
192,192,115275,1,0,0:0:0:0:
448,192,115337,1,0,0:0:0:0:
64,192,115399,1,0,0:0:0:0:
192,192,115462,1,0,0:0:0:0:
320,192,115524,1,0,0:0:0:0:
448,192,115524,1,0,0:0:0:0:
192,192,115586,1,0,0:0:0:0:
64,192,115649,1,0,0:0:0:0:
320,192,115711,1,0,0:0:0:0:
448,192,115773,1,0,0:0:0:0:
192,192,115773,1,0,0:0:0:0:
64,192,115773,1,0,0:0:0:0:
64,192,116272,1,0,0:0:0:0:
448,192,116272,1,0,0:0:0:0:
320,192,116335,1,0,0:0:0:0:
192,192,116397,1,0,0:0:0:0:
64,192,116397,1,0,0:0:0:0:
320,192,116460,1,0,0:0:0:0:
448,192,116460,1,0,0:0:0:0:
192,192,116522,1,0,0:0:0:0:
64,192,116522,1,0,0:0:0:0:
320,192,116584,1,0,0:0:0:0:
448,192,116584,1,0,0:0:0:0:
192,192,116647,1,0,0:0:0:0:
64,192,116647,1,0,0:0:0:0:
448,192,116709,1,0,0:0:0:0:
320,192,116771,1,0,0:0:0:0:
192,192,116771,1,0,0:0:0:0:
64,192,116834,1,0,0:0:0:0:
448,192,116896,5,0,0:0:0:0:
320,192,116959,1,0,0:0:0:0:
192,192,117021,1,0,0:0:0:0:
64,192,117083,1,0,0:0:0:0:
320,192,117146,1,0,0:0:0:0:
448,192,117208,1,0,0:0:0:0:
64,192,117270,1,0,0:0:0:0:
192,192,117333,1,0,0:0:0:0:
320,192,117395,1,0,0:0:0:0:
448,192,117457,1,0,0:0:0:0:
192,192,117520,1,0,0:0:0:0:
64,192,117520,1,0,0:0:0:0:
192,192,117769,5,0,0:0:0:0:
64,192,117769,1,0,0:0:0:0:
448,192,117769,1,0,0:0:0:0:
320,192,117832,1,0,0:0:0:0:
192,192,117894,1,0,0:0:0:0:
64,192,117956,1,0,0:0:0:0:
320,192,118019,1,0,0:0:0:0:
448,192,118019,1,0,0:0:0:0:
192,192,118081,1,0,0:0:0:0:
64,192,118144,1,0,0:0:0:0:
320,192,118206,1,0,0:0:0:0:
64,192,118268,1,0,0:0:0:0:
192,192,118268,1,0,0:0:0:0:
320,192,118331,1,0,0:0:0:0:
448,192,118393,1,0,0:0:0:0:
192,192,118455,1,0,0:0:0:0:
320,192,118518,1,0,0:0:0:0:
448,192,118518,1,0,0:0:0:0:
192,192,118580,1,0,0:0:0:0:
64,192,118643,1,0,0:0:0:0:
320,192,118705,1,0,0:0:0:0:
192,192,118767,1,0,0:0:0:0:
64,192,118767,1,0,0:0:0:0:
320,192,118830,1,0,0:0:0:0:
448,192,118892,1,0,0:0:0:0:
192,192,118954,1,0,0:0:0:0:
320,192,119017,1,0,0:0:0:0:
448,192,119017,1,0,0:0:0:0:
192,192,119079,1,0,0:0:0:0:
64,192,119141,1,0,0:0:0:0:
320,192,119204,1,0,0:0:0:0:
192,192,119266,1,0,0:0:0:0:
64,192,119266,1,0,0:0:0:0:
320,192,119329,1,0,0:0:0:0:
448,192,119329,1,0,0:0:0:0:
192,192,119391,1,0,0:0:0:0:
64,192,119391,1,0,0:0:0:0:
320,192,119453,1,0,0:0:0:0:
448,192,119516,1,0,0:0:0:0:
64,192,119516,1,0,0:0:0:0:
192,192,119578,1,0,0:0:0:0:
320,192,119640,1,0,0:0:0:0:
448,192,119640,1,0,0:0:0:0:
192,192,119703,1,0,0:0:0:0:
64,192,119765,1,0,0:0:0:0:
448,192,119765,1,0,0:0:0:0:
320,192,119828,1,0,0:0:0:0:
192,192,119890,1,0,0:0:0:0:
320,192,119952,1,0,0:0:0:0:
192,192,120015,1,0,0:0:0:0:
64,192,120015,1,0,0:0:0:0:
448,192,120077,1,0,0:0:0:0:
320,192,120139,1,0,0:0:0:0:
192,192,120202,1,0,0:0:0:0:
448,192,120264,1,0,0:0:0:0:
320,192,120264,1,0,0:0:0:0:
64,192,120327,1,0,0:0:0:0:
192,192,120389,1,0,0:0:0:0:
320,192,120451,1,0,0:0:0:0:
64,192,120514,1,0,0:0:0:0:
192,192,120514,1,0,0:0:0:0:
448,192,120576,1,0,0:0:0:0:
320,192,120638,1,0,0:0:0:0:
192,192,120701,1,0,0:0:0:0:
320,192,120763,1,0,0:0:0:0:
448,192,120763,1,0,0:0:0:0:
64,192,120825,1,0,0:0:0:0:
192,192,120888,1,0,0:0:0:0:
320,192,120950,1,0,0:0:0:0:
64,192,121013,1,0,0:0:0:0:
192,192,121013,1,0,0:0:0:0:
448,192,121075,1,0,0:0:0:0:
320,192,121137,1,0,0:0:0:0:
192,192,121200,1,0,0:0:0:0:
320,192,121262,1,0,0:0:0:0:
448,192,121262,1,0,0:0:0:0:
192,192,121324,1,0,0:0:0:0:
64,192,121387,1,0,0:0:0:0:
448,192,121387,1,0,0:0:0:0:
320,192,121387,1,0,0:0:0:0:
192,192,121512,1,0,0:0:0:0:
64,192,121512,1,0,0:0:0:0:
448,192,121512,1,0,0:0:0:0:
320,192,121574,1,0,0:0:0:0:
192,192,121636,1,0,0:0:0:0:
64,192,121699,1,0,0:0:0:0:
192,192,121761,1,0,0:0:0:0:
320,192,121761,1,0,0:0:0:0:
448,192,121761,1,0,0:0:0:0:
64,192,121823,1,0,0:0:0:0:
320,192,121886,1,0,0:0:0:0:
192,192,121948,1,0,0:0:0:0:
320,192,122010,1,0,0:0:0:0:
448,192,122010,1,0,0:0:0:0:
192,192,122073,1,0,0:0:0:0:
64,192,122135,1,0,0:0:0:0:
448,192,122198,1,0,0:0:0:0:
64,192,122260,1,0,0:0:0:0:
192,192,122260,1,0,0:0:0:0:
320,192,122322,1,0,0:0:0:0:
448,192,122385,1,0,0:0:0:0:
64,192,122447,1,0,0:0:0:0:
320,192,122509,1,0,0:0:0:0:
448,192,122509,1,0,0:0:0:0:
192,192,122572,1,0,0:0:0:0:
64,192,122634,1,0,0:0:0:0:
448,192,122697,1,0,0:0:0:0:
64,192,122759,1,0,0:0:0:0:
192,192,122759,1,0,0:0:0:0:
320,192,122821,1,0,0:0:0:0:
448,192,122884,1,0,0:0:0:0:
64,192,122946,1,0,0:0:0:0:
320,192,123008,1,0,0:0:0:0:
448,192,123008,1,0,0:0:0:0:
192,192,123071,1,0,0:0:0:0:
64,192,123133,1,0,0:0:0:0:
448,192,123196,1,0,0:0:0:0:
192,192,123258,1,0,0:0:0:0:
64,192,123258,1,0,0:0:0:0:
320,192,123320,1,0,0:0:0:0:
448,192,123320,1,0,0:0:0:0:
192,192,123383,1,0,0:0:0:0:
64,192,123383,1,0,0:0:0:0:
320,192,123445,1,0,0:0:0:0:
448,192,123507,1,0,0:0:0:0:
64,192,123507,1,0,0:0:0:0:
192,192,123570,1,0,0:0:0:0:
320,192,123632,1,0,0:0:0:0:
64,192,123694,1,0,0:0:0:0:
320,192,123757,1,0,0:0:0:0:
448,192,123757,1,0,0:0:0:0:
192,192,123757,1,0,0:0:0:0:
64,192,123819,1,0,0:0:0:0:
448,192,123882,1,0,0:0:0:0:
320,192,123944,1,0,0:0:0:0:
192,192,124006,1,0,0:0:0:0:
64,192,124006,1,0,0:0:0:0:
320,192,124069,1,0,0:0:0:0:
448,192,124131,1,0,0:0:0:0:
192,192,124193,1,0,0:0:0:0:
64,192,124256,1,0,0:0:0:0:
320,192,124256,1,0,0:0:0:0:
448,192,124318,1,0,0:0:0:0:
192,192,124381,1,0,0:0:0:0:
64,192,124443,1,0,0:0:0:0:
448,192,124505,1,0,0:0:0:0:
320,192,124505,1,0,0:0:0:0:
192,192,124568,1,0,0:0:0:0:
64,192,124630,1,0,0:0:0:0:
448,192,124630,1,0,0:0:0:0:
320,192,124692,1,0,0:0:0:0:
192,192,124692,1,0,0:0:0:0:
448,192,124755,1,0,0:0:0:0:
64,192,124755,1,0,0:0:0:0:
320,192,124817,1,0,0:0:0:0:
192,192,124880,1,0,0:0:0:0:
64,192,124880,1,0,0:0:0:0:
320,192,124942,1,0,0:0:0:0:
448,192,124942,1,0,0:0:0:0:
192,192,125004,1,0,0:0:0:0:
64,192,125004,1,0,0:0:0:0:
320,192,125067,1,0,0:0:0:0:
448,192,125067,1,0,0:0:0:0:
192,192,125129,1,0,0:0:0:0:
64,192,125129,1,0,0:0:0:0:
320,192,125191,1,0,0:0:0:0:
448,192,125191,1,0,0:0:0:0:
192,192,125254,1,0,0:0:0:0:
64,192,125254,1,0,0:0:0:0:
320,192,125316,1,0,0:0:0:0:
448,192,125316,1,0,0:0:0:0:
192,192,125378,1,0,0:0:0:0:
64,192,125378,1,0,0:0:0:0:
320,192,125441,1,0,0:0:0:0:
448,192,125441,1,0,0:0:0:0:
192,192,125503,1,0,0:0:0:0:
64,192,125503,1,0,0:0:0:0:
320,192,125566,1,0,0:0:0:0:
448,192,125566,1,0,0:0:0:0:
192,192,125628,1,0,0:0:0:0:
64,192,125628,1,0,0:0:0:0:
320,192,125690,1,0,0:0:0:0:
448,192,125690,1,0,0:0:0:0:
192,192,125753,1,0,0:0:0:0:
64,192,125753,1,0,0:0:0:0:
320,192,125815,1,0,0:0:0:0:
448,192,125877,1,0,0:0:0:0:
64,192,125877,1,0,0:0:0:0:
192,192,125940,1,0,0:0:0:0:
320,192,126002,1,0,0:0:0:0:
448,192,126002,1,0,0:0:0:0:
192,192,126065,1,0,0:0:0:0:
64,192,126127,1,0,0:0:0:0:
320,192,126189,1,0,0:0:0:0:
192,192,126252,1,0,0:0:0:0:
64,192,126252,1,0,0:0:0:0:
448,192,126314,1,0,0:0:0:0:
320,192,126376,1,0,0:0:0:0:
64,192,126376,1,0,0:0:0:0:
192,192,126439,1,0,0:0:0:0:
320,192,126501,1,0,0:0:0:0:
448,192,126501,1,0,0:0:0:0:
192,192,126564,1,0,0:0:0:0:
64,192,126626,1,0,0:0:0:0:
448,192,126688,1,0,0:0:0:0:
192,192,126751,1,0,0:0:0:0:
64,192,126751,1,0,0:0:0:0:
320,192,126813,1,0,0:0:0:0:
448,192,126875,1,0,0:0:0:0:
64,192,126875,1,0,0:0:0:0:
192,192,126938,1,0,0:0:0:0:
448,192,127000,1,0,0:0:0:0:
320,192,127000,1,0,0:0:0:0:
192,192,127062,1,0,0:0:0:0:
64,192,127125,1,0,0:0:0:0:
320,192,127187,1,0,0:0:0:0:
192,192,127250,1,0,0:0:0:0:
64,192,127250,1,0,0:0:0:0:
448,192,127312,1,0,0:0:0:0:
320,192,127374,1,0,0:0:0:0:
64,192,127374,1,0,0:0:0:0:
192,192,127437,1,0,0:0:0:0:
448,192,127499,1,0,0:0:0:0:
320,192,127499,1,0,0:0:0:0:
192,192,127561,1,0,0:0:0:0:
64,192,127624,1,0,0:0:0:0:
192,192,127686,1,0,0:0:0:0:
320,192,127749,1,0,0:0:0:0:
448,192,127749,1,0,0:0:0:0:
64,192,127811,1,0,0:0:0:0:
192,192,127873,1,0,0:0:0:0:
448,192,127873,1,0,0:0:0:0:
320,192,127936,1,0,0:0:0:0:
192,192,127998,1,0,0:0:0:0:
64,192,127998,1,0,0:0:0:0:
320,192,128060,1,0,0:0:0:0:
448,192,128123,1,0,0:0:0:0:
64,192,128185,1,0,0:0:0:0:
320,192,128248,1,0,0:0:0:0:
448,192,128248,1,0,0:0:0:0:
192,192,128310,1,0,0:0:0:0:
64,192,128372,1,0,0:0:0:0:
448,192,128372,1,0,0:0:0:0:
320,192,128435,1,0,0:0:0:0:
192,192,128497,1,0,0:0:0:0:
64,192,128497,1,0,0:0:0:0:
320,192,128559,1,0,0:0:0:0:
448,192,128622,1,0,0:0:0:0:
64,192,128684,1,0,0:0:0:0:
320,192,128746,1,0,0:0:0:0:
448,192,128746,1,0,0:0:0:0:
192,192,128809,1,0,0:0:0:0:
64,192,128871,1,0,0:0:0:0:
448,192,128871,1,0,0:0:0:0:
320,192,128934,1,0,0:0:0:0:
192,192,128996,1,0,0:0:0:0:
64,192,128996,1,0,0:0:0:0:
320,192,129058,1,0,0:0:0:0:
448,192,129121,1,0,0:0:0:0:
192,192,129183,1,0,0:0:0:0:
320,192,129245,1,0,0:0:0:0:
448,192,129245,1,0,0:0:0:0:
64,192,129308,1,0,0:0:0:0:
192,192,129370,1,0,0:0:0:0:
448,192,129370,1,0,0:0:0:0:
320,192,129433,1,0,0:0:0:0:
192,192,129495,1,0,0:0:0:0:
64,192,129495,1,0,0:0:0:0:
320,192,129557,1,0,0:0:0:0:
448,192,129620,1,0,0:0:0:0:
320,192,129682,1,0,0:0:0:0:
192,192,129744,1,0,0:0:0:0:
64,192,129744,1,0,0:0:0:0:
448,192,129807,1,0,0:0:0:0:
64,192,129869,1,0,0:0:0:0:
320,192,129869,1,0,0:0:0:0:
192,192,129931,1,0,0:0:0:0:
320,192,129994,1,0,0:0:0:0:
448,192,129994,1,0,0:0:0:0:
192,192,130056,1,0,0:0:0:0:
64,192,130119,1,0,0:0:0:0:
448,192,130181,1,0,0:0:0:0:
192,192,130243,1,0,0:0:0:0:
64,192,130243,1,0,0:0:0:0:
320,192,130306,1,0,0:0:0:0:
448,192,130368,1,0,0:0:0:0:
64,192,130368,1,0,0:0:0:0:
192,192,130430,1,0,0:0:0:0:
320,192,130493,1,0,0:0:0:0:
448,192,130493,1,0,0:0:0:0:
192,192,130555,1,0,0:0:0:0:
64,192,130618,1,0,0:0:0:0:
320,192,130680,1,0,0:0:0:0:
192,192,130742,1,0,0:0:0:0:
64,192,130742,1,0,0:0:0:0:
448,192,130805,1,0,0:0:0:0:
320,192,130867,1,0,0:0:0:0:
64,192,130867,1,0,0:0:0:0:
192,192,130929,1,0,0:0:0:0:
320,192,130992,1,0,0:0:0:0:
448,192,130992,1,0,0:0:0:0:
192,192,131054,1,0,0:0:0:0:
64,192,131117,1,0,0:0:0:0:
448,192,131179,1,0,0:0:0:0:
64,192,131241,1,0,0:0:0:0:
192,192,131241,1,0,0:0:0:0:
320,192,131304,1,0,0:0:0:0:
448,192,131366,1,0,0:0:0:0:
64,192,131366,1,0,0:0:0:0:
192,192,131428,1,0,0:0:0:0:
320,192,131491,1,0,0:0:0:0:
448,192,131491,1,0,0:0:0:0:
64,192,131553,1,0,0:0:0:0:
320,192,131615,1,0,0:0:0:0:
448,192,131615,1,0,0:0:0:0:
192,192,131678,1,0,0:0:0:0:
64,192,131678,1,0,0:0:0:0:
320,192,131740,1,0,0:0:0:0:
448,192,131740,1,0,0:0:0:0:
64,192,131803,1,0,0:0:0:0:
192,192,131865,1,0,0:0:0:0:
448,192,131865,1,0,0:0:0:0:
320,192,131927,1,0,0:0:0:0:
192,192,131990,1,0,0:0:0:0:
64,192,131990,1,0,0:0:0:0:
320,192,132052,1,0,0:0:0:0:
448,192,132114,1,0,0:0:0:0:
64,192,132114,1,0,0:0:0:0:
192,192,132177,1,0,0:0:0:0:
320,192,132239,1,0,0:0:0:0:
448,192,132239,1,0,0:0:0:0:
64,192,132302,1,0,0:0:0:0:
192,192,132364,1,0,0:0:0:0:
448,192,132364,1,0,0:0:0:0:
320,192,132426,1,0,0:0:0:0:
192,192,132489,1,0,0:0:0:0:
64,192,132489,1,0,0:0:0:0:
320,192,132551,1,0,0:0:0:0:
448,192,132613,1,0,0:0:0:0:
64,192,132613,1,0,0:0:0:0:
192,192,132676,1,0,0:0:0:0:
320,192,132676,1,0,0:0:0:0:
448,192,132738,1,0,0:0:0:0:
64,192,132738,1,0,0:0:0:0:
192,192,132801,1,0,0:0:0:0:
320,192,132863,1,0,0:0:0:0:
448,192,132863,1,0,0:0:0:0:
192,192,132925,1,0,0:0:0:0:
64,192,132925,1,0,0:0:0:0:
320,192,132988,1,0,0:0:0:0:
448,192,132988,1,0,0:0:0:0:
192,192,133050,1,0,0:0:0:0:
64,192,133112,1,0,0:0:0:0:
448,192,133112,1,0,0:0:0:0:
320,192,133175,1,0,0:0:0:0:
192,192,133175,1,0,0:0:0:0:
448,192,133237,1,0,0:0:0:0:
64,192,133237,1,0,0:0:0:0:
320,192,133299,1,0,0:0:0:0:
192,192,133362,1,0,0:0:0:0:
64,192,133362,1,0,0:0:0:0:
320,192,133424,1,0,0:0:0:0:
448,192,133424,1,0,0:0:0:0:
192,192,133487,1,0,0:0:0:0:
64,192,133487,1,0,0:0:0:0:
448,192,133549,1,0,0:0:0:0:
192,192,133611,1,0,0:0:0:0:
64,192,133611,1,0,0:0:0:0:
320,192,133674,1,0,0:0:0:0:
448,192,133736,1,0,0:0:0:0:
192,192,133736,1,0,0:0:0:0:
64,192,133736,1,0,0:0:0:0:
448,192,133861,1,0,0:0:0:0:
320,192,133986,1,0,0:0:0:0:
192,192,133986,1,0,0:0:0:0:
64,192,133986,1,0,0:0:0:0:
192,192,134110,1,0,0:0:0:0:
64,192,134235,1,0,0:0:0:0:
448,192,134235,1,0,0:0:0:0:
64,192,134360,1,0,0:0:0:0:
320,192,134485,1,0,0:0:0:0:
192,192,134485,1,0,0:0:0:0:
448,192,134485,1,0,0:0:0:0:
320,192,134609,1,0,0:0:0:0:
192,192,134734,1,0,0:0:0:0:
448,192,134734,1,0,0:0:0:0:
448,192,134859,1,0,0:0:0:0:
192,192,134983,1,0,0:0:0:0:
64,192,134983,1,0,0:0:0:0:
320,192,134983,1,0,0:0:0:0:
320,192,135108,1,0,0:0:0:0:
192,192,135233,1,0,0:0:0:0:
448,192,135233,1,0,0:0:0:0:
192,192,135358,1,0,0:0:0:0:
64,192,135482,1,0,0:0:0:0:
320,192,135482,1,0,0:0:0:0:
448,192,135482,1,0,0:0:0:0:
64,192,135607,1,0,0:0:0:0:
192,192,135732,1,0,0:0:0:0:
320,192,135732,1,0,0:0:0:0:
192,192,135857,1,0,0:0:0:0:
64,192,135981,1,0,0:0:0:0:
320,192,135981,1,0,0:0:0:0:
448,192,135981,1,0,0:0:0:0:
320,192,136106,1,0,0:0:0:0:
448,192,136231,1,0,0:0:0:0:
192,192,136231,1,0,0:0:0:0:
448,192,136356,1,0,0:0:0:0:
320,192,136480,1,0,0:0:0:0:
192,192,136480,1,0,0:0:0:0:
64,192,136480,1,0,0:0:0:0:
192,192,136605,1,0,0:0:0:0:
320,192,136730,1,0,0:0:0:0:
448,192,136730,1,0,0:0:0:0:
320,192,136855,1,0,0:0:0:0:
448,192,136979,1,0,0:0:0:0:
192,192,136979,1,0,0:0:0:0:
64,192,136979,1,0,0:0:0:0:
64,192,137104,1,0,0:0:0:0:
320,192,137104,1,0,0:0:0:0:
192,192,137229,1,0,0:0:0:0:
448,192,137229,1,0,0:0:0:0:
320,192,137354,1,0,0:0:0:0:
448,192,137354,1,0,0:0:0:0:
64,192,137354,1,0,0:0:0:0:
192,192,137478,1,0,0:0:0:0:
320,192,137478,1,0,0:0:0:0:
448,192,137603,1,0,0:0:0:0:
192,192,137603,1,0,0:0:0:0:
64,192,137603,1,0,0:0:0:0:
320,192,137728,1,0,0:0:0:0:
448,192,137728,1,0,0:0:0:0:
320,192,137852,1,0,0:0:0:0:
448,192,137977,1,0,0:0:0:0:
192,192,137977,1,0,0:0:0:0:
64,192,137977,1,0,0:0:0:0:
192,192,138102,1,0,0:0:0:0:
64,192,138227,1,0,0:0:0:0:
320,192,138227,1,0,0:0:0:0:
64,192,138351,1,0,0:0:0:0:
192,192,138476,1,0,0:0:0:0:
320,192,138476,1,0,0:0:0:0:
448,192,138476,1,0,0:0:0:0:
448,192,138601,1,0,0:0:0:0:
192,192,138726,1,0,0:0:0:0:
64,192,138726,1,0,0:0:0:0:
192,192,138850,1,0,0:0:0:0:
64,192,138975,1,0,0:0:0:0:
320,192,138975,1,0,0:0:0:0:
448,192,138975,1,0,0:0:0:0:
320,192,139100,1,0,0:0:0:0:
448,192,139225,1,0,0:0:0:0:
192,192,139225,1,0,0:0:0:0:
448,192,139349,1,0,0:0:0:0:
320,192,139474,1,0,0:0:0:0:
192,192,139474,1,0,0:0:0:0:
64,192,139474,1,0,0:0:0:0:
64,192,139599,1,0,0:0:0:0:
192,192,139724,1,0,0:0:0:0:
320,192,139724,1,0,0:0:0:0:
448,192,139724,1,0,0:0:0:0:
320,192,139848,1,0,0:0:0:0:
448,192,139973,1,0,0:0:0:0:
192,192,139973,1,0,0:0:0:0:
64,192,139973,1,0,0:0:0:0:
192,192,140098,1,0,0:0:0:0:
320,192,140223,1,0,0:0:0:0:
448,192,140223,1,0,0:0:0:0:
192,192,140347,1,0,0:0:0:0:
64,192,140347,1,0,0:0:0:0:
320,192,140410,1,0,0:0:0:0:
448,192,140410,1,0,0:0:0:0:
192,192,140472,1,0,0:0:0:0:
64,192,140472,1,0,0:0:0:0:
320,192,140534,1,0,0:0:0:0:
448,192,140534,1,0,0:0:0:0:
64,192,140597,1,0,0:0:0:0:
192,192,140659,1,0,0:0:0:0:
320,192,140659,1,0,0:0:0:0:
448,192,140722,1,0,0:0:0:0:
192,192,140784,1,0,0:0:0:0:
64,192,140784,1,0,0:0:0:0:
448,192,140846,1,0,0:0:0:0:
320,192,140846,1,0,0:0:0:0:
192,192,140909,1,0,0:0:0:0:
64,192,140909,1,0,0:0:0:0:
448,192,140971,1,0,0:0:0:0:
192,192,141033,1,0,0:0:0:0:
320,192,141033,1,0,0:0:0:0:
64,192,141096,1,0,0:0:0:0:
448,192,141158,1,0,0:0:0:0:
192,192,141220,1,0,0:0:0:0:
64,192,141220,1,0,0:0:0:0:
320,192,141283,1,0,0:0:0:0:
448,192,141283,1,0,0:0:0:0:
64,192,141345,1,0,0:0:0:0:
192,192,141408,1,0,0:0:0:0:
320,192,141470,1,0,0:0:0:0:
448,192,141470,1,0,0:0:0:0:
192,192,141532,1,0,0:0:0:0:
64,192,141532,1,0,0:0:0:0:
320,192,141595,1,0,0:0:0:0:
64,192,141657,1,0,0:0:0:0:
320,192,141719,1,0,0:0:0:0:
448,192,141719,1,0,0:0:0:0:
192,192,141719,1,0,0:0:0:0:
64,192,141782,1,0,0:0:0:0:
192,192,141844,1,0,0:0:0:0:
448,192,141844,1,0,0:0:0:0:
320,192,141907,1,0,0:0:0:0:
64,192,141969,1,0,0:0:0:0:
192,192,141969,1,0,0:0:0:0:
448,192,142031,1,0,0:0:0:0:
320,192,142094,1,0,0:0:0:0:
64,192,142094,1,0,0:0:0:0:
192,192,142156,1,0,0:0:0:0:
448,192,142218,1,0,0:0:0:0:
320,192,142218,1,0,0:0:0:0:
64,192,142281,1,0,0:0:0:0:
192,192,142343,1,0,0:0:0:0:
448,192,142343,1,0,0:0:0:0:
320,192,142406,1,0,0:0:0:0:
192,192,142468,1,0,0:0:0:0:
64,192,142468,1,0,0:0:0:0:
448,192,142530,1,0,0:0:0:0:
320,192,142593,1,0,0:0:0:0:
64,192,142593,1,0,0:0:0:0:
192,192,142655,1,0,0:0:0:0:
320,192,142717,1,0,0:0:0:0:
448,192,142717,1,0,0:0:0:0:
64,192,142780,1,0,0:0:0:0:
192,192,142842,1,0,0:0:0:0:
448,192,142842,1,0,0:0:0:0:
320,192,142904,1,0,0:0:0:0:
192,192,142967,1,0,0:0:0:0:
64,192,142967,1,0,0:0:0:0:
448,192,143029,1,0,0:0:0:0:
320,192,143092,1,0,0:0:0:0:
64,192,143092,1,0,0:0:0:0:
192,192,143154,1,0,0:0:0:0:
320,192,143216,1,0,0:0:0:0:
448,192,143216,1,0,0:0:0:0:
192,192,143279,1,0,0:0:0:0:
64,192,143279,1,0,0:0:0:0:
320,192,143341,1,0,0:0:0:0:
448,192,143341,1,0,0:0:0:0:
192,192,143403,1,0,0:0:0:0:
64,192,143466,1,0,0:0:0:0:
448,192,143466,1,0,0:0:0:0:
320,192,143528,1,0,0:0:0:0:
192,192,143591,1,0,0:0:0:0:
448,192,143653,1,0,0:0:0:0:
192,192,143715,1,0,0:0:0:0:
64,192,143715,1,0,0:0:0:0:
320,192,143778,1,0,0:0:0:0:
448,192,143840,1,0,0:0:0:0:
64,192,143840,1,0,0:0:0:0:
192,192,143902,1,0,0:0:0:0:
320,192,143965,1,0,0:0:0:0:
448,192,143965,1,0,0:0:0:0:
192,192,144027,1,0,0:0:0:0:
64,192,144090,1,0,0:0:0:0:
448,192,144090,1,0,0:0:0:0:
320,192,144152,1,0,0:0:0:0:
192,192,144214,1,0,0:0:0:0:
64,192,144214,1,0,0:0:0:0:
320,192,144277,1,0,0:0:0:0:
448,192,144339,1,0,0:0:0:0:
64,192,144339,1,0,0:0:0:0:
192,192,144401,1,0,0:0:0:0:
320,192,144464,1,0,0:0:0:0:
448,192,144464,1,0,0:0:0:0:
192,192,144526,1,0,0:0:0:0:
64,192,144588,1,0,0:0:0:0:
448,192,144588,1,0,0:0:0:0:
320,192,144651,1,0,0:0:0:0:
192,192,144713,1,0,0:0:0:0:
64,192,144713,1,0,0:0:0:0:
320,192,144776,1,0,0:0:0:0:
448,192,144838,1,0,0:0:0:0:
64,192,144838,1,0,0:0:0:0:
192,192,144900,1,0,0:0:0:0:
320,192,144963,1,0,0:0:0:0:
448,192,144963,1,0,0:0:0:0:
192,192,145025,1,0,0:0:0:0:
64,192,145087,1,0,0:0:0:0:
448,192,145087,1,0,0:0:0:0:
320,192,145150,1,0,0:0:0:0:
192,192,145212,1,0,0:0:0:0:
64,192,145212,1,0,0:0:0:0:
320,192,145275,1,0,0:0:0:0:
448,192,145337,1,0,0:0:0:0:
64,192,145337,1,0,0:0:0:0:
192,192,145337,1,0,0:0:0:0:
320,192,145462,1,0,0:0:0:0:
448,192,145462,1,0,0:0:0:0:
64,192,145462,1,0,0:0:0:0:
192,192,145524,1,0,0:0:0:0:
320,192,145586,1,0,0:0:0:0:
448,192,145649,1,0,0:0:0:0:
64,192,145711,1,0,0:0:0:0:
192,192,145711,1,0,0:0:0:0:
320,192,145711,1,0,0:0:0:0:
448,192,145773,1,0,0:0:0:0:
320,192,145836,1,0,0:0:0:0:
64,192,145836,1,0,0:0:0:0:
192,192,145898,1,0,0:0:0:0:
320,192,145961,1,0,0:0:0:0:
448,192,145961,1,0,0:0:0:0:
64,192,146023,1,0,0:0:0:0:
192,192,146085,1,0,0:0:0:0:
448,192,146085,1,0,0:0:0:0:
320,192,146148,1,0,0:0:0:0:
192,192,146210,1,0,0:0:0:0:
64,192,146210,1,0,0:0:0:0:
448,192,146272,1,0,0:0:0:0:
320,192,146335,1,0,0:0:0:0:
64,192,146335,1,0,0:0:0:0:
192,192,146397,1,0,0:0:0:0:
320,192,146460,1,0,0:0:0:0:
448,192,146460,1,0,0:0:0:0:
64,192,146522,1,0,0:0:0:0:
192,192,146584,1,0,0:0:0:0:
448,192,146584,1,0,0:0:0:0:
320,192,146647,1,0,0:0:0:0:
192,192,146709,1,0,0:0:0:0:
64,192,146709,1,0,0:0:0:0:
448,192,146771,1,0,0:0:0:0:
320,192,146834,1,0,0:0:0:0:
64,192,146834,1,0,0:0:0:0:
192,192,146896,1,0,0:0:0:0:
320,192,146959,1,0,0:0:0:0:
448,192,146959,1,0,0:0:0:0:
64,192,147021,1,0,0:0:0:0:
192,192,147083,1,0,0:0:0:0:
448,192,147083,1,0,0:0:0:0:
320,192,147146,1,0,0:0:0:0:
192,192,147208,1,0,0:0:0:0:
64,192,147208,1,0,0:0:0:0:
320,192,147270,1,0,0:0:0:0:
448,192,147270,1,0,0:0:0:0:
192,192,147333,1,0,0:0:0:0:
64,192,147333,1,0,0:0:0:0:
320,192,147395,1,0,0:0:0:0:
448,192,147457,1,0,0:0:0:0:
64,192,147457,1,0,0:0:0:0:
192,192,147520,1,0,0:0:0:0:
320,192,147582,1,0,0:0:0:0:
448,192,147645,1,0,0:0:0:0:
192,192,147707,1,0,0:0:0:0:
64,192,147707,1,0,0:0:0:0:
320,192,147769,1,0,0:0:0:0:
448,192,147832,1,0,0:0:0:0:
64,192,147832,1,0,0:0:0:0:
192,192,147894,1,0,0:0:0:0:
320,192,147956,1,0,0:0:0:0:
448,192,147956,1,0,0:0:0:0:
192,192,148019,1,0,0:0:0:0:
64,192,148081,1,0,0:0:0:0:
448,192,148081,1,0,0:0:0:0:
320,192,148144,1,0,0:0:0:0:
192,192,148206,1,0,0:0:0:0:
64,192,148206,1,0,0:0:0:0:
320,192,148268,1,0,0:0:0:0:
448,192,148331,1,0,0:0:0:0:
64,192,148331,1,0,0:0:0:0:
192,192,148393,1,0,0:0:0:0:
320,192,148455,1,0,0:0:0:0:
448,192,148455,1,0,0:0:0:0:
192,192,148518,1,0,0:0:0:0:
64,192,148580,1,0,0:0:0:0:
448,192,148580,1,0,0:0:0:0:
320,192,148643,1,0,0:0:0:0:
192,192,148705,1,0,0:0:0:0:
64,192,148705,1,0,0:0:0:0:
320,192,148767,1,0,0:0:0:0:
448,192,148830,1,0,0:0:0:0:
64,192,148830,1,0,0:0:0:0:
192,192,148892,1,0,0:0:0:0:
320,192,148954,1,0,0:0:0:0:
448,192,148954,1,0,0:0:0:0:
192,192,149017,1,0,0:0:0:0:
64,192,149079,1,0,0:0:0:0:
448,192,149079,1,0,0:0:0:0:
320,192,149141,1,0,0:0:0:0:
192,192,149204,1,0,0:0:0:0:
64,192,149204,1,0,0:0:0:0:
320,192,149266,1,0,0:0:0:0:
448,192,149266,1,0,0:0:0:0:
192,192,149329,1,0,0:0:0:0:
64,192,149329,1,0,0:0:0:0:
320,192,149391,1,0,0:0:0:0:
448,192,149453,1,0,0:0:0:0:
64,192,149453,1,0,0:0:0:0:
192,192,149516,1,0,0:0:0:0:
320,192,149578,1,0,0:0:0:0:
64,192,149640,1,0,0:0:0:0:
320,192,149703,1,0,0:0:0:0:
448,192,149703,1,0,0:0:0:0:
192,192,149703,1,0,0:0:0:0:
64,192,149765,1,0,0:0:0:0:
192,192,149828,1,0,0:0:0:0:
448,192,149828,1,0,0:0:0:0:
320,192,149890,1,0,0:0:0:0:
192,192,149952,1,0,0:0:0:0:
64,192,149952,1,0,0:0:0:0:
448,192,150015,1,0,0:0:0:0:
320,192,150077,1,0,0:0:0:0:
64,192,150077,1,0,0:0:0:0:
192,192,150139,1,0,0:0:0:0:
320,192,150202,1,0,0:0:0:0:
448,192,150202,1,0,0:0:0:0:
64,192,150264,1,0,0:0:0:0:
192,192,150327,1,0,0:0:0:0:
448,192,150327,1,0,0:0:0:0:
320,192,150389,1,0,0:0:0:0:
64,192,150451,1,0,0:0:0:0:
192,192,150451,1,0,0:0:0:0:
448,192,150514,1,0,0:0:0:0:
320,192,150576,1,0,0:0:0:0:
64,192,150576,1,0,0:0:0:0:
192,192,150638,1,0,0:0:0:0:
320,192,150701,1,0,0:0:0:0:
448,192,150701,1,0,0:0:0:0:
64,192,150763,1,0,0:0:0:0:
192,192,150825,1,0,0:0:0:0:
448,192,150825,1,0,0:0:0:0:
320,192,150888,1,0,0:0:0:0:
192,192,150950,1,0,0:0:0:0:
64,192,150950,1,0,0:0:0:0:
448,192,151013,1,0,0:0:0:0:
320,192,151075,1,0,0:0:0:0:
64,192,151075,1,0,0:0:0:0:
192,192,151137,1,0,0:0:0:0:
320,192,151200,1,0,0:0:0:0:
448,192,151200,1,0,0:0:0:0:
192,192,151262,1,0,0:0:0:0:
64,192,151262,1,0,0:0:0:0:
320,192,151324,1,0,0:0:0:0:
448,192,151324,1,0,0:0:0:0:
192,192,151387,1,0,0:0:0:0:
64,192,151449,1,0,0:0:0:0:
448,192,151449,1,0,0:0:0:0:
320,192,151512,1,0,0:0:0:0:
192,192,151574,1,0,0:0:0:0:
64,192,151636,1,0,0:0:0:0:
320,192,151699,1,0,0:0:0:0:
448,192,151699,1,0,0:0:0:0:
192,192,151761,1,0,0:0:0:0:
64,192,151823,1,0,0:0:0:0:
448,192,151823,1,0,0:0:0:0:
320,192,151886,1,0,0:0:0:0:
192,192,151948,1,0,0:0:0:0:
64,192,151948,1,0,0:0:0:0:
320,192,152010,1,0,0:0:0:0:
448,192,152073,1,0,0:0:0:0:
64,192,152073,1,0,0:0:0:0:
192,192,152135,1,0,0:0:0:0:
320,192,152198,1,0,0:0:0:0:
448,192,152198,1,0,0:0:0:0:
192,192,152260,1,0,0:0:0:0:
64,192,152322,1,0,0:0:0:0:
448,192,152322,1,0,0:0:0:0:
320,192,152385,1,0,0:0:0:0:
192,192,152447,1,0,0:0:0:0:
64,192,152447,1,0,0:0:0:0:
320,192,152509,1,0,0:0:0:0:
448,192,152572,1,0,0:0:0:0:
64,192,152572,1,0,0:0:0:0:
192,192,152634,1,0,0:0:0:0:
320,192,152697,1,0,0:0:0:0:
448,192,152697,1,0,0:0:0:0:
192,192,152759,1,0,0:0:0:0:
64,192,152821,1,0,0:0:0:0:
448,192,152821,1,0,0:0:0:0:
320,192,152884,1,0,0:0:0:0:
192,192,152946,1,0,0:0:0:0:
64,192,152946,1,0,0:0:0:0:
320,192,153008,1,0,0:0:0:0:
448,192,153071,1,0,0:0:0:0:
64,192,153071,1,0,0:0:0:0:
192,192,153133,1,0,0:0:0:0:
320,192,153196,1,0,0:0:0:0:
448,192,153196,1,0,0:0:0:0:
192,192,153258,1,0,0:0:0:0:
320,192,153320,1,0,0:0:0:0:
448,192,153320,1,0,0:0:0:0:
64,192,153320,1,0,0:0:0:0:
64,192,153445,1,0,0:0:0:0:
192,192,153445,1,0,0:0:0:0:
448,192,153445,1,0,0:0:0:0:
320,192,153507,1,0,0:0:0:0:
192,192,153570,1,0,0:0:0:0:
64,192,153632,1,0,0:0:0:0:
320,192,153694,1,0,0:0:0:0:
448,192,153694,1,0,0:0:0:0:
192,192,153694,1,0,0:0:0:0:
64,192,153757,1,0,0:0:0:0:
192,192,153819,1,0,0:0:0:0:
448,192,153819,1,0,0:0:0:0:
320,192,153882,1,0,0:0:0:0:
192,192,153944,1,0,0:0:0:0:
64,192,153944,1,0,0:0:0:0:
448,192,154006,1,0,0:0:0:0:
320,192,154069,1,0,0:0:0:0:
64,192,154069,1,0,0:0:0:0:
192,192,154131,1,0,0:0:0:0:
320,192,154193,1,0,0:0:0:0:
448,192,154193,1,0,0:0:0:0:
64,192,154256,1,0,0:0:0:0:
192,192,154318,1,0,0:0:0:0:
448,192,154318,1,0,0:0:0:0:
320,192,154381,1,0,0:0:0:0:
192,192,154443,1,0,0:0:0:0:
64,192,154443,1,0,0:0:0:0:
448,192,154505,1,0,0:0:0:0:
320,192,154568,1,0,0:0:0:0:
64,192,154568,1,0,0:0:0:0:
192,192,154630,1,0,0:0:0:0:
320,192,154692,1,0,0:0:0:0:
448,192,154692,1,0,0:0:0:0:
64,192,154755,1,0,0:0:0:0:
192,192,154817,1,0,0:0:0:0:
448,192,154817,1,0,0:0:0:0:
320,192,154880,1,0,0:0:0:0:
64,192,154942,1,0,0:0:0:0:
192,192,154942,1,0,0:0:0:0:
448,192,155004,1,0,0:0:0:0:
320,192,155067,1,0,0:0:0:0:
64,192,155067,1,0,0:0:0:0:
192,192,155129,1,0,0:0:0:0:
320,192,155191,1,0,0:0:0:0:
448,192,155191,1,0,0:0:0:0:
192,192,155254,1,0,0:0:0:0:
64,192,155254,1,0,0:0:0:0:
320,192,155316,1,0,0:0:0:0:
448,192,155316,1,0,0:0:0:0:
192,192,155378,1,0,0:0:0:0:
64,192,155441,1,0,0:0:0:0:
448,192,155441,1,0,0:0:0:0:
320,192,155503,1,0,0:0:0:0:
192,192,155566,1,0,0:0:0:0:
64,192,155628,1,0,0:0:0:0:
320,192,155690,1,0,0:0:0:0:
448,192,155690,1,0,0:0:0:0:
192,192,155753,1,0,0:0:0:0:
64,192,155815,1,0,0:0:0:0:
448,192,155815,1,0,0:0:0:0:
320,192,155877,1,0,0:0:0:0:
192,192,155940,1,0,0:0:0:0:
64,192,155940,1,0,0:0:0:0:
320,192,156002,1,0,0:0:0:0:
448,192,156065,1,0,0:0:0:0:
64,192,156065,1,0,0:0:0:0:
192,192,156127,1,0,0:0:0:0:
320,192,156189,1,0,0:0:0:0:
448,192,156189,1,0,0:0:0:0:
192,192,156252,1,0,0:0:0:0:
64,192,156314,1,0,0:0:0:0:
448,192,156314,1,0,0:0:0:0:
320,192,156376,1,0,0:0:0:0:
192,192,156439,1,0,0:0:0:0:
64,192,156439,1,0,0:0:0:0:
320,192,156501,1,0,0:0:0:0:
448,192,156564,1,0,0:0:0:0:
64,192,156564,1,0,0:0:0:0:
192,192,156626,1,0,0:0:0:0:
320,192,156688,1,0,0:0:0:0:
448,192,156688,1,0,0:0:0:0:
192,192,156751,1,0,0:0:0:0:
64,192,156751,1,0,0:0:0:0:
320,192,156813,1,0,0:0:0:0:
448,192,156813,1,0,0:0:0:0:
192,192,156875,1,0,0:0:0:0:
64,192,156875,1,0,0:0:0:0:
448,192,156938,1,0,0:0:0:0:
320,192,156938,1,0,0:0:0:0:
192,192,157000,1,0,0:0:0:0:
64,192,157000,1,0,0:0:0:0:
448,192,157062,1,0,0:0:0:0:
320,192,157062,1,0,0:0:0:0:
192,192,157125,1,0,0:0:0:0:
64,192,157125,1,0,0:0:0:0:
320,192,157187,1,0,0:0:0:0:
448,192,157187,1,0,0:0:0:0:
192,192,157250,1,0,0:0:0:0:
64,192,157250,1,0,0:0:0:0:
320,192,157312,1,0,0:0:0:0:
448,192,157312,1,0,0:0:0:0:
192,192,157374,1,0,0:0:0:0:
64,192,157374,1,0,0:0:0:0:
320,192,157437,1,0,0:0:0:0:
448,192,157437,1,0,0:0:0:0:
192,192,157499,1,0,0:0:0:0:
64,192,157499,1,0,0:0:0:0:
320,192,157561,1,0,0:0:0:0:
448,192,157561,1,0,0:0:0:0:
192,192,157624,1,0,0:0:0:0:
64,192,157624,1,0,0:0:0:0:
320,192,157686,1,0,0:0:0:0:
448,192,157686,1,0,0:0:0:0:
