osu file format v14

[General]
AudioFilename: audio.ogg
AudioLeadIn: 0
PreviewTime: 91088
Countdown: 0
SampleSet: Normal
StackLeniency: 0.7
Mode: 1
LetterboxInBreaks: 0
WidescreenStoryboard: 1

[Editor]
Bookmarks: 1298,6901,16131,26031,40538,49769,54384,63615,72846,77461,91938,106338,117393,128212,138376,148873,159364,168545
DistanceSpacing: 0.1
BeatDivisor: 4
GridSize: 32
TimelineZoom: 2.100001

[Metadata]
Title:Teioh Education
TitleUnicode:帝王教育
Artist:Omoi
ArtistUnicode:Omoi
Creator:gaston_2199
Version:Oni
Source:
Tags:Teiou Kyouiku ナイトコンフェッション Night Confession fa featured artist mpg mappers' guild 桜井 sakurai 木村 kimura 初音ミク hatsune miku 鏡音リン kagamine rin ボーカロイド vocaloid japanese rock j-rock jrock synthrock
BeatmapID:3071828
BeatmapSetID:1466141

[Difficulty]
HPDrainRate:5
CircleSize:2
OverallDifficulty:6
ApproachRate:10
SliderMultiplier:1.4
SliderTickRate:1

[Events]
//Background and Video events
0,0,"BG.jpg",0,80
//Break Periods
//Storyboard Layer 0 (Background)
//Storyboard Layer 1 (Fail)
//Storyboard Layer 2 (Pass)
//Storyboard Layer 3 (Foreground)
//Storyboard Layer 4 (Overlay)
//Storyboard Sound Samples

[TimingPoints]
637,327.868852459016,4,1,0,40,1,8
637,-125,4,1,0,40,0,0
1293,327.868852459016,4,1,0,40,1,0
1293,-111.111111111111,4,1,0,40,0,0
6047,288.461538461538,4,1,0,40,1,8
6047,-126.294518817883,4,1,0,40,0,8
6314,-111.111111111111,4,1,0,40,0,0
6912,288.461538461538,4,1,0,60,1,0
6912,-125,4,1,0,60,0,0
16116,-100,4,1,0,80,0,0
16405,-111.111111111111,4,1,0,80,0,0
17270,-100,4,1,0,80,0,0
17559,-111.111111111111,4,1,0,80,0,0
18424,-100,4,1,0,80,0,0
18712,-111.111111111111,4,1,0,80,0,0
19578,-100,4,1,0,80,0,0
19866,-111.111111111111,4,1,0,80,0,0
20010,-100,4,1,0,80,0,0
20155,-111.111111111111,4,1,0,80,0,0
20443,-100,4,1,0,80,0,0
20876,-111.111111111111,4,1,0,80,0,0
21309,-100,4,1,0,80,0,0
21453,-111.111111111111,4,1,0,80,0,0
21885,-100,4,1,0,80,0,0
22030,-111.111111111111,4,1,0,80,0,0
22462,-100,4,1,0,80,0,0
22607,-111.111111111111,4,1,0,80,0,0
23039,-100,4,1,0,80,0,0
24508,327.868852459016,4,1,0,80,1,8
24508,-94.2072301479352,4,1,0,80,0,8
24836,400,4,1,0,80,1,8
24836,-83.3443250878444,4,1,0,80,0,8
25236,685.714285714286,4,1,0,80,1,8
25236,-52.5841346153846,4,1,0,80,0,8
25922,400,4,1,0,80,1,8
25922,-80,4,1,0,80,0,0
26036,288.461538461538,4,1,0,70,1,0
26036,-111.111111111111,4,1,0,70,0,0
27162,-100,4,1,0,80,0,0
36489,-102.272727272727,4,1,0,80,0,0
36573,-104.651162790698,4,1,0,80,0,0
36709,327.868852459016,4,1,0,80,1,8
36709,-94.8579722164629,4,1,0,80,0,0
36791,-97.0875846731068,4,1,0,80,0,0
36875,-99.4132985658411,4,1,0,80,0,0
37037,400,4,1,0,80,1,8
37037,-83.4862058524943,4,1,0,80,0,0
37142,-85.5968956859165,4,1,0,80,0,0
37275,-87.8063857486724,4,1,0,80,0,0
37437,685.714285714286,4,1,0,80,1,8
37437,-52.6742788461539,4,1,0,80,0,0
38123,400,4,1,0,80,1,8
38123,-71.9424460431655,4,1,0,80,0,0
38237,288.461538461538,4,1,0,80,1,0
39555,-90.9090909090909,4,1,0,80,0,0
40805,-111.111111111111,4,1,0,70,0,0
45420,-125,4,1,0,60,0,0
47439,-111.111111111111,4,1,0,70,0,0
54362,-100,4,1,0,80,0,0
62439,-90.9090909090908,4,1,0,80,0,0
63208,-100,4,1,0,80,0,0
63305,-102.523618878699,4,1,0,80,0,0
63401,-105.178019056154,4,1,0,80,0,0
63497,-107.973403991129,4,1,0,80,0,0
63621,-100,4,1,0,90,0,1
71698,-90.9090909090909,4,1,0,80,0,0
72852,-100,4,1,0,90,0,1
80901,-90.9090909090909,4,1,0,90,0,1
85544,288.461538461538,4,1,0,80,1,8
85545,400,4,1,0,80,1,0
85545,-72.1136511141559,4,1,0,80,0,0
85942,-73.0576927467409,4,1,0,80,0,0
86042,-73.2975778586342,4,1,0,80,0,0
86142,-73.5390434868537,4,1,0,80,0,0
86342,-74.026779187371,4,1,0,80,0,0
86442,-74.27308123038,4,1,0,80,0,0
86542,-74.5210277381238,4,1,0,80,0,0
86742,-75.0219204673866,4,1,0,80,0,0
86942,-75.5295922582168,4,1,0,80,0,0
87142,-76.04418166955,4,1,0,80,0,0
87542,-77.0946867305589,4,1,0,80,0,0
87742,-77.6308990385898,4,1,0,80,0,0
87842,-77.9018120691817,4,1,0,80,0,0
87942,-78.1746225631504,4,1,0,80,0,0
88042,-78.4493505251816,4,1,0,80,0,0
88142,-78.7260162421612,4,1,0,80,0,0
88342,-79.2852435295808,4,1,0,80,0,0
88542,-79.852472556951,4,1,0,80,0,0
88742,-80.4278763019262,4,1,0,80,0,0
89142,-81.6039251487996,4,1,0,80,0,0
89242,-81.9033310340679,4,1,0,80,0,0
89342,-82.2049420583604,4,1,0,80,0,0
89542,-82.8148776927775,4,1,0,80,0,0
89642,-83.1232523011503,4,1,0,80,0,0
89742,-83.4339320587062,4,1,0,80,0,0
89842,-83.7469429094473,4,1,0,80,0,0
89942,-84.0623111881682,4,1,0,80,0,0
90142,-84.7002273671728,4,1,0,80,0,0
90342,-85.3478993748266,4,1,0,80,0,0
90742,-86.6734199706394,4,1,0,80,0,0
90842,-87.0112584411117,4,1,0,80,0,0
90942,-87.3517408928986,4,1,0,80,0,0
91042,-87.6948984863038,4,1,0,80,0,0
91142,-88.0407628732103,4,1,0,80,0,0
91342,-88.7407411515775,4,1,0,80,0,0
91442,-89.094920893455,4,1,0,80,0,0
91542,-89.4519391503184,4,1,0,80,0,0
91742,-90.1746288045944,4,1,0,80,0,0
91945,-90.9090909090909,4,1,0,90,0,1
104745,-90.9090909090909,4,1,0,80,0,0
105145,-83.3333333333333,4,1,0,90,0,1
105516,-90.7389965355851,4,1,0,90,0,1
116745,327.868852459016,4,1,0,90,1,9
116745,-110.864745011086,4,1,0,90,0,1
117401,327.868852459016,4,1,0,90,1,0
128220,-100,4,1,0,90,0,1
138384,-100,4,1,0,80,0,0
147564,327.868852459016,4,1,0,80,1,8
147565,387.096774193548,4,1,0,80,1,0
147565,-84.6994535519126,4,1,0,80,0,0
147759,342.857142857143,4,1,0,80,1,8
147930,456.273764258555,4,1,0,80,1,8
148386,327.868852459016,4,1,0,80,1,8
148878,327.868852459016,4,1,0,100,1,1
168517,-90.9090909090909,4,1,0,100,0,1
173796,-90.9090909090909,4,1,0,80,0,0
173927,-100,4,1,0,80,0,0
179041,-90.9090909090909,4,1,0,90,0,1
182156,-90.9090909090909,4,1,0,90,0,0
182451,-111.111111111111,4,1,0,70,0,0
183107,-90.9090909090909,4,1,0,100,0,0

[HitObjects]
256,192,637,5,8,0:0:0:0:
256,192,718,1,8,0:0:0:0:
256,192,800,1,8,0:0:0:0:
256,192,964,1,8,0:0:0:0:
256,192,1128,1,8,0:0:0:0:
256,192,1293,1,0,0:0:0:0:
256,192,1374,1,0,0:0:0:0:
256,192,1456,1,0,0:0:0:0:
256,192,1620,1,8,0:0:0:0:
256,192,1784,1,0,0:0:0:0:
256,192,2112,1,0,0:0:0:0:
256,192,2276,1,0,0:0:0:0:
256,192,2440,1,8,0:0:0:0:
256,192,2604,1,0,0:0:0:0:
256,192,2768,1,8,0:0:0:0:
256,192,3096,1,0,0:0:0:0:
256,192,3178,1,0,0:0:0:0:
256,192,3260,1,0,0:0:0:0:
256,192,3424,1,8,0:0:0:0:
256,192,3588,1,0,0:0:0:0:
256,192,3915,1,0,0:0:0:0:
256,192,3997,1,0,0:0:0:0:
256,192,4079,1,0,0:0:0:0:
256,192,4243,1,8,0:0:0:0:
256,192,4407,1,0,0:0:0:0:
256,192,4735,1,0,0:0:0:0:
256,192,4899,1,0,0:0:0:0:
256,192,5063,1,8,0:0:0:0:
256,192,5227,1,0,0:0:0:0:
256,192,5391,1,8,0:0:0:0:
256,192,5719,1,0,0:0:0:0:
256,192,5801,1,0,0:0:0:0:
256,192,5883,1,0,0:0:0:0:
256,192,6047,1,8,0:0:0:0:
256,192,6335,12,0,6768,0:0:0:0:
256,160,6912,5,0,0:0:0:0:
256,160,7200,1,8,0:0:0:0:
256,160,7344,1,8,0:0:0:0:
256,160,7488,1,0,0:0:0:0:
256,160,7777,1,8,0:0:0:0:
256,160,8065,1,0,0:0:0:0:
256,160,8354,1,8,0:0:0:0:
256,160,8642,1,0,0:0:0:0:
253,156,8786,1,0,0:0:0:0:
256,160,8931,1,8,0:0:0:0:
256,160,9219,1,0,0:0:0:0:
256,160,9508,1,0,0:0:0:0:
256,160,9652,1,8,0:0:0:0:
256,160,9796,1,0,0:0:0:0:
256,160,10085,1,8,0:0:0:0:
256,160,10373,1,0,0:0:0:0:
256,160,10661,1,8,0:0:0:0:
251,158,10806,1,0,0:0:0:0:
256,160,10950,1,0,0:0:0:0:
256,160,11238,1,8,0:0:0:0:
256,160,11527,1,0,0:0:0:0:
253,148,11815,1,0,0:0:0:0:
256,160,11960,1,8,0:0:0:0:
256,160,12104,1,0,0:0:0:0:
256,160,12392,1,8,0:0:0:0:
256,160,12681,1,0,0:0:0:0:
256,160,12969,1,8,0:0:0:0:
251,158,13113,1,8,0:0:0:0:
256,160,13258,1,0,0:0:0:0:
256,151,13546,1,8,0:0:0:0:
256,128,13835,1,0,0:0:0:0:
256,128,14123,1,8,0:0:0:0:
256,128,14411,1,0,0:0:0:0:
252,127,14556,1,0,0:0:0:0:
256,128,14700,1,8,0:0:0:0:
256,128,14988,1,0,0:0:0:0:
256,128,15277,1,8,0:0:0:0:
256,128,15565,1,8,0:0:0:0:
250,124,15710,1,0,0:0:0:0:
256,128,15854,1,8,0:0:0:0:
256,128,16142,1,4,0:0:0:0:
256,128,17296,1,12,0:0:0:0:
256,128,18450,1,4,0:0:0:0:
256,128,18738,1,8,0:0:0:0:
256,128,18811,1,8,0:0:0:0:
256,128,18883,1,8,0:0:0:0:
256,128,19027,1,0,0:0:0:0:
256,128,19171,1,0,0:0:0:0:
256,128,19315,1,8,0:0:0:0:
256,128,19604,1,4,0:0:0:0:
256,128,20036,1,4,0:0:0:0:
256,128,20469,1,12,0:0:0:0:
256,128,20758,1,4,0:0:0:0:
256,128,21046,1,8,0:0:0:0:
256,128,21335,1,4,0:0:0:0:
256,128,21623,1,8,0:0:0:0:
256,128,21911,1,4,0:0:0:0:
256,128,22200,1,8,0:0:0:0:
256,128,22488,1,4,0:0:0:0:
256,128,22777,1,8,0:0:0:0:
256,128,23065,1,8,0:0:0:0:
256,128,23137,1,8,0:0:0:0:
256,128,23210,1,0,0:0:0:0:
256,128,23354,1,8,0:0:0:0:
256,128,23426,1,0,0:0:0:0:
256,128,23498,1,0,0:0:0:0:
256,128,23642,1,8,0:0:0:0:
256,128,23714,1,8,0:0:0:0:
256,128,23786,1,0,0:0:0:0:
256,128,23931,1,8,0:0:0:0:
256,128,24003,1,8,0:0:0:0:
256,128,24075,1,8,0:0:0:0:
256,128,24219,1,4,0:0:0:0:
256,128,24508,1,4,0:0:0:0:
256,128,24836,1,12,0:0:0:0:
256,128,25236,1,12,0:0:0:0:
288,128,26036,1,12,0:0:0:0:
288,128,26324,1,8,0:0:0:0:
288,128,26516,1,8,0:0:0:0:
288,128,26612,1,8,0:0:0:0:
288,128,26805,1,0,0:0:0:0:
288,128,26901,1,0,0:0:0:0:
288,128,27189,1,12,0:0:0:0:
288,128,27478,1,8,0:0:0:0:
288,128,27670,1,0,0:0:0:0:
288,128,27766,1,8,0:0:0:0:
288,128,27959,1,8,0:0:0:0:
288,128,28055,1,8,0:0:0:0:
288,128,28343,1,4,0:0:0:0:
288,128,28632,1,8,0:0:0:0:
288,128,28824,1,8,0:0:0:0:
288,128,28920,1,0,0:0:0:0:
286,124,29112,1,0,0:0:0:0:
288,128,29209,1,8,0:0:0:0:
288,128,29497,1,0,0:0:0:0:
288,128,29593,1,0,0:0:0:0:
288,128,29689,1,0,0:0:0:0:
288,128,29785,1,8,0:0:0:0:
288,128,30074,1,8,0:0:0:0:
285,127,30170,1,0,0:0:0:0:
288,128,30266,1,0,0:0:0:0:
288,128,30362,1,8,0:0:0:0:
288,128,30651,1,4,0:0:0:0:
288,128,30939,1,0,0:0:0:0:
288,128,31228,1,8,0:0:0:0:
288,128,31420,1,8,0:0:0:0:
288,128,31516,1,0,0:0:0:0:
288,128,31709,1,0,0:0:0:0:
288,128,31805,1,0,0:0:0:0:
288,128,32093,1,0,0:0:0:0:
288,128,32382,1,8,0:0:0:0:
288,128,32574,1,0,0:0:0:0:
288,128,32670,1,8,0:0:0:0:
288,128,32959,1,8,0:0:0:0:
283,123,33151,1,8,0:0:0:0:
288,128,33247,1,0,0:0:0:0:
288,128,33535,1,8,0:0:0:0:
288,128,33728,1,8,0:0:0:0:
288,128,33824,1,0,0:0:0:0:
288,128,34112,1,8,0:0:0:0:
288,128,34305,1,8,0:0:0:0:
288,128,34401,1,0,0:0:0:0:
288,128,34689,1,8,0:0:0:0:
288,128,34882,1,8,0:0:0:0:
288,128,34978,1,0,0:0:0:0:
288,128,35266,1,8,0:0:0:0:
287,123,35362,1,0,0:0:0:0:
288,128,35459,1,8,0:0:0:0:
288,128,35555,1,8,0:0:0:0:
288,128,35651,1,0,0:0:0:0:
288,128,35843,1,8,0:0:0:0:
288,128,35939,1,0,0:0:0:0:
288,128,36035,1,8,0:0:0:0:
288,128,36132,1,8,0:0:0:0:
288,128,36228,1,0,0:0:0:0:
256,192,36420,12,0,38123,0:0:0:0:
256,192,38237,5,12,0:0:0:0:
256,192,38525,1,0,0:0:0:0:
256,192,38813,1,0,0:0:0:0:
256,192,39006,1,8,0:0:0:0:
256,192,39102,1,8,0:0:0:0:
256,192,39294,1,0,0:0:0:0:
256,192,39390,1,0,0:0:0:0:
256,192,39583,1,12,0:0:0:0:
256,192,39871,1,12,0:0:0:0:
256,192,40160,1,12,0:0:0:0:
256,192,40544,1,4,0:0:0:0:
256,192,40833,1,8,0:0:0:0:
256,192,40929,1,0,0:0:0:0:
256,192,41025,1,0,0:0:0:0:
256,192,41121,1,8,0:0:0:0:
256,192,41313,1,0,0:0:0:0:
256,192,41410,1,8,0:0:0:0:
256,192,41698,1,4,0:0:0:0:
256,192,41986,1,8,0:0:0:0:
256,192,42275,1,0,0:0:0:0:
256,192,42563,1,8,0:0:0:0:
256,192,42852,1,4,0:0:0:0:
256,192,43140,1,0,0:0:0:0:
256,192,43236,1,0,0:0:0:0:
256,192,43333,1,8,0:0:0:0:
256,192,43429,1,0,0:0:0:0:
256,192,43621,1,0,0:0:0:0:
256,192,43717,1,0,0:0:0:0:
256,192,44006,1,12,0:0:0:0:
256,192,44294,1,8,0:0:0:0:
256,192,44583,1,0,0:0:0:0:
256,192,44871,1,8,0:0:0:0:
256,192,45160,1,4,0:0:0:0:
256,192,45929,1,8,0:0:0:0:
256,192,46025,1,8,0:0:0:0:
256,192,46217,1,8,0:0:0:0:
256,192,46313,1,0,0:0:0:0:
256,192,46890,1,8,0:0:0:0:
256,192,47083,1,0,0:0:0:0:
256,192,47179,1,8,0:0:0:0:
256,192,47467,1,4,0:0:0:0:
256,192,47756,1,8,0:0:0:0:
256,192,48044,1,0,0:0:0:0:
256,192,48333,1,8,0:0:0:0:
256,192,48621,1,0,0:0:0:0:
256,192,48910,1,8,0:0:0:0:
256,192,49102,1,0,0:0:0:0:
256,192,49198,1,8,0:0:0:0:
256,192,49486,1,8,0:0:0:0:
256,192,49775,1,4,0:0:0:0:
256,192,50063,1,8,0:0:0:0:
256,192,50160,1,0,0:0:0:0:
256,192,50256,1,0,0:0:0:0:
256,192,50352,1,8,0:0:0:0:
256,192,50544,1,0,0:0:0:0:
256,192,50640,1,8,0:0:0:0:
256,192,50929,1,4,0:0:0:0:
256,192,51217,1,8,0:0:0:0:
256,192,51506,1,0,0:0:0:0:
256,192,51794,1,8,0:0:0:0:
256,192,52083,1,4,0:0:0:0:
256,192,52371,1,0,0:0:0:0:
256,192,52467,1,0,0:0:0:0:
256,192,52563,1,8,0:0:0:0:
256,192,52660,1,0,0:0:0:0:
256,192,52852,1,0,0:0:0:0:
256,192,52948,1,0,0:0:0:0:
256,192,53236,1,12,0:0:0:0:
256,192,53525,1,8,0:0:0:0:
256,192,53717,1,8,0:0:0:0:
256,192,53813,1,0,0:0:0:0:
256,192,54006,1,8,0:0:0:0:
256,192,54102,1,8,0:0:0:0:
256,192,54390,1,4,0:0:0:0:
256,192,54679,1,0,0:0:0:0:
256,192,54871,1,8,0:0:0:0:
256,192,54967,1,0,0:0:0:0:
256,192,55256,1,0,0:0:0:0:
256,192,55448,1,8,0:0:0:0:
256,192,55544,1,0,0:0:0:0:
256,192,55833,1,0,0:0:0:0:
256,192,56025,1,8,0:0:0:0:
256,192,56121,1,0,0:0:0:0:
256,192,56410,1,0,0:0:0:0:
256,192,56602,1,8,0:0:0:0:
256,192,56698,1,8,0:0:0:0:
256,192,56986,1,8,0:0:0:0:
256,192,57179,1,0,0:0:0:0:
256,192,57275,1,8,0:0:0:0:
256,192,57563,1,8,0:0:0:0:
256,192,57756,1,0,0:0:0:0:
256,192,57852,1,8,0:0:0:0:
256,192,58140,1,8,0:0:0:0:
256,192,58333,1,0,0:0:0:0:
256,192,58429,1,8,0:0:0:0:
256,192,58717,1,8,0:0:0:0:
256,192,58910,1,8,0:0:0:0:
256,192,59006,1,0,0:0:0:0:
256,192,59294,1,8,0:0:0:0:
256,192,59486,1,8,0:0:0:0:
256,192,59583,1,0,0:0:0:0:
254,185,59775,1,0,0:0:0:0:
256,192,59871,1,8,0:0:0:0:
256,192,60160,1,0,0:0:0:0:
256,192,60448,1,8,0:0:0:0:
256,192,60640,1,8,0:0:0:0:
256,192,60736,1,0,0:0:0:0:
252,185,60929,1,0,0:0:0:0:
256,192,61025,1,8,0:0:0:0:
256,192,61313,1,8,0:0:0:0:
256,192,61410,1,0,0:0:0:0:
256,192,61506,1,0,0:0:0:0:
256,192,61602,1,8,0:0:0:0:
256,192,61890,1,8,0:0:0:0:
256,192,61986,1,0,0:0:0:0:
256,192,62083,1,0,0:0:0:0:
256,192,62179,1,8,0:0:0:0:
256,192,62467,1,4,0:0:0:0:
256,192,62660,1,12,0:0:0:0:
256,192,62852,1,12,0:0:0:0:
256,192,63044,1,4,0:0:0:0:
256,192,63621,1,4,0:0:0:0:
256,192,63910,1,8,0:0:0:0:
256,192,64102,1,8,0:0:0:0:
256,188,64198,1,0,0:0:0:0:
256,192,64390,1,0,0:0:0:0:
256,192,64486,1,8,0:0:0:0:
256,192,64679,1,8,0:0:0:0:
256,192,64775,1,8,0:0:0:0:
256,192,65063,1,0,0:0:0:0:
256,192,65256,1,0,0:0:0:0:
256,192,65352,1,8,0:0:0:0:
256,192,65544,1,0,0:0:0:0:
255,188,65640,1,0,0:0:0:0:
248,181,65833,1,0,0:0:0:0:
256,192,65929,1,8,0:0:0:0:
256,192,66217,1,8,0:0:0:0:
251,183,66410,1,8,0:0:0:0:
256,192,66506,1,0,0:0:0:0:
256,192,66794,1,8,0:0:0:0:
256,192,66986,1,8,0:0:0:0:
256,192,67083,1,0,0:0:0:0:
256,192,67275,1,0,0:0:0:0:
256,192,67371,1,8,0:0:0:0:
256,192,67660,1,0,0:0:0:0:
256,192,67756,1,0,0:0:0:0:
256,192,67852,1,0,0:0:0:0:
256,192,67948,1,8,0:0:0:0:
256,192,68236,1,0,0:0:0:0:
251,187,68429,1,0,0:0:0:0:
256,192,68525,1,8,0:0:0:0:
256,192,68813,1,8,0:0:0:0:
256,192,69006,1,0,0:0:0:0:
256,192,69102,1,0,0:0:0:0:
256,192,69390,1,0,0:0:0:0:
256,192,69583,1,8,0:0:0:0:
256,192,69679,1,0,0:0:0:0:
251,184,69871,1,0,0:0:0:0:
256,192,69967,1,0,0:0:0:0:
250,186,70160,1,0,0:0:0:0:
256,192,70256,1,8,0:0:0:0:
256,192,70544,1,8,0:0:0:0:
256,192,70640,1,0,0:0:0:0:
256,192,70736,1,0,0:0:0:0:
256,192,70833,1,8,0:0:0:0:
256,192,71025,1,0,0:0:0:0:
256,192,71121,1,8,0:0:0:0:
256,192,71313,1,0,0:0:0:0:
256,192,71410,1,0,0:0:0:0:
256,192,71698,1,12,0:0:0:0:
256,192,71986,1,12,0:0:0:0:
256,192,72275,1,4,0:0:0:0:
256,192,72563,1,4,0:0:0:0:
256,192,72852,1,12,0:0:0:0:
256,192,73140,1,0,0:0:0:0:
256,192,73333,1,8,0:0:0:0:
256,192,73429,1,0,0:0:0:0:
256,192,73621,1,0,0:0:0:0:
256,192,73717,1,0,0:0:0:0:
253,182,73910,1,0,0:0:0:0:
256,192,74006,1,8,0:0:0:0:
256,192,74294,1,0,0:0:0:0:
256,192,74486,1,8,0:0:0:0:
256,192,74583,1,8,0:0:0:0:
256,192,74775,1,8,0:0:0:0:
256,192,74871,1,0,0:0:0:0:
256,192,75160,1,0,0:0:0:0:
256,192,75256,1,0,0:0:0:0:
256,192,75352,1,8,0:0:0:0:
256,192,75448,1,0,0:0:0:0:
256,192,75640,1,0,0:0:0:0:
256,192,75736,1,8,0:0:0:0:
256,192,75929,1,8,0:0:0:0:
256,192,76025,1,0,0:0:0:0:
256,192,76313,1,8,0:0:0:0:
250,184,76506,1,0,0:0:0:0:
256,192,76602,1,8,0:0:0:0:
256,192,76794,1,0,0:0:0:0:
256,192,76890,1,8,0:0:0:0:
256,192,77083,1,8,0:0:0:0:
256,192,77179,1,0,0:0:0:0:
251,180,77467,1,0,0:0:0:0:
256,178,77660,1,8,0:0:0:0:
256,192,77756,1,0,0:0:0:0:
256,192,77948,1,0,0:0:0:0:
256,192,78044,1,8,0:0:0:0:
256,192,78236,1,0,0:0:0:0:
256,192,78333,1,0,0:0:0:0:
256,192,78621,1,0,0:0:0:0:
256,192,78717,1,0,0:0:0:0:
256,192,78813,1,8,0:0:0:0:
256,192,78910,1,0,0:0:0:0:
256,192,79102,1,0,0:0:0:0:
256,192,79198,1,8,0:0:0:0:
256,192,79390,1,8,0:0:0:0:
256,192,79486,1,0,0:0:0:0:
256,192,79775,1,8,0:0:0:0:
256,192,79871,1,0,0:0:0:0:
256,192,79967,1,0,0:0:0:0:
256,192,80063,1,8,0:0:0:0:
256,192,80256,1,8,0:0:0:0:
256,192,80352,1,0,0:0:0:0:
256,182,80544,1,0,0:0:0:0:
256,177,80640,1,8,0:0:0:0:
256,177,80929,1,4,0:0:0:0:
256,177,81217,1,4,0:0:0:0:
256,177,81506,1,12,0:0:0:0:
256,177,81794,1,12,0:0:0:0:
256,177,82083,1,4,0:0:0:0:
256,177,82371,1,4,0:0:0:0:
256,177,82660,1,12,0:0:0:0:
256,177,82948,1,12,0:0:0:0:
256,192,83236,12,0,85352,0:0:0:0:
256,177,85545,5,4,0:0:0:0:
256,177,85945,1,8,0:0:0:0:
255,170,86045,1,8,0:0:0:0:
256,177,86145,1,8,0:0:0:0:
256,177,86345,1,0,0:0:0:0:
256,177,86445,1,0,0:0:0:0:
256,177,86545,1,0,0:0:0:0:
256,177,86745,1,8,0:0:0:0:
256,177,86945,1,8,0:0:0:0:
256,177,87145,1,4,0:0:0:0:
256,177,87545,1,8,0:0:0:0:
256,177,87745,1,8,0:0:0:0:
256,177,87845,1,8,0:0:0:0:
256,177,87945,1,0,0:0:0:0:
256,177,88045,1,0,0:0:0:0:
256,177,88145,1,0,0:0:0:0:
256,177,88345,1,8,0:0:0:0:
256,177,88545,1,8,0:0:0:0:
256,177,88745,1,4,0:0:0:0:
256,177,89145,1,8,0:0:0:0:
256,177,89245,1,8,0:0:0:0:
256,177,89345,1,8,0:0:0:0:
256,177,89545,1,0,0:0:0:0:
256,177,89645,1,0,0:0:0:0:
256,177,89745,1,8,0:0:0:0:
256,177,89845,1,8,0:0:0:0:
256,177,89945,1,0,0:0:0:0:
256,177,90145,1,8,0:0:0:0:
256,177,90345,1,4,0:0:0:0:
256,177,90745,1,0,0:0:0:0:
256,177,90845,1,0,0:0:0:0:
256,177,90945,1,0,0:0:0:0:
252,174,91045,1,0,0:0:0:0:
256,160,91145,1,8,0:0:0:0:
256,160,91345,1,0,0:0:0:0:
256,160,91445,1,0,0:0:0:0:
256,160,91545,1,8,0:0:0:0:
256,160,91745,1,8,0:0:0:0:
256,160,91945,1,4,0:0:0:0:
256,160,92345,1,8,0:0:0:0:
256,160,92545,1,8,0:0:0:0:
256,160,92745,1,0,0:0:0:0:
256,160,92945,1,0,0:0:0:0:
256,160,93145,1,8,0:0:0:0:
256,160,93245,1,0,0:0:0:0:
256,160,93345,1,8,0:0:0:0:
256,160,93545,1,0,0:0:0:0:
256,160,93945,1,8,0:0:0:0:
256,160,94145,1,0,0:0:0:0:
256,160,94345,1,8,0:0:0:0:
256,160,94445,1,0,0:0:0:0:
256,160,94545,1,8,0:0:0:0:
256,160,94745,1,0,0:0:0:0:
256,160,94945,1,8,0:0:0:0:
256,160,95145,1,4,0:0:0:0:
256,160,95545,1,8,0:0:0:0:
256,160,95745,1,8,0:0:0:0:
256,160,95845,1,8,0:0:0:0:
256,160,95945,1,0,0:0:0:0:
256,160,96145,1,8,0:0:0:0:
256,160,96345,1,0,0:0:0:0:
256,160,96545,1,8,0:0:0:0:
256,160,96745,1,0,0:0:0:0:
256,160,97145,1,0,0:0:0:0:
256,160,97345,1,0,0:0:0:0:
256,160,97545,1,8,0:0:0:0:
256,160,97745,1,8,0:0:0:0:
256,160,97945,1,8,0:0:0:0:
256,160,98045,1,0,0:0:0:0:
256,160,98145,1,8,0:0:0:0:
256,160,98345,1,4,0:0:0:0:
256,160,98745,1,8,0:0:0:0:
256,160,98945,1,0,0:0:0:0:
256,160,99145,1,8,0:0:0:0:
256,160,99345,1,0,0:0:0:0:
256,160,99445,1,0,0:0:0:0:
256,160,99545,1,8,0:0:0:0:
256,160,99745,1,8,0:0:0:0:
256,160,99945,1,0,0:0:0:0:
256,160,100345,1,8,0:0:0:0:
256,160,100545,1,0,0:0:0:0:
256,160,100745,1,8,0:0:0:0:
256,160,100845,1,0,0:0:0:0:
256,160,100945,1,8,0:0:0:0:
256,160,101145,1,0,0:0:0:0:
256,160,101345,1,8,0:0:0:0:
256,160,101545,1,4,0:0:0:0:
256,160,101945,1,8,0:0:0:0:
256,160,102045,1,0,0:0:0:0:
256,160,102145,1,8,0:0:0:0:
256,160,102345,1,0,0:0:0:0:
256,160,102545,1,8,0:0:0:0:
256,160,102645,1,8,0:0:0:0:
256,160,102745,1,0,0:0:0:0:
256,160,102945,1,8,0:0:0:0:
256,160,103145,1,0,0:0:0:0:
256,160,103345,1,8,0:0:0:0:
256,160,103545,1,0,0:0:0:0:
256,160,103745,1,0,0:0:0:0:
256,160,103945,1,8,0:0:0:0:
256,160,104145,1,8,0:0:0:0:
256,160,104345,1,8,0:0:0:0:
256,160,104445,1,8,0:0:0:0:
256,160,104545,1,0,0:0:0:0:
256,160,104745,1,0,0:0:0:0:
256,160,104845,1,0,0:0:0:0:
256,160,104945,1,0,0:0:0:0:
256,160,105145,1,12,0:0:0:0:
256,160,105545,1,8,0:0:0:0:
256,160,105645,1,8,0:0:0:0:
256,160,105745,1,0,0:0:0:0:
256,160,105845,1,0,0:0:0:0:
256,160,105945,1,8,0:0:0:0:
256,160,106145,1,8,0:0:0:0:
256,160,106345,1,0,0:0:0:0:
256,160,106445,1,8,0:0:0:0:
256,160,106545,1,0,0:0:0:0:
256,160,106745,1,8,0:0:0:0:
256,160,106945,1,0,0:0:0:0:
256,160,107145,1,8,0:0:0:0:
254,157,107245,1,0,0:0:0:0:
256,160,107345,1,8,0:0:0:0:
256,160,107545,1,0,0:0:0:0:
256,160,107745,1,8,0:0:0:0:
256,160,107945,1,4,0:0:0:0:
256,160,108345,1,8,0:0:0:0:
256,160,108545,1,8,0:0:0:0:
256,160,108645,1,8,0:0:0:0:
256,160,108745,1,0,0:0:0:0:
256,160,108945,1,8,0:0:0:0:
256,160,109145,1,0,0:0:0:0:
256,160,109345,1,8,0:0:0:0:
256,160,109545,1,0,0:0:0:0:
256,160,109945,1,0,0:0:0:0:
256,160,110045,1,0,0:0:0:0:
256,160,110145,1,0,0:0:0:0:
256,160,110345,1,8,0:0:0:0:
256,160,110545,1,8,0:0:0:0:
256,160,110745,1,8,0:0:0:0:
256,160,110945,1,8,0:0:0:0:
253,155,111145,1,4,0:0:0:0:
256,160,111445,1,0,0:0:0:0:
256,160,111545,1,8,0:0:0:0:
256,160,111745,1,0,0:0:0:0:
256,160,111945,1,8,0:0:0:0:
256,160,112145,1,0,0:0:0:0:
256,160,112245,1,0,0:0:0:0:
256,160,112345,1,8,0:0:0:0:
256,160,112545,1,8,0:0:0:0:
256,160,112745,1,0,0:0:0:0:
256,160,113045,1,0,0:0:0:0:
256,160,113145,1,8,0:0:0:0:
256,160,113345,1,0,0:0:0:0:
256,160,113545,1,8,0:0:0:0:
256,160,113645,1,0,0:0:0:0:
256,160,113745,1,8,0:0:0:0:
256,160,113945,1,0,0:0:0:0:
256,160,114145,1,8,0:0:0:0:
256,160,114345,1,4,0:0:0:0:
256,160,114745,1,8,0:0:0:0:
256,160,114845,1,0,0:0:0:0:
256,160,114945,1,8,0:0:0:0:
256,160,115145,1,0,0:0:0:0:
256,160,115345,1,8,0:0:0:0:
256,160,115445,1,8,0:0:0:0:
256,160,115545,1,0,0:0:0:0:
256,160,115745,1,8,0:0:0:0:
256,160,115945,1,8,0:0:0:0:
256,160,116045,1,8,0:0:0:0:
256,160,116145,1,0,0:0:0:0:
256,160,116345,1,8,0:0:0:0:
256,160,116445,1,0,0:0:0:0:
256,160,116545,1,0,0:0:0:0:
256,160,116745,1,8,0:0:0:0:
256,160,117072,1,8,0:0:0:0:
256,160,117401,1,4,0:0:0:0:
256,160,117728,1,8,0:0:0:0:
256,160,117892,1,0,0:0:0:0:
256,160,118056,1,8,0:0:0:0:
258,157,118138,1,0,0:0:0:0:
256,160,118220,1,8,0:0:0:0:
256,160,118384,1,0,0:0:0:0:
256,160,118548,1,8,0:0:0:0:
256,160,118712,1,0,0:0:0:0:
256,160,119040,1,8,0:0:0:0:
256,160,119204,1,8,0:0:0:0:
256,160,119368,1,0,0:0:0:0:
256,160,119532,1,0,0:0:0:0:
256,160,119696,1,8,0:0:0:0:
256,160,119860,1,0,0:0:0:0:
256,160,119941,1,8,0:0:0:0:
256,160,120023,1,0,0:0:0:0:
256,160,120187,1,0,0:0:0:0:
254,155,120351,1,8,0:0:0:0:
256,160,120515,1,0,0:0:0:0:
256,160,120843,1,8,0:0:0:0:
256,160,121007,1,0,0:0:0:0:
256,160,121171,1,8,0:0:0:0:
256,160,121335,1,8,0:0:0:0:
256,160,121417,1,8,0:0:0:0:
256,160,121499,1,0,0:0:0:0:
256,160,121663,1,8,0:0:0:0:
256,160,121827,1,0,0:0:0:0:
256,160,121991,1,8,0:0:0:0:
256,160,122155,1,0,0:0:0:0:
256,160,122237,1,0,0:0:0:0:
256,160,122319,1,8,0:0:0:0:
256,160,122401,1,0,0:0:0:0:
256,160,122482,1,8,0:0:0:0:
256,160,122646,1,0,0:0:0:0:
256,160,122974,1,8,0:0:0:0:
256,160,123138,1,0,0:0:0:0:
249,158,123302,1,8,0:0:0:0:
256,160,123466,1,0,0:0:0:0:
254,158,123548,1,0,0:0:0:0:
252,157,123630,1,8,0:0:0:0:
256,160,123794,1,8,0:0:0:0:
256,160,123958,1,0,0:0:0:0:
256,160,124286,1,8,0:0:0:0:
256,160,124450,1,8,0:0:0:0:
250,155,124614,1,0,0:0:0:0:
247,151,124696,1,0,0:0:0:0:
256,160,124778,1,0,0:0:0:0:
256,160,124941,1,8,0:0:0:0:
256,160,125105,1,8,0:0:0:0:
256,160,125269,1,0,0:0:0:0:
256,160,125433,1,0,0:0:0:0:
256,160,125597,1,8,0:0:0:0:
256,160,125761,1,8,0:0:0:0:
256,160,125843,1,8,0:0:0:0:
256,160,125925,1,8,0:0:0:0:
256,160,126089,1,0,0:0:0:0:
256,160,126253,1,8,0:0:0:0:
256,160,126417,1,0,0:0:0:0:
256,160,126499,1,0,0:0:0:0:
256,160,126581,1,8,0:0:0:0:
256,153,126745,1,0,0:0:0:0:
256,160,126909,1,8,0:0:0:0:
256,160,127237,1,8,0:0:0:0:
256,160,127400,1,0,0:0:0:0:
256,160,127564,1,8,0:0:0:0:
256,160,127646,1,8,0:0:0:0:
256,160,127728,1,8,0:0:0:0:
256,160,127810,1,8,0:0:0:0:
256,155,128220,1,12,0:0:0:0:
256,160,128548,1,8,0:0:0:0:
256,160,128630,1,0,0:0:0:0:
256,160,128712,1,8,0:0:0:0:
256,160,128876,1,0,0:0:0:0:
256,160,129040,1,8,0:0:0:0:
256,160,129204,1,0,0:0:0:0:
256,160,129286,1,0,0:0:0:0:
256,160,129368,1,0,0:0:0:0:
256,160,129532,1,8,0:0:0:0:
256,160,129696,1,0,0:0:0:0:
256,160,129860,1,8,0:0:0:0:
256,160,129941,1,0,0:0:0:0:
256,160,130023,1,8,0:0:0:0:
256,160,130105,1,0,0:0:0:0:
256,160,130187,1,8,0:0:0:0:
256,160,130351,1,0,0:0:0:0:
256,160,130515,1,8,0:0:0:0:
256,160,130843,1,8,0:0:0:0:
256,160,131007,1,8,0:0:0:0:
256,160,131089,1,0,0:0:0:0:
256,160,131171,1,8,0:0:0:0:
252,166,131335,1,0,0:0:0:0:
256,160,131499,1,8,0:0:0:0:
256,160,131663,1,0,0:0:0:0:
256,160,131745,1,0,0:0:0:0:
256,160,131827,1,8,0:0:0:0:
257,154,131991,1,0,0:0:0:0:
256,160,132155,1,8,0:0:0:0:
256,160,132319,1,0,0:0:0:0:
256,160,132482,1,8,0:0:0:0:
256,160,132564,1,0,0:0:0:0:
256,160,132646,1,8,0:0:0:0:
256,160,132728,1,8,0:0:0:0:
256,160,132810,1,0,0:0:0:0:
256,160,132974,1,8,0:0:0:0:
256,160,133138,1,0,0:0:0:0:
256,160,133466,1,8,0:0:0:0:
256,160,133630,1,0,0:0:0:0:
256,160,133794,1,8,0:0:0:0:
256,160,133876,1,0,0:0:0:0:
256,160,133958,1,8,0:0:0:0:
256,160,134122,1,0,0:0:0:0:
256,160,134286,1,8,0:0:0:0:
253,158,134368,1,8,0:0:0:0:
256,160,134450,1,0,0:0:0:0:
256,160,134614,1,0,0:0:0:0:
256,160,134778,1,8,0:0:0:0:
256,160,134941,1,0,0:0:0:0:
256,160,135023,1,0,0:0:0:0:
256,160,135105,1,8,0:0:0:0:
256,160,135187,1,8,0:0:0:0:
256,160,135269,1,0,0:0:0:0:
256,160,135433,1,8,0:0:0:0:
256,160,135597,1,8,0:0:0:0:
256,160,135761,1,0,0:0:0:0:
256,160,136089,1,8,0:0:0:0:
256,160,136253,1,8,0:0:0:0:
256,160,136335,1,8,0:0:0:0:
256,160,136417,1,0,0:0:0:0:
256,160,136581,1,0,0:0:0:0:
256,160,136745,1,8,0:0:0:0:
256,160,136909,1,8,0:0:0:0:
256,160,137073,1,0,0:0:0:0:
256,160,137237,1,8,0:0:0:0:
256,160,137319,1,8,0:0:0:0:
256,160,137400,1,8,0:0:0:0:
256,160,137564,1,0,0:0:0:0:
256,160,137728,1,8,0:0:0:0:
256,160,137810,1,8,0:0:0:0:
256,160,137892,1,0,0:0:0:0:
256,160,137974,1,0,0:0:0:0:
256,160,138056,1,8,0:0:0:0:
256,160,138220,1,8,0:0:0:0:
256,160,138384,1,4,0:0:0:0:
256,160,138712,1,8,0:0:0:0:
256,160,138876,1,0,0:0:0:0:
256,160,139204,1,0,0:0:0:0:
256,160,139368,1,8,0:0:0:0:
256,160,139696,1,8,0:0:0:0:
256,160,139860,1,0,0:0:0:0:
256,160,140023,1,8,0:0:0:0:
256,160,140187,1,8,0:0:0:0:
256,160,140351,1,0,0:0:0:0:
256,160,140515,1,0,0:0:0:0:
256,160,140679,1,8,0:0:0:0:
256,160,140843,1,8,0:0:0:0:
256,160,141007,1,0,0:0:0:0:
256,160,141335,1,8,0:0:0:0:
256,160,141499,1,0,0:0:0:0:
256,160,141827,1,0,0:0:0:0:
256,160,141991,1,8,0:0:0:0:
256,160,142319,1,0,0:0:0:0:
256,160,142482,1,0,0:0:0:0:
256,160,142646,1,8,0:0:0:0:
256,160,142810,1,0,0:0:0:0:
256,156,142892,1,0,0:0:0:0:
256,156,142974,1,8,0:0:0:0:
256,160,143138,1,0,0:0:0:0:
256,160,143302,1,8,0:0:0:0:
256,160,143466,1,8,0:0:0:0:
256,160,143630,1,4,0:0:0:0:
256,160,143958,1,8,0:0:0:0:
256,160,144122,1,0,0:0:0:0:
256,160,144450,1,0,0:0:0:0:
256,160,144614,1,8,0:0:0:0:
256,160,144941,1,8,0:0:0:0:
256,160,145105,1,0,0:0:0:0:
256,160,145269,1,8,0:0:0:0:
256,160,145433,1,8,0:0:0:0:
256,160,145597,1,0,0:0:0:0:
256,160,145761,1,0,0:0:0:0:
256,160,145925,1,8,0:0:0:0:
256,160,146089,1,8,0:0:0:0:
256,160,146253,1,0,0:0:0:0:
256,160,146581,1,8,0:0:0:0:
256,160,146745,1,0,0:0:0:0:
256,160,147073,1,0,0:0:0:0:
256,160,147237,1,12,0:0:0:0:
256,160,147565,1,4,0:0:0:0:
256,160,148878,1,12,0:0:0:0:
256,160,149205,1,8,0:0:0:0:
256,160,149369,1,0,0:0:0:0:
256,160,149533,1,8,0:0:0:0:
256,160,149697,1,0,0:0:0:0:
256,160,149779,1,8,0:0:0:0:
256,160,149861,1,0,0:0:0:0:
256,160,150025,1,8,0:0:0:0:
256,160,150189,1,0,0:0:0:0:
256,160,150517,1,8,0:0:0:0:
256,160,150681,1,0,0:0:0:0:
256,160,150845,1,8,0:0:0:0:
256,160,150927,1,0,0:0:0:0:
256,160,151009,1,8,0:0:0:0:
256,160,151173,1,8,0:0:0:0:
256,160,151337,1,0,0:0:0:0:
256,160,151500,1,8,0:0:0:0:
256,160,151828,1,8,0:0:0:0:
256,160,151992,1,0,0:0:0:0:
256,160,152074,1,0,0:0:0:0:
256,160,152156,1,8,0:0:0:0:
256,160,152320,1,0,0:0:0:0:
256,160,152484,1,8,0:0:0:0:
256,160,152648,1,8,0:0:0:0:
256,160,152812,1,0,0:0:0:0:
251,157,152976,1,0,0:0:0:0:
247,153,153058,1,0,0:0:0:0:
256,160,153140,1,8,0:0:0:0:
256,153,153304,1,0,0:0:0:0:
256,153,153468,1,8,0:0:0:0:
256,153,153550,1,8,0:0:0:0:
256,153,153632,1,0,0:0:0:0:
256,153,153714,1,0,0:0:0:0:
256,153,153796,1,8,0:0:0:0:
256,153,153959,1,8,0:0:0:0:
256,153,154123,1,4,0:0:0:0:
256,153,154451,1,8,0:0:0:0:
256,153,154615,1,0,0:0:0:0:
256,160,154779,1,8,0:0:0:0:
256,160,154943,1,0,0:0:0:0:
256,160,155025,1,8,0:0:0:0:
256,160,155107,1,0,0:0:0:0:
256,160,155271,1,8,0:0:0:0:
256,160,155435,1,0,0:0:0:0:
256,160,155763,1,8,0:0:0:0:
256,160,155927,1,8,0:0:0:0:
256,160,156009,1,0,0:0:0:0:
256,160,156091,1,8,0:0:0:0:
256,160,156255,1,0,0:0:0:0:
256,160,156418,1,8,0:0:0:0:
256,160,156582,1,8,0:0:0:0:
256,160,156746,1,0,0:0:0:0:
256,160,156910,1,0,0:0:0:0:
253,157,156992,1,0,0:0:0:0:
256,160,157074,1,8,0:0:0:0:
256,160,157238,1,8,0:0:0:0:
256,160,157402,1,0,0:0:0:0:
256,160,157566,1,8,0:0:0:0:
256,160,157648,1,0,0:0:0:0:
256,160,157730,1,8,0:0:0:0:
256,160,157894,1,4,0:0:0:0:
256,160,158222,1,0,0:0:0:0:
256,160,158386,1,8,0:0:0:0:
256,160,158550,1,4,0:0:0:0:
256,160,158878,1,0,0:0:0:0:
256,160,159041,1,8,0:0:0:0:
256,160,159205,1,8,0:0:0:0:
256,160,159369,1,4,0:0:0:0:
256,160,159697,1,8,0:0:0:0:
256,160,159861,1,0,0:0:0:0:
256,160,160025,1,8,0:0:0:0:
256,160,160189,1,0,0:0:0:0:
256,160,160271,1,8,0:0:0:0:
256,160,160353,1,8,0:0:0:0:
256,160,160517,1,8,0:0:0:0:
256,160,160681,1,0,0:0:0:0:
256,160,161009,1,8,0:0:0:0:
256,160,161173,1,0,0:0:0:0:
256,160,161337,1,8,0:0:0:0:
256,160,161418,1,0,0:0:0:0:
256,160,161500,1,8,0:0:0:0:
256,160,161664,1,8,0:0:0:0:
256,160,161828,1,0,0:0:0:0:
256,160,161992,1,8,0:0:0:0:
256,160,162320,1,8,0:0:0:0:
256,160,162484,1,0,0:0:0:0:
256,160,162566,1,0,0:0:0:0:
256,160,162648,1,8,0:0:0:0:
256,160,162812,1,0,0:0:0:0:
256,160,162976,1,8,0:0:0:0:
256,160,163140,1,8,0:0:0:0:
256,160,163304,1,0,0:0:0:0:
256,160,163468,1,0,0:0:0:0:
256,160,163550,1,0,0:0:0:0:
256,160,163632,1,8,0:0:0:0:
256,153,163796,1,0,0:0:0:0:
256,153,163959,1,8,0:0:0:0:
256,153,164041,1,8,0:0:0:0:
256,153,164123,1,0,0:0:0:0:
256,153,164205,1,0,0:0:0:0:
256,153,164287,1,8,0:0:0:0:
256,153,164451,1,8,0:0:0:0:
256,153,164615,1,4,0:0:0:0:
256,153,164943,1,8,0:0:0:0:
256,153,165107,1,0,0:0:0:0:
256,160,165271,1,8,0:0:0:0:
256,160,165435,1,0,0:0:0:0:
256,160,165517,1,8,0:0:0:0:
256,160,165599,1,0,0:0:0:0:
256,160,165763,1,8,0:0:0:0:
256,160,165927,1,0,0:0:0:0:
256,160,166255,1,8,0:0:0:0:
256,160,166418,1,8,0:0:0:0:
256,160,166500,1,0,0:0:0:0:
256,160,166582,1,8,0:0:0:0:
256,160,166746,1,0,0:0:0:0:
256,160,166910,1,8,0:0:0:0:
256,160,166992,1,8,0:0:0:0:
256,160,167074,1,8,0:0:0:0:
256,160,167238,1,0,0:0:0:0:
256,160,167402,1,0,0:0:0:0:
256,160,167484,1,0,0:0:0:0:
256,160,167566,1,8,0:0:0:0:
256,160,167730,1,0,0:0:0:0:
256,160,167894,1,8,0:0:0:0:
256,160,167976,1,8,0:0:0:0:
256,160,168058,1,0,0:0:0:0:
256,160,168140,1,0,0:0:0:0:
256,160,168222,1,8,0:0:0:0:
256,160,168386,1,8,0:0:0:0:
256,160,168550,1,4,0:0:0:0:
256,160,168877,1,4,0:0:0:0:
256,160,169205,1,12,0:0:0:0:
256,160,169533,1,12,0:0:0:0:
256,160,169861,1,4,0:0:0:0:
256,160,170189,1,4,0:0:0:0:
256,160,170517,1,12,0:0:0:0:
256,160,170845,1,12,0:0:0:0:
256,160,171173,1,4,0:0:0:0:
256,160,171500,1,4,0:0:0:0:
256,160,171828,1,12,0:0:0:0:
256,160,172156,1,12,0:0:0:0:
256,160,172484,1,0,0:0:0:0:
256,160,172648,1,0,0:0:0:0:
256,160,172730,1,0,0:0:0:0:
256,160,172812,1,8,0:0:0:0:
256,160,172976,1,0,0:0:0:0:
256,160,173140,1,8,0:0:0:0:
256,160,173222,1,8,0:0:0:0:
256,160,173304,1,0,0:0:0:0:
256,160,173386,1,0,0:0:0:0:
256,160,173468,1,8,0:0:0:0:
256,160,173632,1,8,0:0:0:0:
256,160,173796,1,4,0:0:0:0:
256,160,174123,1,8,0:0:0:0:
256,160,174779,1,8,0:0:0:0:
248,149,175107,1,0,0:0:0:0:
256,160,175435,1,8,0:0:0:0:
256,160,176091,1,8,0:0:0:0:
256,160,176418,1,0,0:0:0:0:
256,160,176746,1,8,0:0:0:0:
256,160,177402,1,8,0:0:0:0:
249,149,177730,1,0,0:0:0:0:
256,160,178058,1,8,0:0:0:0:
256,160,178714,1,8,0:0:0:0:
256,160,179041,1,8,0:0:0:0:
256,160,179123,1,0,0:0:0:0:
256,160,179205,1,8,0:0:0:0:
256,160,179369,1,8,0:0:0:0:
256,160,179533,1,0,0:0:0:0:
256,160,179861,1,8,0:0:0:0:
256,160,179943,1,8,0:0:0:0:
256,160,180025,1,0,0:0:0:0:
256,160,180189,1,8,0:0:0:0:
256,160,180353,1,0,0:0:0:0:
256,160,180517,1,8,0:0:0:0:
256,160,180681,1,0,0:0:0:0:
256,160,180845,1,8,0:0:0:0:
256,160,180927,1,0,0:0:0:0:
256,160,181009,1,8,0:0:0:0:
256,153,181173,1,8,0:0:0:0:
256,160,181337,1,0,0:0:0:0:
256,160,181664,1,8,0:0:0:0:
256,160,181746,1,0,0:0:0:0:
256,160,181828,1,8,0:0:0:0:
256,160,181992,1,8,0:0:0:0:
256,160,182156,1,4,0:0:0:0:
256,160,182484,1,0,0:0:0:0:
256,160,182566,1,0,0:0:0:0:
256,160,182648,1,0,0:0:0:0:
256,160,182812,1,8,0:0:0:0:
256,160,182976,1,0,0:0:0:0:
256,160,183140,1,12,0:0:0:0:
