osu file format v14

[General]
AudioFilename: audio.ogg
AudioLeadIn: 0
PreviewTime: 91088
Countdown: 0
SampleSet: Normal
StackLeniency: 0.7
Mode: 1
LetterboxInBreaks: 0
WidescreenStoryboard: 1

[Editor]
Bookmarks: 1298,6901,16131,26031,40538,49769,54384,63615,72846,77461,91938,117393,128212,138376,148873,159364,168545
DistanceSpacing: 0.1
BeatDivisor: 2
GridSize: 32
TimelineZoom: 2.300001

[Metadata]
Title:Teioh Education
TitleUnicode:帝王教育
Artist:Omoi
ArtistUnicode:Omoi
Creator:gaston_2199
Version:Kantan
Source:
Tags:Teiou Kyouiku ナイトコンフェッション Night Confession fa featured artist mpg mappers' guild 桜井 sakurai 木村 kimura 初音ミク hatsune miku 鏡音リン kagamine rin ボーカロイド vocaloid japanese rock j-rock jrock synthrock
BeatmapID:3507978
BeatmapSetID:1466141

[Difficulty]
HPDrainRate:8
CircleSize:2
OverallDifficulty:3
ApproachRate:10
SliderMultiplier:1.4
SliderTickRate:1

[Events]
//Background and Video events
0,0,"BG.jpg",0,80
//Break Periods
//Storyboard Layer 0 (Background)
//Storyboard Layer 1 (Fail)
//Storyboard Layer 2 (Pass)
//Storyboard Layer 3 (Foreground)
//Storyboard Layer 4 (Overlay)
//Storyboard Sound Samples

[TimingPoints]
637,327.868852459016,4,1,0,40,1,8
1293,327.868852459016,4,1,0,40,1,0
6047,288.461538461538,4,1,0,40,1,8
6047,-113.662195953626,4,1,0,40,0,8
6912,288.461538461538,4,1,0,60,1,0
16131,-100,4,1,0,80,0,0
24508,327.868852459016,4,1,0,80,1,8
24830,-72.1153846153846,4,1,0,80,0,8
24836,400,4,1,0,80,1,8
25236,685.714285714286,4,1,0,80,1,8
25236,-42.0673076923077,4,1,0,80,0,8
25922,400,4,1,0,80,1,8
26036,288.461538461538,4,1,0,70,1,0
27177,-100,4,1,0,80,0,0
36709,327.868852459016,4,1,0,80,1,8
37037,400,4,1,0,80,1,8
37437,685.714285714286,4,1,0,80,1,8
38123,400,4,1,0,80,1,8
38237,288.461538461538,4,1,0,80,1,0
40820,-100,4,1,0,70,0,0
45435,-100,4,1,0,60,0,0
47454,-100,4,1,0,70,0,0
54377,-100,4,1,0,80,0,0
63621,-100,4,1,0,90,0,1
71698,-100,4,1,0,80,0,0
72852,-100,4,1,0,90,0,1
85544,288.461538461538,4,1,0,80,1,8
85545,400,4,1,0,80,1,0
91945,-100,4,1,0,90,0,1
104745,-100,4,1,0,80,0,0
105145,-100,4,1,0,90,0,1
116745,327.868852459016,4,1,0,90,1,9
116745,-122,4,1,0,90,0,9
117401,327.868852459016,4,1,0,90,1,0
128220,-100,4,1,0,90,0,1
138384,-100,4,1,0,80,0,0
147564,327.868852459016,4,1,0,80,1,8
147565,387.096774193548,4,1,0,80,1,0
147565,-84.6994535519126,4,1,0,80,0,0
147759,342.857142857143,4,1,0,80,1,8
147930,456.273764258555,4,1,0,80,1,8
148386,327.868852459016,4,1,0,80,1,8
148878,327.868852459016,4,1,0,100,1,1
173796,-100,4,1,0,80,0,0
179041,-100,4,1,0,100,0,1
182156,-100,4,1,0,90,0,0
182466,-100,4,1,0,70,0,0
183122,-100,4,1,0,100,0,0

[HitObjects]
256,192,637,5,8,0:0:0:0:
256,192,1293,1,0,0:0:0:0:
256,192,1620,1,8,0:0:0:0:
256,192,2112,1,0,0:0:0:0:
256,192,2604,1,8,0:0:0:0:
256,192,3096,1,0,0:0:0:0:
256,192,3915,1,0,0:0:0:0:
256,192,4243,1,8,0:0:0:0:
256,192,4735,1,0,0:0:0:0:
256,192,5227,1,8,0:0:0:0:
256,192,5719,1,0,0:0:0:0:
256,160,6912,5,0,0:0:0:0:
256,160,7488,1,8,0:0:0:0:
256,160,8065,1,0,0:0:0:0:
256,160,8354,1,0,0:0:0:0:
256,160,8642,1,8,0:0:0:0:
256,160,9219,1,0,0:0:0:0:
256,160,9796,1,8,0:0:0:0:
256,160,10373,1,0,0:0:0:0:
256,160,10661,1,0,0:0:0:0:
256,160,10950,1,0,0:0:0:0:
256,160,11527,1,8,0:0:0:0:
256,160,12104,1,0,0:0:0:0:
256,160,12681,1,8,0:0:0:0:
256,160,12969,1,0,0:0:0:0:
256,160,13258,1,8,0:0:0:0:
256,128,13835,1,0,0:0:0:0:
256,128,14411,1,8,0:0:0:0:
256,128,14988,1,8,0:0:0:0:
256,128,15277,1,8,0:0:0:0:
256,128,15565,1,8,0:0:0:0:
256,128,16142,1,4,0:0:0:0:
256,128,17296,1,12,0:0:0:0:
256,128,18450,1,4,0:0:0:0:
256,128,19027,1,0,0:0:0:0:
256,128,19315,1,8,0:0:0:0:
256,128,19604,1,4,0:0:0:0:
256,128,20758,1,4,0:0:0:0:
256,128,21335,1,4,0:0:0:0:
256,128,21911,1,4,0:0:0:0:
256,128,22488,1,4,0:0:0:0:
256,128,23065,1,8,0:0:0:0:
256,128,23354,1,8,0:0:0:0:
256,128,23642,1,8,0:0:0:0:
256,128,23931,1,8,0:0:0:0:
256,128,24219,1,4,0:0:0:0:
288,128,26036,1,4,0:0:0:0:
288,128,27189,1,12,0:0:0:0:
288,128,28055,1,8,0:0:0:0:
288,128,28343,1,4,0:0:0:0:
288,128,28920,1,8,0:0:0:0:
288,128,29497,1,0,0:0:0:0:
285,127,29785,1,0,0:0:0:0:
288,128,30074,1,8,0:0:0:0:
288,128,30651,1,4,0:0:0:0:
288,128,31228,1,8,0:0:0:0:
288,128,31805,1,0,0:0:0:0:
288,128,32959,1,0,0:0:0:0:
288,128,33535,1,8,0:0:0:0:
288,128,34112,1,0,0:0:0:0:
288,128,34689,1,8,0:0:0:0:
288,128,35266,1,8,0:0:0:0:
288,128,35843,1,8,0:0:0:0:
256,192,36420,12,0,38123,0:0:0:0:
256,192,38237,5,12,0:0:0:0:
256,192,39607,1,12,0:0:0:0:
256,192,40544,1,4,0:0:0:0:
256,192,41121,1,8,0:0:0:0:
256,192,41698,1,4,0:0:0:0:
256,192,42563,1,8,0:0:0:0:
256,192,42852,1,4,0:0:0:0:
256,192,43429,1,0,0:0:0:0:
256,192,44006,1,12,0:0:0:0:
256,192,44871,1,8,0:0:0:0:
256,192,45160,1,4,0:0:0:0:
256,192,47467,1,4,0:0:0:0:
256,192,48621,1,0,0:0:0:0:
248,182,49198,1,8,0:0:0:0:
256,192,49775,1,4,0:0:0:0:
256,192,50352,1,8,0:0:0:0:
256,192,50929,1,4,0:0:0:0:
256,192,51794,1,8,0:0:0:0:
256,192,52083,1,4,0:0:0:0:
256,192,52660,1,0,0:0:0:0:
256,192,53236,1,12,0:0:0:0:
256,192,54390,1,4,0:0:0:0:
256,192,55256,1,8,0:0:0:0:
256,192,55544,1,0,0:0:0:0:
256,192,56121,1,0,0:0:0:0:
256,192,56410,1,8,0:0:0:0:
256,192,56698,1,8,0:0:0:0:
256,192,57563,1,0,0:0:0:0:
256,192,57852,1,8,0:0:0:0:
256,192,58429,1,8,0:0:0:0:
256,192,58717,1,8,0:0:0:0:
256,192,59006,1,0,0:0:0:0:
256,192,59583,1,8,0:0:0:0:
256,192,60160,1,0,0:0:0:0:
256,192,60736,1,8,0:0:0:0:
256,192,61313,1,8,0:0:0:0:
256,192,61890,1,8,0:0:0:0:
256,192,62467,1,4,0:0:0:0:
256,192,63621,1,4,0:0:0:0:
256,188,64198,1,8,0:0:0:0:
256,192,64775,1,0,0:0:0:0:
256,192,65063,1,0,0:0:0:0:
256,192,65352,1,8,0:0:0:0:
246,168,65929,1,0,0:0:0:0:
256,192,66506,1,0,0:0:0:0:
256,192,66794,1,8,0:0:0:0:
256,192,67083,1,0,0:0:0:0:
256,192,68236,1,8,0:0:0:0:
256,192,68813,1,0,0:0:0:0:
256,192,69102,1,0,0:0:0:0:
256,192,69390,1,8,0:0:0:0:
256,192,69967,1,0,0:0:0:0:
256,192,70544,1,8,0:0:0:0:
256,192,70833,1,8,0:0:0:0:
256,192,71121,1,0,0:0:0:0:
256,192,71698,1,12,0:0:0:0:
256,192,72852,1,4,0:0:0:0:
256,192,73429,1,8,0:0:0:0:
256,192,74006,1,0,0:0:0:0:
256,192,74294,1,8,0:0:0:0:
256,192,74583,1,0,0:0:0:0:
256,192,75160,1,8,0:0:0:0:
256,192,75448,1,0,0:0:0:0:
256,192,75736,1,8,0:0:0:0:
256,192,76313,1,8,0:0:0:0:
255,188,77467,1,0,0:0:0:0:
256,192,78044,1,8,0:0:0:0:
256,192,78621,1,8,0:0:0:0:
256,192,78910,1,8,0:0:0:0:
256,192,79198,1,0,0:0:0:0:
256,192,79775,1,0,0:0:0:0:
256,192,80063,1,0,0:0:0:0:
256,192,80352,1,8,0:0:0:0:
256,177,80929,1,4,0:0:0:0:
256,177,82083,1,4,0:0:0:0:
256,192,83236,12,0,85352,0:0:0:0:
256,177,85545,5,4,0:0:0:0:
256,177,86345,1,8,0:0:0:0:
256,177,86745,1,8,0:0:0:0:
256,177,87145,1,4,0:0:0:0:
256,177,87945,1,0,0:0:0:0:
256,177,88345,1,8,0:0:0:0:
256,177,88745,1,4,0:0:0:0:
256,177,89545,1,8,0:0:0:0:
256,177,89945,1,8,0:0:0:0:
256,177,90345,1,4,0:0:0:0:
256,160,91145,1,8,0:0:0:0:
256,160,91545,1,8,0:0:0:0:
256,160,91945,1,4,0:0:0:0:
256,160,92745,1,0,0:0:0:0:
256,160,93145,1,8,0:0:0:0:
256,160,93545,1,0,0:0:0:0:
256,160,94345,1,8,0:0:0:0:
256,160,94745,1,8,0:0:0:0:
256,160,95145,1,4,0:0:0:0:
256,160,95945,1,8,0:0:0:0:
256,160,96745,1,0,0:0:0:0:
256,160,98345,1,4,0:0:0:0:
256,160,99145,1,8,0:0:0:0:
256,160,99545,1,8,0:0:0:0:
256,160,99945,1,0,0:0:0:0:
256,160,100745,1,8,0:0:0:0:
256,160,101145,1,0,0:0:0:0:
256,160,101545,1,12,0:0:0:0:
256,160,102345,1,8,0:0:0:0:
256,160,103145,1,0,0:0:0:0:
256,160,103545,1,0,0:0:0:0:
256,160,103945,1,8,0:0:0:0:
256,160,104345,1,8,0:0:0:0:
256,160,105145,1,12,0:0:0:0:
256,160,105945,1,8,0:0:0:0:
256,160,106345,1,0,0:0:0:0:
256,160,107145,1,8,0:0:0:0:
256,160,107545,1,8,0:0:0:0:
256,160,107945,1,4,0:0:0:0:
256,160,108745,1,8,0:0:0:0:
256,160,109545,1,0,0:0:0:0:
253,155,111145,1,4,0:0:0:0:
256,160,111945,1,8,0:0:0:0:
256,160,112345,1,8,0:0:0:0:
256,160,112745,1,0,0:0:0:0:
256,160,113545,1,8,0:0:0:0:
256,160,113945,1,0,0:0:0:0:
256,160,114345,1,12,0:0:0:0:
256,160,115145,1,8,0:0:0:0:
256,160,115945,1,0,0:0:0:0:
256,160,116345,1,0,0:0:0:0:
256,160,116745,1,8,0:0:0:0:
256,160,117401,1,4,0:0:0:0:
256,160,118056,1,8,0:0:0:0:
256,160,118384,1,8,0:0:0:0:
256,160,118712,1,0,0:0:0:0:
256,160,119368,1,0,0:0:0:0:
256,160,119696,1,8,0:0:0:0:
256,160,120023,1,0,0:0:0:0:
256,160,120679,1,8,0:0:0:0:
256,160,121335,1,0,0:0:0:0:
256,160,122319,1,8,0:0:0:0:
256,160,122646,1,0,0:0:0:0:
256,160,123302,1,8,0:0:0:0:
256,160,123630,1,0,0:0:0:0:
256,160,123958,1,8,0:0:0:0:
256,160,124614,1,0,0:0:0:0:
256,160,124941,1,8,0:0:0:0:
256,160,125269,1,0,0:0:0:0:
256,160,125925,1,8,0:0:0:0:
256,160,126581,1,0,0:0:0:0:
256,160,127564,1,8,0:0:0:0:
256,155,128220,1,12,0:0:0:0:
256,160,129204,1,0,0:0:0:0:
256,160,129860,1,8,0:0:0:0:
256,160,130187,1,0,0:0:0:0:
256,160,130515,1,8,0:0:0:0:
256,160,131171,1,0,0:0:0:0:
256,160,131499,1,8,0:0:0:0:
256,160,131827,1,0,0:0:0:0:
233,146,132482,1,8,0:0:0:0:
256,160,133138,1,0,0:0:0:0:
256,160,133794,1,8,0:0:0:0:
256,160,134122,1,8,0:0:0:0:
256,160,134450,1,0,0:0:0:0:
256,160,135105,1,0,0:0:0:0:
256,160,135433,1,8,0:0:0:0:
256,160,135761,1,0,0:0:0:0:
256,160,136417,1,8,0:0:0:0:
256,160,137073,1,8,0:0:0:0:
256,160,137400,1,8,0:0:0:0:
256,160,137728,1,8,0:0:0:0:
256,160,138056,1,8,0:0:0:0:
256,160,138384,1,4,0:0:0:0:
256,160,139368,1,8,0:0:0:0:
256,160,139696,1,0,0:0:0:0:
256,160,140351,1,8,0:0:0:0:
256,160,141007,1,0,0:0:0:0:
256,160,141991,1,8,0:0:0:0:
256,160,142319,1,0,0:0:0:0:
256,160,142974,1,8,0:0:0:0:
256,160,143630,1,4,0:0:0:0:
256,160,144614,1,8,0:0:0:0:
256,160,144941,1,0,0:0:0:0:
256,160,145597,1,8,0:0:0:0:
256,160,146253,1,0,0:0:0:0:
256,160,147237,1,8,0:0:0:0:
256,160,147565,1,4,0:0:0:0:
256,160,148878,1,12,0:0:0:0:
256,160,149533,1,8,0:0:0:0:
256,160,150189,1,0,0:0:0:0:
256,160,150845,1,0,0:0:0:0:
256,160,151173,1,8,0:0:0:0:
256,160,151500,1,0,0:0:0:0:
256,160,152156,1,0,0:0:0:0:
256,160,152812,1,8,0:0:0:0:
256,160,153140,1,8,0:0:0:0:
256,153,153468,1,0,0:0:0:0:
256,153,154123,1,4,0:0:0:0:
256,160,155107,1,8,0:0:0:0:
256,160,155435,1,0,0:0:0:0:
256,160,156091,1,0,0:0:0:0:
262,147,156418,1,8,0:0:0:0:
256,160,156746,1,0,0:0:0:0:
256,160,157402,1,0,0:0:0:0:
256,160,157894,1,12,0:0:0:0:
256,160,159041,1,8,0:0:0:0:
256,160,159369,1,4,0:0:0:0:
256,160,160025,1,8,0:0:0:0:
256,160,160681,1,0,0:0:0:0:
256,160,161337,1,8,0:0:0:0:
256,160,161664,1,8,0:0:0:0:
256,160,161992,1,0,0:0:0:0:
256,160,162648,1,8,0:0:0:0:
256,160,163304,1,0,0:0:0:0:
256,160,163632,1,8,0:0:0:0:
256,153,163959,1,0,0:0:0:0:
256,153,164615,1,4,0:0:0:0:
256,160,165599,1,8,0:0:0:0:
256,160,165927,1,0,0:0:0:0:
256,160,166582,1,0,0:0:0:0:
255,156,166910,1,8,0:0:0:0:
256,160,167238,1,0,0:0:0:0:
256,160,167566,1,0,0:0:0:0:
256,160,167894,1,8,0:0:0:0:
256,160,168550,1,4,0:0:0:0:
256,160,169861,1,4,0:0:0:0:
256,160,171173,1,4,0:0:0:0:
256,160,171828,1,12,0:0:0:0:
256,160,172484,1,0,0:0:0:0:
256,160,172812,1,0,0:0:0:0:
256,160,173140,1,8,0:0:0:0:
256,160,173468,1,8,0:0:0:0:
256,160,173796,1,4,0:0:0:0:
256,160,176418,1,0,0:0:0:0:
256,160,179041,1,0,0:0:0:0:
256,160,179369,1,8,0:0:0:0:
256,160,179861,1,0,0:0:0:0:
256,160,180189,1,8,0:0:0:0:
256,160,180845,1,8,0:0:0:0:
256,160,181173,1,0,0:0:0:0:
256,160,181664,1,0,0:0:0:0:
256,160,182156,1,4,0:0:0:0:
256,160,183140,1,12,0:0:0:0:
