osu file format v14

[General]
AudioFilename: audio.ogg
AudioLeadIn: 0
PreviewTime: 91088
Countdown: 0
SampleSet: Normal
StackLeniency: 0.7
Mode: 1
LetterboxInBreaks: 0
WidescreenStoryboard: 1

[Editor]
Bookmarks: 1298,6901,16131,26031,40538,49769,54384,63615,72846,77461,91938,117393,128212,138376,148873,159364,168545
DistanceSpacing: 0.1
BeatDivisor: 4
GridSize: 32
TimelineZoom: 2.300001

[Metadata]
Title:Teioh Education
TitleUnicode:帝王教育
Artist:Omoi
ArtistUnicode:Omoi
Creator:gaston_2199
Version:Futsuu
Source:
Tags:Teiou Kyouiku ナイトコンフェッション Night Confession fa featured artist mpg mappers' guild 桜井 sakurai 木村 kimura 初音ミク hatsune miku 鏡音リン kagamine rin ボーカロイド vocaloid japanese rock j-rock jrock synthrock
BeatmapID:3507977
BeatmapSetID:1466141

[Difficulty]
HPDrainRate:7
CircleSize:2
OverallDifficulty:4
ApproachRate:10
SliderMultiplier:1.4
SliderTickRate:1

[Events]
//Background and Video events
0,0,"BG.jpg",0,80
//Break Periods
//Storyboard Layer 0 (Background)
//Storyboard Layer 1 (Fail)
//Storyboard Layer 2 (Pass)
//Storyboard Layer 3 (Foreground)
//Storyboard Layer 4 (Overlay)
//Storyboard Sound Samples

[TimingPoints]
637,327.868852459016,4,1,0,40,1,8
637,-111.111111111111,4,1,0,40,0,0
1293,327.868852459016,4,1,0,40,1,0
1293,-111.111111111111,4,1,0,40,0,0
6047,288.461538461538,4,1,0,40,1,8
6047,-126.294518817883,4,1,0,40,0,8
6314,-111.111111111111,4,1,0,40,0,0
6912,288.461538461538,4,1,0,60,1,0
6912,-125,4,1,0,60,0,0
16116,-100,4,1,0,80,0,0
16405,-111.111111111111,4,1,0,80,0,0
17270,-100,4,1,0,80,0,0
17559,-111.111111111111,4,1,0,80,0,0
18424,-100,4,1,0,80,0,0
19866,-111.111111111111,4,1,0,80,0,0
20010,-100,4,1,0,80,0,0
20155,-111.111111111111,4,1,0,80,0,0
20443,-100,4,1,0,80,0,0
20876,-111.111111111111,4,1,0,80,0,0
21309,-100,4,1,0,80,0,0
21453,-111.111111111111,4,1,0,80,0,0
21885,-100,4,1,0,80,0,0
22030,-111.111111111111,4,1,0,80,0,0
22462,-100,4,1,0,80,0,0
22607,-111.111111111111,4,1,0,80,0,0
23039,-100,4,1,0,80,0,0
24508,327.868852459016,4,1,0,80,1,8
24508,-93.2878955734311,4,1,0,80,0,8
24836,400,4,1,0,80,1,8
24836,-77.3243185735179,4,1,0,80,0,8
25236,685.714285714286,4,1,0,80,1,8
25236,-42.0673076923077,4,1,0,80,0,8
25922,400,4,1,0,80,1,8
25922,-72.1153846153846,4,1,0,80,0,0
26036,288.461538461538,4,1,0,70,1,0
27162,-100,4,1,0,80,0,0
36709,327.868852459016,4,1,0,80,1,8
37037,400,4,1,0,80,1,8
37437,685.714285714286,4,1,0,80,1,8
38123,400,4,1,0,80,1,8
38237,288.461538461538,4,1,0,80,1,0
40805,-111.111111111111,4,1,0,70,0,0
45420,-125,4,1,0,60,0,0
47439,-111.111111111111,4,1,0,70,0,0
54362,-100,4,1,0,80,0,0
63305,-102.523618878699,4,1,0,80,0,0
63401,-105.178019056154,4,1,0,80,0,0
63497,-107.973403991129,4,1,0,80,0,0
63621,-100,4,1,0,90,0,1
71698,-100,4,1,0,80,0,0
72852,-100,4,1,0,90,0,1
85544,288.461538461538,4,1,0,80,1,8
85545,400,4,1,0,80,1,0
85545,-72.1153846153846,4,1,0,80,0,0
85942,-73.0576927467409,4,1,0,80,0,0
86342,-74.026779187371,4,1,0,80,0,0
86542,-74.5210277381238,4,1,0,80,0,0
86742,-75.0219204673866,4,1,0,80,0,0
87142,-76.04418166955,4,1,0,80,0,0
87542,-77.0946867305589,4,1,0,80,0,0
87942,-78.1746225631504,4,1,0,80,0,0
88142,-78.7260162421612,4,1,0,80,0,0
88342,-79.2852435295808,4,1,0,80,0,0
88742,-80.4278763019262,4,1,0,80,0,0
89542,-82.8148776927775,4,1,0,80,0,0
89742,-83.4339320587062,4,1,0,80,0,0
89942,-84.0623111881682,4,1,0,80,0,0
90342,-85.3478993748266,4,1,0,80,0,0
91142,-88.0407628732103,4,1,0,80,0,0
91342,-88.7407411515775,4,1,0,80,0,0
91542,-89.4519391503184,4,1,0,80,0,0
91945,-90.9090909090909,4,1,0,90,0,1
104745,-90.9090909090909,4,1,0,80,0,0
105145,-90.9090909090909,4,1,0,90,0,1
116745,327.868852459016,4,1,0,90,1,9
116745,-110.913930789707,4,1,0,90,0,1
117401,327.868852459016,4,1,0,90,1,0
128220,-100,4,1,0,90,0,1
138384,-100,4,1,0,80,0,0
147564,327.868852459016,4,1,0,80,1,8
147565,387.096774193548,4,1,0,80,1,0
147565,-84.6994535519126,4,1,0,80,0,0
147759,342.857142857143,4,1,0,80,1,8
147930,456.273764258555,4,1,0,80,1,8
148386,327.868852459016,4,1,0,80,1,8
148878,327.868852459016,4,1,0,100,1,1
173796,-100,4,1,0,80,0,0
179041,-100,4,1,0,100,0,1
182156,-100,4,1,0,90,0,0
182451,-100,4,1,0,70,0,0
183107,-100,4,1,0,100,0,0

[HitObjects]
256,192,637,5,8,0:0:0:0:
256,192,800,1,8,0:0:0:0:
256,192,964,1,8,0:0:0:0:
256,192,1293,1,0,0:0:0:0:
256,192,1620,1,8,0:0:0:0:
256,192,1784,1,0,0:0:0:0:
256,192,2112,1,0,0:0:0:0:
256,192,2276,1,8,0:0:0:0:
256,192,2604,1,8,0:0:0:0:
256,192,2768,1,8,0:0:0:0:
256,192,3096,1,0,0:0:0:0:
256,192,3260,1,8,0:0:0:0:
256,192,3588,1,0,0:0:0:0:
256,192,3915,1,0,0:0:0:0:
256,192,4243,1,8,0:0:0:0:
256,192,4407,1,0,0:0:0:0:
256,192,4735,1,0,0:0:0:0:
256,192,4899,1,8,0:0:0:0:
256,192,5227,1,8,0:0:0:0:
256,192,5391,1,8,0:0:0:0:
256,192,5719,1,0,0:0:0:0:
256,192,5883,1,8,0:0:0:0:
256,160,6912,5,0,0:0:0:0:
256,160,7344,1,8,0:0:0:0:
256,160,7488,1,0,0:0:0:0:
256,160,8065,1,0,0:0:0:0:
256,160,8354,1,0,0:0:0:0:
256,160,8642,1,8,0:0:0:0:
256,160,8931,1,0,0:0:0:0:
256,160,9219,1,0,0:0:0:0:
256,160,9652,1,0,0:0:0:0:
256,160,9796,1,0,0:0:0:0:
256,160,10373,1,0,0:0:0:0:
256,160,10661,1,0,0:0:0:0:
256,160,10950,1,8,0:0:0:0:
256,160,11238,1,8,0:0:0:0:
256,160,11527,1,0,0:0:0:0:
256,160,11960,1,8,0:0:0:0:
256,160,12104,1,0,0:0:0:0:
256,160,12681,1,0,0:0:0:0:
256,160,12969,1,0,0:0:0:0:
256,160,13258,1,8,0:0:0:0:
256,151,13546,1,8,0:0:0:0:
256,128,13835,1,0,0:0:0:0:
256,128,14411,1,0,0:0:0:0:
256,128,14700,1,0,0:0:0:0:
256,128,14988,1,8,0:0:0:0:
256,128,15277,1,8,0:0:0:0:
256,128,15565,1,8,0:0:0:0:
256,128,15854,1,8,0:0:0:0:
256,128,16142,1,4,0:0:0:0:
256,128,17296,1,12,0:0:0:0:
256,128,18450,1,4,0:0:0:0:
256,128,18738,1,8,0:0:0:0:
256,128,18883,1,8,0:0:0:0:
256,128,19027,1,0,0:0:0:0:
256,128,19315,1,8,0:0:0:0:
256,128,19604,1,4,0:0:0:0:
256,128,20469,1,12,0:0:0:0:
256,128,20758,1,4,0:0:0:0:
256,128,21335,1,4,0:0:0:0:
256,128,21911,1,4,0:0:0:0:
256,128,22488,1,12,0:0:0:0:
256,128,23065,1,8,0:0:0:0:
256,128,23354,1,0,0:0:0:0:
256,128,23642,1,8,0:0:0:0:
256,128,23786,1,0,0:0:0:0:
256,128,23931,1,8,0:0:0:0:
256,128,24219,1,4,0:0:0:0:
256,128,25236,1,12,0:0:0:0:
288,128,26036,1,12,0:0:0:0:
288,128,26612,1,0,0:0:0:0:
288,128,26901,1,0,0:0:0:0:
288,128,27189,1,12,0:0:0:0:
288,128,27766,1,8,0:0:0:0:
288,128,28055,1,8,0:0:0:0:
288,128,28343,1,4,0:0:0:0:
288,128,28920,1,0,0:0:0:0:
288,128,29209,1,8,0:0:0:0:
288,128,29497,1,0,0:0:0:0:
285,127,29785,1,0,0:0:0:0:
288,128,30074,1,8,0:0:0:0:
288,128,30362,1,8,0:0:0:0:
288,128,30651,1,4,0:0:0:0:
288,128,31228,1,8,0:0:0:0:
288,128,31516,1,8,0:0:0:0:
288,128,31805,1,0,0:0:0:0:
288,128,32382,1,0,0:0:0:0:
288,128,32670,1,8,0:0:0:0:
288,128,32959,1,0,0:0:0:0:
288,128,33535,1,8,0:0:0:0:
288,128,33824,1,8,0:0:0:0:
288,128,34112,1,0,0:0:0:0:
288,128,34689,1,8,0:0:0:0:
288,128,34978,1,8,0:0:0:0:
288,128,35266,1,0,0:0:0:0:
288,128,35555,1,8,0:0:0:0:
288,128,35843,1,0,0:0:0:0:
288,128,36132,1,8,0:0:0:0:
256,192,36420,12,0,38123,0:0:0:0:
256,192,38237,5,12,0:0:0:0:
256,192,38813,1,0,0:0:0:0:
256,192,39102,1,8,0:0:0:0:
256,192,39583,1,12,0:0:0:0:
256,192,39871,1,12,0:0:0:0:
256,192,40160,1,12,0:0:0:0:
256,192,40544,1,4,0:0:0:0:
256,192,41121,1,8,0:0:0:0:
256,192,41410,1,0,0:0:0:0:
256,192,41698,1,4,0:0:0:0:
256,192,42275,1,0,0:0:0:0:
256,192,42563,1,8,0:0:0:0:
256,192,42852,1,4,0:0:0:0:
256,192,43429,1,0,0:0:0:0:
256,192,43717,1,0,0:0:0:0:
256,192,44006,1,12,0:0:0:0:
256,192,44583,1,0,0:0:0:0:
256,192,44871,1,8,0:0:0:0:
256,192,45160,1,4,0:0:0:0:
256,192,46025,1,8,0:0:0:0:
256,192,46313,1,0,0:0:0:0:
256,192,46890,1,8,0:0:0:0:
256,192,47467,1,4,0:0:0:0:
256,192,48333,1,8,0:0:0:0:
256,192,48621,1,0,0:0:0:0:
248,182,49198,1,0,0:0:0:0:
256,192,49486,1,8,0:0:0:0:
256,192,49775,1,4,0:0:0:0:
256,192,50352,1,8,0:0:0:0:
256,192,50640,1,0,0:0:0:0:
256,192,50929,1,4,0:0:0:0:
256,192,51506,1,0,0:0:0:0:
256,192,51794,1,8,0:0:0:0:
256,192,52083,1,4,0:0:0:0:
256,192,52660,1,0,0:0:0:0:
256,192,52948,1,0,0:0:0:0:
256,192,53236,1,12,0:0:0:0:
256,192,53813,1,0,0:0:0:0:
256,192,54102,1,8,0:0:0:0:
256,192,54390,1,4,0:0:0:0:
256,192,54967,1,0,0:0:0:0:
256,192,55256,1,8,0:0:0:0:
256,192,55544,1,0,0:0:0:0:
246,182,55833,1,8,0:0:0:0:
256,192,56121,1,0,0:0:0:0:
256,192,56410,1,8,0:0:0:0:
256,192,56698,1,8,0:0:0:0:
256,192,57275,1,8,0:0:0:0:
256,192,57563,1,0,0:0:0:0:
256,192,57852,1,8,0:0:0:0:
250,178,58140,1,0,0:0:0:0:
256,192,58429,1,8,0:0:0:0:
256,192,58717,1,8,0:0:0:0:
256,192,59006,1,0,0:0:0:0:
256,192,59583,1,0,0:0:0:0:
256,192,59871,1,8,0:0:0:0:
256,192,60160,1,0,0:0:0:0:
256,192,60736,1,8,0:0:0:0:
256,192,61025,1,0,0:0:0:0:
256,192,61313,1,8,0:0:0:0:
256,192,61890,1,8,0:0:0:0:
256,192,62467,1,4,0:0:0:0:
256,192,63621,1,4,0:0:0:0:
256,188,64198,1,0,0:0:0:0:
256,192,64486,1,8,0:0:0:0:
256,192,64775,1,0,0:0:0:0:
256,192,65063,1,0,0:0:0:0:
256,192,65352,1,8,0:0:0:0:
246,168,65929,1,0,0:0:0:0:
256,192,66217,1,8,0:0:0:0:
256,192,66506,1,0,0:0:0:0:
256,192,66794,1,8,0:0:0:0:
256,192,67083,1,0,0:0:0:0:
256,192,67371,1,0,0:0:0:0:
256,192,67660,1,8,0:0:0:0:
256,192,68236,1,0,0:0:0:0:
256,192,68525,1,8,0:0:0:0:
256,192,68813,1,0,0:0:0:0:
256,192,69102,1,0,0:0:0:0:
256,192,69390,1,8,0:0:0:0:
256,192,69679,1,8,0:0:0:0:
256,192,69967,1,0,0:0:0:0:
256,192,70544,1,8,0:0:0:0:
256,192,70833,1,8,0:0:0:0:
256,192,71121,1,0,0:0:0:0:
256,192,71410,1,0,0:0:0:0:
256,192,71698,1,12,0:0:0:0:
256,192,72275,1,4,0:0:0:0:
256,192,72852,1,12,0:0:0:0:
256,192,73429,1,8,0:0:0:0:
256,192,73717,1,0,0:0:0:0:
256,192,74006,1,8,0:0:0:0:
256,192,74294,1,8,0:0:0:0:
256,192,74583,1,0,0:0:0:0:
256,192,75160,1,8,0:0:0:0:
256,192,75448,1,0,0:0:0:0:
256,192,75736,1,8,0:0:0:0:
160,128,76025,1,0,0:0:0:0:
256,192,76313,1,8,0:0:0:0:
256,192,76602,1,8,0:0:0:0:
256,192,76890,1,0,0:0:0:0:
255,188,77467,1,0,0:0:0:0:
256,192,77756,1,0,0:0:0:0:
256,192,78044,1,8,0:0:0:0:
256,192,78333,1,0,0:0:0:0:
256,192,78621,1,8,0:0:0:0:
256,192,78910,1,8,0:0:0:0:
256,192,79198,1,0,0:0:0:0:
256,192,79775,1,0,0:0:0:0:
256,192,80063,1,0,0:0:0:0:
256,192,80352,1,8,0:0:0:0:
256,177,80640,1,8,0:0:0:0:
256,177,80929,1,4,0:0:0:0:
256,177,81506,1,12,0:0:0:0:
256,177,82083,1,4,0:0:0:0:
256,177,82660,1,12,0:0:0:0:
256,192,83236,12,0,85352,0:0:0:0:
256,177,85545,5,4,0:0:0:0:
256,177,85945,1,8,0:0:0:0:
256,177,86345,1,0,0:0:0:0:
256,177,86545,1,0,0:0:0:0:
256,177,86745,1,8,0:0:0:0:
256,177,87145,1,4,0:0:0:0:
256,177,87545,1,8,0:0:0:0:
256,177,87945,1,8,0:0:0:0:
256,177,88145,1,0,0:0:0:0:
256,177,88345,1,8,0:0:0:0:
256,177,88745,1,4,0:0:0:0:
256,177,89545,1,8,0:0:0:0:
256,177,89745,1,8,0:0:0:0:
256,177,89945,1,8,0:0:0:0:
256,177,90345,1,4,0:0:0:0:
256,160,91145,1,8,0:0:0:0:
256,160,91345,1,0,0:0:0:0:
256,160,91545,1,8,0:0:0:0:
256,160,91945,1,4,0:0:0:0:
256,160,92745,1,0,0:0:0:0:
256,160,92945,1,0,0:0:0:0:
256,160,93145,1,8,0:0:0:0:
256,160,93545,1,0,0:0:0:0:
256,160,94345,1,8,0:0:0:0:
256,160,94545,1,8,0:0:0:0:
256,160,94745,1,0,0:0:0:0:
256,160,95145,1,4,0:0:0:0:
256,160,95545,1,8,0:0:0:0:
256,160,95745,1,0,0:0:0:0:
256,160,96145,1,0,0:0:0:0:
256,160,96545,1,0,0:0:0:0:
256,160,96745,1,8,0:0:0:0:
256,160,97545,1,8,0:0:0:0:
256,160,97745,1,8,0:0:0:0:
256,160,97945,1,8,0:0:0:0:
256,160,98345,1,4,0:0:0:0:
256,160,99145,1,8,0:0:0:0:
256,160,99345,1,0,0:0:0:0:
256,160,99545,1,8,0:0:0:0:
256,160,99945,1,0,0:0:0:0:
256,160,100745,1,8,0:0:0:0:
256,160,100945,1,8,0:0:0:0:
256,160,101145,1,0,0:0:0:0:
256,160,101545,1,4,0:0:0:0:
256,160,101945,1,8,0:0:0:0:
256,160,102145,1,8,0:0:0:0:
256,160,102545,1,8,0:0:0:0:
256,160,102745,1,0,0:0:0:0:
256,160,103145,1,0,0:0:0:0:
256,160,103545,1,0,0:0:0:0:
256,160,103945,1,8,0:0:0:0:
256,160,104145,1,8,0:0:0:0:
256,160,104345,1,8,0:0:0:0:
256,160,104545,1,8,0:0:0:0:
256,160,105145,1,12,0:0:0:0:
256,160,105545,1,8,0:0:0:0:
256,160,105745,1,8,0:0:0:0:
256,160,105945,1,8,0:0:0:0:
256,160,106145,1,8,0:0:0:0:
256,160,106345,1,0,0:0:0:0:
256,160,107145,1,8,0:0:0:0:
256,160,107345,1,8,0:0:0:0:
256,160,107545,1,0,0:0:0:0:
256,160,107945,1,4,0:0:0:0:
256,160,108345,1,8,0:0:0:0:
256,160,108545,1,0,0:0:0:0:
256,160,108945,1,0,0:0:0:0:
256,160,109345,1,0,0:0:0:0:
256,160,109545,1,8,0:0:0:0:
256,160,110345,1,8,0:0:0:0:
256,160,110545,1,8,0:0:0:0:
256,160,110745,1,8,0:0:0:0:
253,155,111145,1,4,0:0:0:0:
256,160,111945,1,8,0:0:0:0:
256,160,112145,1,0,0:0:0:0:
256,160,112345,1,8,0:0:0:0:
256,160,112745,1,0,0:0:0:0:
256,160,113545,1,8,0:0:0:0:
256,160,113745,1,8,0:0:0:0:
256,160,113945,1,0,0:0:0:0:
256,160,114345,1,4,0:0:0:0:
256,160,114745,1,8,0:0:0:0:
256,160,114945,1,8,0:0:0:0:
256,160,115345,1,0,0:0:0:0:
256,160,115545,1,8,0:0:0:0:
256,160,115945,1,0,0:0:0:0:
256,160,116345,1,0,0:0:0:0:
256,160,116745,1,8,0:0:0:0:
256,160,117072,1,8,0:0:0:0:
256,160,117401,1,4,0:0:0:0:
256,160,118056,1,8,0:0:0:0:
256,160,118220,1,0,0:0:0:0:
256,160,118384,1,8,0:0:0:0:
256,160,118712,1,0,0:0:0:0:
256,160,119368,1,0,0:0:0:0:
256,160,119532,1,0,0:0:0:0:
256,160,119696,1,8,0:0:0:0:
256,160,120023,1,0,0:0:0:0:
254,155,120351,1,8,0:0:0:0:
256,160,120515,1,0,0:0:0:0:
256,160,120843,1,8,0:0:0:0:
256,160,121171,1,0,0:0:0:0:
256,160,121335,1,8,0:0:0:0:
256,160,121991,1,0,0:0:0:0:
256,160,122155,1,0,0:0:0:0:
256,160,122319,1,8,0:0:0:0:
256,160,122646,1,0,0:0:0:0:
245,153,122974,1,8,0:0:0:0:
256,160,123302,1,8,0:0:0:0:
256,160,123466,1,0,0:0:0:0:
256,160,123630,1,8,0:0:0:0:
256,160,123958,1,0,0:0:0:0:
256,160,124614,1,0,0:0:0:0:
256,160,124778,1,0,0:0:0:0:
256,160,124941,1,8,0:0:0:0:
256,160,125269,1,0,0:0:0:0:
256,160,125597,1,8,0:0:0:0:
256,160,125761,1,8,0:0:0:0:
256,160,126089,1,0,0:0:0:0:
256,160,126253,1,8,0:0:0:0:
256,160,126581,1,0,0:0:0:0:
256,160,127237,1,0,0:0:0:0:
256,160,127400,1,0,0:0:0:0:
256,160,127564,1,8,0:0:0:0:
256,160,127728,1,8,0:0:0:0:
256,155,128220,1,12,0:0:0:0:
256,160,128548,1,0,0:0:0:0:
252,156,128712,1,0,0:0:0:0:
256,160,128876,1,8,0:0:0:0:
256,160,129204,1,0,0:0:0:0:
256,160,129532,1,8,0:0:0:0:
256,160,129860,1,8,0:0:0:0:
256,160,130023,1,8,0:0:0:0:
256,160,130187,1,0,0:0:0:0:
256,160,130515,1,8,0:0:0:0:
256,160,130843,1,8,0:0:0:0:
256,160,131007,1,0,0:0:0:0:
256,160,131171,1,8,0:0:0:0:
256,160,131499,1,8,0:0:0:0:
256,160,131827,1,0,0:0:0:0:
256,160,132482,1,8,0:0:0:0:
256,160,132646,1,0,0:0:0:0:
256,160,132810,1,8,0:0:0:0:
256,160,133138,1,0,0:0:0:0:
256,160,133630,1,0,0:0:0:0:
256,160,133794,1,8,0:0:0:0:
256,160,134122,1,8,0:0:0:0:
256,160,134286,1,8,0:0:0:0:
256,160,134450,1,0,0:0:0:0:
256,160,134778,1,8,0:0:0:0:
256,160,135105,1,0,0:0:0:0:
256,160,135269,1,0,0:0:0:0:
256,160,135433,1,8,0:0:0:0:
256,160,135761,1,0,0:0:0:0:
256,160,136089,1,8,0:0:0:0:
256,160,136253,1,0,0:0:0:0:
256,160,136581,1,8,0:0:0:0:
256,160,136909,1,0,0:0:0:0:
256,160,137073,1,8,0:0:0:0:
256,160,137237,1,8,0:0:0:0:
256,160,137400,1,0,0:0:0:0:
256,160,137728,1,8,0:0:0:0:
256,160,137892,1,0,0:0:0:0:
256,160,138056,1,8,0:0:0:0:
256,160,138384,1,4,0:0:0:0:
256,160,138712,1,8,0:0:0:0:
256,160,139368,1,8,0:0:0:0:
256,160,139696,1,0,0:0:0:0:
256,160,140023,1,8,0:0:0:0:
256,160,140515,1,0,0:0:0:0:
256,160,140679,1,8,0:0:0:0:
256,160,141007,1,0,0:0:0:0:
256,160,141335,1,8,0:0:0:0:
256,160,141991,1,8,0:0:0:0:
256,160,142319,1,0,0:0:0:0:
256,160,142646,1,8,0:0:0:0:
256,160,143138,1,0,0:0:0:0:
256,160,143302,1,8,0:0:0:0:
256,160,143630,1,4,0:0:0:0:
256,160,143958,1,8,0:0:0:0:
256,160,144614,1,8,0:0:0:0:
256,160,144941,1,0,0:0:0:0:
256,160,145269,1,8,0:0:0:0:
256,160,145761,1,0,0:0:0:0:
256,160,145925,1,8,0:0:0:0:
256,160,146253,1,0,0:0:0:0:
256,160,146581,1,8,0:0:0:0:
256,160,147237,1,8,0:0:0:0:
256,160,147565,1,4,0:0:0:0:
256,160,148878,1,12,0:0:0:0:
256,160,149533,1,0,0:0:0:0:
256,160,149861,1,8,0:0:0:0:
256,160,150189,1,0,0:0:0:0:
251,156,150681,1,8,0:0:0:0:
256,160,150845,1,0,0:0:0:0:
256,160,151173,1,8,0:0:0:0:
256,160,151337,1,0,0:0:0:0:
256,160,151500,1,8,0:0:0:0:
250,140,151992,1,8,0:0:0:0:
256,160,152156,1,0,0:0:0:0:
256,160,152484,1,8,0:0:0:0:
256,160,152812,1,0,0:0:0:0:
256,160,153140,1,8,0:0:0:0:
256,153,153468,1,0,0:0:0:0:
256,153,153632,1,0,0:0:0:0:
256,153,153796,1,8,0:0:0:0:
256,153,154123,1,4,0:0:0:0:
256,160,154779,5,0,0:0:0:0:
256,160,155107,1,8,0:0:0:0:
256,160,155435,1,0,0:0:0:0:
256,160,156091,1,0,0:0:0:0:
262,147,156418,1,8,0:0:0:0:
262,140,156582,1,8,0:0:0:0:
256,160,156746,1,0,0:0:0:0:
256,160,157074,1,8,0:0:0:0:
256,160,157402,1,0,0:0:0:0:
256,160,157894,1,12,0:0:0:0:
256,160,158550,1,4,0:0:0:0:
256,160,159041,1,8,0:0:0:0:
256,160,159369,1,4,0:0:0:0:
256,160,160025,1,0,0:0:0:0:
256,160,160353,1,8,0:0:0:0:
256,160,160681,1,0,0:0:0:0:
251,156,161173,1,8,0:0:0:0:
256,160,161337,1,0,0:0:0:0:
256,160,161664,1,8,0:0:0:0:
256,160,161828,1,0,0:0:0:0:
256,160,161992,1,8,0:0:0:0:
250,157,162484,1,8,0:0:0:0:
256,160,162648,1,0,0:0:0:0:
256,160,162976,1,8,0:0:0:0:
256,160,163304,1,0,0:0:0:0:
256,160,163632,1,8,0:0:0:0:
256,153,163959,1,0,0:0:0:0:
256,153,164123,1,0,0:0:0:0:
256,153,164287,1,8,0:0:0:0:
256,153,164615,1,4,0:0:0:0:
256,160,165271,1,8,0:0:0:0:
256,160,165599,1,8,0:0:0:0:
256,160,165927,1,0,0:0:0:0:
256,160,166582,1,0,0:0:0:0:
255,156,166910,1,8,0:0:0:0:
256,160,167074,1,8,0:0:0:0:
256,160,167238,1,0,0:0:0:0:
256,160,167566,1,8,0:0:0:0:
256,160,167894,1,0,0:0:0:0:
253,153,168058,1,0,0:0:0:0:
256,160,168222,1,8,0:0:0:0:
256,160,168550,1,4,0:0:0:0:
256,160,169205,1,12,0:0:0:0:
256,160,169861,1,4,0:0:0:0:
256,160,170517,1,12,0:0:0:0:
256,160,171173,1,4,0:0:0:0:
256,160,171500,1,4,0:0:0:0:
256,160,171828,1,12,0:0:0:0:
256,160,172156,1,12,0:0:0:0:
256,160,172484,1,0,0:0:0:0:
256,160,172648,1,8,0:0:0:0:
256,160,172812,1,0,0:0:0:0:
256,160,173140,1,8,0:0:0:0:
256,160,173304,1,0,0:0:0:0:
256,160,173468,1,8,0:0:0:0:
256,160,173796,1,4,0:0:0:0:
256,160,174123,1,8,0:0:0:0:
256,160,174779,1,8,0:0:0:0:
256,160,175435,1,8,0:0:0:0:
256,160,176091,1,8,0:0:0:0:
256,160,176418,1,0,0:0:0:0:
256,160,176746,1,8,0:0:0:0:
256,160,177402,1,8,0:0:0:0:
256,160,178058,1,8,0:0:0:0:
256,160,178714,1,8,0:0:0:0:
256,160,179041,1,0,0:0:0:0:
256,160,179369,1,8,0:0:0:0:
256,160,179533,1,0,0:0:0:0:
256,160,179861,1,0,0:0:0:0:
256,160,180025,1,0,0:0:0:0:
256,160,180353,1,8,0:0:0:0:
256,160,180517,1,8,0:0:0:0:
256,160,180845,1,0,0:0:0:0:
256,160,181009,1,8,0:0:0:0:
256,160,181337,1,0,0:0:0:0:
256,160,181664,1,0,0:0:0:0:
256,160,181992,1,8,0:0:0:0:
256,160,182156,1,4,0:0:0:0:
273,157,182484,1,0,0:0:0:0:
256,160,182648,1,0,0:0:0:0:
256,160,183140,1,12,0:0:0:0:
