osu file format v14

[General]
AudioFilename: audio.mp3
AudioLeadIn: 0
PreviewTime: -1
Countdown: 0
SampleSet: Normal
StackLeniency: 1
Mode: 1
LetterboxInBreaks: 0
WidescreenStoryboard: 0

[Editor]
DistanceSpacing: 0.9
BeatDivisor: 4
GridSize: 16
TimelineZoom: 4.299998

[Metadata]
Title:Snow Drive(01.23)
TitleUnicode:Snow Drive(01.23)
Artist:Omoi
ArtistUnicode:Omoi
Creator:Raichu69
Version:Sayonara Bye Oni
Source:
Tags:
BeatmapID:1319512
BeatmapSetID:625967

[Difficulty]
HPDrainRate:5
CircleSize:5
OverallDifficulty:6.5
ApproachRate:7
SliderMultiplier:1.4
SliderTickRate:1

[Events]
//Background and Video events
0,0,"b7f2b96428f459f38bf1e3a3b75acbd1.jpg",0,0
//Break Periods
//Storyboard Layer 0 (Background)
//Storyboard Layer 1 (Fail)
//Storyboard Layer 2 (Pass)
//Storyboard Layer 3 (Foreground)
//Storyboard Layer 4 (Overlay)
//Storyboard Sound Samples

[TimingPoints]
1747,267.857142857143,4,1,0,100,1,0
96032,-83.3333333333333,4,1,0,100,0,1
112104,-84.0336134453781,4,1,0,100,0,1
112171,-84.7457627118644,4,1,0,100,0,1
112238,-85.4700854700855,4,1,0,100,0,1
112305,-86.2068965517241,4,1,0,100,0,1
112372,-86.9565217391304,4,1,0,100,0,1
112438,-87.719298245614,4,1,0,100,0,1
112505,-88.4955752212389,4,1,0,100,0,1
112572,-89.2857142857143,4,1,0,100,0,1
112639,-90.0900900900901,4,1,0,100,0,1
112706,-90.9090909090909,4,1,0,100,0,1
112773,-92.5925925925926,4,1,0,100,0,1
112840,-94.3396226415094,4,1,0,100,0,1
112907,-95.2380952380952,4,1,0,100,0,1
112974,-96.1538461538461,4,1,0,100,0,1
113041,-97.0873786407767,4,1,0,100,0,1
113108,-98.0392156862745,4,1,0,100,0,1
113175,-100,4,1,0,100,0,0
113309,-100,4,1,0,100,0,0
154961,-83.3333333333333,4,1,0,100,0,1
170497,-86.9565217391304,4,1,0,100,0,1
170764,-90.9090909090909,4,1,0,100,0,1
170898,-90.9090909090909,4,1,0,100,0,1
170998,-95.2380952380952,4,1,0,100,0,1
171032,-100,4,1,0,100,0,0
173175,-83.3333333333333,4,1,0,100,0,0
190050,-133.333333333333,4,1,0,100,0,0
197818,-83.3333333333333,4,1,0,100,0,0
206389,-83.3333333333333,4,1,0,100,0,1
222193,-86.9565217391304,4,1,0,100,0,1
222260,-90.9090909090909,4,1,0,100,0,1
222327,-95.2380952380952,4,1,0,100,0,1
222394,-100,4,1,0,100,0,0
223532,-83.3333333333333,4,1,0,100,0,1
239470,-83.3333333333333,4,1,0,100,0,0

[HitObjects]
256,192,1746,5,0,0:0:0:0:
256,192,2014,1,0,0:0:0:0:
256,192,2282,1,2,0:0:0:0:
256,192,2550,1,0,0:0:0:0:
256,192,2818,1,2,0:0:0:0:
256,192,3086,1,0,0:0:0:0:
256,192,3354,1,0,0:0:0:0:
256,192,3622,1,2,0:0:0:0:
256,192,3889,1,2,0:0:0:0:
256,192,4157,1,0,0:0:0:0:
256,192,4291,1,2,0:0:0:0:
256,192,4693,1,2,0:0:0:0:
256,192,4961,1,0,0:0:0:0:
256,192,5496,1,2,0:0:0:0:
256,192,5764,1,0,0:0:0:0:
256,192,6032,1,2,0:0:0:0:
256,192,6300,1,0,0:0:0:0:
256,192,6568,1,2,0:0:0:0:
256,192,6836,1,2,0:0:0:0:
256,192,7104,1,0,0:0:0:0:
256,192,7372,1,0,0:0:0:0:
256,192,7639,1,2,0:0:0:0:
256,192,7907,1,2,0:0:0:0:
256,192,8175,1,2,0:0:0:0:
256,192,8577,1,0,0:0:0:0:
256,192,8979,1,0,0:0:0:0:
256,192,9246,1,2,0:0:0:0:
256,192,9514,1,2,0:0:0:0:
256,192,9648,1,0,0:0:0:0:
256,192,9782,1,2,0:0:0:0:
256,192,9916,1,2,0:0:0:0:
256,192,10050,1,0,0:0:0:0:
256,192,10318,1,2,0:0:0:0:
256,192,10385,1,0,0:0:0:0:
256,192,10452,1,2,0:0:0:0:
256,192,10586,1,0,0:0:0:0:
256,192,10720,1,2,0:0:0:0:
256,192,10988,1,0,0:0:0:0:
256,192,11121,1,2,0:0:0:0:
256,192,11188,1,0,0:0:0:0:
256,192,11255,1,2,0:0:0:0:
256,192,11389,1,0,0:0:0:0:
256,192,11523,1,2,0:0:0:0:
256,192,11791,1,0,0:0:0:0:
256,192,11925,1,2,0:0:0:0:
256,192,11992,1,0,0:0:0:0:
256,192,12059,1,2,0:0:0:0:
256,192,12193,1,0,0:0:0:0:
256,192,12327,1,2,0:0:0:0:
256,192,12595,1,0,0:0:0:0:
256,192,12729,1,2,0:0:0:0:
256,192,12796,1,0,0:0:0:0:
256,192,12863,1,2,0:0:0:0:
256,192,12997,1,0,0:0:0:0:
256,192,13131,1,2,0:0:0:0:
256,192,13398,1,0,0:0:0:0:
256,192,13532,1,6,0:0:0:0:
256,192,13800,1,6,0:0:0:0:
256,192,14068,1,6,0:0:0:0:
256,192,14336,1,4,0:0:0:0:
256,192,14604,1,2,0:0:0:0:
256,192,14872,1,0,0:0:0:0:
256,192,15139,1,0,0:0:0:0:
256,192,15407,1,0,0:0:0:0:
256,192,15675,1,2,0:0:0:0:
256,192,15943,1,0,0:0:0:0:
256,192,16211,1,2,0:0:0:0:
256,192,16479,1,2,0:0:0:0:
256,192,16747,1,6,0:0:0:0:
256,192,17282,1,6,0:0:0:0:
256,192,17818,1,2,0:0:0:0:
256,192,18086,1,2,0:0:0:0:
256,192,18354,1,2,0:0:0:0:
256,192,18488,1,0,0:0:0:0:
256,192,18622,1,0,0:0:0:0:
256,192,18688,1,0,0:0:0:0:
256,192,18755,1,0,0:0:0:0:
256,192,18822,1,0,0:0:0:0:
256,192,18889,1,2,0:0:0:0:
256,192,19157,1,2,0:0:0:0:
256,192,19291,1,0,0:0:0:0:
256,192,19425,1,2,0:0:0:0:
256,192,19492,1,0,0:0:0:0:
256,192,19559,1,2,0:0:0:0:
256,192,19693,1,0,0:0:0:0:
256,192,19961,1,2,0:0:0:0:
256,192,20028,1,2,0:0:0:0:
256,192,20095,1,0,0:0:0:0:
256,192,20229,1,2,0:0:0:0:
256,192,20296,1,0,0:0:0:0:
256,192,20363,1,2,0:0:0:0:
256,192,20497,1,6,0:0:0:0:
256,192,20764,1,2,0:0:0:0:
256,192,20831,1,0,0:0:0:0:
256,192,20898,1,2,0:0:0:0:
256,192,21032,1,0,0:0:0:0:
256,192,21300,1,0,0:0:0:0:
256,192,21434,5,0,0:0:0:0:
256,192,21568,1,2,0:0:0:0:
256,192,21702,1,0,0:0:0:0:
256,192,21836,1,2,0:0:0:0:
256,192,21970,1,0,0:0:0:0:
256,192,22104,1,2,0:0:0:0:
256,192,22171,1,2,0:0:0:0:
256,192,22238,1,0,0:0:0:0:
256,192,22372,1,2,0:0:0:0:
256,192,22438,1,0,0:0:0:0:
256,192,22505,1,0,0:0:0:0:
256,192,22639,1,2,0:0:0:0:
256,192,22706,1,0,0:0:0:0:
256,192,22773,1,2,0:0:0:0:
256,192,22907,1,6,0:0:0:0:
256,192,23175,1,2,0:0:0:0:
256,192,23443,1,2,0:0:0:0:
256,192,23577,1,0,0:0:0:0:
256,192,23711,1,2,0:0:0:0:
256,192,23778,1,0,0:0:0:0:
256,192,23845,1,2,0:0:0:0:
256,192,23979,1,4,0:0:0:0:
256,192,24247,1,2,0:0:0:0:
256,192,24314,1,0,0:0:0:0:
256,192,24380,1,0,0:0:0:0:
256,192,24514,1,2,0:0:0:0:
256,192,24581,1,0,0:0:0:0:
256,192,24648,1,2,0:0:0:0:
256,192,24782,1,6,0:0:0:0:
256,192,25050,1,2,0:0:0:0:
256,192,25117,1,0,0:0:0:0:
256,192,25184,1,2,0:0:0:0:
256,192,25318,1,0,0:0:0:0:
256,192,25586,1,0,0:0:0:0:
256,192,25720,5,0,0:0:0:0:
256,192,25854,1,2,0:0:0:0:
256,192,25988,1,0,0:0:0:0:
256,192,26122,1,2,0:0:0:0:
256,192,26256,1,0,0:0:0:0:
256,192,26390,1,2,0:0:0:0:
256,192,26457,1,2,0:0:0:0:
256,192,26523,1,0,0:0:0:0:
256,192,26658,1,2,0:0:0:0:
256,192,26724,1,0,0:0:0:0:
256,192,26791,1,0,0:0:0:0:
256,192,26925,1,2,0:0:0:0:
256,192,26992,1,0,0:0:0:0:
256,192,27059,1,2,0:0:0:0:
256,192,27193,1,6,0:0:0:0:
256,192,27461,1,2,0:0:0:0:
256,192,27729,1,0,0:0:0:0:
256,192,27997,1,0,0:0:0:0:
256,192,28264,1,0,0:0:0:0:
256,192,28532,1,2,0:0:0:0:
256,192,28800,1,0,0:0:0:0:
256,192,29068,1,0,0:0:0:0:
256,192,29336,1,2,0:0:0:0:
256,192,29470,1,2,0:0:0:0:
256,192,29604,1,0,0:0:0:0:
256,192,29872,1,0,0:0:0:0:
256,192,30139,1,0,0:0:0:0:
256,192,30407,1,0,0:0:0:0:
256,192,30675,1,2,0:0:0:0:
256,192,30943,1,2,0:0:0:0:
256,192,31211,1,2,0:0:0:0:
256,192,31479,1,2,0:0:0:0:
256,192,31546,1,2,0:0:0:0:
256,192,31613,1,0,0:0:0:0:
256,192,31680,1,0,0:0:0:0:
256,192,31747,1,2,0:0:0:0:
256,192,32015,1,2,0:0:0:0:
256,192,32149,1,0,0:0:0:0:
256,192,32283,1,2,0:0:0:0:
256,192,32350,1,0,0:0:0:0:
256,192,32417,1,2,0:0:0:0:
256,192,32550,1,0,0:0:0:0:
256,192,32819,1,2,0:0:0:0:
256,192,32886,1,2,0:0:0:0:
256,192,32952,1,0,0:0:0:0:
256,192,33087,1,2,0:0:0:0:
256,192,33154,1,0,0:0:0:0:
256,192,33220,1,2,0:0:0:0:
256,192,33354,1,2,0:0:0:0:
256,192,33622,1,2,0:0:0:0:
256,192,33689,1,0,0:0:0:0:
256,192,33756,1,2,0:0:0:0:
256,192,33889,1,0,0:0:0:0:
256,192,34157,1,0,0:0:0:0:
256,192,34291,5,0,0:0:0:0:
256,192,34426,1,2,0:0:0:0:
256,192,34560,1,0,0:0:0:0:
256,192,34694,1,2,0:0:0:0:
256,192,34828,1,0,0:0:0:0:
256,192,34962,5,2,0:0:0:0:
256,192,35028,1,2,0:0:0:0:
256,192,35095,1,0,0:0:0:0:
256,192,35229,5,2,0:0:0:0:
256,192,35296,1,0,0:0:0:0:
256,192,35363,1,2,0:0:0:0:
256,192,35497,1,0,0:0:0:0:
256,192,35764,1,0,0:0:0:0:
256,192,35898,1,0,0:0:0:0:
256,192,36032,1,2,0:0:0:0:
256,192,36099,1,0,0:0:0:0:
256,192,36166,1,0,0:0:0:0:
256,192,36300,1,2,0:0:0:0:
256,192,36568,1,0,0:0:0:0:
256,192,36635,1,0,0:0:0:0:
256,192,36702,1,2,0:0:0:0:
256,192,36836,1,0,0:0:0:0:
256,192,36970,1,0,0:0:0:0:
256,192,37104,1,2,0:0:0:0:
256,192,37171,1,0,0:0:0:0:
256,192,37238,1,0,0:0:0:0:
256,192,37372,1,2,0:0:0:0:
256,192,37639,1,0,0:0:0:0:
256,192,37706,1,0,0:0:0:0:
256,192,37773,1,2,0:0:0:0:
256,192,37907,1,2,0:0:0:0:
256,192,38041,1,0,0:0:0:0:
256,192,38175,1,2,0:0:0:0:
256,192,38242,1,0,0:0:0:0:
256,192,38309,1,0,0:0:0:0:
256,192,38443,1,2,0:0:0:0:
256,192,38711,1,0,0:0:0:0:
256,192,38778,1,0,0:0:0:0:
256,192,38845,1,2,0:0:0:0:
256,192,38979,1,0,0:0:0:0:
256,192,39113,1,0,0:0:0:0:
256,192,39180,1,0,0:0:0:0:
256,192,39247,1,2,0:0:0:0:
256,192,39313,1,0,0:0:0:0:
256,192,39380,1,0,0:0:0:0:
256,192,39447,1,0,0:0:0:0:
256,192,39514,1,2,0:0:0:0:
256,192,39581,1,0,0:0:0:0:
256,192,39648,1,2,0:0:0:0:
256,192,39715,1,0,0:0:0:0:
256,192,39782,1,2,0:0:0:0:
256,192,39849,1,0,0:0:0:0:
256,192,39916,1,2,0:0:0:0:
256,192,40050,1,6,0:0:0:0:
256,192,40318,1,2,0:0:0:0:
256,192,40720,1,2,0:0:0:0:
256,192,41122,1,0,0:0:0:0:
256,192,41389,1,6,0:0:0:0:
256,192,41523,1,6,0:0:0:0:
256,192,41791,1,2,0:0:0:0:
256,192,42193,1,0,0:0:0:0:
256,192,42461,1,4,0:0:0:0:
240,192,42595,1,4,0:0:0:0:
256,192,42863,1,2,0:0:0:0:
256,192,43264,1,2,0:0:0:0:
256,192,43532,1,6,0:0:0:0:
240,192,43666,1,6,0:0:0:0:
256,192,43934,1,2,0:0:0:0:
256,192,44202,1,2,0:0:0:0:
256,192,44336,1,0,0:0:0:0:
256,192,44604,1,4,0:0:0:0:
240,192,44738,1,4,0:0:0:0:
256,192,45005,1,0,0:0:0:0:
256,192,45273,1,2,0:0:0:0:
256,192,45407,1,0,0:0:0:0:
256,192,45675,1,6,0:0:0:0:
240,192,45809,1,6,0:0:0:0:
256,192,46077,1,2,0:0:0:0:
256,192,46345,1,2,0:0:0:0:
256,192,46479,1,0,0:0:0:0:
256,192,46747,1,4,0:0:0:0:
240,192,46880,1,4,0:0:0:0:
256,192,47148,1,2,0:0:0:0:
256,192,47550,1,2,0:0:0:0:
256,192,47818,1,2,0:0:0:0:
256,192,47952,1,2,0:0:0:0:
256,192,48220,1,2,0:0:0:0:
256,192,48488,1,0,0:0:0:0:
256,192,48622,1,2,0:0:0:0:
256,192,48755,1,2,0:0:0:0:
256,192,48889,1,4,0:0:0:0:
256,192,49157,1,0,0:0:0:0:
256,192,49291,1,2,0:0:0:0:
256,192,49425,1,2,0:0:0:0:
256,192,49559,1,0,0:0:0:0:
256,192,49693,1,2,0:0:0:0:
256,192,49827,1,0,0:0:0:0:
256,192,49961,1,0,0:0:0:0:
256,192,50028,1,0,0:0:0:0:
256,192,50095,1,2,0:0:0:0:
256,192,50229,1,0,0:0:0:0:
256,192,50363,1,2,0:0:0:0:
256,192,50497,1,2,0:0:0:0:
256,192,50630,1,0,0:0:0:0:
256,192,50764,1,2,0:0:0:0:
256,192,50898,1,2,0:0:0:0:
256,192,51032,1,2,0:0:0:0:
256,192,51099,1,0,0:0:0:0:
256,192,51166,1,2,0:0:0:0:
256,192,51300,1,2,0:0:0:0:
256,192,51434,1,0,0:0:0:0:
256,192,51568,1,2,0:0:0:0:
256,192,51702,1,2,0:0:0:0:
256,192,51836,1,0,0:0:0:0:
256,192,51970,1,2,0:0:0:0:
256,192,52104,1,2,0:0:0:0:
256,192,52171,1,2,0:0:0:0:
256,192,52238,1,0,0:0:0:0:
256,192,52372,1,2,0:0:0:0:
256,192,52505,1,0,0:0:0:0:
256,192,52639,1,2,0:0:0:0:
256,192,52773,1,2,0:0:0:0:
256,192,52907,1,0,0:0:0:0:
256,192,53175,1,0,0:0:0:0:
256,192,53242,1,0,0:0:0:0:
256,192,53309,1,2,0:0:0:0:
256,192,53443,1,0,0:0:0:0:
256,192,53577,1,2,0:0:0:0:
256,192,53711,1,2,0:0:0:0:
256,192,53845,1,0,0:0:0:0:
256,192,53979,1,2,0:0:0:0:
256,192,54113,1,2,0:0:0:0:
256,192,54247,1,0,0:0:0:0:
256,192,54313,1,0,0:0:0:0:
256,192,54380,1,2,0:0:0:0:
256,192,54514,1,2,0:0:0:0:
256,192,54782,1,2,0:0:0:0:
256,192,54916,1,0,0:0:0:0:
256,192,55318,1,4,0:0:0:0:
256,192,55720,1,2,0:0:0:0:
256,192,56122,5,0,0:0:0:0:
256,192,56389,1,4,0:0:0:0:
256,192,56791,5,4,0:0:0:0:
256,192,57461,5,2,0:0:0:0:
256,192,57528,1,0,0:0:0:0:
256,192,57595,1,0,0:0:0:0:
256,192,57729,1,2,0:0:0:0:
256,192,57863,1,2,0:0:0:0:
256,192,57930,1,0,0:0:0:0:
256,192,57997,1,0,0:0:0:0:
256,192,58064,1,0,0:0:0:0:
256,192,58131,1,2,0:0:0:0:
256,192,58265,1,2,0:0:0:0:
256,192,58532,5,2,0:0:0:0:
256,192,58599,1,0,0:0:0:0:
256,192,58666,1,0,0:0:0:0:
256,192,58800,1,2,0:0:0:0:
256,192,58934,1,2,0:0:0:0:
256,192,59001,1,0,0:0:0:0:
256,192,59068,1,0,0:0:0:0:
256,192,59135,1,0,0:0:0:0:
256,192,59202,1,2,0:0:0:0:
256,192,59336,1,2,0:0:0:0:
256,192,59604,1,2,0:0:0:0:
256,192,59671,1,0,0:0:0:0:
256,192,59738,1,2,0:0:0:0:
256,192,59872,1,2,0:0:0:0:
256,192,60005,1,2,0:0:0:0:
256,192,60073,1,0,0:0:0:0:
256,192,60140,1,0,0:0:0:0:
256,192,60207,1,0,0:0:0:0:
256,192,60274,1,2,0:0:0:0:
256,192,60341,1,0,0:0:0:0:
256,192,60408,1,2,0:0:0:0:
256,192,60475,1,0,0:0:0:0:
256,192,60542,1,2,0:0:0:0:
256,192,60609,1,0,0:0:0:0:
256,192,60675,1,6,0:0:0:0:
256,192,60809,1,4,0:0:0:0:
256,192,60943,1,6,0:0:0:0:
256,192,61077,1,4,0:0:0:0:
256,192,61345,5,0,0:0:0:0:
256,192,61479,1,0,0:0:0:0:
256,192,61747,1,6,0:0:0:0:
256,192,62148,1,2,0:0:0:0:
256,192,62550,1,0,0:0:0:0:
256,192,62818,1,6,0:0:0:0:
256,192,63220,1,2,0:0:0:0:
256,192,63622,1,0,0:0:0:0:
256,192,63889,1,4,0:0:0:0:
256,192,64291,1,2,0:0:0:0:
256,192,64693,1,0,0:0:0:0:
256,192,64961,1,6,0:0:0:0:
256,192,65229,1,2,0:0:0:0:
256,192,65363,1,2,0:0:0:0:
256,192,65630,1,2,0:0:0:0:
256,192,65764,1,0,0:0:0:0:
256,192,66032,1,6,0:0:0:0:
256,192,66434,1,0,0:0:0:0:
256,192,66836,1,0,0:0:0:0:
256,192,67104,1,6,0:0:0:0:
256,192,67505,1,0,0:0:0:0:
256,192,67773,1,0,0:0:0:0:
256,192,67907,1,2,0:0:0:0:
256,192,68175,1,6,0:0:0:0:
256,192,68577,1,2,0:0:0:0:
256,192,68979,1,0,0:0:0:0:
256,192,69247,1,2,0:0:0:0:
256,192,69313,1,0,0:0:0:0:
256,192,69380,1,0,0:0:0:0:
256,192,69447,1,0,0:0:0:0:
256,192,69514,1,0,0:0:0:0:
256,192,69581,1,0,0:0:0:0:
256,192,69648,1,2,0:0:0:0:
256,192,69916,1,2,0:0:0:0:
256,192,70050,1,2,0:0:0:0:
256,192,70318,1,2,0:0:0:0:
256,192,70452,1,0,0:0:0:0:
256,192,70586,1,0,0:0:0:0:
256,192,70720,1,0,0:0:0:0:
256,192,70854,1,2,0:0:0:0:
256,192,70921,1,2,0:0:0:0:
256,192,70988,1,0,0:0:0:0:
256,192,71122,1,0,0:0:0:0:
256,192,71255,1,0,0:0:0:0:
256,192,71389,1,2,0:0:0:0:
256,192,71456,1,0,0:0:0:0:
256,192,71523,1,2,0:0:0:0:
256,192,71657,1,2,0:0:0:0:
256,192,71925,1,2,0:0:0:0:
256,192,72193,1,0,0:0:0:0:
256,192,72327,1,2,0:0:0:0:
256,192,72461,1,0,0:0:0:0:
256,192,72528,1,0,0:0:0:0:
256,192,72595,1,2,0:0:0:0:
256,192,72863,1,2,0:0:0:0:
256,192,73130,1,0,0:0:0:0:
256,192,73264,1,0,0:0:0:0:
256,192,73398,1,2,0:0:0:0:
256,192,73532,1,0,0:0:0:0:
256,192,73599,1,0,0:0:0:0:
256,192,73666,1,0,0:0:0:0:
256,192,73800,1,2,0:0:0:0:
256,192,73934,1,0,0:0:0:0:
256,192,74068,1,2,0:0:0:0:
256,192,74202,1,2,0:0:0:0:
256,192,74336,1,0,0:0:0:0:
256,192,74604,1,0,0:0:0:0:
256,192,74738,1,0,0:0:0:0:
256,192,74872,1,2,0:0:0:0:
256,192,75005,1,0,0:0:0:0:
256,192,75139,1,2,0:0:0:0:
256,192,75273,1,0,0:0:0:0:
256,192,75407,1,2,0:0:0:0:
256,192,75474,1,0,0:0:0:0:
256,192,75541,1,2,0:0:0:0:
256,192,75608,1,2,0:0:0:0:
256,192,75675,1,0,0:0:0:0:
256,192,75809,1,2,0:0:0:0:
256,192,75943,1,2,0:0:0:0:
256,192,76211,1,0,0:0:0:0:
256,192,76613,1,0,0:0:0:0:
256,192,76747,1,2,0:0:0:0:
256,192,77014,1,2,0:0:0:0:
256,192,77148,1,2,0:0:0:0:
256,192,77550,1,0,0:0:0:0:
256,192,77818,1,2,0:0:0:0:
256,192,77952,1,0,0:0:0:0:
256,192,78019,1,0,0:0:0:0:
256,192,78086,1,2,0:0:0:0:
256,192,78220,1,0,0:0:0:0:
256,192,78354,1,2,0:0:0:0:
256,192,78421,1,0,0:0:0:0:
256,192,78488,1,2,0:0:0:0:
256,192,78622,1,2,0:0:0:0:
256,192,78755,1,2,0:0:0:0:
256,192,78889,1,2,0:0:0:0:
256,192,78956,1,2,0:0:0:0:
256,192,79023,1,2,0:0:0:0:
256,192,79090,1,2,0:0:0:0:
256,192,79157,1,0,0:0:0:0:
256,192,79291,1,0,0:0:0:0:
256,192,79425,1,2,0:0:0:0:
256,192,79559,1,0,0:0:0:0:
256,192,79693,1,0,0:0:0:0:
256,192,79760,1,0,0:0:0:0:
256,192,79827,1,0,0:0:0:0:
256,192,79894,1,0,0:0:0:0:
256,192,79961,1,0,0:0:0:0:
256,192,80028,1,0,0:0:0:0:
256,192,80095,1,0,0:0:0:0:
256,192,80162,1,0,0:0:0:0:
256,192,80229,1,2,0:0:0:0:
256,192,80497,1,2,0:0:0:0:
256,192,80764,1,0,0:0:0:0:
256,192,81032,1,2,0:0:0:0:
256,192,81099,1,2,0:0:0:0:
256,192,81166,1,0,0:0:0:0:
256,192,81300,1,2,0:0:0:0:
256,192,81434,1,0,0:0:0:0:
256,192,81568,1,2,0:0:0:0:
256,192,81702,1,2,0:0:0:0:
256,192,81836,1,0,0:0:0:0:
256,192,81902,1,0,0:0:0:0:
256,192,81970,1,2,0:0:0:0:
256,192,82037,1,0,0:0:0:0:
256,192,82104,1,2,0:0:0:0:
256,192,82171,1,0,0:0:0:0:
256,192,82238,1,2,0:0:0:0:
256,192,82305,1,0,0:0:0:0:
256,192,82372,1,0,0:0:0:0:
256,192,82438,1,0,0:0:0:0:
256,192,82505,1,2,0:0:0:0:
256,192,82639,1,2,0:0:0:0:
256,192,82907,1,2,0:0:0:0:
256,192,83175,1,2,0:0:0:0:
256,192,83309,1,2,0:0:0:0:
256,192,83443,1,0,0:0:0:0:
256,192,83711,1,2,0:0:0:0:
256,192,83979,1,2,0:0:0:0:
256,192,84247,1,2,0:0:0:0:
256,192,84380,1,0,0:0:0:0:
256,192,84514,1,2,0:0:0:0:
256,192,84648,1,0,0:0:0:0:
256,192,85317,1,2,0:0:0:0:
256,192,85585,1,0,0:0:0:0:
256,192,85853,1,2,0:0:0:0:
256,192,86121,1,2,0:0:0:0:
256,192,86255,1,2,0:0:0:0:
256,192,86389,1,0,0:0:0:0:
256,192,86523,1,0,0:0:0:0:
256,192,86656,1,2,0:0:0:0:
256,192,86925,1,2,0:0:0:0:
256,192,87461,1,2,0:0:0:0:
256,192,87729,1,0,0:0:0:0:
256,192,87997,1,2,0:0:0:0:
256,192,88265,1,2,0:0:0:0:
256,192,88399,1,2,0:0:0:0:
256,192,88533,1,0,0:0:0:0:
256,192,88667,1,0,0:0:0:0:
256,192,88800,1,2,0:0:0:0:
256,192,89069,1,2,0:0:0:0:
256,192,89604,1,2,0:0:0:0:
256,192,89872,1,0,0:0:0:0:
256,192,90140,1,2,0:0:0:0:
256,192,90408,1,2,0:0:0:0:
256,192,90542,1,2,0:0:0:0:
256,192,90676,1,0,0:0:0:0:
256,192,90810,1,0,0:0:0:0:
256,192,90943,5,2,0:0:0:0:
256,192,91212,1,2,0:0:0:0:
256,192,91747,1,2,0:0:0:0:
256,192,91813,1,2,0:0:0:0:
256,192,91880,1,0,0:0:0:0:
256,192,92014,1,2,0:0:0:0:
256,192,92081,1,0,0:0:0:0:
256,192,92148,1,0,0:0:0:0:
256,192,92282,1,2,0:0:0:0:
256,192,92348,1,2,0:0:0:0:
256,192,92415,1,0,0:0:0:0:
256,192,92549,1,2,0:0:0:0:
256,192,92616,1,0,0:0:0:0:
256,192,92683,1,0,0:0:0:0:
256,192,92818,1,2,0:0:0:0:
256,192,92884,1,2,0:0:0:0:
256,192,92951,1,0,0:0:0:0:
256,192,93085,1,2,0:0:0:0:
256,192,93152,1,0,0:0:0:0:
256,192,93219,1,0,0:0:0:0:
256,192,93354,1,2,0:0:0:0:
256,192,93420,1,2,0:0:0:0:
256,192,93487,1,0,0:0:0:0:
256,192,93621,1,2,0:0:0:0:
256,192,93688,1,0,0:0:0:0:
256,192,93755,1,0,0:0:0:0:
256,192,93889,1,2,0:0:0:0:
256,192,93955,1,2,0:0:0:0:
256,192,94022,1,0,0:0:0:0:
256,192,94089,1,0,0:0:0:0:
256,192,94156,1,2,0:0:0:0:
256,192,94223,1,0,0:0:0:0:
256,192,94290,1,0,0:0:0:0:
256,192,94357,1,0,0:0:0:0:
256,192,94425,1,2,0:0:0:0:
256,192,94491,1,2,0:0:0:0:
256,192,94558,1,0,0:0:0:0:
256,192,94625,1,0,0:0:0:0:
256,192,94692,1,2,0:0:0:0:
256,192,94759,1,0,0:0:0:0:
256,192,94826,1,2,0:0:0:0:
256,192,94893,1,0,0:0:0:0:
256,192,94961,1,2,0:0:0:0:
256,192,95764,1,2,0:0:0:0:
256,192,96032,1,2,0:0:0:0:
256,192,96166,1,0,0:0:0:0:
256,192,96300,1,2,0:0:0:0:
256,192,96367,1,0,0:0:0:0:
256,192,96434,1,0,0:0:0:0:
256,192,96501,1,0,0:0:0:0:
256,192,96568,1,2,0:0:0:0:
256,192,96702,1,0,0:0:0:0:
256,192,96836,1,2,0:0:0:0:
256,192,96970,1,0,0:0:0:0:
256,192,97037,1,0,0:0:0:0:
256,192,97104,1,2,0:0:0:0:
256,192,97238,1,0,0:0:0:0:
256,192,97372,1,2,0:0:0:0:
256,192,97505,1,0,0:0:0:0:
256,192,97572,1,0,0:0:0:0:
256,192,97639,1,2,0:0:0:0:
256,192,97706,1,0,0:0:0:0:
256,192,97773,1,2,0:0:0:0:
256,192,97907,1,0,0:0:0:0:
256,192,98041,1,2,0:0:0:0:
256,192,98108,1,2,0:0:0:0:
256,192,98175,1,0,0:0:0:0:
256,192,98309,1,0,0:0:0:0:
256,192,98443,1,0,0:0:0:0:
256,192,98510,1,2,0:0:0:0:
256,192,98577,1,0,0:0:0:0:
256,192,98711,1,0,0:0:0:0:
256,192,98845,1,2,0:0:0:0:
256,192,98979,1,2,0:0:0:0:
256,192,99046,1,0,0:0:0:0:
256,192,99113,1,2,0:0:0:0:
256,192,99247,1,2,0:0:0:0:
256,192,99313,1,0,0:0:0:0:
256,192,99380,1,2,0:0:0:0:
256,192,99514,1,2,0:0:0:0:
256,192,99581,1,0,0:0:0:0:
256,192,99648,1,2,0:0:0:0:
256,192,99782,1,2,0:0:0:0:
256,192,99849,1,2,0:0:0:0:
256,192,99916,1,0,0:0:0:0:
256,192,99983,1,0,0:0:0:0:
256,192,100050,1,2,0:0:0:0:
256,192,100318,1,2,0:0:0:0:
256,192,100452,1,0,0:0:0:0:
256,192,100586,1,2,0:0:0:0:
256,192,100653,1,0,0:0:0:0:
256,192,100720,1,0,0:0:0:0:
256,192,100787,1,0,0:0:0:0:
256,192,100854,1,2,0:0:0:0:
256,192,100988,1,0,0:0:0:0:
256,192,101122,1,2,0:0:0:0:
256,192,101256,1,0,0:0:0:0:
256,192,101323,1,0,0:0:0:0:
256,192,101390,1,2,0:0:0:0:
256,192,101524,1,0,0:0:0:0:
256,192,101658,1,2,0:0:0:0:
256,192,101791,1,0,0:0:0:0:
256,192,101858,1,0,0:0:0:0:
256,192,101925,1,2,0:0:0:0:
256,192,101992,1,0,0:0:0:0:
256,192,102059,1,2,0:0:0:0:
256,192,102193,1,0,0:0:0:0:
256,192,102327,1,2,0:0:0:0:
256,192,102394,1,2,0:0:0:0:
256,192,102461,1,0,0:0:0:0:
256,192,102595,1,0,0:0:0:0:
256,192,102729,1,0,0:0:0:0:
256,192,102796,1,2,0:0:0:0:
256,192,102863,1,0,0:0:0:0:
256,192,102997,1,0,0:0:0:0:
256,192,103131,1,2,0:0:0:0:
256,192,103265,1,2,0:0:0:0:
256,192,103332,1,0,0:0:0:0:
256,192,103399,1,2,0:0:0:0:
256,192,103533,1,2,0:0:0:0:
256,192,103800,1,6,0:0:0:0:
256,192,103934,1,4,0:0:0:0:
240,192,104068,1,6,0:0:0:0:
240,192,104202,1,6,0:0:0:0:
240,192,104336,1,4,0:0:0:0:
256,192,104604,1,2,0:0:0:0:
256,192,104671,1,0,0:0:0:0:
256,192,104738,1,2,0:0:0:0:
256,192,104872,1,0,0:0:0:0:
256,192,105006,1,2,0:0:0:0:
256,192,105072,1,2,0:0:0:0:
256,192,105139,1,0,0:0:0:0:
256,192,105274,1,0,0:0:0:0:
256,192,105407,1,2,0:0:0:0:
256,192,105474,1,0,0:0:0:0:
256,192,105541,1,2,0:0:0:0:
256,192,105675,1,0,0:0:0:0:
256,192,105809,1,2,0:0:0:0:
256,192,105876,1,2,0:0:0:0:
256,192,105943,1,0,0:0:0:0:
256,192,106077,1,0,0:0:0:0:
256,192,106211,1,2,0:0:0:0:
256,192,106278,1,0,0:0:0:0:
256,192,106345,1,2,0:0:0:0:
256,192,106479,1,0,0:0:0:0:
256,192,106613,1,2,0:0:0:0:
256,192,106680,1,2,0:0:0:0:
256,192,106747,1,0,0:0:0:0:
256,192,106881,1,0,0:0:0:0:
256,192,107015,1,2,0:0:0:0:
256,192,107082,1,0,0:0:0:0:
256,192,107149,1,2,0:0:0:0:
256,192,107283,1,0,0:0:0:0:
256,192,107417,1,2,0:0:0:0:
256,192,107483,1,0,0:0:0:0:
256,192,107550,1,2,0:0:0:0:
256,192,107617,1,0,0:0:0:0:
256,192,107684,1,0,0:0:0:0:
256,192,107818,1,6,0:0:0:0:
256,192,107952,1,4,0:0:0:0:
256,192,108086,1,6,0:0:0:0:
256,192,108220,1,6,0:0:0:0:
256,192,108354,1,4,0:0:0:0:
256,192,108488,1,6,0:0:0:0:
256,192,108622,1,4,0:0:0:0:
256,192,108889,1,2,0:0:0:0:
256,192,109023,1,0,0:0:0:0:
256,192,109157,1,2,0:0:0:0:
256,192,109224,1,0,0:0:0:0:
256,192,109291,1,0,0:0:0:0:
256,192,109358,1,0,0:0:0:0:
256,192,109425,1,2,0:0:0:0:
256,192,109559,1,0,0:0:0:0:
256,192,109693,1,2,0:0:0:0:
256,192,109827,1,0,0:0:0:0:
256,192,109894,1,0,0:0:0:0:
256,192,109961,1,2,0:0:0:0:
256,192,110095,1,0,0:0:0:0:
256,192,110229,1,2,0:0:0:0:
256,192,110362,1,0,0:0:0:0:
256,192,110429,1,0,0:0:0:0:
256,192,110496,1,2,0:0:0:0:
256,192,110563,1,0,0:0:0:0:
256,192,110630,1,2,0:0:0:0:
256,192,110764,1,0,0:0:0:0:
256,192,110898,1,2,0:0:0:0:
256,192,110965,1,2,0:0:0:0:
256,192,111032,1,0,0:0:0:0:
256,192,111166,1,0,0:0:0:0:
256,192,111300,1,0,0:0:0:0:
256,192,111367,1,2,0:0:0:0:
256,192,111434,1,0,0:0:0:0:
256,192,111568,1,0,0:0:0:0:
256,192,111702,1,2,0:0:0:0:
256,192,111836,1,2,0:0:0:0:
256,192,111903,1,0,0:0:0:0:
256,192,111970,1,2,0:0:0:0:
256,192,112104,1,2,0:0:0:0:
256,192,112170,1,2,0:0:0:0:
256,192,112238,1,2,0:0:0:0:
256,192,112305,1,2,0:0:0:0:
256,192,112371,1,0,0:0:0:0:
256,192,112438,1,0,0:0:0:0:
256,192,112505,1,0,0:0:0:0:
256,192,112572,1,0,0:0:0:0:
256,192,112639,1,2,0:0:0:0:
256,192,112706,1,2,0:0:0:0:
256,192,112773,1,2,0:0:0:0:
256,192,112840,1,2,0:0:0:0:
256,192,112907,1,0,0:0:0:0:
256,192,112974,1,0,0:0:0:0:
256,192,113041,1,0,0:0:0:0:
256,192,113108,1,0,0:0:0:0:
256,192,113175,1,6,0:0:0:0:
256,192,113309,1,6,0:0:0:0:
256,192,113711,1,4,0:0:0:0:
256,192,113845,1,4,0:0:0:0:
256,192,114247,1,6,0:0:0:0:
256,192,114380,1,6,0:0:0:0:
256,192,114782,1,4,0:0:0:0:
256,192,114916,1,4,0:0:0:0:
256,192,115318,1,6,0:0:0:0:
256,192,115452,1,6,0:0:0:0:
256,192,115854,1,4,0:0:0:0:
256,192,115988,1,4,0:0:0:0:
256,192,116389,1,4,0:0:0:0:
256,192,116523,1,6,0:0:0:0:
256,192,116791,1,6,0:0:0:0:
256,192,117059,1,6,0:0:0:0:
256,192,118130,1,0,0:0:0:0:
256,192,118197,1,0,0:0:0:0:
256,192,118264,1,2,0:0:0:0:
256,192,118532,1,6,0:0:0:0:
256,192,118666,1,6,0:0:0:0:
256,192,118800,1,0,0:0:0:0:
256,192,118934,1,2,0:0:0:0:
256,192,119336,1,2,0:0:0:0:
256,192,119604,1,4,0:0:0:0:
256,192,119738,1,4,0:0:0:0:
256,192,119872,1,2,0:0:0:0:
256,192,120005,1,0,0:0:0:0:
256,192,120407,1,0,0:0:0:0:
256,192,120675,1,6,0:0:0:0:
256,192,120809,1,6,0:0:0:0:
256,192,121077,1,2,0:0:0:0:
256,192,121479,1,0,0:0:0:0:
256,192,121747,1,6,0:0:0:0:
256,192,121880,1,6,0:0:0:0:
256,192,122148,1,0,0:0:0:0:
256,192,122282,1,0,0:0:0:0:
256,192,122416,1,2,0:0:0:0:
256,192,122550,1,0,0:0:0:0:
256,192,122818,1,6,0:0:0:0:
256,192,122952,1,6,0:0:0:0:
256,192,123220,1,0,0:0:0:0:
256,192,123622,1,0,0:0:0:0:
256,192,123889,1,6,0:0:0:0:
256,192,124023,1,6,0:0:0:0:
256,192,124291,1,0,0:0:0:0:
256,192,124559,1,0,0:0:0:0:
256,192,124693,1,0,0:0:0:0:
256,192,124961,1,6,0:0:0:0:
256,192,125229,1,0,0:0:0:0:
256,192,125296,1,0,0:0:0:0:
256,192,125363,1,2,0:0:0:0:
256,192,125430,1,2,0:0:0:0:
256,192,125497,1,0,0:0:0:0:
256,192,125764,1,2,0:0:0:0:
256,192,126032,1,2,0:0:0:0:
256,192,126211,1,2,0:0:0:0:
256,192,126389,1,0,0:0:0:0:
256,192,126568,1,2,0:0:0:0:
256,192,126747,1,0,0:0:0:0:
256,192,126970,1,2,0:0:0:0:
256,192,127104,1,0,0:0:0:0:
256,192,127171,1,0,0:0:0:0:
256,192,127238,1,2,0:0:0:0:
256,192,127372,1,0,0:0:0:0:
256,192,127505,1,2,0:0:0:0:
256,192,127639,1,2,0:0:0:0:
256,192,127706,1,0,0:0:0:0:
256,192,127773,1,0,0:0:0:0:
256,192,127907,1,0,0:0:0:0:
256,192,128041,1,0,0:0:0:0:
256,192,128175,1,2,0:0:0:0:
256,192,128242,1,2,0:0:0:0:
256,192,128309,1,0,0:0:0:0:
256,192,128443,1,0,0:0:0:0:
256,192,128577,1,2,0:0:0:0:
256,192,128711,1,0,0:0:0:0:
256,192,128778,1,2,0:0:0:0:
256,192,128845,1,0,0:0:0:0:
256,192,128979,1,0,0:0:0:0:
256,192,129113,1,0,0:0:0:0:
256,192,129247,1,2,0:0:0:0:
256,192,129313,1,2,0:0:0:0:
256,192,129380,1,0,0:0:0:0:
256,192,129514,1,0,0:0:0:0:
256,192,129648,1,2,0:0:0:0:
256,192,129782,1,0,0:0:0:0:
256,192,129849,1,0,0:0:0:0:
256,192,129916,1,2,0:0:0:0:
256,192,130050,1,2,0:0:0:0:
256,192,130184,1,0,0:0:0:0:
256,192,130318,1,0,0:0:0:0:
256,192,130385,1,2,0:0:0:0:
256,192,130452,1,0,0:0:0:0:
256,192,130586,1,2,0:0:0:0:
256,192,130720,1,0,0:0:0:0:
256,192,130854,1,2,0:0:0:0:
256,192,130988,1,2,0:0:0:0:
256,192,131122,1,0,0:0:0:0:
256,192,131389,1,0,0:0:0:0:
256,192,131456,1,0,0:0:0:0:
256,192,131523,1,2,0:0:0:0:
256,192,131657,1,2,0:0:0:0:
256,192,131791,1,0,0:0:0:0:
256,192,131925,1,2,0:0:0:0:
256,192,131992,1,0,0:0:0:0:
256,192,132059,1,2,0:0:0:0:
256,192,132193,1,2,0:0:0:0:
256,192,132327,1,0,0:0:0:0:
256,192,132461,1,2,0:0:0:0:
256,192,132528,1,2,0:0:0:0:
256,192,132595,1,0,0:0:0:0:
256,192,132729,1,0,0:0:0:0:
256,192,132863,1,0,0:0:0:0:
256,192,133130,1,0,0:0:0:0:
256,192,133532,1,2,0:0:0:0:
256,192,133599,1,2,0:0:0:0:
256,192,133666,1,0,0:0:0:0:
256,192,133800,1,0,0:0:0:0:
256,192,133934,1,2,0:0:0:0:
256,192,134001,1,2,0:0:0:0:
256,192,134068,1,2,0:0:0:0:
256,192,134336,1,0,0:0:0:0:
256,192,134604,1,2,0:0:0:0:
256,192,134872,5,0,0:0:0:0:
256,192,134938,5,0,0:0:0:0:
256,192,135005,1,2,0:0:0:0:
256,192,135139,1,2,0:0:0:0:
256,192,135273,1,0,0:0:0:0:
256,192,135407,1,2,0:0:0:0:
256,192,135541,1,0,0:0:0:0:
256,192,135675,1,2,0:0:0:0:
256,192,135742,1,2,0:0:0:0:
256,192,135809,1,2,0:0:0:0:
256,192,135876,1,2,0:0:0:0:
256,192,135943,1,0,0:0:0:0:
256,192,136077,1,0,0:0:0:0:
256,192,136345,1,2,0:0:0:0:
256,192,136479,1,0,0:0:0:0:
256,192,136546,1,0,0:0:0:0:
256,192,136613,1,0,0:0:0:0:
256,192,136680,1,0,0:0:0:0:
256,192,136747,1,0,0:0:0:0:
256,192,136814,1,0,0:0:0:0:
256,192,136881,1,0,0:0:0:0:
256,192,136948,1,0,0:0:0:0:
256,192,137015,1,2,0:0:0:0:
256,192,137283,1,2,0:0:0:0:
256,192,137550,1,0,0:0:0:0:
256,192,137818,1,2,0:0:0:0:
256,192,137885,1,2,0:0:0:0:
256,192,137952,1,0,0:0:0:0:
256,192,138086,1,2,0:0:0:0:
256,192,138220,1,0,0:0:0:0:
256,192,138354,1,2,0:0:0:0:
256,192,138488,1,2,0:0:0:0:
256,192,138622,1,0,0:0:0:0:
256,192,138688,1,0,0:0:0:0:
256,192,138756,1,2,0:0:0:0:
256,192,138823,1,0,0:0:0:0:
256,192,138890,1,2,0:0:0:0:
256,192,138957,1,0,0:0:0:0:
256,192,139024,1,2,0:0:0:0:
256,192,139091,1,0,0:0:0:0:
256,192,139158,1,0,0:0:0:0:
256,192,139224,1,0,0:0:0:0:
256,192,139291,1,2,0:0:0:0:
256,192,139425,1,2,0:0:0:0:
256,192,139693,1,2,0:0:0:0:
256,192,139961,1,2,0:0:0:0:
256,192,140095,1,2,0:0:0:0:
256,192,140229,1,0,0:0:0:0:
256,192,140497,1,2,0:0:0:0:
256,192,140765,1,2,0:0:0:0:
256,192,141033,1,2,0:0:0:0:
256,192,141166,1,0,0:0:0:0:
256,192,141300,1,2,0:0:0:0:
256,192,141434,1,2,0:0:0:0:
256,192,141568,1,0,0:0:0:0:
256,192,142103,1,2,0:0:0:0:
256,192,142371,1,0,0:0:0:0:
256,192,142639,1,2,0:0:0:0:
256,192,142907,1,2,0:0:0:0:
256,192,143041,1,2,0:0:0:0:
256,192,143175,1,0,0:0:0:0:
256,192,143309,1,0,0:0:0:0:
256,192,143442,1,2,0:0:0:0:
256,192,143711,1,2,0:0:0:0:
256,192,144247,1,2,0:0:0:0:
256,192,144515,1,0,0:0:0:0:
256,192,144783,1,2,0:0:0:0:
256,192,145051,1,2,0:0:0:0:
256,192,145185,1,2,0:0:0:0:
256,192,145319,1,0,0:0:0:0:
256,192,145453,1,0,0:0:0:0:
256,192,145586,1,2,0:0:0:0:
256,192,145855,1,2,0:0:0:0:
256,192,146390,1,2,0:0:0:0:
256,192,146658,1,0,0:0:0:0:
256,192,146926,1,2,0:0:0:0:
256,192,147059,1,0,0:0:0:0:
256,192,147328,1,2,0:0:0:0:
256,192,147462,1,0,0:0:0:0:
256,192,147596,1,0,0:0:0:0:
256,192,147729,5,2,0:0:0:0:
256,192,147998,1,2,0:0:0:0:
256,192,148532,1,6,0:0:0:0:
256,192,149068,1,4,0:0:0:0:
256,192,149604,1,4,0:0:0:0:
256,192,150139,1,6,0:0:0:0:
256,192,150675,1,2,0:0:0:0:
256,192,150742,1,0,0:0:0:0:
256,192,150809,1,2,0:0:0:0:
256,192,150876,1,0,0:0:0:0:
256,192,150943,1,2,0:0:0:0:
256,192,151010,1,0,0:0:0:0:
256,192,151077,1,0,0:0:0:0:
256,192,151144,1,0,0:0:0:0:
256,192,151211,1,2,0:0:0:0:
256,192,151278,1,0,0:0:0:0:
256,192,151345,1,0,0:0:0:0:
256,192,151412,1,0,0:0:0:0:
256,192,151479,1,2,0:0:0:0:
256,192,151546,1,0,0:0:0:0:
256,192,151613,1,0,0:0:0:0:
256,192,151680,1,0,0:0:0:0:
256,192,151747,1,2,0:0:0:0:
256,192,151813,1,0,0:0:0:0:
256,192,151880,1,0,0:0:0:0:
256,192,151947,1,0,0:0:0:0:
256,192,152014,1,2,0:0:0:0:
256,192,152081,1,0,0:0:0:0:
256,192,152148,1,0,0:0:0:0:
256,192,152215,1,0,0:0:0:0:
256,192,152282,1,2,0:0:0:0:
256,192,152349,1,0,0:0:0:0:
256,192,152416,1,0,0:0:0:0:
256,192,152550,1,2,0:0:0:0:
256,192,152684,1,0,0:0:0:0:
256,192,152751,1,0,0:0:0:0:
256,192,152818,1,6,0:0:0:0:
256,192,153086,1,4,0:0:0:0:
256,192,153220,1,6,0:0:0:0:
256,192,153488,1,6,0:0:0:0:
256,192,153755,1,6,0:0:0:0:
256,192,153889,1,4,0:0:0:0:
256,192,154693,1,2,0:0:0:0:
256,192,154961,1,2,0:0:0:0:
256,192,155095,1,0,0:0:0:0:
256,192,155229,1,2,0:0:0:0:
256,192,155296,1,0,0:0:0:0:
256,192,155363,1,0,0:0:0:0:
256,192,155430,1,0,0:0:0:0:
256,192,155497,1,2,0:0:0:0:
256,192,155631,1,0,0:0:0:0:
256,192,155765,1,2,0:0:0:0:
256,192,155899,1,0,0:0:0:0:
256,192,155966,1,0,0:0:0:0:
256,192,156033,1,2,0:0:0:0:
256,192,156167,1,0,0:0:0:0:
256,192,156301,1,2,0:0:0:0:
256,192,156434,1,0,0:0:0:0:
256,192,156501,1,0,0:0:0:0:
256,192,156568,1,2,0:0:0:0:
256,192,156635,1,0,0:0:0:0:
256,192,156702,1,2,0:0:0:0:
256,192,156836,1,0,0:0:0:0:
256,192,156970,1,2,0:0:0:0:
256,192,157037,1,2,0:0:0:0:
256,192,157104,1,0,0:0:0:0:
256,192,157238,1,0,0:0:0:0:
256,192,157372,1,0,0:0:0:0:
256,192,157439,1,2,0:0:0:0:
256,192,157506,1,0,0:0:0:0:
256,192,157640,1,0,0:0:0:0:
256,192,157774,1,2,0:0:0:0:
256,192,157908,1,2,0:0:0:0:
256,192,157975,1,0,0:0:0:0:
256,192,158042,1,2,0:0:0:0:
256,192,158176,1,2,0:0:0:0:
256,192,158242,1,0,0:0:0:0:
256,192,158309,1,2,0:0:0:0:
256,192,158443,1,2,0:0:0:0:
256,192,158510,1,0,0:0:0:0:
256,192,158577,1,2,0:0:0:0:
256,192,158711,1,2,0:0:0:0:
256,192,158778,1,2,0:0:0:0:
256,192,158845,1,0,0:0:0:0:
256,192,158912,1,0,0:0:0:0:
256,192,158979,1,2,0:0:0:0:
256,192,159247,1,2,0:0:0:0:
256,192,159381,1,0,0:0:0:0:
256,192,159515,1,2,0:0:0:0:
256,192,159582,1,0,0:0:0:0:
256,192,159649,1,0,0:0:0:0:
256,192,159716,1,0,0:0:0:0:
256,192,159783,1,2,0:0:0:0:
256,192,159917,1,0,0:0:0:0:
256,192,160051,1,2,0:0:0:0:
256,192,160185,1,0,0:0:0:0:
256,192,160252,1,0,0:0:0:0:
256,192,160319,1,2,0:0:0:0:
256,192,160453,1,0,0:0:0:0:
256,192,160587,1,2,0:0:0:0:
256,192,160720,1,0,0:0:0:0:
256,192,160787,1,0,0:0:0:0:
256,192,160854,1,2,0:0:0:0:
256,192,160921,1,0,0:0:0:0:
256,192,160988,1,2,0:0:0:0:
256,192,161122,1,0,0:0:0:0:
256,192,161256,1,2,0:0:0:0:
256,192,161323,1,2,0:0:0:0:
256,192,161390,1,0,0:0:0:0:
256,192,161524,1,0,0:0:0:0:
256,192,161658,1,0,0:0:0:0:
256,192,161725,1,2,0:0:0:0:
256,192,161792,1,0,0:0:0:0:
256,192,161926,1,0,0:0:0:0:
256,192,162060,1,2,0:0:0:0:
256,192,162194,1,2,0:0:0:0:
256,192,162261,1,0,0:0:0:0:
256,192,162328,1,2,0:0:0:0:
256,192,162462,1,2,0:0:0:0:
256,192,162729,1,6,0:0:0:0:
256,192,162863,1,4,0:0:0:0:
240,192,162997,1,6,0:0:0:0:
240,192,163131,1,6,0:0:0:0:
240,192,163265,1,4,0:0:0:0:
256,192,163533,1,2,0:0:0:0:
256,192,163600,1,0,0:0:0:0:
256,192,163667,1,2,0:0:0:0:
256,192,163801,1,0,0:0:0:0:
256,192,163935,1,2,0:0:0:0:
256,192,164001,1,2,0:0:0:0:
256,192,164068,1,0,0:0:0:0:
256,192,164203,1,0,0:0:0:0:
256,192,164336,1,2,0:0:0:0:
256,192,164403,1,0,0:0:0:0:
256,192,164470,1,2,0:0:0:0:
256,192,164604,1,0,0:0:0:0:
256,192,164738,1,2,0:0:0:0:
256,192,164805,1,2,0:0:0:0:
256,192,164872,1,0,0:0:0:0:
256,192,165006,1,0,0:0:0:0:
256,192,165140,1,2,0:0:0:0:
256,192,165207,1,0,0:0:0:0:
256,192,165274,1,2,0:0:0:0:
256,192,165408,1,0,0:0:0:0:
256,192,165542,1,2,0:0:0:0:
256,192,165609,1,2,0:0:0:0:
256,192,165676,1,0,0:0:0:0:
256,192,165810,1,0,0:0:0:0:
256,192,165944,1,2,0:0:0:0:
256,192,166011,1,0,0:0:0:0:
256,192,166078,1,2,0:0:0:0:
256,192,166212,1,0,0:0:0:0:
256,192,166346,1,2,0:0:0:0:
256,192,166412,1,0,0:0:0:0:
256,192,166479,1,2,0:0:0:0:
256,192,166546,1,0,0:0:0:0:
256,192,166613,1,0,0:0:0:0:
256,192,166747,1,2,0:0:0:0:
256,192,166881,1,0,0:0:0:0:
256,192,167015,1,2,0:0:0:0:
256,192,167149,1,2,0:0:0:0:
256,192,167283,1,0,0:0:0:0:
256,192,167417,1,2,0:0:0:0:
256,192,167551,1,0,0:0:0:0:
256,192,167818,1,2,0:0:0:0:
256,192,167952,1,0,0:0:0:0:
256,192,168086,1,2,0:0:0:0:
256,192,168153,1,0,0:0:0:0:
256,192,168220,1,0,0:0:0:0:
256,192,168287,1,0,0:0:0:0:
256,192,168354,1,2,0:0:0:0:
256,192,168488,1,0,0:0:0:0:
256,192,168622,1,2,0:0:0:0:
256,192,168756,1,0,0:0:0:0:
256,192,168823,1,0,0:0:0:0:
256,192,168890,1,2,0:0:0:0:
256,192,169024,1,0,0:0:0:0:
256,192,169158,1,2,0:0:0:0:
256,192,169291,1,0,0:0:0:0:
256,192,169358,1,0,0:0:0:0:
256,192,169425,1,2,0:0:0:0:
256,192,169492,1,0,0:0:0:0:
256,192,169559,1,2,0:0:0:0:
256,192,169693,1,0,0:0:0:0:
256,192,169827,1,2,0:0:0:0:
256,192,169894,1,2,0:0:0:0:
256,192,169961,1,0,0:0:0:0:
256,192,170095,1,0,0:0:0:0:
256,192,170229,5,0,0:0:0:0:
256,192,170296,1,2,0:0:0:0:
256,192,170363,1,0,0:0:0:0:
256,192,170497,1,0,0:0:0:0:
256,192,170764,1,2,0:0:0:0:
256,192,171032,5,0,0:0:0:0:
256,192,171077,1,0,0:0:0:0:
256,192,171122,1,0,0:0:0:0:
256,192,171166,1,2,0:0:0:0:
256,192,171300,1,2,0:0:0:0:
256,192,171345,1,2,0:0:0:0:
256,192,171389,1,2,0:0:0:0:
256,192,171434,1,0,0:0:0:0:
256,192,171546,1,2,0:0:0:0:
256,192,171591,1,0,0:0:0:0:
256,192,171635,1,0,0:0:0:0:
256,192,171680,1,2,0:0:0:0:
256,192,171836,1,2,0:0:0:0:
256,192,171970,1,0,0:0:0:0:
256,192,172104,1,2,0:0:0:0:
256,192,173175,1,0,0:0:0:0:
256,192,173711,1,0,0:0:0:0:
256,192,173979,1,2,0:0:0:0:
256,192,174247,1,2,0:0:0:0:
256,192,174648,1,0,0:0:0:0:
256,192,175050,1,2,0:0:0:0:
256,192,175318,1,0,0:0:0:0:
256,192,175854,1,0,0:0:0:0:
256,192,176122,1,2,0:0:0:0:
256,192,176255,1,0,0:0:0:0:
256,192,176389,1,0,0:0:0:0:
256,192,177193,1,2,0:0:0:0:
256,192,177327,1,0,0:0:0:0:
256,192,177461,1,0,0:0:0:0:
256,192,178264,1,2,0:0:0:0:
256,192,178398,1,0,0:0:0:0:
256,192,178532,1,2,0:0:0:0:
256,192,178934,1,0,0:0:0:0:
256,192,179336,1,2,0:0:0:0:
256,192,179604,1,2,0:0:0:0:
256,192,180139,5,0,0:0:0:0:
256,192,180407,1,2,0:0:0:0:
256,192,180675,1,2,0:0:0:0:
256,192,180742,1,2,0:0:0:0:
256,192,180809,1,0,0:0:0:0:
256,192,180876,1,0,0:0:0:0:
256,192,180943,1,2,0:0:0:0:
256,192,181077,1,6,0:0:0:0:
256,192,181345,1,4,0:0:0:0:
256,192,181479,1,2,0:0:0:0:
256,192,181546,1,2,0:0:0:0:
256,192,181613,1,0,0:0:0:0:
256,192,181680,1,0,0:0:0:0:
256,192,181747,1,2,0:0:0:0:
256,192,181881,1,4,0:0:0:0:
256,192,182149,1,4,0:0:0:0:
256,192,182282,1,2,0:0:0:0:
256,192,182349,1,2,0:0:0:0:
256,192,182416,1,0,0:0:0:0:
256,192,182483,1,0,0:0:0:0:
256,192,182550,1,2,0:0:0:0:
256,192,182684,1,0,0:0:0:0:
256,192,182818,1,2,0:0:0:0:
256,192,182885,1,2,0:0:0:0:
256,192,182952,1,0,0:0:0:0:
256,192,183019,1,0,0:0:0:0:
256,192,183086,1,2,0:0:0:0:
256,192,183220,1,6,0:0:0:0:
256,192,183488,1,4,0:0:0:0:
256,192,183622,1,2,0:0:0:0:
256,192,183689,1,2,0:0:0:0:
256,192,183756,1,0,0:0:0:0:
256,192,183823,1,0,0:0:0:0:
256,192,183890,1,2,0:0:0:0:
256,192,184023,1,6,0:0:0:0:
256,192,184291,1,4,0:0:0:0:
256,192,184425,1,6,0:0:0:0:
256,192,184693,1,6,0:0:0:0:
256,192,184827,1,0,0:0:0:0:
256,192,184961,5,2,0:0:0:0:
256,192,185095,1,0,0:0:0:0:
256,192,185229,1,2,0:0:0:0:
256,192,185296,1,0,0:0:0:0:
256,192,185363,1,0,0:0:0:0:
256,192,185430,1,0,0:0:0:0:
256,192,185497,1,2,0:0:0:0:
256,192,185631,1,0,0:0:0:0:
256,192,185765,1,2,0:0:0:0:
256,192,185899,1,0,0:0:0:0:
256,192,185966,1,0,0:0:0:0:
256,192,186033,1,2,0:0:0:0:
256,192,186167,1,0,0:0:0:0:
256,192,186301,1,2,0:0:0:0:
256,192,186434,1,0,0:0:0:0:
256,192,186501,1,0,0:0:0:0:
256,192,186568,1,2,0:0:0:0:
256,192,186635,1,0,0:0:0:0:
256,192,186702,1,2,0:0:0:0:
256,192,186836,1,0,0:0:0:0:
256,192,187104,1,0,0:0:0:0:
256,192,187171,1,0,0:0:0:0:
256,192,187238,1,2,0:0:0:0:
256,192,187372,1,2,0:0:0:0:
256,192,187439,1,2,0:0:0:0:
256,192,187505,1,0,0:0:0:0:
256,192,187640,1,0,0:0:0:0:
256,192,187706,1,0,0:0:0:0:
256,192,187773,1,2,0:0:0:0:
256,192,187908,1,2,0:0:0:0:
256,192,187975,1,2,0:0:0:0:
256,192,188041,1,0,0:0:0:0:
256,192,188176,1,0,0:0:0:0:
256,192,188242,1,0,0:0:0:0:
256,192,188309,1,0,0:0:0:0:
256,192,188377,1,2,0:0:0:0:
256,192,188443,1,2,0:0:0:0:
256,192,188510,1,2,0:0:0:0:
256,192,188577,1,0,0:0:0:0:
256,192,188711,1,2,0:0:0:0:
256,192,188778,1,2,0:0:0:0:
256,192,188845,1,2,0:0:0:0:
256,192,188912,1,2,0:0:0:0:
256,192,188979,1,2,0:0:0:0:
256,192,189023,1,2,0:0:0:0:
256,192,189068,1,2,0:0:0:0:
256,192,189113,1,2,0:0:0:0:
256,192,189157,1,2,0:0:0:0:
256,192,189202,1,2,0:0:0:0:
256,192,189247,1,0,0:0:0:0:
256,192,190050,1,0,0:0:0:0:
256,192,190586,1,0,0:0:0:0:
256,192,190854,1,2,0:0:0:0:
256,192,191122,1,2,0:0:0:0:
256,192,191389,1,2,0:0:0:0:
256,192,192193,1,0,0:0:0:0:
256,192,193532,1,2,0:0:0:0:
256,192,193800,1,0,0:0:0:0:
256,192,194068,1,2,0:0:0:0:
256,192,194336,1,2,0:0:0:0:
256,192,194604,1,0,0:0:0:0:
256,192,194872,1,2,0:0:0:0:
256,192,195005,1,0,0:0:0:0:
256,192,195675,1,0,0:0:0:0:
256,192,195943,1,0,0:0:0:0:
256,192,196211,1,2,0:0:0:0:
256,192,196479,1,0,0:0:0:0:
256,192,196880,1,0,0:0:0:0:
256,192,197014,1,2,0:0:0:0:
256,192,197282,1,2,0:0:0:0:
256,192,197416,1,0,0:0:0:0:
256,192,197550,1,2,0:0:0:0:
256,192,197684,1,2,0:0:0:0:
256,192,197818,1,0,0:0:0:0:
256,192,198086,1,2,0:0:0:0:
256,192,198220,1,0,0:0:0:0:
256,192,198287,1,0,0:0:0:0:
256,192,198354,1,2,0:0:0:0:
256,192,198488,1,0,0:0:0:0:
256,192,198755,1,2,0:0:0:0:
256,192,199023,1,0,0:0:0:0:
256,192,199090,1,0,0:0:0:0:
256,192,199157,1,2,0:0:0:0:
256,192,199291,1,0,0:0:0:0:
256,192,199425,1,2,0:0:0:0:
256,192,199693,1,0,0:0:0:0:
256,192,199961,1,0,0:0:0:0:
256,192,200229,1,2,0:0:0:0:
256,192,200363,1,0,0:0:0:0:
256,192,200430,1,0,0:0:0:0:
256,192,200497,1,2,0:0:0:0:
256,192,200631,1,0,0:0:0:0:
256,192,200898,1,2,0:0:0:0:
256,192,201166,1,0,0:0:0:0:
256,192,201233,1,0,0:0:0:0:
256,192,201300,1,2,0:0:0:0:
256,192,201434,1,0,0:0:0:0:
256,192,201568,1,2,0:0:0:0:
256,192,201836,1,0,0:0:0:0:
256,192,202104,1,2,0:0:0:0:
256,192,202170,1,2,0:0:0:0:
256,192,202237,1,0,0:0:0:0:
256,192,202304,1,0,0:0:0:0:
256,192,202371,1,2,0:0:0:0:
256,192,202438,1,0,0:0:0:0:
256,192,202505,1,0,0:0:0:0:
256,192,202572,1,0,0:0:0:0:
256,192,202639,1,2,0:0:0:0:
256,192,202705,1,2,0:0:0:0:
256,192,202772,1,0,0:0:0:0:
256,192,202839,1,0,0:0:0:0:
256,192,202906,1,2,0:0:0:0:
256,192,202973,1,0,0:0:0:0:
256,192,203040,1,0,0:0:0:0:
256,192,203107,1,0,0:0:0:0:
256,192,203175,1,2,0:0:0:0:
256,192,203241,1,2,0:0:0:0:
256,192,203308,1,0,0:0:0:0:
256,192,203375,1,0,0:0:0:0:
256,192,203442,1,2,0:0:0:0:
256,192,203509,1,0,0:0:0:0:
256,192,203576,1,0,0:0:0:0:
256,192,203643,1,0,0:0:0:0:
256,192,203711,1,2,0:0:0:0:
256,192,203777,1,2,0:0:0:0:
256,192,203844,1,0,0:0:0:0:
256,192,203911,1,0,0:0:0:0:
256,192,203978,1,2,0:0:0:0:
256,192,204045,1,0,0:0:0:0:
256,192,204112,1,0,0:0:0:0:
256,192,204179,1,0,0:0:0:0:
256,192,204247,1,2,0:0:0:0:
256,192,204313,1,2,0:0:0:0:
256,192,204380,1,2,0:0:0:0:
256,192,204447,1,2,0:0:0:0:
256,192,204514,1,2,0:0:0:0:
256,192,204581,1,2,0:0:0:0:
256,192,204648,1,2,0:0:0:0:
256,192,204715,1,2,0:0:0:0:
256,192,204782,1,2,0:0:0:0:
256,192,204849,1,2,0:0:0:0:
256,192,204916,1,2,0:0:0:0:
256,192,204983,1,2,0:0:0:0:
256,192,205050,1,0,0:0:0:0:
256,192,205117,1,0,0:0:0:0:
256,192,205184,1,2,0:0:0:0:
256,192,205251,1,2,0:0:0:0:
256,192,205318,1,0,0:0:0:0:
256,192,205586,1,2,0:0:0:0:
256,192,206389,1,2,0:0:0:0:
256,192,206657,1,2,0:0:0:0:
256,192,206791,1,0,0:0:0:0:
256,192,206925,1,2,0:0:0:0:
256,192,206992,1,0,0:0:0:0:
256,192,207059,1,0,0:0:0:0:
256,192,207126,1,0,0:0:0:0:
256,192,207193,1,2,0:0:0:0:
256,192,207327,1,0,0:0:0:0:
256,192,207461,1,2,0:0:0:0:
256,192,207595,1,0,0:0:0:0:
256,192,207662,1,0,0:0:0:0:
256,192,207729,1,2,0:0:0:0:
256,192,207863,1,0,0:0:0:0:
256,192,207997,1,2,0:0:0:0:
256,192,208130,1,0,0:0:0:0:
256,192,208197,1,0,0:0:0:0:
256,192,208264,1,2,0:0:0:0:
256,192,208331,1,0,0:0:0:0:
256,192,208398,1,2,0:0:0:0:
256,192,208532,1,0,0:0:0:0:
256,192,208666,1,2,0:0:0:0:
256,192,208733,1,2,0:0:0:0:
256,192,208800,1,0,0:0:0:0:
256,192,208934,1,0,0:0:0:0:
256,192,209068,1,0,0:0:0:0:
256,192,209135,1,2,0:0:0:0:
256,192,209202,1,0,0:0:0:0:
256,192,209336,1,0,0:0:0:0:
256,192,209470,1,2,0:0:0:0:
256,192,209604,1,2,0:0:0:0:
256,192,209671,1,0,0:0:0:0:
256,192,209738,1,2,0:0:0:0:
256,192,209872,1,2,0:0:0:0:
256,192,209938,1,0,0:0:0:0:
256,192,210005,1,2,0:0:0:0:
256,192,210139,1,2,0:0:0:0:
256,192,210206,1,0,0:0:0:0:
256,192,210273,1,2,0:0:0:0:
256,192,210407,1,2,0:0:0:0:
256,192,210474,1,2,0:0:0:0:
256,192,210541,1,0,0:0:0:0:
256,192,210608,1,0,0:0:0:0:
256,192,210675,1,2,0:0:0:0:
256,192,210943,1,2,0:0:0:0:
256,192,211077,1,0,0:0:0:0:
256,192,211211,1,2,0:0:0:0:
256,192,211278,1,0,0:0:0:0:
256,192,211345,1,0,0:0:0:0:
256,192,211412,1,0,0:0:0:0:
256,192,211479,1,2,0:0:0:0:
256,192,211613,1,0,0:0:0:0:
256,192,211747,1,2,0:0:0:0:
256,192,211881,1,0,0:0:0:0:
256,192,211948,1,0,0:0:0:0:
256,192,212015,1,2,0:0:0:0:
256,192,212149,1,0,0:0:0:0:
256,192,212283,1,2,0:0:0:0:
256,192,212416,1,0,0:0:0:0:
256,192,212483,1,0,0:0:0:0:
256,192,212550,1,2,0:0:0:0:
256,192,212617,1,0,0:0:0:0:
256,192,212684,1,2,0:0:0:0:
256,192,212818,1,0,0:0:0:0:
256,192,212952,1,2,0:0:0:0:
256,192,213019,1,2,0:0:0:0:
256,192,213086,1,0,0:0:0:0:
256,192,213220,1,0,0:0:0:0:
256,192,213354,1,0,0:0:0:0:
256,192,213421,1,2,0:0:0:0:
256,192,213488,1,0,0:0:0:0:
256,192,213622,1,0,0:0:0:0:
256,192,213756,1,2,0:0:0:0:
256,192,213890,1,2,0:0:0:0:
256,192,213957,1,0,0:0:0:0:
256,192,214024,1,2,0:0:0:0:
256,192,214158,1,2,0:0:0:0:
256,192,214425,1,6,0:0:0:0:
256,192,214559,1,4,0:0:0:0:
240,192,214693,1,6,0:0:0:0:
240,192,214827,1,6,0:0:0:0:
240,192,214961,1,4,0:0:0:0:
256,192,215229,1,2,0:0:0:0:
256,192,215296,1,0,0:0:0:0:
256,192,215363,1,2,0:0:0:0:
256,192,215497,1,0,0:0:0:0:
256,192,215631,1,2,0:0:0:0:
256,192,215697,1,2,0:0:0:0:
256,192,215764,1,0,0:0:0:0:
256,192,215899,1,0,0:0:0:0:
256,192,216032,1,2,0:0:0:0:
256,192,216099,1,0,0:0:0:0:
256,192,216166,1,2,0:0:0:0:
256,192,216300,1,0,0:0:0:0:
256,192,216434,1,2,0:0:0:0:
256,192,216501,1,2,0:0:0:0:
256,192,216568,1,0,0:0:0:0:
256,192,216702,1,0,0:0:0:0:
256,192,216836,1,2,0:0:0:0:
256,192,216903,1,0,0:0:0:0:
256,192,216970,1,2,0:0:0:0:
256,192,217104,1,0,0:0:0:0:
256,192,217238,1,2,0:0:0:0:
256,192,217305,1,2,0:0:0:0:
256,192,217372,1,0,0:0:0:0:
256,192,217506,1,0,0:0:0:0:
256,192,217640,1,2,0:0:0:0:
256,192,217707,1,0,0:0:0:0:
256,192,217773,1,2,0:0:0:0:
256,192,217908,1,0,0:0:0:0:
256,192,218042,1,2,0:0:0:0:
256,192,218108,1,0,0:0:0:0:
256,192,218175,1,2,0:0:0:0:
256,192,218309,1,4,0:0:0:0:
256,192,218443,1,6,0:0:0:0:
256,192,218577,1,4,0:0:0:0:
256,192,218711,1,6,0:0:0:0:
256,192,218845,1,6,0:0:0:0:
256,192,218979,1,4,0:0:0:0:
256,192,219247,1,4,0:0:0:0:
256,192,219514,1,2,0:0:0:0:
256,192,219648,1,0,0:0:0:0:
256,192,219782,1,2,0:0:0:0:
256,192,219849,1,0,0:0:0:0:
256,192,219916,1,0,0:0:0:0:
256,192,219983,1,0,0:0:0:0:
256,192,220050,1,2,0:0:0:0:
256,192,220184,1,0,0:0:0:0:
256,192,220318,1,2,0:0:0:0:
256,192,220452,1,0,0:0:0:0:
256,192,220519,1,0,0:0:0:0:
256,192,220586,1,2,0:0:0:0:
256,192,220720,1,0,0:0:0:0:
256,192,220854,1,2,0:0:0:0:
256,192,220987,1,0,0:0:0:0:
256,192,221054,1,0,0:0:0:0:
256,192,221121,1,2,0:0:0:0:
256,192,221188,1,0,0:0:0:0:
256,192,221255,1,2,0:0:0:0:
256,192,221389,5,0,0:0:0:0:
256,192,221523,1,2,0:0:0:0:
256,192,221590,1,2,0:0:0:0:
256,192,221657,1,0,0:0:0:0:
256,192,221791,1,0,0:0:0:0:
256,192,221925,1,0,0:0:0:0:
256,192,221992,1,2,0:0:0:0:
256,192,222059,1,0,0:0:0:0:
256,192,222193,1,0,0:0:0:0:
256,192,222260,1,0,0:0:0:0:
256,192,222327,1,2,0:0:0:0:
256,192,222461,5,6,0:0:0:0:
256,192,222729,1,6,0:0:0:0:
256,192,222997,1,4,0:0:0:0:
256,192,223264,1,4,0:0:0:0:
256,192,223532,1,2,0:0:0:0:
256,192,223666,1,0,0:0:0:0:
256,192,223800,1,2,0:0:0:0:
256,192,223867,1,0,0:0:0:0:
256,192,223934,1,0,0:0:0:0:
256,192,224001,1,0,0:0:0:0:
256,192,224068,1,2,0:0:0:0:
256,192,224202,1,0,0:0:0:0:
256,192,224336,1,2,0:0:0:0:
256,192,224470,1,0,0:0:0:0:
256,192,224537,1,0,0:0:0:0:
256,192,224604,1,2,0:0:0:0:
256,192,224738,1,0,0:0:0:0:
256,192,224872,1,2,0:0:0:0:
256,192,225005,1,0,0:0:0:0:
256,192,225072,1,0,0:0:0:0:
256,192,225139,1,2,0:0:0:0:
256,192,225206,1,0,0:0:0:0:
256,192,225273,1,2,0:0:0:0:
256,192,225407,1,0,0:0:0:0:
256,192,225541,1,2,0:0:0:0:
256,192,225608,1,2,0:0:0:0:
256,192,225675,1,0,0:0:0:0:
256,192,225809,1,0,0:0:0:0:
256,192,225943,1,0,0:0:0:0:
256,192,226010,1,2,0:0:0:0:
256,192,226077,1,0,0:0:0:0:
256,192,226211,1,0,0:0:0:0:
256,192,226345,1,2,0:0:0:0:
256,192,226479,1,2,0:0:0:0:
256,192,226546,1,0,0:0:0:0:
256,192,226613,1,2,0:0:0:0:
256,192,226747,1,2,0:0:0:0:
256,192,226813,1,0,0:0:0:0:
256,192,226880,1,2,0:0:0:0:
256,192,227014,1,2,0:0:0:0:
256,192,227081,1,0,0:0:0:0:
256,192,227148,1,2,0:0:0:0:
256,192,227282,1,2,0:0:0:0:
256,192,227349,1,2,0:0:0:0:
256,192,227416,1,0,0:0:0:0:
256,192,227483,1,0,0:0:0:0:
256,192,227550,1,2,0:0:0:0:
256,192,227818,1,2,0:0:0:0:
256,192,227952,1,0,0:0:0:0:
256,192,228086,1,2,0:0:0:0:
256,192,228153,1,0,0:0:0:0:
256,192,228220,1,0,0:0:0:0:
256,192,228287,1,0,0:0:0:0:
256,192,228354,1,2,0:0:0:0:
256,192,228488,1,0,0:0:0:0:
256,192,228622,1,2,0:0:0:0:
256,192,228756,1,0,0:0:0:0:
256,192,228823,1,0,0:0:0:0:
256,192,228890,1,2,0:0:0:0:
256,192,229024,1,0,0:0:0:0:
256,192,229158,1,2,0:0:0:0:
256,192,229291,1,0,0:0:0:0:
256,192,229358,1,0,0:0:0:0:
256,192,229425,1,2,0:0:0:0:
256,192,229492,1,0,0:0:0:0:
256,192,229559,1,2,0:0:0:0:
256,192,229693,1,0,0:0:0:0:
256,192,229827,1,2,0:0:0:0:
256,192,229894,1,2,0:0:0:0:
256,192,229961,1,0,0:0:0:0:
256,192,230095,1,0,0:0:0:0:
256,192,230229,1,0,0:0:0:0:
256,192,230296,1,2,0:0:0:0:
256,192,230363,1,0,0:0:0:0:
256,192,230497,1,0,0:0:0:0:
256,192,230631,1,2,0:0:0:0:
256,192,230765,1,2,0:0:0:0:
256,192,230832,1,0,0:0:0:0:
256,192,230899,1,2,0:0:0:0:
256,192,231033,1,2,0:0:0:0:
256,192,231300,5,6,0:0:0:0:
256,192,231434,1,4,0:0:0:0:
240,192,231568,1,6,0:0:0:0:
240,192,231702,1,6,0:0:0:0:
256,192,231836,1,4,0:0:0:0:
256,192,231970,1,4,0:0:0:0:
256,192,232104,5,2,0:0:0:0:
256,192,232171,1,0,0:0:0:0:
256,192,232238,1,2,0:0:0:0:
256,192,232305,1,0,0:0:0:0:
256,192,232372,1,2,0:0:0:0:
256,192,232505,1,6,0:0:0:0:
256,192,232774,1,0,0:0:0:0:
256,192,232907,1,2,0:0:0:0:
256,192,232974,1,0,0:0:0:0:
256,192,233041,1,2,0:0:0:0:
256,192,233108,1,0,0:0:0:0:
256,192,233175,1,2,0:0:0:0:
256,192,233309,1,6,0:0:0:0:
256,192,233577,1,0,0:0:0:0:
256,192,233711,1,2,0:0:0:0:
256,192,233778,1,0,0:0:0:0:
256,192,233845,1,2,0:0:0:0:
256,192,233912,1,0,0:0:0:0:
256,192,233979,1,2,0:0:0:0:
256,192,234113,1,6,0:0:0:0:
256,192,234381,1,0,0:0:0:0:
256,192,234514,1,2,0:0:0:0:
256,192,234581,1,0,0:0:0:0:
256,192,234648,1,2,0:0:0:0:
256,192,234715,1,0,0:0:0:0:
256,192,234782,1,2,0:0:0:0:
256,192,234916,1,6,0:0:0:0:
256,192,235184,1,0,0:0:0:0:
256,192,235318,1,6,0:0:0:0:
256,192,235452,1,4,0:0:0:0:
256,192,235586,1,6,0:0:0:0:
256,192,235720,1,6,0:0:0:0:
256,192,235854,1,4,0:0:0:0:
256,192,235988,1,4,0:0:0:0:
256,192,236122,1,6,0:0:0:0:
256,192,236389,1,2,0:0:0:0:
256,192,236523,1,0,0:0:0:0:
256,192,236657,1,2,0:0:0:0:
256,192,236724,1,0,0:0:0:0:
256,192,236791,1,0,0:0:0:0:
256,192,236858,1,0,0:0:0:0:
256,192,236925,1,2,0:0:0:0:
256,192,237059,1,0,0:0:0:0:
256,192,237193,1,2,0:0:0:0:
256,192,237327,1,0,0:0:0:0:
256,192,237394,1,0,0:0:0:0:
256,192,237461,1,2,0:0:0:0:
256,192,237595,1,0,0:0:0:0:
256,192,237729,1,2,0:0:0:0:
256,192,237862,1,0,0:0:0:0:
256,192,237929,1,0,0:0:0:0:
256,192,237996,1,2,0:0:0:0:
256,192,238063,1,0,0:0:0:0:
256,192,238130,1,2,0:0:0:0:
256,192,238264,1,0,0:0:0:0:
256,192,238398,1,2,0:0:0:0:
256,192,238465,1,2,0:0:0:0:
256,192,238532,1,0,0:0:0:0:
256,192,238666,1,0,0:0:0:0:
256,192,238800,1,0,0:0:0:0:
256,192,238867,1,2,0:0:0:0:
256,192,238934,1,0,0:0:0:0:
256,192,239068,1,0,0:0:0:0:
256,192,239202,1,2,0:0:0:0:
256,192,239336,1,2,0:0:0:0:
256,192,239403,1,0,0:0:0:0:
256,192,239470,1,2,0:0:0:0:
256,192,239604,12,0,240541,0:0:0:0:
256,192,240675,5,2,0:0:0:0:
256,192,240943,1,2,0:0:0:0:
256,192,241077,1,0,0:0:0:0:
256,192,241211,1,2,0:0:0:0:
256,192,241278,1,0,0:0:0:0:
256,192,241345,1,2,0:0:0:0:
256,192,241479,1,0,0:0:0:0:
256,192,241747,1,2,0:0:0:0:
256,192,241814,1,0,0:0:0:0:
256,192,241881,1,0,0:0:0:0:
256,192,242015,1,2,0:0:0:0:
256,192,242082,1,0,0:0:0:0:
256,192,242149,1,0,0:0:0:0:
256,192,242283,1,6,0:0:0:0:
256,192,242550,1,2,0:0:0:0:
256,192,242617,1,0,0:0:0:0:
256,192,242684,1,2,0:0:0:0:
256,192,242818,1,0,0:0:0:0:
256,192,243086,1,0,0:0:0:0:
256,192,243220,5,0,0:0:0:0:
256,192,243354,1,2,0:0:0:0:
256,192,243488,1,0,0:0:0:0:
256,192,243622,1,2,0:0:0:0:
256,192,243756,1,0,0:0:0:0:
256,192,243890,1,2,0:0:0:0:
256,192,243957,1,0,0:0:0:0:
256,192,244024,1,0,0:0:0:0:
256,192,244158,1,2,0:0:0:0:
256,192,244224,1,0,0:0:0:0:
256,192,244291,1,0,0:0:0:0:
256,192,244425,1,2,0:0:0:0:
256,192,244492,1,0,0:0:0:0:
256,192,244559,1,0,0:0:0:0:
256,192,244693,1,6,0:0:0:0:
256,192,244961,1,2,0:0:0:0:
256,192,245229,1,2,0:0:0:0:
256,192,245363,1,0,0:0:0:0:
256,192,245497,1,2,0:0:0:0:
256,192,245564,1,0,0:0:0:0:
256,192,245631,1,2,0:0:0:0:
256,192,245764,1,4,0:0:0:0:
256,192,246033,1,2,0:0:0:0:
256,192,246100,1,0,0:0:0:0:
256,192,246166,1,0,0:0:0:0:
256,192,246301,1,2,0:0:0:0:
256,192,246368,1,0,0:0:0:0:
256,192,246434,1,0,0:0:0:0:
256,192,246568,1,6,0:0:0:0:
256,192,246836,1,2,0:0:0:0:
256,192,246903,1,0,0:0:0:0:
256,192,246970,1,2,0:0:0:0:
256,192,247104,1,4,0:0:0:0:
256,192,247372,1,0,0:0:0:0:
256,192,247506,5,0,0:0:0:0:
256,192,247640,1,2,0:0:0:0:
256,192,247774,1,0,0:0:0:0:
256,192,247908,1,2,0:0:0:0:
256,192,248042,1,0,0:0:0:0:
256,192,248176,1,2,0:0:0:0:
256,192,248243,1,0,0:0:0:0:
256,192,248309,1,0,0:0:0:0:
256,192,248444,1,2,0:0:0:0:
256,192,248510,1,0,0:0:0:0:
256,192,248577,1,0,0:0:0:0:
256,192,248711,1,2,0:0:0:0:
256,192,248778,1,0,0:0:0:0:
256,192,248845,1,0,0:0:0:0:
256,192,248979,1,6,0:0:0:0:
256,192,249247,1,2,0:0:0:0:
256,192,249515,1,0,0:0:0:0:
256,192,249783,1,0,0:0:0:0:
256,192,250050,1,0,0:0:0:0:
256,192,250318,1,2,0:0:0:0:
256,192,250586,1,0,0:0:0:0:
256,192,250854,1,0,0:0:0:0:
256,192,251122,1,2,0:0:0:0:
256,192,251256,1,2,0:0:0:0:
256,192,251390,1,0,0:0:0:0:
256,192,251658,1,0,0:0:0:0:
256,192,251925,1,0,0:0:0:0:
256,192,252193,1,0,0:0:0:0:
256,192,252461,1,2,0:0:0:0:
256,192,252729,1,2,0:0:0:0:
256,192,252997,1,2,0:0:0:0:
256,192,253265,1,2,0:0:0:0:
256,192,253332,1,2,0:0:0:0:
256,192,253399,1,0,0:0:0:0:
256,192,253466,1,0,0:0:0:0:
256,192,253533,1,2,0:0:0:0:
256,192,253801,1,2,0:0:0:0:
256,192,253935,1,0,0:0:0:0:
256,192,254069,1,2,0:0:0:0:
256,192,254136,1,0,0:0:0:0:
256,192,254203,1,2,0:0:0:0:
256,192,254336,1,4,0:0:0:0:
256,192,254605,1,2,0:0:0:0:
256,192,254672,1,0,0:0:0:0:
256,192,254738,1,0,0:0:0:0:
256,192,254873,1,2,0:0:0:0:
256,192,254940,1,0,0:0:0:0:
256,192,255006,1,0,0:0:0:0:
256,192,255139,1,6,0:0:0:0:
256,192,255408,1,2,0:0:0:0:
256,192,255475,1,0,0:0:0:0:
256,192,255542,1,2,0:0:0:0:
256,192,255676,1,0,0:0:0:0:
256,192,255944,1,0,0:0:0:0:
256,192,256078,5,0,0:0:0:0:
256,192,256212,1,2,0:0:0:0:
256,192,256346,1,0,0:0:0:0:
256,192,256480,1,2,0:0:0:0:
256,192,256614,1,0,0:0:0:0:
256,192,256747,1,4,0:0:0:0:
256,192,257016,5,6,0:0:0:0:
256,192,257283,1,6,0:0:0:0:
256,192,257550,1,4,0:0:0:0:
256,192,257818,1,4,0:0:0:0:
256,192,258086,5,6,0:0:0:0:
256,192,258353,1,6,0:0:0:0:
256,192,258622,1,4,0:0:0:0:
256,192,258889,5,0,0:0:0:0:
256,192,258956,1,0,0:0:0:0:
256,192,259023,1,0,0:0:0:0:
256,192,259090,1,0,0:0:0:0:
256,192,259157,1,2,0:0:0:0:
256,192,259224,1,0,0:0:0:0:
256,192,259291,1,0,0:0:0:0:
256,192,259358,1,0,0:0:0:0:
256,192,259425,1,2,0:0:0:0:
256,192,259492,1,0,0:0:0:0:
256,192,259559,1,0,0:0:0:0:
256,192,259626,1,0,0:0:0:0:
256,192,259693,1,2,0:0:0:0:
256,192,259760,1,0,0:0:0:0:
256,192,259827,1,0,0:0:0:0:
256,192,259894,1,0,0:0:0:0:
256,192,259961,1,2,0:0:0:0:
256,192,260028,1,2,0:0:0:0:
256,192,260095,1,2,0:0:0:0:
256,192,260162,1,2,0:0:0:0:
256,192,260229,1,0,0:0:0:0:
256,192,260296,1,2,0:0:0:0:
256,192,260363,1,2,0:0:0:0:
256,192,260430,1,2,0:0:0:0:
256,192,260497,1,0,0:0:0:0:
256,192,260563,1,2,0:0:0:0:
256,192,260630,1,2,0:0:0:0:
256,192,260697,1,2,0:0:0:0:
256,192,260764,1,0,0:0:0:0:
256,192,260831,1,2,0:0:0:0:
256,192,260898,1,2,0:0:0:0:
256,192,260965,1,0,0:0:0:0:
256,192,261032,1,2,0:0:0:0:
