osu file format v14

[General]
AudioFilename: audio.mp3
AudioLeadIn: 0
PreviewTime: -1
Countdown: 0
SampleSet: Normal
StackLeniency: 1
Mode: 1
LetterboxInBreaks: 0
WidescreenStoryboard: 1

[Editor]
DistanceSpacing: 0.9
BeatDivisor: 2
GridSize: 16
TimelineZoom: 3.499999

[Metadata]
Title:Snow Drive(01.23)
TitleUnicode:Snow Drive(01.23)
Artist:Omoi
ArtistUnicode:Omoi
Creator:Raichu69
Version:Futsuu
Source:
Tags:
BeatmapID:1330045
BeatmapSetID:625967

[Difficulty]
HPDrainRate:5
CircleSize:5
OverallDifficulty:5
ApproachRate:5
SliderMultiplier:1.4
SliderTickRate:1

[Events]
//Background and Video events
0,0,"b7f2b96428f459f38bf1e3a3b75acbd1.jpg",0,0
//Break Periods
//Storyboard Layer 0 (Background)
//Storyboard Layer 1 (Fail)
//Storyboard Layer 2 (Pass)
//Storyboard Layer 3 (Foreground)
//Storyboard Layer 4 (Overlay)
//Storyboard Sound Samples

[TimingPoints]
1747,267.857142857143,4,1,0,100,1,0
96032,-83.3333333333333,4,1,0,100,0,1
113175,-100,4,1,0,100,0,0
113309,-100,4,1,0,100,0,0
154961,-83.3333333333333,4,1,0,100,0,1
171032,-100,4,1,0,100,0,0
173175,-83.3333333333333,4,1,0,100,0,0
189247,-133.333333333333,4,1,0,100,0,0
197818,-83.3333333333333,4,1,0,100,0,0
206389,-83.3333333333333,4,1,0,100,0,1
222394,-100,4,1,0,100,0,0
223532,-83.3333333333333,4,1,0,100,0,1
239470,-83.3333333333333,4,1,0,100,0,0

[HitObjects]
256,192,1746,5,2,0:0:0:0:
256,192,2818,1,0,0:0:0:0:
256,192,3354,1,0,0:0:0:0:
256,192,3889,1,2,0:0:0:0:
256,192,4425,1,2,0:0:0:0:
256,192,4961,1,2,0:0:0:0:
256,192,5497,1,2,0:0:0:0:
256,192,6032,1,0,0:0:0:0:
256,192,7104,1,0,0:0:0:0:
256,192,8175,1,2,0:0:0:0:
256,192,8711,1,2,0:0:0:0:
256,192,9247,1,2,0:0:0:0:
256,192,10318,1,2,0:0:0:0:
256,192,10720,1,0,0:0:0:0:
256,192,11122,1,2,0:0:0:0:
256,192,11524,1,0,0:0:0:0:
256,192,11925,1,2,0:0:0:0:
256,192,12327,1,0,0:0:0:0:
256,192,12729,1,2,0:0:0:0:
256,192,13131,1,0,0:0:0:0:
256,192,13532,1,2,0:0:0:0:
256,192,14068,1,2,0:0:0:0:
256,192,14604,1,0,0:0:0:0:
256,192,15139,1,2,0:0:0:0:
256,192,15675,1,0,0:0:0:0:
256,192,16211,1,2,0:0:0:0:
256,192,16747,1,2,0:0:0:0:
256,192,17282,1,2,0:0:0:0:
256,192,17818,1,2,0:0:0:0:
256,192,18889,5,0,0:0:0:0:
256,192,19157,1,0,0:0:0:0:
256,192,19425,1,2,0:0:0:0:
256,192,19693,1,0,0:0:0:0:
256,192,19961,1,2,0:0:0:0:
256,192,20228,1,2,0:0:0:0:
256,192,20496,1,0,0:0:0:0:
256,192,20764,1,2,0:0:0:0:
256,192,21032,1,0,0:0:0:0:
256,192,21300,1,0,0:0:0:0:
256,192,21568,1,0,0:0:0:0:
256,192,21836,1,0,0:0:0:0:
256,192,22103,1,2,0:0:0:0:
256,192,22371,1,2,0:0:0:0:
256,192,22639,1,2,0:0:0:0:
256,192,22907,1,2,0:0:0:0:
256,192,23175,1,0,0:0:0:0:
256,192,23443,1,0,0:0:0:0:
256,192,23711,1,0,0:0:0:0:
256,192,23978,1,0,0:0:0:0:
256,192,24246,1,2,0:0:0:0:
256,192,24514,1,2,0:0:0:0:
256,192,24782,1,0,0:0:0:0:
256,192,25050,1,2,0:0:0:0:
256,192,25318,1,0,0:0:0:0:
256,192,25586,1,0,0:0:0:0:
256,192,25853,1,0,0:0:0:0:
256,192,26121,1,0,0:0:0:0:
256,192,26389,1,2,0:0:0:0:
256,192,26657,1,2,0:0:0:0:
256,192,26925,1,2,0:0:0:0:
256,192,27193,1,2,0:0:0:0:
256,192,27461,1,0,0:0:0:0:
256,192,27996,1,0,0:0:0:0:
256,192,28532,1,2,0:0:0:0:
256,192,29068,1,2,0:0:0:0:
256,192,29603,1,0,0:0:0:0:
256,192,30139,1,0,0:0:0:0:
256,192,30675,1,2,0:0:0:0:
256,192,30943,1,2,0:0:0:0:
256,192,31211,1,2,0:0:0:0:
256,192,31479,1,2,0:0:0:0:
256,192,31746,1,0,0:0:0:0:
256,192,32014,1,0,0:0:0:0:
256,192,32282,1,0,0:0:0:0:
256,192,32550,1,0,0:0:0:0:
256,192,32818,1,2,0:0:0:0:
256,192,33086,1,2,0:0:0:0:
256,192,33353,1,2,0:0:0:0:
256,192,33621,1,2,0:0:0:0:
256,192,33889,1,0,0:0:0:0:
256,192,34157,1,0,0:0:0:0:
256,192,34425,1,0,0:0:0:0:
256,192,34693,1,0,0:0:0:0:
256,192,34961,1,2,0:0:0:0:
256,192,35229,1,2,0:0:0:0:
256,192,35497,1,2,0:0:0:0:
256,192,35764,1,0,0:0:0:0:
256,192,36032,12,0,40050,0:0:0:0:
256,192,40318,5,0,0:0:0:0:
256,192,41389,1,2,0:0:0:0:
256,192,42461,1,0,0:0:0:0:
256,192,43532,1,2,0:0:0:0:
256,192,44604,1,0,0:0:0:0:
256,192,45675,1,2,0:0:0:0:
256,192,46747,1,0,0:0:0:0:
256,192,47818,1,2,0:0:0:0:
256,192,48889,1,0,0:0:0:0:
256,192,49157,1,2,0:0:0:0:
256,192,49425,1,2,0:0:0:0:
256,192,49693,1,0,0:0:0:0:
256,192,49961,1,0,0:0:0:0:
256,192,50229,1,2,0:0:0:0:
256,192,50497,1,2,0:0:0:0:
256,192,50764,1,2,0:0:0:0:
256,192,51032,1,0,0:0:0:0:
256,192,51300,1,2,0:0:0:0:
256,192,51568,1,2,0:0:0:0:
256,192,51836,1,0,0:0:0:0:
256,192,52104,1,0,0:0:0:0:
256,192,52372,1,2,0:0:0:0:
256,192,52639,1,2,0:0:0:0:
256,192,53175,1,0,0:0:0:0:
256,192,53443,1,2,0:0:0:0:
256,192,53711,1,2,0:0:0:0:
256,192,53979,1,0,0:0:0:0:
256,192,54247,1,0,0:0:0:0:
256,192,54514,1,2,0:0:0:0:
256,192,54782,1,2,0:0:0:0:
256,192,55318,1,0,0:0:0:0:
256,192,55720,1,2,0:0:0:0:
256,192,56122,1,2,0:0:0:0:
256,192,56389,1,0,0:0:0:0:
256,192,56791,1,0,0:0:0:0:
256,192,57461,12,0,61211,0:0:0:0:
256,192,61747,5,0,0:0:0:0:
256,192,62818,1,2,0:0:0:0:
256,192,63890,1,0,0:0:0:0:
256,192,64961,1,2,0:0:0:0:
256,192,65363,1,2,0:0:0:0:
256,192,66033,1,0,0:0:0:0:
256,192,67104,1,0,0:0:0:0:
256,192,68176,1,2,0:0:0:0:
256,192,69247,1,2,0:0:0:0:
256,192,69648,1,2,0:0:0:0:
256,192,70318,1,0,0:0:0:0:
256,192,70586,1,0,0:0:0:0:
256,192,70854,1,2,0:0:0:0:
256,192,71122,1,2,0:0:0:0:
256,192,71390,1,0,0:0:0:0:
256,192,71657,1,2,0:0:0:0:
256,192,71925,1,0,0:0:0:0:
256,192,72193,1,2,0:0:0:0:
256,192,72461,1,0,0:0:0:0:
256,192,72997,1,2,0:0:0:0:
256,192,73264,1,2,0:0:0:0:
256,192,73532,1,2,0:0:0:0:
256,192,73800,1,0,0:0:0:0:
256,192,74068,1,0,0:0:0:0:
256,192,74604,1,2,0:0:0:0:
256,192,74872,1,2,0:0:0:0:
256,192,75140,1,2,0:0:0:0:
256,192,75407,1,0,0:0:0:0:
256,192,75676,1,0,0:0:0:0:
256,192,75943,1,2,0:0:0:0:
256,192,76211,1,2,0:0:0:0:
256,192,76747,1,0,0:0:0:0:
256,192,77148,1,2,0:0:0:0:
256,192,77550,1,0,0:0:0:0:
256,192,77818,1,2,0:0:0:0:
256,192,78220,1,2,0:0:0:0:
64,192,78889,2,0,L|352:192,1,280
336,192,79693,2,0,L|192:192,1,140
256,192,80229,1,2,0:0:0:0:
256,192,80497,1,2,0:0:0:0:
256,192,80764,1,2,0:0:0:0:
64,192,81032,2,0,L|352:192,1,280
336,192,81836,2,0,L|192:192,4,140
256,192,83175,1,2,0:0:0:0:
256,192,83443,1,2,0:0:0:0:
256,192,83711,1,0,0:0:0:0:
256,192,83979,1,0,0:0:0:0:
256,192,84247,1,2,0:0:0:0:
256,192,84648,1,2,0:0:0:0:
256,192,85318,1,2,0:0:0:0:
256,192,85586,1,2,0:0:0:0:
256,192,85854,1,0,0:0:0:0:
256,192,86122,1,2,0:0:0:0:
256,192,86657,1,2,0:0:0:0:
256,192,86925,1,2,0:0:0:0:
256,192,87461,1,2,0:0:0:0:
256,192,87729,1,0,0:0:0:0:
256,192,87997,1,0,0:0:0:0:
256,192,88264,1,0,0:0:0:0:
256,192,88532,1,2,0:0:0:0:
256,192,88800,1,2,0:0:0:0:
256,192,89068,1,2,0:0:0:0:
256,192,89604,1,2,0:0:0:0:
256,192,89872,1,2,0:0:0:0:
256,192,90140,1,0,0:0:0:0:
256,208,90407,1,2,0:0:0:0:
256,192,90675,1,2,0:0:0:0:
256,208,90943,1,0,0:0:0:0:
256,192,91211,1,2,0:0:0:0:
224,192,91747,2,0,L|512:192,3,280
256,192,93889,12,0,94961,0:0:0:0:
256,192,95764,5,2,0:0:0:0:
256,192,96032,1,2,0:0:0:0:
256,192,96300,1,2,0:0:0:0:
256,192,96568,1,2,0:0:0:0:
256,192,96836,1,0,0:0:0:0:
256,192,97104,1,0,0:0:0:0:
256,192,97372,1,0,0:0:0:0:
256,192,97639,1,2,0:0:0:0:
256,192,97907,1,2,0:0:0:0:
256,192,98175,1,2,0:0:0:0:
256,192,98577,1,2,0:0:0:0:
256,192,98979,1,2,0:0:0:0:
256,192,99247,1,0,0:0:0:0:
256,192,99380,1,2,0:0:0:0:
256,192,99514,1,0,0:0:0:0:
256,192,99782,1,2,0:0:0:0:
256,192,100050,1,0,0:0:0:0:
96,192,100318,2,0,L|288:192,3,167.999994873047
96,192,101389,2,0,L|288:192,2,167.999994873047
256,192,102193,1,2,0:0:0:0:
256,192,102461,1,2,0:0:0:0:
256,192,102863,1,0,0:0:0:0:
256,192,103264,1,2,0:0:0:0:
256,192,103532,1,0,0:0:0:0:
256,192,104604,1,2,0:0:0:0:
256,192,105005,1,0,0:0:0:0:
256,192,105407,1,2,0:0:0:0:
256,192,105809,1,0,0:0:0:0:
256,192,106211,1,2,0:0:0:0:
256,192,106613,1,0,0:0:0:0:
256,192,107015,1,2,0:0:0:0:
256,192,107416,1,0,0:0:0:0:
256,192,107818,1,2,0:0:0:0:
256,192,108086,1,2,0:0:0:0:
256,192,108354,1,2,0:0:0:0:
256,192,108622,1,0,0:0:0:0:
256,192,108889,1,0,0:0:0:0:
256,192,109425,1,0,0:0:0:0:
256,192,109961,1,2,0:0:0:0:
256,192,110363,1,0,0:0:0:0:
256,192,111032,1,2,0:0:0:0:
256,192,111568,1,2,0:0:0:0:
256,192,112104,1,2,0:0:0:0:
256,192,113175,1,2,0:0:0:0:
256,192,113443,1,0,0:0:0:0:
256,192,113711,1,2,0:0:0:0:
256,192,113979,1,0,0:0:0:0:
256,192,114247,1,2,0:0:0:0:
256,192,114514,1,0,0:0:0:0:
256,192,114782,1,2,0:0:0:0:
256,192,115050,1,0,0:0:0:0:
256,192,115318,1,2,0:0:0:0:
256,192,115586,1,0,0:0:0:0:
256,192,115854,1,2,0:0:0:0:
256,192,116122,1,0,0:0:0:0:
256,192,116389,1,0,0:0:0:0:
256,192,116791,1,0,0:0:0:0:
256,192,117059,1,0,0:0:0:0:
256,192,118532,5,0,0:0:0:0:
256,192,119603,1,2,0:0:0:0:
256,192,120675,1,0,0:0:0:0:
256,192,121746,1,2,0:0:0:0:
256,192,122818,1,0,0:0:0:0:
256,192,123889,1,2,0:0:0:0:
256,192,124961,1,0,0:0:0:0:
256,192,126032,1,2,0:0:0:0:
256,192,126434,1,2,0:0:0:0:
256,192,127103,1,0,0:0:0:0:
256,192,127372,1,2,0:0:0:0:
256,192,127639,1,2,0:0:0:0:
256,192,127907,1,2,0:0:0:0:
256,192,128175,1,0,0:0:0:0:
256,192,128443,1,2,0:0:0:0:
256,192,128711,1,2,0:0:0:0:
256,192,128979,1,0,0:0:0:0:
256,192,129246,1,0,0:0:0:0:
256,192,129514,1,2,0:0:0:0:
256,192,129782,1,2,0:0:0:0:
256,192,130050,1,0,0:0:0:0:
256,192,130318,1,0,0:0:0:0:
256,192,130586,1,0,0:0:0:0:
256,192,130853,1,2,0:0:0:0:
256,192,131389,1,0,0:0:0:0:
256,192,131657,1,2,0:0:0:0:
256,192,131925,1,2,0:0:0:0:
256,192,132193,1,0,0:0:0:0:
256,192,132461,1,0,0:0:0:0:
256,192,132729,1,2,0:0:0:0:
256,192,132996,1,2,0:0:0:0:
256,192,133264,1,0,0:0:0:0:
256,192,133532,1,2,0:0:0:0:
256,192,133934,1,2,0:0:0:0:
256,192,134336,1,2,0:0:0:0:
256,192,134603,1,2,0:0:0:0:
256,192,135005,1,2,0:0:0:0:
144,192,135675,2,0,L|432:192,1,280
16,192,136479,2,0,L|320:192,1,280
256,192,137282,1,2,0:0:0:0:
256,192,137550,1,2,0:0:0:0:
144,192,137818,2,0,L|432:192,1,280
16,192,138622,2,0,L|320:192,2,280
256,192,139961,1,2,0:0:0:0:
256,192,140229,1,2,0:0:0:0:
256,192,140497,1,0,0:0:0:0:
256,192,140765,1,0,0:0:0:0:
256,192,141033,1,2,0:0:0:0:
256,192,141434,1,0,0:0:0:0:
256,192,142104,1,2,0:0:0:0:
256,192,142372,1,2,0:0:0:0:
256,192,142640,1,0,0:0:0:0:
256,192,142908,1,2,0:0:0:0:
256,192,143443,1,0,0:0:0:0:
256,192,143711,1,2,0:0:0:0:
256,192,144247,1,2,0:0:0:0:
256,192,144783,1,0,0:0:0:0:
256,192,145184,1,2,0:0:0:0:
256,192,145854,1,2,0:0:0:0:
256,192,146390,1,2,0:0:0:0:
256,192,146926,1,0,0:0:0:0:
256,192,147327,1,2,0:0:0:0:
256,192,147997,1,2,0:0:0:0:
256,192,148532,5,0,0:0:0:0:
256,192,149068,1,2,0:0:0:0:
256,192,149604,1,0,0:0:0:0:
256,192,150140,1,2,0:0:0:0:
256,192,150675,1,2,0:0:0:0:
256,192,150943,1,0,0:0:0:0:
256,192,151211,1,2,0:0:0:0:
256,192,151479,1,0,0:0:0:0:
256,192,151747,1,0,0:0:0:0:
256,192,152014,1,2,0:0:0:0:
256,192,152282,1,2,0:0:0:0:
256,192,152550,1,0,0:0:0:0:
256,192,152818,1,0,0:0:0:0:
256,192,153086,1,2,0:0:0:0:
256,192,153354,1,2,0:0:0:0:
256,192,153622,1,2,0:0:0:0:
256,192,153890,5,0,0:0:0:0:
256,192,154693,5,2,0:0:0:0:
256,192,154961,1,2,0:0:0:0:
256,192,155229,1,2,0:0:0:0:
256,192,155497,1,2,0:0:0:0:
256,192,155765,1,0,0:0:0:0:
256,192,156033,1,0,0:0:0:0:
256,192,156301,1,0,0:0:0:0:
256,192,156568,1,2,0:0:0:0:
256,192,156836,1,2,0:0:0:0:
256,192,157104,1,2,0:0:0:0:
256,192,157506,1,2,0:0:0:0:
256,192,157908,1,2,0:0:0:0:
256,192,158176,1,0,0:0:0:0:
256,192,158309,1,2,0:0:0:0:
256,192,158443,1,0,0:0:0:0:
256,192,158711,1,2,0:0:0:0:
256,192,158979,1,0,0:0:0:0:
96,192,159247,2,0,L|288:192,3,167.999994873047
96,192,160318,2,0,L|288:192,2,167.999994873047
256,192,161122,1,2,0:0:0:0:
256,192,161390,1,2,0:0:0:0:
256,192,161792,1,0,0:0:0:0:
256,192,162193,1,2,0:0:0:0:
256,192,162461,1,0,0:0:0:0:
256,192,163533,1,2,0:0:0:0:
256,192,163934,1,0,0:0:0:0:
256,192,164336,1,2,0:0:0:0:
256,192,164738,1,0,0:0:0:0:
256,192,165140,1,2,0:0:0:0:
256,192,165542,1,0,0:0:0:0:
256,192,165944,1,2,0:0:0:0:
256,192,166345,1,0,0:0:0:0:
256,192,166747,1,2,0:0:0:0:
256,192,167015,1,2,0:0:0:0:
256,192,167283,1,2,0:0:0:0:
256,192,167551,1,0,0:0:0:0:
256,192,167818,1,0,0:0:0:0:
256,192,168354,1,0,0:0:0:0:
256,192,168890,1,2,0:0:0:0:
256,192,169425,1,0,0:0:0:0:
256,192,169961,5,2,0:0:0:0:
407,199,170229,1,2,0:0:0:0:
256,192,170497,1,2,0:0:0:0:
406,192,170764,1,0,0:0:0:0:
256,192,171033,1,2,0:0:0:0:
256,192,171300,1,0,0:0:0:0:
256,192,171568,1,2,0:0:0:0:
256,192,171836,1,2,0:0:0:0:
256,192,172104,1,0,0:0:0:0:
256,192,173175,5,0,0:0:0:0:
256,192,173711,1,0,0:0:0:0:
256,192,173979,1,2,0:0:0:0:
256,192,174247,1,2,0:0:0:0:
256,192,174648,1,0,0:0:0:0:
256,192,175050,1,2,0:0:0:0:
256,192,175318,1,2,0:0:0:0:
256,192,175854,1,0,0:0:0:0:
256,192,176122,1,2,0:0:0:0:
256,192,176389,1,0,0:0:0:0:
256,192,177193,1,2,0:0:0:0:
256,192,177460,5,0,0:0:0:0:
256,192,178264,1,2,0:0:0:0:
256,192,178532,1,0,0:0:0:0:
256,192,178934,1,2,0:0:0:0:
256,192,179336,1,0,0:0:0:0:
256,192,179603,1,2,0:0:0:0:
256,192,180139,1,0,0:0:0:0:
240,192,180407,1,2,0:0:0:0:
256,192,180675,12,0,182550,0:0:0:0:
256,192,182818,12,0,184693,0:0:0:0:
256,192,184961,5,0,0:0:0:0:
256,192,185229,1,0,0:0:0:0:
256,192,185497,1,2,0:0:0:0:
256,192,185764,1,2,0:0:0:0:
256,192,186032,1,0,0:0:0:0:
256,192,186300,1,0,0:0:0:0:
256,192,186568,1,2,0:0:0:0:
256,192,186836,1,2,0:0:0:0:
256,192,187104,1,2,0:0:0:0:
256,192,187639,1,2,0:0:0:0:
256,192,188175,1,2,0:0:0:0:
256,192,188711,1,2,0:0:0:0:
256,192,189247,1,0,0:0:0:0:
256,192,191389,1,0,0:0:0:0:
256,192,193532,1,2,0:0:0:0:
256,192,195675,1,0,0:0:0:0:
256,192,197818,1,2,0:0:0:0:
256,192,198354,1,2,0:0:0:0:
256,192,198889,1,0,0:0:0:0:
256,192,199425,1,0,0:0:0:0:
256,192,199961,1,2,0:0:0:0:
256,192,200497,1,2,0:0:0:0:
256,192,201032,1,0,0:0:0:0:
256,192,201568,1,0,0:0:0:0:
256,192,202104,12,0,203979,0:0:0:0:
256,192,204247,5,0,0:0:0:0:
256,192,205318,1,0,0:0:0:0:
256,192,205586,1,2,0:0:0:0:
256,192,206389,1,2,0:0:0:0:
256,192,206657,1,2,0:0:0:0:
256,192,206925,1,2,0:0:0:0:
256,192,207193,1,0,0:0:0:0:
256,192,207461,1,0,0:0:0:0:
256,192,207729,1,0,0:0:0:0:
256,192,207996,1,2,0:0:0:0:
256,192,208264,1,2,0:0:0:0:
256,192,208532,1,2,0:0:0:0:
256,192,208934,1,2,0:0:0:0:
256,192,209336,1,2,0:0:0:0:
256,192,209604,1,0,0:0:0:0:
256,192,209737,1,2,0:0:0:0:
256,192,209871,1,0,0:0:0:0:
256,192,210139,1,2,0:0:0:0:
256,192,210407,1,0,0:0:0:0:
96,192,210675,2,0,L|288:192,3,167.999994873047
96,192,211746,2,0,L|288:192,2,167.999994873047
256,192,212550,1,2,0:0:0:0:
256,192,212818,1,2,0:0:0:0:
256,192,213220,1,0,0:0:0:0:
256,192,213621,1,2,0:0:0:0:
256,192,213889,1,0,0:0:0:0:
256,192,214961,1,2,0:0:0:0:
256,192,215362,1,0,0:0:0:0:
256,192,215764,1,2,0:0:0:0:
256,192,216166,1,0,0:0:0:0:
256,192,216568,1,2,0:0:0:0:
256,192,216970,1,0,0:0:0:0:
256,192,217372,1,2,0:0:0:0:
256,192,217773,1,0,0:0:0:0:
256,192,218175,1,2,0:0:0:0:
256,192,218443,1,2,0:0:0:0:
256,192,218711,1,2,0:0:0:0:
256,192,218979,1,0,0:0:0:0:
256,192,219246,1,0,0:0:0:0:
256,192,219782,1,0,0:0:0:0:
256,192,220318,1,2,0:0:0:0:
256,192,220586,1,0,0:0:0:0:
256,192,221122,1,2,0:0:0:0:
256,192,221389,5,2,0:0:0:0:
256,192,221925,1,2,0:0:0:0:
256,192,222461,1,2,0:0:0:0:
256,192,222729,1,2,0:0:0:0:
256,192,222997,1,0,0:0:0:0:
256,192,223264,1,0,0:0:0:0:
256,192,223532,1,2,0:0:0:0:
256,192,223800,1,2,0:0:0:0:
256,192,224068,1,2,0:0:0:0:
256,192,224336,1,0,0:0:0:0:
256,192,224604,1,0,0:0:0:0:
256,192,224872,1,0,0:0:0:0:
256,192,225139,1,2,0:0:0:0:
256,192,225407,1,2,0:0:0:0:
256,192,225675,1,2,0:0:0:0:
256,192,226077,1,2,0:0:0:0:
256,192,226479,1,2,0:0:0:0:
256,192,226747,1,0,0:0:0:0:
256,192,226880,1,2,0:0:0:0:
256,192,227014,1,0,0:0:0:0:
256,192,227282,1,2,0:0:0:0:
256,192,227550,1,0,0:0:0:0:
96,192,227818,2,0,L|288:192,3,167.999994873047
96,192,228889,2,0,L|288:192,2,167.999994873047
256,192,229693,1,2,0:0:0:0:
256,192,229961,1,2,0:0:0:0:
256,192,230363,1,0,0:0:0:0:
256,192,230764,1,2,0:0:0:0:
256,192,231032,1,0,0:0:0:0:
256,192,232104,1,2,0:0:0:0:
256,192,232505,1,0,0:0:0:0:
256,192,232907,1,2,0:0:0:0:
256,192,233309,1,0,0:0:0:0:
256,192,233711,1,2,0:0:0:0:
256,192,234113,1,0,0:0:0:0:
256,192,234515,1,2,0:0:0:0:
256,192,234916,1,0,0:0:0:0:
256,192,235318,1,2,0:0:0:0:
256,192,235586,1,2,0:0:0:0:
256,192,235854,1,2,0:0:0:0:
256,192,236122,1,0,0:0:0:0:
256,192,236389,1,0,0:0:0:0:
256,192,236925,1,0,0:0:0:0:
256,192,237461,1,2,0:0:0:0:
256,192,237997,1,0,0:0:0:0:
256,192,238532,5,2,0:0:0:0:
256,192,239068,1,2,0:0:0:0:
256,192,239604,12,0,240407,0:0:0:0:
256,192,240675,5,0,0:0:0:0:
256,192,240943,1,0,0:0:0:0:
256,192,241211,1,2,0:0:0:0:
256,192,241479,1,0,0:0:0:0:
256,192,241747,1,2,0:0:0:0:
256,192,242014,1,2,0:0:0:0:
256,192,242282,1,0,0:0:0:0:
256,192,242550,1,2,0:0:0:0:
256,192,242818,1,0,0:0:0:0:
256,192,243086,1,0,0:0:0:0:
256,192,243354,1,0,0:0:0:0:
256,192,243622,1,0,0:0:0:0:
256,192,243889,1,2,0:0:0:0:
256,192,244157,1,2,0:0:0:0:
256,192,244425,1,2,0:0:0:0:
256,192,244693,1,2,0:0:0:0:
256,192,244961,1,0,0:0:0:0:
256,192,245229,1,0,0:0:0:0:
256,192,245497,1,0,0:0:0:0:
256,192,245764,1,0,0:0:0:0:
256,192,246032,1,2,0:0:0:0:
256,192,246300,1,2,0:0:0:0:
256,192,246568,1,0,0:0:0:0:
256,192,246836,1,2,0:0:0:0:
256,192,247104,1,0,0:0:0:0:
256,192,247372,1,0,0:0:0:0:
256,192,247639,1,0,0:0:0:0:
256,192,247907,1,0,0:0:0:0:
256,192,248175,1,2,0:0:0:0:
256,192,248443,1,2,0:0:0:0:
256,192,248711,1,2,0:0:0:0:
256,192,248979,1,2,0:0:0:0:
256,192,249247,1,0,0:0:0:0:
256,192,249782,1,0,0:0:0:0:
256,192,250318,1,2,0:0:0:0:
256,192,250854,1,2,0:0:0:0:
256,192,251389,1,0,0:0:0:0:
256,192,251925,1,0,0:0:0:0:
256,192,252461,1,2,0:0:0:0:
256,192,252997,1,2,0:0:0:0:
256,192,253532,1,0,0:0:0:0:
256,192,253800,1,0,0:0:0:0:
256,192,254068,1,0,0:0:0:0:
256,192,254336,1,0,0:0:0:0:
256,192,254604,1,2,0:0:0:0:
256,192,254872,1,2,0:0:0:0:
256,192,255139,1,2,0:0:0:0:
256,192,255407,1,2,0:0:0:0:
256,192,255675,1,0,0:0:0:0:
256,192,255943,1,0,0:0:0:0:
256,192,256211,1,0,0:0:0:0:
256,192,256479,1,0,0:0:0:0:
256,192,256747,1,2,0:0:0:0:
256,192,257282,1,0,0:0:0:0:
256,192,257818,1,2,0:0:0:0:
256,192,258354,1,0,0:0:0:0:
256,192,258889,12,0,261032,0:0:0:0:
