osu file format v14

[General]
AudioFilename: Snow Drive.mp3
AudioLeadIn: 0
PreviewTime: 95717
Countdown: 0
SampleSet: Soft
StackLeniency: 0.5
Mode: 0
LetterboxInBreaks: 0
WidescreenStoryboard: 0

[Editor]
Bookmarks: 10363,18935,40363,61792,78935,96078,113215,127149,135715,155006,172143,189286,206429,223572,240715,261078
DistanceSpacing: 1.3
BeatDivisor: 4
GridSize: 32
TimelineZoom: 2.2

[Metadata]
Title:Snow Drive(01.23)
TitleUnicode:スノウドライヴ(01.23)
Artist:Omoi
ArtistUnicode:Omoi
Creator:Kroytz
Version:pk's Insane
Source:
Tags:Vocaloid Hatsune Miku k2pudding Battle HappyRocket88 Anxient pkk Rumia MoeMoeKyunNN moph SnowNiNo_
BeatmapID:1083055
BeatmapSetID:478405

[Difficulty]
HPDrainRate:6
CircleSize:4
OverallDifficulty:7
ApproachRate:9
SliderMultiplier:1.6
SliderTickRate:1

[Events]
//Background and Video events
0,0,"BG.jpg",0,0
Video,0,"video.mp4"
//Break Periods
2,191629,197258
//Storyboard Layer 0 (Background)
//Storyboard Layer 1 (Fail)
//Storyboard Layer 2 (Pass)
//Storyboard Layer 3 (Foreground)
//Storyboard Sound Samples

[TimingPoints]
730,267.857142857143,4,1,1,60,1,0
1801,-200,4,2,0,60,0,0
10358,267.857142857143,4,2,0,60,1,0
10358,-200,4,2,0,60,0,0
17858,-133.333333333333,4,2,1,60,0,0
18929,-100,4,1,1,80,0,0
36072,-100,4,3,1,80,0,0
40358,-111.111111111111,4,1,1,80,0,0
48125,-111.111111111111,4,1,1,15,0,0
48259,-111.111111111111,4,1,1,80,0,0
48460,-111.111111111111,4,1,1,5,0,0
48527,-111.111111111111,4,1,1,80,0,0
70291,-111.111111111111,4,2,1,5,0,0
70358,-111.111111111111,4,1,1,80,0,0
78929,-100,4,1,1,80,0,0
91786,-100,4,3,1,80,0,0
96072,-100,4,1,1,90,0,1
104576,-100,4,1,1,90,0,0
104643,-100,4,1,1,90,0,1
113215,-100,4,1,1,90,0,0
118572,-111.111111111111,4,1,1,90,0,0
125268,-111.111111111111,4,3,2,90,0,0
125804,-111.111111111111,4,1,1,30,0,0
126072,-111.111111111111,4,2,1,90,0,0
127143,-100,4,1,1,90,0,0
148572,-100,4,3,1,90,0,0
155000,-100,4,1,1,90,0,1
163505,-100,4,1,1,90,0,0
163572,-100,4,1,1,90,0,1
171072,-100,4,1,1,90,0,0
197858,-111.111111111111,4,3,1,90,0,0
205625,-200,4,2,1,90,0,0
206295,-200,4,2,1,25,0,0
206429,-100,4,1,1,90,0,1
214933,-100,4,1,1,90,0,0
215000,-100,4,1,1,90,0,1
222500,-100,4,1,1,90,0,0
223572,-100,4,1,2,90,0,1
223840,-100,4,1,1,90,0,1
232076,-100,4,1,1,90,0,0
232143,-100,4,1,1,90,0,1
239643,-166.666666666667,4,1,1,60,0,0
240447,-166.666666666667,4,1,1,15,0,0
240715,-166.666666666667,4,1,1,90,0,0

[Colours]
Combo1 : 114,64,247
Combo2 : 128,255,255
Combo3 : 0,121,242
SliderBorder : 212,231,238
SliderTrackOverride : 40,42,68

[HitObjects]
49,182,1801,6,0,B|124:148|141:214|217:176,1,160,2|0,0:0|0:0,0:0:0:0:
302,61,2605,2,0,L|309:109,1,40,0|0,0:0|0:0,0:0:0:0:
354,160,2872,2,0,P|403:159|433:90,1,120,2|0,0:0|0:0,0:0:0:0:
453,88,3408,2,0,L|461:185,1,80,2|2,0:0|0:0,0:0:0:0:
382,279,3944,6,0,P|347:262|308:253,1,80,2|0,0:0|0:0,0:0:0:0:
244,295,4346,2,0,P|208:312|169:321,1,80,2|0,0:0|0:0,0:0:0:0:
95,302,4747,2,0,P|66:272|60:257,1,40,2|0,0:0|0:0,0:0:0:0:
104,206,5015,6,0,B|141:162|141:162|118:59,1,160,2|2,0:0|0:0,0:0:0:0:
244,9,5819,1,2,0:0:0:0:
286,138,6087,6,0,B|324:157|369:133|369:133|419:156|419:156|462:129|513:144,1,240,2|0,0:0|0:0,0:0:0:0:
432,253,7158,2,0,B|394:272|349:248|349:248|299:271|299:271|256:244|205:259,1,240,2|2,0:0|0:0,0:0:0:0:
102,168,8230,6,0,P|134:146|162:107,1,80,2|0,0:0|0:0,0:0:0:0:
219,165,8631,2,0,P|232:128|233:80,1,80,2|0,0:0|0:0,0:0:0:0:
172,35,9033,1,2,0:0:0:0:
23,96,9301,6,0,B|7:173|7:173|50:241|50:241|29:322,1,240,2|0,0:0|0:0,0:0:0:0:
153,350,10358,6,0,P|187:330|226:322,1,80,2|0,0:0|0:0,0:0:0:0:
295,266,10759,2,0,P|260:245|221:237,1,80,2|0,0:0|0:0,0:0:0:0:
137,264,11161,6,0,B|119:228|119:228|128:179,1,80,2|0,0:0|0:0,0:0:0:0:
194,81,11563,2,0,B|212:117|212:117|205:157,1,80,2|0,0:0|0:0,0:0:0:0:
287,188,11965,6,0,L|380:181,1,80,2|0,0:0|0:0,0:0:0:0:
454,255,12366,2,0,L|375:262,1,80,2|0,0:0|0:0,0:0:0:0:
307,319,12768,6,0,B|278:323|278:323|250:310|250:310|230:312,1,80,2|0,0:0|0:0,0:0:0:0:
161,255,13170,2,0,B|132:250|132:250|104:263|104:263|84:261,1,80,2|0,0:0|0:0,0:0:0:0:
20,202,13572,5,2,0:0:0:0:
90,105,13840,1,2,0:0:0:0:
195,162,14108,2,0,L|290:151,1,80,2|2,0:0|0:0,0:0:0:0:
358,66,14643,5,2,0:0:0:0:
423,166,14911,1,2,0:0:0:0:
333,246,15179,1,2,0:0:0:0:
398,346,15447,1,2,0:0:0:0:
278,351,15715,6,0,P|238:339|191:330,1,80,2|2,0:0|0:0,0:0:0:0:
78,258,16250,2,0,P|118:246|165:237,1,80,2|2,0:0|0:0,0:0:0:0:
285,192,16786,2,0,P|212:252|220:158,1,240,2|2,0:0|0:0,0:0:0:0:
425,125,17858,5,2,1:2:0:0:
220,158,18125,1,2,1:2:0:0:
220,158,18393,5,2,3:2:0:0:
336,198,18527,1,2,3:2:0:0:
254,83,18661,5,8,3:2:0:0:
225,74,18728,1,0,3:0:0:0:
195,73,18795,1,0,3:0:0:0:
166,80,18862,1,0,3:0:0:0:
141,96,18929,6,0,B|118:184,1,80,6|2,0:2|0:2,0:0:0:0:
20,241,19197,2,0,B|43:328,1,80,8|0,0:0|0:0,0:0:0:0:
160,364,19465,2,0,P|190:338|223:316,1,80,2|2,0:2|0:2,0:0:0:0:
332,249,19733,2,0,P|299:226|268:200,1,80,8|0,0:0|0:0,0:0:0:0:
402,141,20000,5,2,0:2:0:0:
402,141,20134,1,2,0:2:0:0:
297,81,20268,2,0,P|281:35|271:0,1,80,8|0,0:0|0:0,0:0:0:0:
175,106,20536,2,0,P|157:161|145:199,1,80,2|2,0:2|0:2,0:0:0:0:
152,311,20804,1,8,0:0:0:0:
57,255,20938,1,0,0:0:0:0:
254,240,21072,6,0,P|273:305|278:336,1,80,2|2,0:2|0:2,0:0:0:0:
386,304,21340,2,0,P|375:342|360:379,1,80,8|0,0:0|0:0,0:0:0:0:
374,190,21608,2,0,P|408:170|446:156,1,80,2|2,0:2|0:2,0:0:0:0:
286,130,21875,2,0,P|293:90|306:53,1,80,8|0,0:0|0:0,0:0:0:0:
141,75,22143,6,0,L|48:98,1,80,10|2,0:2|0:2,0:0:0:0:
212,205,22411,2,0,L|128:185,1,80,8|0,0:0|0:0,0:0:0:0:
299,178,22679,1,10,0:2:0:0:
289,285,22813,1,2,0:2:0:0:
371,128,22947,1,8,0:0:0:0:
416,253,23081,1,0,0:0:0:0:
279,307,23215,6,0,P|241:296|202:287,1,80,6|2,0:2|0:2,0:0:0:0:
130,198,23483,2,0,P|91:208|52:217,1,80,8|0,0:0|0:0,0:0:0:0:
129,89,23750,1,2,0:2:0:0:
129,89,23884,1,2,0:2:0:0:
243,119,24018,2,0,P|284:74|302:44,1,80,8|0,0:2|0:0,0:0:0:0:
386,119,24286,6,0,L|394:207,1,80,2|2,0:2|0:2,0:0:0:0:
280,282,24554,2,0,L|273:203,1,80,8|0,0:0|0:0,0:0:0:0:
498,227,24822,2,0,L|490:315,1,80,2|2,0:2|0:2,0:0:0:0:
378,377,25090,1,8,0:0:0:0:
378,377,25224,1,0,0:0:0:0:
209,319,25358,6,0,P|263:289|305:275,1,80,2|2,0:2|0:2,0:0:0:0:
96,319,25625,2,0,P|112:259|132:220,1,80,8|0,0:0|0:0,0:0:0:0:
292,155,25893,2,0,P|263:183|230:206,1,80,2|2,0:2|0:2,0:0:0:0:
392,125,26161,2,0,P|391:164|384:204,1,80,8|0,0:0|0:0,0:0:0:0:
277,27,26429,6,0,L|369:11,1,80,2|2,0:2|0:2,0:0:0:0:
212,110,26697,2,0,L|120:126,1,80,8|2,0:0|0:2,0:0:0:0:
28,82,26965,1,8,0:1:0:0:
151,224,27099,1,10,0:2:0:0:
18,264,27233,2,0,P|29:211|38:168,1,80,8|10,0:1|0:2,0:0:0:0:
222,140,27500,6,0,P|230:179|238:218,1,80,6|2,0:2|0:2,0:0:0:0:
338,178,27768,2,0,P|329:217|321:256,1,80,2|0,0:3|0:0,0:0:0:0:
146,234,28036,2,0,P|154:273|162:312,1,80,10|2,0:2|0:2,0:0:0:0:
401,268,28304,2,0,P|392:307|384:346,1,80,2|0,0:3|0:0,0:0:0:0:
238,218,28572,6,0,P|223:180|207:143,1,80,10|2,0:2|0:2,0:0:0:0:
331,122,28840,2,0,P|345:84|361:47,1,80,2|0,0:3|0:0,0:0:0:0:
235,27,29108,2,0,P|164:39|132:45,1,80,10|2,0:2|0:2,0:0:0:0:
69,154,29375,1,2,0:3:0:0:
5,60,29509,1,8,0:0:0:0:
172,135,29643,6,0,P|183:172|192:212,1,80,10|2,0:2|0:2,0:0:0:0:
311,159,29911,2,0,P|319:119|331:81,1,80,2|0,0:3|0:0,0:0:0:0:
160,114,30179,2,0,P|142:149|125:186,1,80,10|2,0:2|0:2,0:0:0:0:
325,178,30447,2,0,P|349:146|375:116,1,80,2|0,0:3|0:0,0:0:0:0:
412,296,30715,6,0,P|373:286|333:278,1,80,10|2,0:2|0:2,0:0:0:0:
156,332,30983,2,0,P|194:322|234:314,1,80,2|8,0:3|0:0,0:0:0:0:
318,181,31250,1,2,0:2:0:0:
212,202,31384,1,8,0:0:0:0:
331,160,31518,1,2,0:3:0:0:
204,222,31652,1,8,0:2:0:0:
120,120,31786,6,0,P|153:98|189:80,1,80,6|2,0:2|0:2,0:0:0:0:
59,208,32054,2,0,P|37:174|19:138,1,80,8|0,0:0|0:0,0:0:0:0:
157,257,32322,2,0,P|123:278|87:296,1,80,2|2,0:2|0:2,0:0:0:0:
218,169,32590,2,0,P|239:202|257:238,1,80,8|0,0:0|0:0,0:0:0:0:
218,350,32858,6,0,P|256:337|295:331,1,80,2|2,0:2|0:2,0:0:0:0:
433,241,33125,2,0,P|393:234|355:222,1,80,8|0,0:0|0:0,0:0:0:0:
154,217,33393,2,0,L|230:159,1,80,2|2,0:2|0:2,0:0:0:0:
314,17,33661,1,8,0:0:0:0:
362,120,33795,1,0,0:0:0:0:
209,64,33929,6,0,P|165:37|132:12,1,80,2|2,0:2|0:2,0:0:0:0:
23,165,34197,2,0,P|67:138|100:113,1,80,8|0,0:0|0:0,0:0:0:0:
268,161,34465,2,0,P|229:168|191:180,1,80,2|2,0:2|0:2,0:0:0:0:
359,233,34733,2,0,P|372:195|381:156,1,80,8|0,0:0|0:0,0:0:0:0:
411,14,35000,6,0,P|431:48|454:80,1,80,2|2,0:2|0:2,0:0:0:0:
301,79,35268,2,0,P|280:113|257:145,1,80,8|0,0:0|0:0,0:0:0:0:
132,111,35536,1,8,0:0:0:0:
170,232,35670,1,10,0:2:0:0:
21,165,35804,1,8,0:0:0:0:
77,33,35938,1,10,0:2:0:0:
222,69,36072,6,0,B|239:127|239:127|195:163|208:223,1,160,12|8,0:1|0:0,0:0:0:0:
310,295,36474,1,4,0:0:0:0:
197,334,36608,2,0,L|106:319,1,80,4|8,0:0|0:0,0:0:0:0:
206,215,36875,2,0,L|297:200,1,80,4|4,0:0|0:0,0:0:0:0:
411,276,37143,6,0,P|382:213|418:115,1,160,8|4,0:0|0:0,0:0:0:0:
269,85,37545,1,8,0:0:0:0:
269,85,37679,2,0,L|284:173,1,80,4|4,0:0|0:0,0:0:0:0:
165,255,37947,2,0,L|179:177,1,80,8|4,0:0|0:0,0:0:0:0:
184,359,38215,6,0,B|246:366|246:366|283:340|283:340|347:349,1,160,8|8,0:0|0:0,0:0:0:0:
277,242,38616,2,0,L|182:209,1,80,4|4,0:0|0:0,0:0:0:0:
142,110,38884,1,8,0:0:0:0:
239,39,39018,2,0,P|255:75|264:114,1,80,4|4,0:0|0:0,0:0:0:0:
373,163,39286,2,0,P|382:124|398:87,1,80,8|4,0:0|0:0,0:0:0:0:
468,236,39554,6,0,L|377:261,2,80,8|4|8,0:0|0:0|0:0,0:0:0:0:
321,336,39956,1,4,0:0:0:0:
321,336,40090,2,0,L|243:314,1,80,8|4,0:0|0:0,0:0:0:0:
121,231,40358,6,0,P|196:208|287:196,1,143.999995605469,6|8,0:2|0:0,0:0:0:0:
354,109,40759,2,0,P|283:97|214:75,1,143.999995605469,0|0,0:0|0:0,0:0:0:0:
111,39,41161,2,0,L|118:110,1,71.9999978027344,8|0,0:0|0:0,0:0:0:0:
200,182,41429,6,0,B|220:237|220:237|178:338,1,143.999995605469,2|8,0:2|0:0,0:0:0:0:
294,296,41831,2,0,B|313:254|313:254|421:304,1,143.999995605469,0|0,0:0|0:0,0:0:0:0:
492,237,42233,2,0,L|423:204,1,71.9999978027344,8|0,0:0|0:0,0:0:0:0:
300,139,42500,6,0,P|360:141|398:49,1,143.999995605469,2|8,0:2|0:0,0:0:0:0:
273,52,42902,2,0,P|196:71|116:81,1,143.999995605469,0|0,0:0|0:0,0:0:0:0:
23,81,43304,2,0,P|46:137|56:177,1,71.9999978027344,8|0,0:0|0:0,0:0:0:0:
153,206,43572,5,2,0:2:0:0:
153,206,43706,2,0,P|215:193|242:188,1,71.9999978027344,2|8,0:2|0:0,0:0:0:0:
271,280,43974,2,0,P|314:288|418:317,1,143.999995605469,0|0,0:0|0:0,0:0:0:0:
480,231,44375,1,8,0:0:0:0:
480,231,44643,6,0,P|443:198|459:100,1,143.999995605469,2|8,0:2|0:0,0:0:0:0:
371,34,45045,2,0,P|323:67|226:85,1,143.999995605469,0|0,0:0|0:0,0:0:0:0:
245,194,45447,2,0,L|158:176,1,71.9999978027344,8|0,0:0|0:0,0:0:0:0:
69,107,45715,6,0,L|156:89,2,71.9999978027344,2|2|8,0:2|0:2|0:0,0:0:0:0:
20,203,46116,2,0,B|35:255|35:255|18:294|18:294|32:346,1,143.999995605469,0|0,0:0|0:0,0:0:0:0:
129,294,46518,2,0,B|164:273|164:273|221:281,1,71.9999978027344,8|0,0:0|0:0,0:0:0:0:
279,346,46786,6,0,B|355:357|355:357|418:316,1,143.999995605469,2|8,0:2|0:0,0:0:0:0:
361,224,47188,2,0,B|285:235|285:235|222:194,1,143.999995605469,0|0,0:0|0:0,0:0:0:0:
310,125,47590,1,8,0:0:0:0:
130,57,47858,5,2,2:0:0:0:
130,57,47991,2,0,L|118:129,1,71.9999978027344,2|0,2:0|2:0,0:0:0:0:
242,54,48259,2,0,L|362:37,1,107.999996704102,2|0,2:0|0:0,0:0:0:0:
371,35,48527,1,10,2:1:0:0:
432,113,48661,2,0,L|420:185,1,71.9999978027344,10|10,2:1|2:1,0:0:0:0:
341,284,48929,6,0,P|281:255|191:232,1,143.999995605469,6|8,0:2|0:0,0:0:0:0:
86,288,49331,1,0,0:0:0:0:
119,157,49465,2,0,L|218:139,1,71.9999978027344,2|2,0:2|0:2,0:0:0:0:
334,101,49733,2,0,L|263:88,1,71.9999978027344,8|0,0:0|0:0,0:0:0:0:
421,48,50000,6,0,L|436:133,2,71.9999978027344,2|2|8,0:2|0:2|0:0,0:0:0:0:
330,133,50402,2,0,L|315:218,1,71.9999978027344,0|2,0:0|0:2,0:0:0:0:
231,266,50670,1,2,0:2:0:0:
139,197,50804,2,0,P|184:170|211:159,1,71.9999978027344,8|0,0:0|0:0,0:0:0:0:
64,117,51072,5,2,0:2:0:0:
0,204,51206,2,0,L|13:275,1,71.9999978027344,2|8,0:2|0:0,0:0:0:0:
99,351,51474,1,0,0:0:0:0:
218,283,51608,2,0,L|208:374,1,71.9999978027344,2|2,0:2|0:2,0:0:0:0:
375,251,51875,2,0,P|335:234|295:225,1,71.9999978027344,8|0,0:0|0:0,0:0:0:0:
202,171,52143,5,2,0:2:0:0:
202,171,52277,1,2,0:2:0:0:
125,70,52411,2,0,P|110:102|99:136,1,71.9999978027344,8|0,0:0|0:0,0:3:0:0:
159,258,52679,1,2,0:2:0:0:
52,315,52813,1,2,0:2:0:0:
152,372,52947,2,0,P|195:357|228:347,1,71.9999978027344,8|0,0:0|0:0,0:0:0:0:
369,353,53215,6,0,P|331:289|296:219,1,143.999995605469,2|8,0:2|0:0,0:0:0:0:
363,131,53616,1,0,0:0:0:0:
267,66,53750,2,0,P|227:59|177:52,1,71.9999978027344,2|2,0:2|0:2,0:0:0:0:
72,168,54018,2,0,P|112:161|162:154,1,71.9999978027344,8|0,0:0|0:0,0:0:0:0:
258,206,54286,5,2,0:2:0:0:
186,299,54420,1,2,0:2:0:0:
349,282,54554,2,0,P|373:227|384:194,1,71.9999978027344,8|0,0:0|0:0,0:0:0:0:
280,99,54822,1,2,0:2:0:0:
280,99,54956,1,2,0:2:0:0:
169,165,55090,2,0,P|106:146|74:133,1,71.9999978027344,8|0,0:0|0:0,0:0:0:0:
126,294,55358,6,0,P|211:270|288:261,1,143.999995605469,2|8,0:2|0:0,0:0:0:0:
382,302,55759,1,0,0:0:0:0:
450,200,55893,2,0,P|391:181|371:175,1,71.9999978027344,2|2,0:2|0:2,0:0:0:0:
278,146,56161,2,0,P|309:94|321:63,1,71.9999978027344,8|2,0:0|0:2,0:0:0:0:
134,120,56429,6,0,L|150:206,1,71.9999978027344,2|2,0:2|0:2,0:0:0:0:
233,276,56697,2,0,L|217:362,1,71.9999978027344,8|2,0:0|0:2,0:0:0:0:
87,296,56965,2,0,P|55:281|22:268,1,71.9999978027344,10|2,0:2|0:2,0:0:0:0:
147,190,57233,2,0,P|179:174|212:161,1,71.9999978027344,10|2,0:2|0:2,0:0:0:0:
318,214,57500,6,0,L|311:300,1,71.9999978027344,12|2,0:0|0:2,0:0:0:0:
408,153,57768,1,8,0:0:0:0:
408,153,57902,1,2,0:2:0:0:
335,79,58036,2,0,P|287:66|256:62,1,71.9999978027344,8|2,0:0|0:2,0:0:0:0:
126,154,58304,2,0,P|174:141|205:137,1,71.9999978027344,8|0,0:0|0:0,0:0:0:0:
221,235,58572,6,0,P|210:269|199:303,1,71.9999978027344,8|2,0:0|0:2,0:0:0:0:
306,182,58840,2,0,P|316:216|327:250,1,71.9999978027344,8|2,0:0|0:2,0:0:0:0:
195,137,59108,2,0,P|166:158|138:180,1,71.9999978027344,8|2,0:0|0:2,0:0:0:0:
342,99,59375,2,0,P|373:115|405:132,1,71.9999978027344,8|0,0:0|0:0,0:0:0:0:
254,50,59643,5,8,0:0:0:0:
254,50,59777,1,2,0:2:0:0:
147,156,59911,1,8,0:0:0:0:
147,156,60045,1,2,0:2:0:0:
238,275,60179,6,0,L|285:284,3,35.9999989013672,8|8|2|2,3:0|3:0|3:2|3:2,0:0:0:0:
320,274,60447,1,8,3:2:0:0:
349,252,60514,1,0,3:0:0:0:
365,221,60581,1,2,3:2:0:0:
366,185,60648,1,2,3:2:0:0:
352,152,60715,6,0,L|265:136,1,71.9999978027344,8|2,3:0|0:2,0:0:0:0:
177,191,60983,1,8,0:0:0:0:
100,95,61116,2,0,P|83:159|72:254,1,143.999995605469,2|0,0:2|0:0,0:0:0:0:
150,341,61518,1,2,0:2:0:0:
150,341,61786,6,0,P|218:327|303:324,1,143.999995605469,6|8,0:2|0:0,0:0:0:0:
320,230,62188,2,0,L|247:212,1,71.9999978027344,0|2,0:0|0:2,0:0:0:0:
397,166,62456,1,0,0:0:0:0:
397,166,62590,2,0,P|418:222|425:250,1,71.9999978027344,8|0,0:0|0:0,0:0:0:0:
306,136,62858,6,0,P|338:78|392:11,1,143.999995605469,2|8,0:2|0:0,0:0:0:0:
263,28,63259,2,0,P|218:40|175:45,1,71.9999978027344,0|2,0:0|0:2,0:0:0:0:
93,24,63527,1,0,0:0:0:0:
93,24,63661,2,0,L|78:120,1,71.9999978027344,8|0,0:0|0:0,0:0:0:0:
146,174,63929,6,0,P|223:161|301:149,1,143.999995605469,2|8,0:2|0:0,0:0:0:0:
424,236,64331,2,0,L|344:232,1,71.9999978027344,0|2,0:0|0:2,0:0:0:0:
278,304,64599,1,0,0:0:0:0:
278,304,64733,2,0,L|198:300,1,71.9999978027344,8|0,0:0|0:0,0:0:0:0:
72,212,65000,5,2,0:2:0:0:
180,119,65134,2,0,L|170:211,1,71.9999978027344,0|8,0:0|0:0,0:0:0:0:
271,66,65402,2,0,L|281:158,1,71.9999978027344,0|2,0:0|0:2,0:0:0:0:
88,22,65670,1,0,0:0:0:0:
88,22,65804,2,0,L|78:114,1,71.9999978027344,8|0,0:0|0:0,0:0:0:0:
117,254,66072,6,0,P|185:231|256:219,1,143.999995605469,2|8,0:2|0:0,0:0:0:0:
393,311,66474,2,0,P|361:295|333:274,1,71.9999978027344,0|2,0:0|0:2,0:0:0:0:
351,106,66741,1,0,0:0:0:0:
351,106,66875,2,0,P|353:141|348:176,1,71.9999978027344,8|0,0:0|0:0,0:0:0:0:
219,137,67143,6,0,P|185:125|150:114,2,71.9999978027344,2|0|8,0:2|0:0|0:0,0:0:0:0:
171,225,67545,2,0,P|137:237|102:248,1,71.9999978027344,0|2,0:0|0:2,0:0:0:0:
261,259,67813,1,0,0:0:0:0:
261,259,67947,2,0,P|244:291|227:323,1,71.9999978027344,8|0,0:0|0:0,0:0:0:0:
375,268,68215,6,0,P|338:205|324:111,1,143.999995605469,2|8,0:2|0:0,0:0:0:0:
205,105,68616,2,0,P|228:78|247:48,1,71.9999978027344,0|2,0:0|0:2,0:0:0:0:
99,87,68884,1,0,0:0:0:0:
132,199,69018,2,0,P|186:211|225:220,1,71.9999978027344,8|0,0:0|0:0,0:0:0:0:
319,162,69286,5,8,0:0:0:0:
404,269,69420,1,2,3:2:0:0:
404,269,69487,1,2,3:2:0:0:
404,269,69554,2,0,P|350:281|311:290,1,71.9999978027344,2|2,3:2|0:2,0:0:0:0:
229,200,69822,1,2,0:2:0:0:
185,319,69956,1,10,3:2:0:0:
165,140,70090,2,0,P|211:112|264:118,1,107.999996704102,10|0,3:2|0:0,0:0:0:0:
300,145,70358,6,0,L|399:154,1,71.9999978027344,2|0,0:2|0:2,0:0:0:0:
438,255,70625,2,0,L|366:248,1,71.9999978027344,8|0,0:0|0:0,0:0:0:0:
261,276,70893,1,2,0:2:0:0:
177,207,71027,1,0,0:0:0:0:
74,242,71161,2,0,L|58:345,1,71.9999978027344,8|0,0:0|0:0,0:0:0:0:
176,308,71429,5,2,0:2:0:0:
177,207,71563,2,0,P|158:145|147:121,2,71.9999978027344,0|8|0,0:0|0:0|0:0,0:0:0:0:
271,159,71965,2,0,P|280:125|292:91,1,71.9999978027344,2|0,0:2|0:0,0:0:0:0:
377,145,72233,2,0,P|404:121|434:101,1,71.9999978027344,8|0,0:0|0:0,0:0:0:0:
410,230,72500,5,2,0:2:0:0:
410,230,72634,2,0,L|338:240,1,71.9999978027344,0|8,0:0|0:0,0:0:0:0:
246,310,72902,1,0,0:0:0:0:
246,310,73036,2,0,L|174:299,1,71.9999978027344,2|0,0:2|0:0,0:0:0:0:
94,221,73304,2,0,P|117:195|136:164,1,71.9999978027344,8|0,0:0|0:0,0:0:0:0:
230,83,73572,6,0,L|245:165,1,71.9999978027344,2|0,0:2|0:0,0:0:0:0:
349,107,73840,2,0,L|361:36,1,71.9999978027344,8|0,0:0|0:0,0:0:0:0:
448,178,74108,2,0,P|400:204|322:264,1,143.999995605469,2|8,0:2|0:0,0:0:0:0:
252,345,74509,1,0,0:0:0:0:
150,266,74643,5,2,0:2:0:0:
150,266,74777,2,0,L|238:258,1,71.9999978027344,0|8,0:0|0:0,0:0:0:0:
92,195,75045,1,0,0:0:0:0:
92,195,75179,2,0,L|159:137,1,71.9999978027344,2|0,0:2|0:0,0:0:0:0:
14,156,75447,2,0,L|36:70,1,71.9999978027344,8|0,0:0|0:0,0:0:0:0:
134,37,75715,6,0,P|167:49|202:56,1,71.9999978027344,2|0,0:2|0:0,0:0:0:0:
337,105,75983,2,0,P|303:117|268:124,1,71.9999978027344,8|0,0:0|0:0,0:0:0:0:
430,47,76250,1,2,0:2:0:0:
430,47,76384,2,0,L|422:137,1,71.9999978027344,0|8,0:0|0:0,0:0:0:0:
402,232,76652,1,0,0:0:0:0:
270,212,76786,6,0,P|203:193|112:185,1,143.999995605469,2|8,0:2|0:0,0:0:0:0:
78,80,77188,2,0,P|149:72|218:53,1,143.999995605469,0|0,0:0|0:0,0:0:0:0:
334,14,77590,2,0,L|313:100,1,71.9999978027344,8|0,0:0|0:0,0:0:0:0:
406,168,77858,6,0,P|429:234|450:308,1,143.999995605469,2|8,0:2|0:0,0:0:0:0:
354,371,78259,1,0,0:0:0:0:
273,288,78393,2,0,P|223:274|188:266,1,71.9999978027344,8|2,0:1|0:2,0:0:0:0:
128,180,78661,1,8,0:1:0:0:
128,180,78795,1,8,0:1:0:0:
198,89,78929,6,0,B|240:100|240:100|284:90|284:90|319:104|358:99,1,160,6|8,0:2|0:0,0:0:0:0:
420,19,79331,1,2,0:2:0:0:
420,19,79465,2,0,B|377:7|377:7|327:22,1,80,0|2,0:0|0:2,0:0:0:0:
419,139,79733,2,0,B|453:145|453:145|497:132,1,80,8|0,0:0|0:0,0:0:0:0:
336,100,80000,6,0,P|300:161|281:252,1,160,0|8,0:0|0:0,0:0:0:0:
162,204,80402,1,2,0:2:0:0:
162,204,80536,2,0,L|174:294,1,80,0|2,0:0|0:2,0:0:0:0:
84,143,80804,2,0,L|96:63,1,80,8|0,0:0|0:0,0:0:0:0:
216,55,81072,6,0,B|273:90|273:90|364:65,1,160,2|8,0:2|0:0,0:0:0:0:
423,144,81474,1,2,0:2:0:0:
423,144,81608,2,0,L|401:245,1,80,0|2,0:0|0:2,0:0:0:0:
303,201,81875,2,0,P|271:186|226:170,1,80,8|0,0:0|0:0,0:0:0:0:
96,308,82143,6,0,P|165:290|255:284,1,160,0|8,0:0|0:0,0:0:0:0:
383,239,82545,1,0,0:0:0:0:
383,239,82679,2,0,P|376:286|366:337,1,80,0|2,0:0|0:2,0:0:0:0:
283,193,82947,2,0,P|290:146|302:93,1,80,8|0,0:0|0:0,0:0:0:0:
199,67,83215,6,0,P|167:82|122:93,1,80,2|0,0:2|0:0,0:0:0:0:
296,114,83483,2,0,P|328:129|375:143,1,80,8|0,0:0|0:0,0:0:0:0:
196,175,83750,2,0,P|175:204|157:245,1,80,2|0,0:2|0:0,0:0:0:0:
290,225,84018,2,0,P|311:254|329:296,1,80,8|0,0:0|0:0,0:0:0:0:
256,355,84286,6,0,P|318:323|404:347,1,160,2|8,0:2|0:0,0:0:0:0:
435,241,84688,2,0,B|403:173|403:173|419:89,1,160,0|0,0:0|0:0,0:0:0:0:
293,37,85090,2,0,L|309:132,1,80,8|0,0:0|0:0,0:0:0:0:
224,179,85358,6,0,P|192:164|143:147,1,80,2|0,0:2|0:0,0:0:0:0:
317,229,85625,2,0,P|349:214|392:200,1,80,8|0,0:0|0:0,0:0:0:0:
240,301,85893,2,0,P|205:310|148:316,1,80,2|0,0:2|0:0,0:0:0:0:
340,342,86161,2,0,P|375:351|426:356,1,80,8|0,0:0|0:0,0:0:0:0:
481,269,86429,5,2,0:2:0:0:
481,269,86563,2,0,L|465:181,2,80,0|8|0,0:0|0:0|0:0,0:0:0:0:
371,196,86965,2,0,P|383:153|399:111,1,80,2|0,0:2|0:0,0:0:0:0:
289,107,87233,2,0,P|280:73|265:28,1,80,8|0,0:0|0:0,0:0:0:0:
148,133,87500,5,2,0:2:0:0:
212,219,87634,1,2,0:2:0:0:
132,292,87768,2,0,L|53:287,1,80,8|2,0:0|0:2,0:0:0:0:
231,351,88036,2,0,L|311:347,1,80,0|2,0:0|0:2,0:0:0:0:
411,297,88304,1,8,0:0:0:0:
411,297,88438,6,0,P|352:258|319:174,1,160,0|2,0:0|0:2,0:0:0:0:
230,103,88840,2,0,P|223:138|213:182,1,80,8|2,0:0|0:2,0:0:0:0:
120,242,89108,2,0,P|111:206|104:162,1,80,0|2,0:0|0:2,0:0:0:0:
220,276,89375,2,0,P|254:287|297:303,1,80,8|0,0:0|0:0,0:0:0:0:
388,236,89643,5,2,0:2:0:0:
388,236,89777,1,2,0:2:0:0:
322,150,89911,2,0,P|330:103|343:58,1,80,8|2,0:0|0:2,0:0:0:0:
221,36,90179,2,0,P|228:71|235:115,1,80,0|2,0:0|0:2,0:0:0:0:
177,199,90447,1,8,0:0:0:0:
267,257,90581,6,0,P|332:231|420:198,1,160,0|2,0:0|0:2,0:0:0:0:
460,326,90983,2,0,L|367:317,1,80,8|0,0:0|0:0,0:0:0:0:
294,374,91250,2,0,L|211:365,1,80,0|2,0:0|0:2,0:0:0:0:
94,277,91518,2,0,L|176:283,1,80,8|0,0:0|0:0,0:0:0:0:
308,213,91786,6,0,P|250:212|261:111,1,160,8|8,0:1|0:1,0:0:0:0:
351,110,92188,1,0,0:0:0:0:
416,201,92322,2,0,L|399:281,1,80,8|0,0:1|0:0,0:0:0:0:
322,360,92590,2,0,L|241:342,1,80,8|0,0:1|0:0,0:0:0:0:
161,265,92858,6,0,L|238:247,1,80,8|0,0:1|0:0,0:0:0:0:
288,162,93125,2,0,P|250:136|219:103,1,80,8|0,0:1|0:0,0:0:0:0:
352,39,93393,2,0,P|364:75|370:122,1,80,8|0,0:1|0:0,0:0:0:0:
429,191,93661,2,0,P|417:227|406:273,1,80,8|0,0:1|0:0,0:0:0:0:
333,353,93929,6,0,P|273:319|187:351,1,160,8|8,0:1|0:1,0:0:0:0:
88,324,94331,1,0,0:0:0:0:
26,241,94465,2,0,P|24:201|23:147,1,80,8|0,0:1|0:0,0:0:0:0:
118,103,94733,2,0,P|119:142|120:182,1,80,8|0,0:1|0:0,0:0:0:0:
19,74,95000,1,8,0:1:0:0:
311,171,95670,5,2,3:2:0:0:
311,171,95804,1,8,1:0:0:0:
203,46,96072,6,0,P|186:118|170:207,1,160,6|8,0:2|0:0,0:0:0:0:
72,268,96474,1,0,0:0:0:0:
186,328,96608,2,0,P|225:320|265:315,1,80,2|2,0:2|0:2,0:0:0:0:
362,231,96875,2,0,P|322:223|282:218,1,80,8|0,0:0|0:0,0:0:0:0:
391,115,97143,6,0,P|429:150|506:246,1,160,2|8,0:2|0:0,0:0:0:0:
453,346,97545,1,0,0:0:0:0:
339,307,97679,2,0,P|349:268|362:229,1,80,2|2,0:2|0:2,0:0:0:0:
221,159,97947,2,0,P|233:197|243:235,1,80,8|0,0:0|0:0,0:0:0:0:
147,303,98215,6,0,P|101:312|60:324,2,80,2|2|8,0:2|0:2|0:0,0:0:0:0:
93,195,98616,2,0,P|47:186|6:174,1,80,0|2,0:0|0:2,0:0:0:0:
96,87,98884,1,2,0:2:0:0:
201,143,99018,2,0,L|188:230,1,80,8|0,0:0|0:0,0:0:0:0:
279,305,99286,6,0,B|318:294|318:294|356:301,1,80,2|2,0:2|0:2,0:0:0:0:
445,201,99554,2,0,B|406:208|406:208|367:197,1,80,8|2,0:0|0:2,0:0:0:0:
292,102,99822,2,0,L|375:79,1,80,8|2,0:0|0:2,0:0:0:0:
165,40,100090,2,0,L|248:17,1,80,8|2,0:0|0:2,0:0:0:0:
65,28,100358,6,0,P|82:85|108:200,1,160,6|8,0:2|0:2,0:0:0:0:
47,289,100759,1,0,0:0:0:0:
154,342,100893,2,0,P|168:295|177:257,1,80,2|2,0:2|0:2,0:0:0:0:
289,225,101161,2,0,P|273:178|259:142,1,80,8|0,0:0|0:0,0:0:0:0:
359,77,101429,6,0,L|531:87,1,160,2|8,0:2|0:0,0:0:0:0:
455,189,101831,1,0,0:0:0:0:
455,189,101965,2,0,L|364:200,1,80,2|2,0:2|0:2,0:0:0:0:
340,313,102233,2,0,L|249:302,1,80,8|0,0:0|0:0,0:0:0:0:
185,208,102500,6,0,P|167:266|158:302,1,80,2|2,0:2|0:2,0:0:0:0:
101,136,102768,1,8,0:0:0:0:
246,101,102902,2,0,P|272:139|297:179,1,80,0|2,0:0|0:2,0:0:0:0:
152,48,103170,1,2,0:2:0:0:
152,48,103304,2,0,L|239:18,1,80,8|0,0:0|0:0,0:0:0:0:
101,136,103572,6,0,L|14:106,1,80,2|2,0:2|0:2,0:0:0:0:
176,203,103840,2,0,L|93:243,1,80,8|2,0:0|0:2,0:0:0:0:
271,207,104108,2,0,L|241:294,1,80,8|8,3:0|3:0,0:0:0:0:
357,152,104375,1,8,3:0:0:0:
220,118,104509,1,8,3:0:0:0:
390,251,104643,6,0,P|441:214|443:93,1,160,6|8,0:2|0:0,0:0:0:0:
320,32,105045,2,0,L|337:134,2,80,0|2|2,0:0|0:2|0:2,0:0:0:0:
236,141,105447,6,0,B|198:150|198:150|151:130|151:130|120:144|83:125,1,160,8|2,0:0|0:2,0:0:0:0:
10,227,105849,2,0,B|52:217|52:217|93:231,1,80,2|8,0:2|0:0,0:0:0:0:
178,295,106116,1,0,0:0:0:0:
276,242,106250,6,0,B|390:228|390:228|348:258,1,160,2|8,0:2|0:0,0:0:0:0:
466,320,106652,2,0,L|485:234,2,80,0|2|2,0:0|0:2|0:2,0:0:0:0:
354,254,107054,6,0,B|331:158|331:158|356:96,1,160,8|2,0:0|0:2,0:0:0:0:
241,113,107456,2,0,L|208:194,1,80,2|8,0:2|0:0,0:0:0:0:
254,290,107724,1,0,0:0:0:0:
154,341,107858,6,0,P|107:319|77:306,1,80,2|2,0:2|0:2,0:0:0:0:
65,154,108125,2,0,P|91:184|116:214,1,80,8|0,0:0|0:0,0:0:0:0:
169,113,108393,2,0,P|164:74|164:34,1,80,2|2,0:2|0:2,0:0:0:0:
278,71,108661,2,0,P|277:110|273:150,1,80,8|0,0:0|0:0,0:0:0:0:
251,261,108929,5,6,0:2:0:0:
360,235,109063,1,2,0:2:0:0:
312,350,109197,2,0,L|218:346,1,80,8|0,0:0|0:0,0:0:0:0:
155,263,109465,2,0,L|61:259,1,80,2|2,0:2|0:2,0:0:0:0:
157,159,109733,2,0,L|237:163,1,80,8|0,0:0|0:0,0:0:0:0:
321,87,110000,6,0,P|280:54|253:17,1,80,2|2,0:2|0:2,0:0:0:0:
419,40,110268,2,0,B|445:90|445:90|414:208,1,160,8|2,0:0|0:2,0:0:0:0:
322,249,110670,1,2,0:2:0:0:
322,249,110804,2,0,L|236:239,1,80,8|0,0:0|0:0,0:0:0:0:
169,128,111072,6,0,P|191:86|201:46,1,80,2|2,0:2|0:2,0:0:0:0:
73,164,111340,2,0,P|31:142|-9:132,1,80,8|0,0:0|0:0,0:0:0:0:
120,250,111608,2,0,P|98:292|88:332,1,80,2|2,0:2|0:2,0:0:0:0:
216,214,111875,2,0,P|258:236|298:246,1,80,8|0,0:0|0:0,0:0:0:0:
432,187,112143,6,0,P|434:126|436:91,1,80,8|2,0:2|0:2,0:0:0:0:
311,36,112411,2,0,P|312:75|314:115,1,80,8|2,0:0|0:2,0:0:0:0:
216,214,112679,1,8,0:0:0:0:
332,319,112813,1,8,0:0:0:0:
314,212,112947,1,8,0:0:0:0:
183,315,113081,1,8,0:0:0:0:
62,197,113215,6,0,L|221:190,1,160,6|8,0:2|0:0,0:0:0:0:
0,99,113750,1,2,0:2:0:0:
0,99,113884,2,0,L|89:96,1,80,2|8,0:2|0:0,0:0:0:0:
377,42,114286,6,0,P|354:112|329:210,1,160,2|8,0:2|0:0,0:0:0:0:
176,45,114822,1,2,0:2:0:0:
176,45,114956,2,0,P|191:89|205:125,1,80,2|8,0:2|0:0,0:0:0:0:
106,274,115358,6,0,B|162:259|162:259|208:278|208:278|258:265,1,160,2|8,0:2|0:0,0:0:0:0:
31,192,115893,1,2,0:2:0:0:
31,192,116027,2,0,L|95:135,1,80,2|8,0:2|0:0,0:0:0:0:
280,137,116429,6,0,P|219:135|206:37,1,160,2|8,0:2|0:0,0:0:0:0:
362,60,116831,2,0,L|372:145,1,80,2|0,0:2|3:0,0:0:0:0:
323,216,117099,2,0,L|313:301,1,80,2|0,0:2|3:0,0:0:0:0:
313,295,118170,5,2,3:2:0:0:
313,295,118237,1,2,3:2:0:0:
313,295,118304,1,8,3:0:0:0:
228,220,118572,6,0,P|157:224|87:243,1,143.999995605469,12|0,0:2|0:0,0:0:0:0:
103,122,118974,1,2,0:2:0:0:
103,122,119108,2,0,P|152:113|185:110,1,71.9999978027344,8|2,0:0|0:2,0:0:0:0:
284,132,119375,2,0,P|333:141|366:144,1,71.9999978027344,0|0,0:0|0:0,0:0:0:0:
491,79,119643,6,0,P|462:146|430:233,1,143.999995605469,8|0,0:2|0:0,0:0:0:0:
338,271,120045,1,2,0:2:0:0:
338,271,120179,2,0,P|347:305|355:340,1,71.9999978027344,8|2,0:0|0:2,0:0:0:0:
226,284,120447,2,0,P|234:249|243:214,1,71.9999978027344,0|0,0:0|0:0,0:0:0:0:
105,164,120715,6,0,P|159:169|173:77,1,143.999995605469,8|0,0:0|0:0,0:0:0:0:
50,44,121116,1,2,0:2:0:0:
50,44,121250,2,0,L|129:28,1,71.9999978027344,8|2,0:0|0:2,0:0:0:0:
252,33,121518,2,0,L|322:47,1,71.9999978027344,0|0,0:0|0:0,0:0:0:0:
437,154,121786,6,0,P|374:145|280:163,1,143.999995605469,8|0,0:0|0:0,0:0:0:0:
224,258,122188,1,2,0:2:0:0:
224,258,122322,2,0,L|303:248,1,71.9999978027344,8|2,0:0|0:2,0:0:0:0:
162,336,122590,2,0,L|83:326,1,71.9999978027344,0|0,0:0|0:0,0:0:0:0:
9,210,122858,6,0,P|76:229|133:184,1,143.999995605469,8|0,0:0|0:0,0:0:0:0:
213,89,123259,1,2,0:2:0:0:
213,89,123393,2,0,L|226:167,1,71.9999978027344,8|2,0:0|0:2,0:0:0:0:
321,168,123661,2,0,L|308:246,1,71.9999978027344,0|0,0:0|0:0,0:0:0:0:
400,271,123929,6,0,P|440:253|478:246,2,71.9999978027344,8|2|0,0:0|0:2|0:0,0:0:0:0:
316,336,124331,2,0,P|281:327|248:312,1,71.9999978027344,2|8,0:2|0:0,0:0:0:0:
171,376,124599,1,2,0:2:0:0:
171,376,124733,2,0,P|152:345|140:311,1,71.9999978027344,0|0,0:0|0:0,0:0:0:0:
196,223,125000,6,0,L|267:211,2,71.9999978027344,8|0|4,0:0|0:0|3:0,0:0:0:0:
100,173,125402,1,4,3:0:0:0:
100,173,125536,2,0,P|93:105|161:79,1,143.999995605469,4|0,3:0|0:0,2:0:0:0:
278,113,126072,6,0,B|310:101|310:101|339:111|339:111|381:97,2,95.9999970703126,2|2|2,0:0|0:0|0:0,0:0:0:0:
190,184,126608,2,0,B|157:172|157:172|128:182|128:182|87:168,2,95.9999970703126,2|2|2,0:0|0:0|0:0,0:0:0:0:
300,226,127143,6,0,P|313:264|321:311,1,80,6|0,0:2|0:0,0:0:0:0:
217,278,127411,1,8,0:0:0:0:
402,220,127545,1,0,0:0:0:0:
276,134,127679,2,0,P|253:97|238:55,1,80,2|0,0:2|0:0,0:0:0:0:
190,184,127947,2,0,L|110:171,1,80,8|0,0:0|0:0,0:0:0:0:
131,289,128215,5,2,0:2:0:0:
131,289,128349,1,0,0:0:0:0:
250,270,128483,2,0,B|260:309|260:309|252:348,1,80,8|0,0:0|0:0,0:0:0:0:
346,179,128750,2,0,B|336:218|336:218|343:257,1,80,2|0,0:2|0:0,0:0:0:0:
428,125,129018,2,0,B|438:164|438:164|430:203,1,80,8|0,0:0|0:0,0:0:0:0:
340,74,129286,5,2,0:2:0:0:
488,54,129420,1,0,0:0:0:0:
340,74,129554,2,0,P|302:65|268:45,1,80,8|0,0:0|0:0,0:0:0:0:
122,138,129822,2,0,P|160:128|194:108,1,80,2|0,0:2|0:0,0:0:0:0:
346,196,130090,2,0,P|311:175|273:166,1,80,8|0,0:0|0:0,0:0:0:0:
168,247,130358,5,2,0:2:0:0:
168,247,130491,1,0,0:0:0:0:
45,249,130625,2,0,L|28:156,1,80,8|0,0:0|0:0,0:0:0:0:
152,325,130893,2,0,L|167:247,1,80,2|0,0:2|0:0,0:0:0:0:
304,286,131161,2,0,L|289:207,1,80,8|0,0:0|0:0,0:0:0:0:
216,68,131429,5,2,0:2:0:0:
309,114,131563,1,0,0:0:0:0:
411,94,131697,2,0,P|433:41|442:10,1,80,8|0,0:0|0:0,0:0:0:0:
488,180,131965,2,0,P|454:202|420:223,1,80,2|0,0:2|0:0,0:0:0:0:
406,337,132233,2,0,P|366:328|328:319,1,80,8|0,0:0|0:0,0:0:0:0:
220,264,132500,5,2,0:2:0:0:
310,137,132634,2,0,P|324:183|325:238,1,80,0|8,0:0|0:0,0:0:0:0:
196,154,132902,2,0,L|207:74,2,80,0|2|0,0:0|0:2|0:0,0:0:0:0:
98,221,133304,2,0,P|50:193|16:178,1,80,8|0,0:0|0:0,0:0:0:0:
69,335,133572,6,0,P|146:317|226:313,1,160,2|8,0:2|0:0,0:0:0:0:
358,227,133974,2,0,P|278:222|200:204,1,160,0|0,0:0|0:0,0:0:0:0:
123,128,134375,2,0,P|148:86|167:47,1,80,8|0,0:0|0:0,0:0:0:0:
255,12,134643,5,8,0:0:0:0:
303,119,134777,1,2,0:2:0:0:
422,125,134911,1,8,0:0:0:0:
358,227,135045,1,2,0:2:0:0:
221,218,135179,2,0,P|212:178|208:139,1,80,8|2,0:0|0:2,0:0:0:0:
358,227,135447,2,0,P|353:266|345:305,1,80,8|2,0:0|0:2,0:0:0:0:
238,341,135715,5,8,3:0:0:0:
238,341,135849,2,0,L|74:326,1,160,0|8,3:0|3:1,0:0:0:0:
223,188,137858,5,8,3:0:0:0:
223,188,137991,2,0,L|387:173,1,160,0|8,3:0|3:0,0:0:0:0:
223,188,138527,5,2,3:2:0:0:
382,173,138661,1,8,3:1:0:0:
162,84,139063,5,2,3:2:0:0:
307,27,139197,2,0,L|292:127,1,80,8|0,2:0|3:0,0:0:0:0:
252,200,139465,1,2,2:2:0:0:
373,189,139599,1,2,0:2:0:0:
298,302,139733,1,8,3:0:0:0:
261,299,139799,1,0,3:0:0:0:
223,297,139866,1,0,3:0:0:0:
186,294,139933,1,0,3:0:0:0:
149,292,140000,6,0,P|120:266|96:217,1,80,6|0,0:2|0:0,0:0:0:0:
222,188,140268,2,0,P|252:162|278:131,1,80,8|0,0:0|0:0,0:0:0:0:
416,82,140536,2,0,L|429:165,1,80,2|0,0:2|0:0,0:0:0:0:
410,300,140804,2,0,P|371:280|337:266,1,80,8|0,0:0|0:0,0:0:0:0:
222,188,141072,6,0,P|182:195|143:203,2,80,2|0|8,0:2|0:0|0:0,0:0:0:0:
286,83,141474,2,0,P|205:83|186:2,1,160,0|0,0:0|0:0,0:0:0:0:
382,52,141875,2,0,L|365:130,1,80,8|0,0:0|0:0,0:0:0:0:
377,242,142143,6,0,P|438:222|476:210,1,80,2|0,0:2|0:0,0:0:0:0:
362,354,142411,2,0,P|326:335|291:318,1,80,8|0,0:0|0:0,0:0:0:0:
203,243,142679,2,0,P|188:280|175:318,1,80,2|0,0:2|0:0,0:0:0:0:
117,205,142947,2,0,L|276:193,1,160,8|8,0:0|0:0,0:0:0:0:
359,118,143349,5,2,0:2:0:0:
465,152,143483,2,0,L|446:240,1,80,2|8,0:2|0:0,0:0:0:0:
359,118,143750,1,2,0:2:0:0:
505,60,143884,1,2,0:2:0:0:
369,20,144018,2,0,L|276:20,1,80,8|0,0:0|0:0,0:0:0:0:
175,73,144286,6,0,P|200:103|223:136,1,80,6|2,0:2|0:2,0:0:0:0:
323,119,144554,2,0,P|319:158|312:198,1,80,0|0,0:0|0:0,0:0:0:0:
410,245,144822,2,0,P|379:270|346:293,1,80,8|0,0:0|0:0,0:0:0:0:
247,347,145090,1,0,0:2:0:0:
169,267,145224,2,0,P|127:250|7:235,1,160,2|8,0:2|0:0,0:0:0:0:
75,145,145625,2,0,P|120:128|163:113,1,80,0|2,0:0|0:2,0:0:0:0:
232,197,145893,1,8,0:0:0:0:
232,197,146027,1,0,0:0:0:0:
355,244,146161,2,0,L|334:146,1,80,2|0,0:2|0:0,0:0:0:0:
416,84,146429,6,0,P|461:71|494:61,1,80,2|0,0:2|0:0,0:0:0:0:
307,65,146697,2,0,P|262:52|229:42,1,80,2|0,0:2|0:0,0:0:0:0:
129,93,146965,1,8,0:0:0:0:
30,42,147099,2,0,P|20:80|18:120,1,80,2|0,0:2|0:0,0:0:0:0:
100,198,147366,6,0,P|155:183|274:161,1,160,2|0,0:2|0:0,0:0:0:0:
366,186,147768,2,0,P|341:251|332:274,1,80,0|2,0:0|0:2,0:0:0:0:
229,294,148036,1,8,0:0:0:0:
377,365,148170,1,2,0:2:0:0:
229,294,148304,2,0,P|167:290|120:290,1,80,8|0,0:1|0:1,0:0:0:0:
102,123,148572,6,0,P|129:152|155:182,1,80,8|0,0:0|0:0,0:0:0:0:
233,115,148840,2,0,P|238:154|242:194,1,80,0|0,0:0|0:0,0:0:0:0:
357,167,149108,2,0,P|339:202|319:237,1,80,8|0,0:0|0:0,0:0:0:0:
409,287,149375,2,0,P|373:306|337:322,1,80,0|0,0:0|0:0,0:0:0:0:
142,286,149643,6,0,P|169:256|195:226,1,80,8|0,0:0|0:0,0:0:0:0:
273,294,149911,2,0,P|278:254|282:214,1,80,0|0,0:0|0:0,0:0:0:0:
397,242,150179,2,0,P|379:206|359:171,1,80,8|0,0:0|0:0,0:0:0:0:
449,122,150447,2,0,P|413:102|377:86,1,80,0|0,0:0|0:0,0:0:0:0:
269,50,150715,5,8,0:0:0:0:
280,160,150849,1,0,0:0:0:0:
179,110,150983,2,0,P|139:102|100:95,1,80,8|0,0:0|0:0,0:0:0:0:
194,209,151250,2,0,P|157:225|121:241,1,80,8|0,0:0|0:0,0:0:0:0:
279,260,151518,2,0,P|258:294|238:328,1,80,8|0,0:0|0:0,0:0:0:0:
363,213,151786,5,8,0:0:0:0:
363,213,151920,1,0,0:0:0:0:
280,160,152054,2,0,P|269:112|267:71,1,80,8|0,0:0|0:0,0:0:0:0:
157,51,152322,2,0,P|120:84|86:106,1,80,8|0,0:0|0:0,0:0:0:0:
118,212,152590,2,0,P|165:226|201:245,1,80,8|0,0:0|0:0,0:0:0:0:
280,310,152858,6,0,L|378:297,1,80,10|0,0:0|0:0,0:0:0:0:
464,172,153125,1,10,0:0:0:0:
464,172,153259,2,0,P|452:238|447:283,1,80,2|8,0:0|0:0,0:0:0:0:
342,100,153527,2,0,P|349:139|355:178,1,80,2|8,0:0|0:0,0:0:0:0:
252,29,153795,1,2,0:0:0:0:
252,29,153929,1,10,0:0:0:0:
82,176,154599,5,0,3:0:0:0:
82,176,154733,1,8,1:0:0:0:
181,81,155000,6,0,L|202:245,1,160,6|8,0:2|0:0,0:0:0:0:
305,299,155402,1,0,0:0:0:0:
385,210,155536,2,0,P|349:195|311:182,1,80,2|2,0:2|0:2,0:0:0:0:
487,180,155804,2,0,P|465:146|442:113,1,80,8|0,0:0|0:0,0:0:0:0:
335,27,156072,6,0,P|274:75|195:76,1,160,2|8,0:2|0:0,0:0:0:0:
92,33,156474,1,0,0:0:0:0:
20,119,156608,2,0,L|40:215,1,80,2|2,0:2|0:2,0:0:0:0:
135,251,156875,2,0,L|151:172,1,80,8|0,0:0|0:0,0:0:0:0:
266,239,157143,6,0,P|226:282|163:370,1,160,2|8,0:2|0:0,0:0:0:0:
302,328,157545,2,0,P|363:312|412:306,2,80,0|2|2,0:0|0:2|0:2,0:0:0:0:
350,213,157947,2,0,P|363:175|374:136,1,80,8|0,0:0|0:0,0:0:0:0:
296,54,158215,6,0,L|212:43,1,80,2|2,0:2|0:2,0:0:0:0:
409,16,158483,2,0,L|493:5,1,80,8|0,0:0|0:0,0:0:0:0:
485,118,158750,2,0,L|472:216,1,80,8|2,0:0|0:2,0:0:0:0:
364,218,159018,2,0,L|374:297,1,80,8|2,0:0|0:2,0:0:0:0:
267,338,159286,6,0,P|194:309|114:308,1,160,6|8,0:2|0:0,0:0:0:0:
28,230,159688,1,0,0:0:0:0:
28,230,159822,2,0,P|62:210|100:196,1,80,2|2,0:2|0:2,0:0:0:0:
201,131,160090,2,0,P|163:116|129:96,1,80,8|0,0:0|0:0,0:0:0:0:
277,63,160358,6,0,B|304:105|304:105|280:224,1,160,2|8,0:2|0:0,0:0:0:0:
358,295,160759,1,0,0:0:0:0:
469,283,160893,2,0,L|446:194,1,80,2|2,0:2|0:2,0:0:0:0:
391,107,161161,2,0,L|370:184,1,80,8|0,0:0|0:0,0:0:0:0:
281,213,161429,6,0,P|243:198|204:192,2,80,2|2|8,0:2|0:2|0:0,0:0:0:0:
111,236,161831,2,0,P|73:250|34:256,1,80,0|2,0:0|0:2,0:0:0:0:
121,142,162099,1,2,0:2:0:0:
204,192,162233,2,0,P|208:231|204:271,1,80,8|0,0:0|0:0,0:0:0:0:
300,332,162500,6,0,L|378:316,1,80,2|2,0:2|0:2,0:0:0:0:
448,228,162768,2,0,L|369:212,1,80,8|0,0:0|0:0,0:0:0:0:
257,81,163036,2,0,P|277:136|284:166,1,80,8|8,3:0|3:0,0:0:0:0:
253,257,163304,1,8,3:0:0:0:
147,300,163438,1,8,3:0:0:0:
63,197,163572,6,0,P|89:117|135:37,1,160,6|8,0:2|0:0,0:0:0:0:
266,13,163974,2,0,P|286:58|296:90,2,80,0|2|2,0:0|0:2|0:2,0:0:0:0:
211,174,164375,6,0,L|394:194,1,160,8|2,0:0|0:2,0:0:0:0:
408,293,164777,2,0,L|325:308,2,80,2|8|0,0:2|0:0|0:0,0:0:0:0:
489,214,165179,6,0,P|455:156|414:47,1,160,2|8,0:2|0:0,0:0:0:0:
315,27,165581,2,0,L|288:118,2,80,0|2|2,0:0|0:2|0:2,0:0:0:0:
364,182,165983,6,0,P|316:205|205:263,1,160,8|2,0:0|0:2,0:0:0:0:
79,164,166384,2,0,L|181:181,2,80,2|8|0,0:2|0:0|0:0,0:0:0:0:
154,79,166786,6,0,L|256:62,1,80,2|2,0:2|0:2,0:0:0:0:
235,190,167054,2,0,L|337:207,1,80,8|0,0:0|0:0,0:0:0:0:
310,51,167322,2,0,L|412:34,1,80,2|2,0:2|0:2,0:0:0:0:
391,216,167590,2,0,L|493:233,1,80,8|0,0:0|0:0,0:0:0:0:
361,143,167858,5,6,0:2:0:0:
428,300,167991,1,2,0:2:0:0:
290,271,168125,2,0,L|211:257,1,80,8|0,0:0|0:0,0:0:0:0:
103,149,168393,2,0,P|120:203|131:239,1,80,2|2,0:2|0:2,0:0:0:0:
230,98,168661,2,0,P|217:137|206:175,1,80,8|0,0:0|0:0,0:0:0:0:
139,65,168929,6,0,P|89:54|57:47,1,80,2|2,0:2|0:2,0:0:0:0:
230,98,169197,2,0,P|280:87|312:80,1,80,8|0,0:0|0:0,0:0:0:0:
430,62,169465,2,0,P|420:100|411:139,1,80,2|2,0:2|0:2,0:0:0:0:
327,270,169733,2,0,P|317:231|308:192,1,80,8|0,0:0|0:0,0:0:0:0:
131,111,170000,6,0,P|95:129|58:144,1,80,2|2,0:2|0:2,0:0:0:0:
200,191,170268,2,0,P|188:229|172:266,1,80,8|0,0:0|0:0,0:0:0:0:
309,193,170536,2,0,P|327:228|342:265,1,80,2|2,0:2|0:2,0:0:0:0:
388,123,170804,2,0,P|426:134|463:150,1,80,8|0,0:0|0:0,0:0:0:0:
221,37,171072,6,0,L|184:30,4,26.6666666666667,0|0|0|0|0,3:0|3:0|3:0|3:0|3:0,0:0:0:0:
310,63,171340,1,0,0:0:0:0:
348,215,171608,6,0,L|385:208,4,26.6666666666667,0|0|0|0|0,3:0|3:0|3:0|3:0|3:0,0:0:0:0:
259,241,171875,1,2,0:2:0:0:
259,241,172009,1,2,0:2:0:0:
170,267,172143,6,0,P|153:223|141:184,1,80,6|2,0:2|0:2,0:0:0:0:
229,119,172411,2,0,P|242:81|254:43,1,80,8|0,0:0|0:0,0:0:0:0:
367,54,172679,1,2,0:2:0:0:
367,54,172813,1,2,0:2:0:0:
405,159,172947,2,0,L|308:150,1,80,8|0,0:0|0:0,0:0:0:0:
286,257,173215,6,0,P|310:305|319:334,1,80,2|2,0:2|0:2,0:0:0:0:
149,277,173483,2,0,P|162:239|180:204,1,80,8|0,0:0|0:0,0:0:0:0:
211,95,173750,2,0,L|114:86,1,80,2|2,0:2|0:2,0:0:0:0:
3,176,174018,2,0,L|82:168,1,80,8|0,0:0|0:0,0:0:0:0:
211,95,174286,6,0,P|198:54|170:10,2,80,2|2|8,0:2|0:2|0:0,0:0:0:0:
302,174,174688,2,0,P|313:135|333:101,1,80,0|2,0:0|0:2,0:0:0:0:
412,186,174956,1,2,0:2:0:0:
341,275,175090,2,0,L|251:262,1,80,8|0,0:0|0:0,0:0:0:0:
156,220,175358,6,0,P|166:258|179:296,1,80,2|2,0:2|0:2,0:0:0:0:
100,131,175625,2,0,P|80:165|62:201,1,80,8|2,0:0|0:2,0:0:0:0:
187,62,175893,2,0,P|206:96|224:132,1,80,8|2,0:0|0:2,0:0:0:0:
81,35,176161,2,0,P|20:57|-8:63,1,80,8|2,0:0|0:2,0:0:0:0:
187,62,176429,6,0,B|245:44|245:44|288:62|288:62|351:41,1,160,2|8,0:2|0:0,0:0:0:0:
450,46,176831,1,0,0:0:0:0:
474,155,176965,2,0,L|380:140,1,80,2|2,0:2|0:2,0:0:0:0:
285,166,177233,1,8,0:0:0:0:
204,88,177366,1,0,0:0:0:0:
204,88,177500,6,0,P|185:144|170:244,1,160,2|8,0:2|0:0,0:0:0:0:
96,328,177902,1,0,0:0:0:0:
96,328,178036,2,0,P|75:276|63:250,1,80,2|2,0:2|0:2,0:0:0:0:
228,336,178304,1,8,0:0:0:0:
228,336,178438,1,0,0:0:0:0:
307,256,178572,6,0,L|409:274,2,80,2|2|8,0:2|0:2|0:0,0:0:0:0:
246,172,178974,2,0,L|335:138,1,80,0|2,0:0|0:2,0:0:0:0:
134,156,179241,1,2,0:2:0:0:
134,156,179375,2,0,L|182:88,1,80,8|0,0:0|0:0,0:0:0:0:
50,91,179643,6,0,P|44:137|39:181,1,80,2|2,0:2|0:2,0:0:0:0:
93,269,179911,2,0,P|130:256|169:245,1,80,8|2,0:0|0:2,0:0:0:0:
294,171,180179,1,10,0:0:0:0:
270,279,180313,1,10,0:2:0:0:
445,260,180447,1,8,0:0:0:0:
363,330,180581,1,10,0:2:0:0:
294,171,180715,6,0,P|356:126|433:138,1,160,6|8,0:0|0:0,0:0:0:0:
220,236,181116,2,0,P|203:190|241:79,1,160,0|2,0:0|0:2,0:0:0:0:
245,326,181518,2,0,P|168:313|109:260,1,160,8|2,0:0|0:2,0:0:0:0:
220,236,181920,2,0,P|297:248|356:301,1,160,2|0,0:2|0:0,0:0:0:0:
466,275,182322,2,0,P|475:237|481:197,1,80,2|2,0:2|0:2,0:0:0:0:
362,95,182590,2,0,P|368:134|377:173,1,80,8|0,0:0|0:0,0:0:0:0:
276,222,182858,6,0,L|105:191,1,160,2|8,0:2|0:0,0:0:0:0:
344,318,183259,2,0,L|173:287,1,160,0|2,0:0|0:2,0:0:0:0:
418,159,183661,2,0,L|247:128,1,160,8|2,0:0|0:2,0:0:0:0:
109,80,184063,2,0,P|169:93|210:2,1,160,2|0,0:2|0:0,0:0:0:0:
10,55,184465,2,0,P|16:94|25:133,1,80,2|0,0:2|0:0,0:0:0:0:
93,222,184733,2,0,P|156:200|191:193,1,80,2|0,0:2|0:0,0:0:0:0:
277,226,185000,6,0,P|270:282|266:320,2,80,6|2|8,0:2|0:2|0:0,0:0:0:0:
370,163,185402,2,0,P|329:140|287:122,1,80,0|2,0:0|0:2,0:0:0:0:
376,258,185670,1,2,0:2:0:0:
470,201,185804,2,0,P|466:149|456:106,1,80,8|0,0:0|0:0,0:0:0:0:
390,43,186072,5,2,0:2:0:0:
390,43,186206,2,0,L|292:52,1,80,2|8,0:2|0:0,0:0:0:0:
222,115,186474,1,0,0:0:0:0:
129,55,186608,2,0,L|44:47,1,80,2|2,0:2|0:2,0:0:0:0:
128,161,186875,2,0,P|95:202|76:233,1,80,8|0,0:0|0:0,0:0:0:0:
231,202,187143,6,0,B|305:165|316:231|400:197,1,160,8|0,3:0|3:0,0:0:0:0:
460,116,187545,1,0,3:0:0:0:
460,116,187679,2,0,P|406:101|373:98,1,80,8|0,3:0|3:0,0:0:0:0:
257,25,187947,2,0,P|272:61|286:99,1,80,0|0,3:0|3:0,0:0:0:0:
217,188,188215,5,8,3:0:0:0:
217,188,188349,2,0,P|177:175|142:157,2,80,0|0|0,3:0|3:0|3:0,0:0:0:0:
329,198,188750,2,0,P|346:237|357:278,1,80,8|0,3:0|3:0,0:0:0:0:
468,285,189018,2,0,P|452:324|431:361,1,80,0|0,3:0|3:0,0:0:0:0:
321,370,189286,1,4,2:0:0:0:
256,192,189353,12,0,191429,2:0:0:0:
65,120,197858,6,0,P|114:99|205:94,1,143.999995605469,8|0,0:0|0:0,0:0:0:0:
285,154,198259,1,0,0:0:0:0:
365,93,198393,2,0,P|358:28|315:60,1,143.999995605469,8|0,0:0|0:0,0:0:0:0:
381,200,198795,6,0,P|397:243|395:348,1,143.999995605469,0|0,0:0|0:0,0:0:0:0:
296,329,199197,2,0,P|284:295|283:259,1,71.9999978027344,0|0,0:0|0:0,0:0:0:0:
209,189,199465,2,0,P|173:195|137:200,1,71.9999978027344,8|0,0:0|0:0,0:0:0:0:
120,81,199733,1,0,0:0:0:0:
253,88,199866,1,0,0:0:0:0:
253,88,199933,1,0,0:0:0:0:
253,88,200000,6,0,P|290:72|325:55,1,71.9999978027344,8|0,0:0|0:0,0:0:0:0:
443,35,200268,2,0,P|432:86|430:112,1,71.9999978027344,0|0,0:0|0:0,0:0:0:0:
430,225,200536,2,0,P|384:189|295:228,1,143.999995605469,8|0,0:0|0:0,0:0:0:0:
210,120,200938,6,0,B|223:165|223:165|206:217|206:217|225:282,1,143.999995605469,0|0,0:0|0:0,0:0:0:0:
116,257,201340,2,0,B|104:219|104:219|119:164,1,71.9999978027344,0|0,0:0|0:0,0:0:0:0:
307,210,201608,2,0,B|319:248|319:248|304:303,1,71.9999978027344,8|0,0:0|0:0,0:0:0:0:
207,360,201875,1,0,0:0:0:0:
230,132,202143,6,0,P|261:115|296:106,1,71.9999978027344,8|0,0:0|0:0,0:0:0:0:
141,133,202411,2,0,P|151:98|169:67,1,71.9999978027344,8|8,0:0|0:0,0:0:0:0:
75,198,202679,2,0,P|57:166|48:131,1,71.9999978027344,8|8,0:0|0:0,0:0:0:0:
75,287,202947,2,0,P|40:276|9:258,1,71.9999978027344,8|8,0:0|0:0,0:0:0:0:
169,265,203215,6,0,P|158:321|147:358,1,71.9999978027344,8|8,0:0|0:0,0:0:0:0:
236,198,203483,2,0,P|254:251|263:289,1,71.9999978027344,8|8,0:0|0:0,0:0:0:0:
283,115,203750,2,0,P|325:152|352:180,1,71.9999978027344,8|8,0:0|0:0,0:0:0:0:
258,24,204018,2,0,P|314:34|351:45,1,71.9999978027344,8|8,0:0|0:0,0:0:0:0:
437,123,204286,6,0,P|424:163|407:280,1,143.999995605469,8|8,0:0|0:0,0:0:0:0:
286,244,204688,1,0,0:0:0:0:
286,244,204755,1,0,0:0:0:0:
286,244,204822,2,0,P|251:234|215:228,1,71.9999978027344,8|0,0:0|0:0,0:0:0:0:
99,331,205090,2,0,P|134:324|169:315,1,71.9999978027344,8|0,0:0|0:0,0:0:0:0:
142,156,205358,2,0,P|128:189|117:223,1,71.9999978027344,8|0,0:0|0:0,0:0:0:0:
315,111,205625,6,0,P|237:135|281:60,1,200,0|0,2:0|0:0,0:0:0:0:
398,76,206429,6,0,P|414:131|424:255,1,160,6|8,0:2|0:0,0:0:0:0:
350,317,206831,1,0,0:0:0:0:
258,252,206965,2,0,P|207:238|167:233,1,80,2|2,0:2|0:2,0:0:0:0:
111,145,207233,2,0,P|162:131|202:126,1,80,8|0,0:0|0:0,0:0:0:0:
369,135,207500,6,0,P|302:159|284:90,1,160,2|8,0:2|0:0,0:0:0:0:
390,32,207902,1,0,0:0:0:0:
476,96,208036,2,0,L|489:180,1,80,2|2,0:2|0:2,0:0:0:0:
395,307,208304,2,0,L|407:227,1,80,8|0,0:0|0:0,0:0:0:0:
308,171,208572,6,0,P|273:190|237:207,2,80,2|2|8,0:2|0:2|0:0,0:0:0:0:
147,124,208974,2,0,P|132:167|121:204,1,80,0|2,0:0|0:2,0:0:0:0:
179,297,209241,1,2,0:2:0:0:
306,246,209375,2,0,P|273:222|237:206,1,80,8|0,0:0|0:0,0:0:0:0:
335,344,209643,6,0,P|414:310|512:288,1,160,2|8,0:2|0:0,0:0:0:0:
404,212,210045,1,0,0:0:0:0:
492,107,210179,2,0,L|509:198,1,80,8|2,0:0|0:2,0:0:0:0:
399,28,210447,2,0,L|382:119,1,80,8|2,0:0|0:2,0:0:0:0:
183,181,210715,6,0,P|215:152|322:211,1,160,6|8,0:2|0:0,0:0:0:0:
198,295,211116,1,0,0:0:0:0:
198,295,211250,2,0,L|118:286,1,80,2|2,0:2|0:2,0:0:0:0:
183,181,211518,1,8,0:0:0:0:
183,181,211652,1,0,0:0:0:0:
284,228,211786,6,0,B|361:261|361:208|442:234,1,160,2|8,0:2|0:0,0:0:0:0:
340,339,212188,1,0,0:0:0:0:
284,228,212322,2,0,P|276:194|297:135,1,80,2|2,0:2|0:2,0:0:0:0:
440,233,212590,2,0,P|448:267|427:326,1,80,8|0,0:0|0:0,0:0:0:0:
232,310,212858,6,0,P|191:300|140:295,2,80,2|2|8,0:2|0:2|0:0,0:0:0:0:
361,247,213259,2,0,P|400:242|439:232,1,80,0|2,0:0|0:2,0:0:0:0:
289,130,213527,1,2,0:2:0:0:
289,130,213661,2,0,P|272:187|266:224,1,80,8|0,0:0|0:0,0:0:0:0:
80,94,213929,5,2,0:2:0:0:
158,179,214063,1,2,0:2:0:0:
191,58,214197,2,0,P|231:40|270:27,1,80,8|0,0:0|0:0,0:0:0:0:
80,94,214465,2,0,P|42:80|5:64,1,80,8|8,3:0|3:0,0:0:0:0:
158,179,214733,1,8,3:0:0:0:
90,268,214866,1,8,3:0:0:0:
251,268,215000,6,0,P|262:202|273:92,1,160,6|8,0:2|0:0,0:0:0:0:
368,50,215402,2,0,P|401:80|436:117,2,80,0|2|2,0:0|0:2|0:2,0:0:0:0:
359,169,215804,6,0,L|388:248,1,80,8|0,0:0|0:0,0:0:0:0:
338,362,216072,1,2,0:2:0:0:
338,362,216206,2,0,P|271:347|243:340,1,80,2|8,0:2|0:0,0:0:0:0:
144,314,216474,1,0,0:0:0:0:
54,216,216608,6,0,P|106:200|223:184,1,160,2|8,0:2|0:0,0:0:0:0:
335,161,217009,2,0,L|316:241,2,80,0|2|2,0:0|0:2|0:2,0:0:0:0:
255,81,217411,6,0,P|202:57|177:43,1,80,8|0,0:0|0:0,0:0:0:0:
78,15,217679,1,2,0:2:0:0:
78,15,217813,2,0,P|64:52|56:107,1,80,2|8,0:2|0:0,0:0:0:0:
144,179,218081,1,0,0:0:0:0:
255,80,218215,6,0,P|291:65|330:55,1,80,2|2,0:2|0:2,0:0:0:0:
289,189,218483,2,0,P|252:204|213:214,1,80,8|0,0:0|0:0,0:0:0:0:
376,136,218750,2,0,P|407:160|436:188,1,80,2|2,0:2|0:2,0:0:0:0:
425,322,219018,2,0,P|393:297|364:269,1,80,8|0,0:0|0:0,0:0:0:0:
213,215,219286,6,0,L|197:309,1,80,6|2,0:2|0:2,0:0:0:0:
96,138,219554,2,0,L|112:232,1,80,8|0,0:0|0:0,0:0:0:0:
297,151,219822,2,0,P|251:127|221:117,1,80,2|2,0:2|0:2,0:0:0:0:
305,251,220090,2,0,P|342:237|377:217,1,80,8|0,0:0|0:0,0:0:0:0:
480,146,220358,6,0,L|466:254,1,80,2|2,0:2|0:2,0:0:0:0:
373,314,220625,2,0,P|304:277|225:280,1,160,8|2,0:0|0:2,0:0:0:0:
109,317,221027,1,2,0:2:0:0:
109,317,221161,2,0,P|119:279|132:241,1,80,8|0,0:0|0:0,0:0:0:0:
196,106,221429,6,0,P|209:143|219:182,1,80,2|2,0:2|0:2,0:0:0:0:
328,186,221697,2,0,P|310:222|290:256,1,80,8|0,0:0|0:0,0:0:0:0:
132,241,221965,2,0,P|155:299|165:319,1,80,2|2,0:2|0:2,0:0:0:0:
361,325,222233,2,0,P|302:360|276:375,1,80,8|0,0:0|0:0,0:0:0:0:
132,241,222500,5,2,3:2:0:0:
202,159,222768,1,2,3:2:0:0:
310,159,223036,1,2,3:2:0:0:
380,241,223304,1,2,3:2:0:0:
464,43,223572,6,0,P|417:75|319:29,1,160,6|8,0:2|0:0,0:0:0:0:
177,122,223974,1,0,0:0:0:0:
177,122,224108,2,0,L|265:107,1,80,2|2,0:2|0:2,0:0:0:0:
163,27,224375,1,8,0:0:0:0:
163,27,224442,1,0,0:0:0:0:
163,27,224509,1,0,0:0:0:0:
68,87,224643,6,0,L|89:258,1,160,2|8,0:2|0:0,0:0:0:0:
191,202,225045,1,0,0:0:0:0:
277,272,225179,2,0,P|315:283|355:289,1,80,2|2,0:2|0:2,0:0:0:0:
265,120,225447,2,0,P|226:109|186:103,1,80,8|0,0:0|0:0,0:0:0:0:
100,320,225715,6,0,P|164:276|190:201,1,160,2|8,0:2|0:0,0:0:0:0:
305,188,226116,2,0,P|288:151|264:119,1,80,0|2,0:0|0:2,0:0:0:0:
351,47,226384,1,2,0:2:0:0:
351,47,226518,2,0,P|316:26|278:14,1,80,8|2,0:0|0:0,0:0:0:0:
163,54,226786,6,0,P|148:85|137:152,1,80,2|2,0:2|0:2,0:0:0:0:
280,263,227054,2,0,P|294:231|306:165,1,80,8|0,0:0|0:0,0:0:0:0:
111,246,227322,2,0,P|152:233|192:220,1,80,8|2,0:0|0:2,0:0:0:0:
292,360,227590,2,0,P|251:347|211:334,1,80,8|2,0:0|0:2,0:0:0:0:
54,172,227858,6,0,P|19:241|46:314,1,160,6|8,0:2|0:0,0:0:0:0:
156,134,228259,2,0,P|131:103|101:78,1,80,0|2,0:0|0:2,0:0:0:0:
135,231,228527,1,2,0:2:0:0:
241,196,228661,2,0,P|252:153|253:108,1,80,8|0,0:0|0:0,0:0:0:0:
214,295,228929,6,0,B|291:323|290:270|377:304,1,160,2|8,0:2|0:0,0:0:0:0:
473,347,229331,1,0,0:0:0:0:
443,238,229465,2,0,P|456:188|467:149,1,80,2|2,0:2|0:2,0:0:0:0:
336,75,229733,2,0,P|346:113|356:152,1,80,8|0,0:0|0:0,0:0:0:0:
281,234,230000,6,0,P|242:243|203:253,1,80,2|2,0:2|0:2,0:0:0:0:
267,136,230268,1,8,0:0:0:0:
267,136,230402,2,0,P|229:121|192:107,1,80,0|2,0:0|0:2,0:0:0:0:
336,75,230670,1,2,0:2:0:0:
336,75,230804,2,0,P|314:41|291:8,1,80,8|0,0:0|0:0,0:0:0:0:
424,123,231072,6,0,P|391:145|358:168,1,80,2|2,0:2|0:2,0:0:0:0:
236,218,231340,2,0,P|268:240|302:263,1,80,8|0,0:0|0:0,0:0:0:0:
414,281,231608,1,8,3:0:0:0:
341,366,231741,1,8,3:0:0:0:
238,320,231875,1,8,3:0:0:0:
140,375,232009,1,8,3:0:0:0:
58,297,232143,6,0,P|63:257|66:217,1,80,6|2,0:2|0:2,0:0:0:0:
172,150,232411,1,8,0:0:0:0:
172,150,232545,2,0,P|166:189|163:229,2,80,0|2|2,0:0|0:2|0:2,0:0:0:0:
286,91,232947,6,0,P|219:58|195:44,1,80,8|0,0:2|0:2,0:0:0:0:
270,194,233215,1,2,0:2:0:0:
270,194,233349,2,0,P|305:175|341:158,1,80,2|8,0:2|0:0,0:0:0:0:
454,165,233616,1,0,0:0:0:0:
409,267,233750,6,0,P|403:331|402:364,1,80,2|2,0:2|0:2,0:0:0:0:
301,296,234018,1,8,0:0:0:0:
301,296,234152,2,0,P|295:360|294:393,2,80,0|2|2,0:0|0:2|0:2,0:0:0:0:
208,230,234554,6,0,P|202:294|201:327,1,80,8|0,0:0|0:0,0:0:0:0:
80,197,234822,1,2,0:2:0:0:
80,196,234956,2,0,P|113:175|135:141,1,80,2|8,0:2|0:0,0:0:0:0:
140,35,235224,1,0,0:0:0:0:
235,90,235358,6,0,L|329:76,1,80,2|2,0:2|0:2,0:0:0:0:
426,73,235625,1,8,0:0:0:0:
376,173,235759,2,0,P|367:212|358:251,2,80,0|2|2,0:0|0:2|0:2,0:0:0:0:
254,253,236161,2,0,P|269:289|284:326,1,80,8|0,0:0|0:0,0:0:0:0:
192,364,236429,6,0,P|152:360|112:356,1,80,6|2,0:2|0:2,0:0:0:0:
118,243,236697,2,0,P|78:239|38:235,1,80,8|0,0:0|0:0,0:0:0:0:
256,158,236965,2,0,P|216:154|176:150,1,80,2|2,0:2|0:2,0:0:0:0:
184,37,237233,2,0,P|144:33|104:29,1,80,8|0,0:0|0:0,0:0:0:0:
281,64,237500,6,0,P|323:38|351:13,1,80,2|2,0:2|0:2,0:0:0:0:
432,90,237768,2,0,P|451:44|460:8,1,80,8|0,0:0|0:0,0:0:0:0:
347,146,238036,2,0,P|357:184|373:220,1,80,2|2,0:2|0:2,0:0:0:0:
275,275,238304,2,0,P|305:300|340:320,1,80,8|0,0:0|0:0,0:0:0:0:
156,305,238572,6,0,P|144:267|136:228,1,80,8|2,0:0|0:2,0:0:0:0:
230,96,238840,2,0,P|242:134|250:173,1,80,8|2,0:0|0:2,0:0:0:0:
49,252,239108,2,0,P|55:212|66:174,1,80,8|2,0:0|0:2,0:0:0:0:
337,164,239375,2,0,P|330:203|319:241,1,80,8|2,0:0|0:2,0:0:0:0:
188,350,239643,6,0,B|129:214|240:216|187:63,1,287.999991210938,0|0,2:0|2:0,0:0:0:0:
189,70,240715,1,6,0:2:0:0:
