osu file format v14

[General]
AudioFilename: Snow Drive.mp3
AudioLeadIn: 0
PreviewTime: 95717
Countdown: 0
SampleSet: Normal
StackLeniency: 0.7
Mode: 0
LetterboxInBreaks: 0
WidescreenStoryboard: 0

[Editor]
Bookmarks: 1801,10366,18937,27508,36080,40366,48937,57508,61794,70366,78937,91794,96080,113223,118178,127151,135723,140008,148580,155008,171080,180723,189294,197866,206437,223580,240723,249294,256794,261080
DistanceSpacing: 1
BeatDivisor: 4
GridSize: 4
TimelineZoom: 2.699999

[Metadata]
Title:Snow Drive(01.23)
TitleUnicode:スノウドライヴ(01.23)
Artist:Omoi
ArtistUnicode:Omoi
Creator:Kroytz
Version:Rumi's Expert
Source:
Tags:Vocaloid Hatsune Miku k2pudding Battle HappyRocket88 Anxient pkk Rumia MoeMoeKyunNN moph SnowNiNo_
BeatmapID:1088292
BeatmapSetID:478405

[Difficulty]
HPDrainRate:6
CircleSize:4
OverallDifficulty:8
ApproachRate:9.2
SliderMultiplier:1.4
SliderTickRate:1

[Events]
//Background and Video events
0,0,"BG.jpg",0,0
Video,0,"video.mp4"
//Break Periods
2,113415,117600
2,136316,137288
2,191628,196886
//Storyboard Layer 0 (Background)
//Storyboard Layer 1 (Fail)
//Storyboard Layer 2 (Pass)
//Storyboard Layer 3 (Foreground)
//Storyboard Sound Samples

[TimingPoints]
730,267.857142857143,4,2,1,60,1,0
1801,-200,4,2,0,60,0,0
3944,-133.333333333333,4,2,0,60,0,0
9234,-133.333333333333,4,2,0,5,0,0
9301,-133.333333333333,4,2,0,60,0,0
9837,-133.333333333333,4,2,0,35,0,0
10358,267.857142857143,4,2,0,40,1,0
16786,-200,4,2,0,40,0,0
17858,-76.9230769230769,4,2,1,40,0,0
18058,-76.9230769230769,4,2,1,5,0,0
18125,-76.9230769230769,4,2,1,40,0,0
18326,-76.9230769230769,4,2,1,5,0,0
18393,-76.9230769230769,4,2,1,40,0,0
18929,-76.9230769230769,4,1,1,40,0,0
22143,-76.9230769230769,4,1,1,40,0,0
23215,-76.9230769230769,4,1,1,40,0,0
27500,-90.9090909090909,4,1,1,40,0,0
36072,-90.9090909090909,4,3,1,40,0,0
40358,-125,4,1,1,40,0,0
46317,-125,4,2,1,5,0,0
46384,-125,4,1,1,40,0,0
48460,-125,4,2,1,5,0,0
48527,-125,4,1,1,40,0,0
48929,-83.3333333333333,4,1,1,40,0,0
52612,-83.3333333333333,4,2,1,5,0,0
52679,-83.3333333333333,4,1,1,40,0,0
56362,-83.3333333333333,4,2,1,5,0,0
56429,-83.3333333333333,4,1,1,40,0,0
61786,-125,4,1,1,40,0,0
66005,-125,4,2,1,5,0,0
66072,-125,4,1,1,40,0,0
68549,-125,4,2,1,5,0,0
68616,-125,4,1,1,40,0,0
68817,-125,4,2,1,5,0,0
68884,-125,4,1,1,40,0,0
69286,-90.9090909090909,4,1,1,40,0,0
70090,-125,4,1,1,40,0,0
70358,-100,4,1,1,40,0,0
83215,-83.3333333333333,4,1,1,40,0,0
91786,-83.3333333333333,4,3,1,40,0,0
93929,-62.5,4,3,1,40,0,0
95000,-50,4,3,1,40,0,0
96072,-83.3333333333333,4,1,1,70,0,1
110201,-83.3333333333333,4,2,1,5,0,1
110268,-83.3333333333333,4,1,1,70,0,1
113215,-100,4,1,1,70,0,0
118572,-111.111111111111,4,1,1,70,0,0
125268,-111.111111111111,4,3,2,70,0,0
126072,-111.111111111111,4,2,1,70,0,0
127143,-90.9090909090909,4,1,1,70,0,0
144487,-90.9090909090909,4,2,1,5,0,0
144554,-90.9090909090909,4,1,1,70,0,0
144755,-90.9090909090909,4,2,1,5,0,0
144822,-90.9090909090909,4,1,1,70,0,0
145558,-90.9090909090909,4,2,1,5,0,0
145625,-90.9090909090909,4,1,1,70,0,0
145826,-90.9090909090909,4,2,1,5,0,0
145893,-90.9090909090909,4,1,1,70,0,0
148572,-66.6666666666667,4,3,1,70,0,0
154733,-200,4,1,1,70,0,0
154933,-200,4,2,1,5,0,0
155000,-83.3333333333333,4,1,1,70,0,1
166987,-83.3333333333333,4,2,1,5,0,1
167054,-83.3333333333333,4,1,1,70,0,1
167255,-83.3333333333333,4,2,1,5,0,1
167322,-83.3333333333333,4,1,1,70,0,1
167523,-83.3333333333333,4,2,1,5,0,1
167590,-83.3333333333333,4,1,1,70,0,1
167791,-83.3333333333333,4,2,1,5,0,1
167858,-83.3333333333333,4,1,1,70,0,1
169130,-83.3333333333333,4,2,1,5,0,1
169197,-83.3333333333333,4,1,1,70,0,1
169398,-83.3333333333333,4,2,1,5,0,1
169465,-83.3333333333333,4,1,1,70,0,1
169666,-83.3333333333333,4,2,1,5,0,1
169733,-83.3333333333333,4,1,1,70,0,1
169933,-83.3333333333333,4,2,1,5,0,1
170000,-83.3333333333333,4,1,1,70,0,1
171072,-100,4,1,1,70,0,0
180715,-83.3333333333333,4,1,1,70,0,0
184666,-83.3333333333333,4,2,1,5,0,0
184733,-83.3333333333333,4,1,1,70,0,0
185402,-100,4,1,1,70,0,0
188215,-100,4,1,1,70,0,0
188483,-83.3333333333333,4,1,1,70,0,0
188750,-71.4285714285714,4,1,1,70,0,0
189018,-62.5,4,1,1,70,0,0
189286,-133.333333333333,4,1,1,70,0,0
197456,-76.9230769230769,4,1,1,70,0,0
197858,-76.9230769230769,4,3,1,70,0,0
205625,-200,4,1,1,70,0,0
206295,-200,4,2,1,5,0,0
206429,-83.3333333333333,4,1,1,70,0,1
222500,-100,4,1,1,70,0,0
223572,-76.9230769230769,4,1,2,70,0,1
223840,-76.9230769230769,4,1,1,70,0,1
231875,-66.6666666666667,4,1,1,70,0,1
232143,-76.9230769230769,4,1,1,70,0,1
237433,-76.9230769230769,4,2,1,5,0,1
237500,-76.9230769230769,4,1,1,70,0,1
238840,-83.3333333333333,4,1,1,70,0,1
239108,-90.9090909090909,4,1,1,70,0,1
239375,-100,4,1,1,70,0,1
239643,-840,4,1,1,70,0,0

[Colours]
Combo1 : 114,64,247
Combo2 : 128,255,255
Combo3 : 0,121,242
SliderBorder : 212,231,238
SliderTrackOverride : 40,42,68

[HitObjects]
44,184,1801,6,0,L|56:260,1,70,2|0,0:0|0:0,0:0:0:0:
152,336,2337,2,0,L|168:264,1,70,0|0,0:0|0:0,0:0:0:0:
188,180,2738,1,0,0:0:0:0:
264,252,2872,2,0,P|304:252|340:240,1,70,2|0,0:0|0:0,0:0:0:0:
488,180,3408,2,0,P|456:172|408:176,1,70,2|2,0:0|0:0,0:0:0:0:
316,164,3944,6,0,L|328:52,1,105.000004005432,2|0,0:0|0:0,0:0:0:0:
236,76,4346,2,0,P|184:60|124:68,1,105.000004005432,2|0,0:0|0:0,0:0:0:0:
56,100,4747,1,2,0:0:0:0:
100,288,5015,6,0,L|107:183,1,105.000004005432,2|0,0:0|0:0,0:0:0:0:
208,268,5551,1,2,0:0:0:0:
360,288,5819,1,2,0:0:0:0:
256,336,6087,6,0,B|204:352|204:352|136:328,1,105.000004005432,2|0,0:0|0:0,0:0:0:0:
36,184,6622,2,0,B|88:168|88:168|156:192,1,105.000004005432,0|0,0:0|0:0,0:0:0:0:
328,264,7158,2,0,B|320:344|320:344|296:312,1,105.000004005432,2|0,0:0|0:0,0:0:0:0:
276,144,7694,2,0,B|284:64|284:64|308:96,1,105.000004005432,0|2,0:0|0:0,0:0:0:0:
160,240,8230,6,0,B|116:248|116:248|40:236,1,105.000004005432,2|0,0:0|0:0,0:0:0:0:
208,328,8631,2,0,P|256:312|312:328,1,105.000004005432,2|0,0:0|0:0,0:0:0:0:
440,292,9033,2,0,L|436:192,1,78.7500030040742,2|0,0:0|0:0,0:0:0:0:
456,176,9301,6,0,B|412:188|412:188|348:168,1,105.000004005432,2|0,0:0|0:0,0:0:0:0:
252,72,9837,2,0,L|260:52,14,13.125000500679,2|0|0|0|0|0|0|0|0|0|0|0|0|0|0,0:0|0:0|0:0|0:0|0:0|0:0|0:0|0:0|0:0|0:0|0:0|0:0|0:0|0:0|0:0,0:0:0:0:
212,144,10358,5,2,0:0:0:0:
132,176,10491,1,0,0:0:0:0:
76,108,10625,1,0,0:0:0:0:
136,204,10759,2,0,L|128:300,1,70,2|0,0:0|0:0,0:0:0:0:
288,308,11027,5,0,0:0:0:0:
360,264,11161,1,2,0:0:0:0:
424,319,11295,1,0,0:0:0:0:
354,249,11429,1,0,0:0:0:0:
456,152,11563,2,0,L|448:240,1,70,2|0,0:0|0:0,0:0:0:0:
424,319,11831,5,0,0:0:0:0:
284,242,11965,2,0,L|372:250,1,70,2|0,0:0|0:0,0:0:0:0:
220,168,12233,1,0,0:0:0:0:
164,332,12366,2,0,L|156:252,1,70,2|0,0:0|0:0,0:0:0:0:
136,160,12634,5,0,0:0:0:0:
289,171,12768,2,0,L|209:167,1,70,2|0,0:0|0:0,0:0:0:0:
353,248,13036,1,0,0:0:0:0:
424,319,13170,2,0,L|440:240,1,70,2|0,0:0|0:0,0:0:0:0:
484,140,13438,1,0,0:0:0:0:
276,184,13572,6,0,P|256:128|288:32,2,140,2|2|2,0:0|0:0|0:0,0:0:0:0:
328,272,14241,1,0,0:0:0:0:
224,360,14375,2,0,L|228:272,1,70,2|0,0:0|0:0,0:0:0:0:
32,212,14643,6,0,B|88:200|88:200|180:220,1,140,2|2,0:0|0:0,0:0:0:0:
88,288,15045,1,0,0:0:0:0:
64,112,15179,2,0,L|140:104,1,70,2|0,0:0|0:0,0:0:0:0:
238,210,15447,2,0,L|162:218,1,70,2|0,0:0|0:0,0:0:0:0:
304,40,15715,2,0,L|296:120,1,70,2|0,0:0|0:0,0:0:0:0:
384,272,15983,2,0,L|384:184,1,70,2|0,0:0|0:0,0:0:0:0:
468,100,16250,1,2,0:0:0:0:
296,344,16518,1,2,0:0:0:0:
44,172,16786,6,0,L|32:220,1,35,2|0,0:0|0:0,0:0:0:0:
56,160,17054,2,0,L|44:208,1,35,2|0,0:0|0:0,0:0:0:0:
128,332,17322,6,0,L|116:284,1,35,2|0,0:0|0:0,0:0:0:0:
140,344,17590,2,0,L|128:296,1,35,2|0,0:0|0:0,0:0:0:0:
344,196,17858,6,0,P|400:184|468:236,1,136.499993751526,2|0,1:2|0:0,0:0:0:0:
384,268,18125,2,0,B|332:280|332:280|252:252,1,136.499993751526,2|0,1:2|0:0,0:0:0:0:
180,296,18393,6,0,L|176:344,1,45.4999979171754,2|0,3:2|0:0,0:0:0:0:
224,176,18527,2,0,L|220:232,1,45.4999979171754,2|0,3:2|0:0,0:0:0:0:
224,64,18661,1,8,3:2:0:0:
200,52,18728,1,0,3:0:0:0:
172,60,18795,1,0,3:0:0:0:
148,44,18862,1,0,3:0:0:0:
128,52,18929,6,0,L|136:172,1,90.9999958343508,6|2,0:2|0:2,0:0:0:0:
344,196,19197,2,0,L|324:308,1,90.9999958343508,8|0,0:0|0:0,0:0:0:0:
180,296,19465,2,0,P|128:288|88:296,1,90.9999958343508,2|2,0:2|0:2,0:0:0:0:
344,196,19733,2,0,P|396:204|436:196,1,90.9999958343508,8|0,0:0|0:0,0:0:0:0:
240,216,20000,6,0,B|220:172|220:172|240:128,1,90.9999958343508,2|2,0:2|0:2,0:0:0:0:
228,32,20268,2,0,L|128:24,1,90.9999958343508,8|0,0:0|0:0,0:0:0:0:
28,168,20536,2,0,L|128:176,1,90.9999958343508,2|2,0:2|0:2,0:0:0:0:
180,296,20804,1,8,0:0:0:0:
240,216,20938,1,0,0:0:0:0:
180,296,21072,6,0,L|72:272,1,90.9999958343508,2|2,0:2|0:2,0:0:0:0:
180,112,21340,2,0,L|72:88,1,90.9999958343508,8|0,0:0|0:0,0:0:0:0:
240,216,21608,2,0,L|348:192,1,90.9999958343508,2|2,0:2|0:2,0:0:0:0:
240,32,21876,2,0,L|348:8,1,90.9999958343508,8|0,0:0|0:0,0:0:0:0:
408,76,22143,6,0,L|392:176,1,90.9999958343508,10|2,0:2|0:2,0:0:0:0:
472,280,22411,2,0,L|488:180,1,90.9999958343508,8|0,0:0|0:0,0:0:0:0:
289,213,22679,2,0,L|274:123,1,90.9999958343508,10|2,0:2|0:2,0:0:0:0:
257,33,22947,1,8,0:0:0:0:
365,109,23080,1,0,0:0:0:0:
167,155,23215,6,0,P|124:143|80:152,1,90.9999958343508,6|2,0:2|0:2,0:0:0:0:
224,292,23483,2,0,P|267:304|312:296,1,90.9999958343508,8|0,0:0|0:0,0:0:0:0:
275,124,23750,2,0,P|283:176|267:220,1,90.9999958343508,2|2,0:2|0:2,0:0:0:0:
131,356,24018,2,0,P|123:304|139:260,1,90.9999958343508,8|0,0:2|0:0,0:0:0:0:
171,90,24286,6,0,P|213:122|233:164,1,90.9999958343508,2|2,0:2|0:2,0:0:0:0:
218,338,24554,2,0,P|174:354|123:355,1,90.9999958343508,8|0,0:0|0:0,0:0:0:0:
16,228,24822,2,0,P|21:176|48:137,1,90.9999958343508,2|2,0:2|0:2,0:0:0:0:
200,192,25090,1,8,0:0:0:0:
140,96,25224,1,0,0:0:0:0:
292,34,25358,6,0,L|272:138,1,90.9999958343508,2|2,0:2|0:2,0:0:0:0:
233,356,25625,2,0,P|215:314|184:283,1,90.9999958343508,8|0,0:0|0:0,0:0:0:0:
328,208,25893,2,0,L|417:193,1,90.9999958343508,2|2,0:2|0:2,0:0:0:0:
187,120,26161,2,0,P|158:154|116:171,1,90.9999958343508,8|0,0:0|0:0,0:0:0:0:
64,272,26429,6,0,L|72:368,1,90.9999958343508,2|2,0:2|0:2,0:0:0:0:
232,356,26697,2,0,L|224:256,1,90.9999958343508,8|2,0:0|0:2,0:0:0:0:
296,120,26965,1,8,0:1:0:0:
156,208,27099,1,10,0:2:0:0:
296,120,27233,1,8,0:1:0:0:
156,208,27367,1,10,0:2:0:0:
328,248,27500,6,0,P|384:236|484:276,1,154.000004699707,6|2,0:2|0:3,0:0:0:0:
256,188,27902,1,0,0:0:0:0:
241,279,28036,2,0,L|232:356,1,77.0000023498536,10|2,0:2|0:2,0:0:0:0:
155,207,28304,2,0,L|146:131,1,77.0000023498536,2|0,0:3|0:0,0:0:0:0:
212,64,28572,6,0,B|168:44|168:44|48:52,1,154.000004699707,10|2,0:2|0:3,0:0:0:0:
256,188,28974,1,0,0:0:0:0:
146,131,29108,2,0,L|58:139,1,77.0000023498536,10|2,0:2|0:2,0:0:0:0:
304,32,29375,2,0,L|392:40,1,77.0000023498536,2|8,0:3|0:0,0:0:0:0:
468,180,29643,5,10,0:2:0:0:
468,180,29911,2,0,L|479:104,1,77.0000023498536,2|0,0:3|0:0,0:0:0:0:
296,248,30179,2,0,L|380:260,1,77.0000023498536,10|2,0:2|0:2,0:0:0:0:
204,156,30447,2,0,L|288:144,1,77.0000023498536,2|0,0:3|0:0,0:0:0:0:
96,180,30715,6,0,P|64:116|92:36,1,154.000004699707,10|2,0:2|0:3,0:0:0:0:
152,104,31116,1,8,0:0:0:0:
88,272,31250,2,0,L|11:263,1,77.0000023498536,2|8,0:2|0:0,0:0:0:0:
179,195,31518,2,0,L|262:186,1,77.0000023498536,2|8,0:3|0:2,0:0:0:0:
332,88,31786,5,6,0:2:0:0:
368,208,31920,1,2,0:2:0:0:
492,120,32054,2,0,L|408:112,1,77.0000023498536,8|0,0:0|0:0,0:0:0:0:
291,215,32322,2,0,L|448:204,1,154.000004699707,2|8,0:2|0:0,0:0:0:0:
476,316,32724,1,0,0:0:0:0:
352,328,32858,6,0,L|256:308,1,77.0000023498536,2|2,0:2|0:2,0:0:0:0:
148,260,33125,2,0,L|244:240,1,77.0000023498536,8|0,0:0|0:0,0:0:0:0:
364,192,33393,2,0,L|268:172,1,77.0000023498536,2|2,0:2|0:2,0:0:0:0:
164,156,33661,1,8,0:0:0:0:
224,244,33795,1,0,0:0:0:0:
80,228,33929,6,0,P|52:184|76:80,1,154.000004699707,2|8,0:2|0:0,0:0:0:0:
164,156,34331,1,0,0:0:0:0:
180,248,34465,2,0,P|155:294|53:325,1,154.000004699707,2|8,0:2|0:0,0:0:0:0:
164,156,34866,1,0,0:0:0:0:
256,192,35000,6,0,L|340:176,1,77.0000023498536,2|2,0:2|0:2,0:0:0:0:
456,48,35268,2,0,L|372:32,1,77.0000023498536,8|0,0:0|0:0,0:0:0:0:
264,200,35536,2,0,L|348:184,1,77.0000023498536,8|10,0:0|0:2,0:0:0:0:
464,56,35804,2,0,L|380:40,1,77.0000023498536,8|10,0:0|0:2,0:0:0:0:
376,294,36072,5,12,0:1:0:0:
376,294,36340,2,0,P|414:286|452:292,1,77.0000023498536,8|4,0:0|0:0,0:0:0:0:
248,220,36608,2,0,L|164:228,2,77.0000023498536,4|8|4,0:0|0:0|0:0,0:0:0:0:
276,316,37009,1,4,0:0:0:0:
348,192,37143,6,0,B|360:136|360:136|344:32,1,154.000004699707,8|4,0:0|0:0,0:0:0:0:
160,32,37545,2,0,B|148:140|148:140|164:192,1,154.000004699707,8|4,0:0|0:0,0:0:0:0:
276,144,37947,1,8,0:0:0:0:
271,128,38014,1,0,0:0:0:0:
267,113,38081,1,4,0:0:0:0:
262,97,38148,1,0,0:0:0:0:
256,80,38215,6,0,L|252:192,1,77.0000023498536,8|4,0:0|0:0,0:0:0:0:
348,192,38483,2,0,L|344:304,1,77.0000023498536,8|4,0:0|0:0,0:0:0:0:
144,320,38750,5,4,0:0:0:0:
224,280,38884,1,8,0:0:0:0:
296,336,39018,1,4,0:0:0:0:
148,236,39152,1,4,0:0:0:0:
300,244,39286,1,8,0:0:0:0:
216,372,39420,1,4,0:0:0:0:
216,192,39554,5,8,0:0:0:0:
220,176,39621,1,0,0:0:0:0:
224,160,39688,1,4,0:0:0:0:
228,144,39755,1,0,0:0:0:0:
232,128,39822,2,0,P|232:92|244:60,3,38.5000011749268,8|0|4|0,0:0|0:0|0:0|0:0,0:0:0:0:
348,124,40090,2,0,P|316:106|295:79,1,38.5000011749268,8|0,0:0|0:0,0:0:0:0:
324,240,40224,2,0,P|288:240|256:228,1,38.5000011749268,4|0,0:0|0:0,0:0:0:0:
404,196,40358,6,0,P|452:188|512:212,1,112,6|8,0:2|0:0,0:0:0:0:
406,354,40759,2,0,L|286:334,1,112,0|0,0:0|0:0,0:0:0:0:
316,192,41161,2,0,L|332:260,1,56,8|0,0:0|0:0,0:0:0:0:
228,220,41429,6,0,P|224:164|260:104,1,112,2|8,0:2|0:0,0:0:0:0:
396,60,41831,2,0,B|348:64|348:64|284:40,1,112,0|0,0:0|0:0,0:0:0:0:
376,144,42233,2,0,L|444:136,1,56,8|0,0:0|0:0,0:0:0:0:
488,248,42500,6,0,L|368:232,1,112,2|8,0:2|0:0,0:0:0:0:
280,356,42902,2,0,L|400:340,1,112,0|0,0:0|0:0,0:0:0:0:
296,216,43304,2,0,L|292:288,1,56,8|0,0:0|0:0,0:0:0:0:
196,340,43572,5,2,0:2:0:0:
48,264,43706,2,0,L|128:256,1,56,2|8,0:2|0:0,0:0:0:0:
216,180,43974,2,0,L|104:164,1,112,0|0,0:0|0:0,0:0:0:0:
316,80,44375,2,0,L|372:68,1,56,8|0,0:0|0:0,0:0:0:0:
496,168,44643,6,0,P|440:152|376:184,1,112,2|8,0:2|0:0,0:0:0:0:
356,304,45045,2,0,L|368:176,1,112,0|0,0:0|0:0,0:0:0:0:
440,300,45447,2,0,L|448:228,1,56,8|0,0:0|0:0,0:0:0:0:
280,152,45715,5,2,0:2:0:0:
160,280,45849,2,0,P|216:276|232:280,1,56,2|8,0:2|0:0,0:0:0:0:
136,196,46116,2,0,P|92:208|32:188,1,84,0|0,0:0|0:0,0:0:0:0:
28,192,46384,1,0,0:0:0:0:
96,68,46518,2,0,L|92:123,1,56,8|0,0:0|0:0,0:0:0:0:
160,280,46786,5,2,0:2:0:0:
280,152,46920,2,0,L|224:146,1,56,2|8,0:2|0:0,0:0:0:0:
292,240,47188,2,0,P|340:220|344:100,1,168,0|8,0:0|0:0,0:0:0:0:
204,48,47858,1,2,2:0:0:0:
204,48,47991,1,2,2:0:0:0:
248,260,48259,6,0,L|156:236,1,84,2|0,2:0|0:0,0:0:0:0:
140,232,48527,1,10,2:1:0:0:
199,159,48661,1,10,2:1:0:0:
120,104,48795,1,10,2:1:0:0:
56,184,48929,6,0,P|48:232|72:296,1,83.9999974365235,6|2,0:2|0:2,0:0:0:0:
271,200,49197,2,0,P|231:186|199:159,1,83.9999974365235,8|0,0:0|0:0,0:0:0:0:
272,104,49465,1,2,0:2:0:0:
216,264,49599,1,2,0:2:0:0:
272,104,49733,1,8,0:0:0:0:
216,264,49866,1,0,0:0:0:0:
352,236,50000,6,0,P|356:188|344:144,1,83.9999974365235,2|2,0:2|0:2,0:0:0:0:
420,40,50268,2,0,P|416:88|428:132,1,83.9999974365235,8|0,0:0|0:0,0:0:0:0:
468,200,50536,1,2,0:2:0:0:
352,236,50670,1,2,0:2:0:0:
384,144,50804,1,8,0:0:0:0:
436,288,50938,1,0,0:0:0:0:
272,320,51072,6,0,P|224:312|168:328,1,83.9999974365235,2|2,0:2|0:2,0:0:0:0:
48,236,51340,2,0,P|96:244|152:228,1,83.9999974365235,8|0,0:0|0:0,0:0:0:0:
192,168,51608,1,2,0:2:0:0:
208,32,51741,1,2,0:2:0:0:
128,96,51875,1,8,0:0:0:0:
272,104,52009,1,0,0:0:0:0:
308,272,52143,6,0,L|300:188,1,83.9999974365235,2|2,0:2|0:2,0:0:0:0:
436,52,52411,2,0,L|420:216,1,125.999996154785,8|0,0:0|0:0,0:0:0:0:
424,208,52679,2,0,L|512:196,1,83.9999974365235,2|2,0:2|0:2,0:0:0:0:
344,348,52947,2,0,L|256:336,1,83.9999974365235,8|0,0:0|0:0,0:0:0:0:
128,224,53215,5,2,0:2:0:0:
284,244,53349,1,2,0:2:0:0:
136,132,53483,1,8,0:0:0:0:
300,156,53616,1,0,0:0:0:0:
128,224,53750,1,2,0:2:0:0:
224,84,53884,1,2,0:2:0:0:
204,256,54018,2,0,L|212:168,1,83.9999974365235,8|0,0:0|0:0,0:0:0:0:
56,64,54286,6,0,L|60:160,1,83.9999974365235,2|2,0:2|0:2,0:0:0:0:
128,224,54554,2,0,L|116:328,1,83.9999974365235,8|0,0:0|0:0,0:0:0:0:
224,360,54822,1,2,0:2:0:0:
288,240,54956,2,0,P|348:268|440:224,1,167.999994873047,2|0,0:2|0:0,0:0:0:0:
512,148,55358,6,0,B|460:136|460:136|340:188,1,167.999994873047,2|8,0:2|0:0,0:0:0:0:
264,104,55759,2,0,L|181:88,2,83.9999974365235,0|2|2,0:0|0:2|0:2,0:0:0:0:
120,164,56161,2,0,P|96:108|104:40,1,125.999996154785,8|0,0:0|0:0,0:0:0:0:
88,24,56429,6,0,L|44:204,1,167.999994873047,2|8,0:2|0:0,0:0:0:0:
128,276,56831,1,2,0:2:0:0:
212,184,56965,2,0,L|196:92,1,83.9999974365235,10|2,0:2|0:2,0:0:0:0:
284,260,57233,2,0,L|268:352,1,83.9999974365235,10|2,0:2|0:2,0:0:0:0:
368,264,57500,5,12,0:0:0:0:
424,112,57634,1,2,0:2:0:0:
452,216,57768,1,8,0:0:0:0:
356,167,57902,2,0,P|296:139|204:199,1,167.999994873047,2|2,0:2|0:2,0:0:0:0:
128,276,58304,2,0,L|124:192,1,83.9999974365235,8|0,0:0|0:0,0:0:0:0:
32,112,58572,5,8,0:0:0:0:
128,104,58706,1,2,0:2:0:0:
176,28,58840,1,8,0:0:0:0:
88,176,58974,2,0,P|168:175|210:106,1,167.999994873047,2|2,0:2|0:2,0:0:0:0:
300,32,59375,2,0,L|316:144,1,83.9999974365235,8|0,0:0|0:0,0:0:0:0:
500,228,59643,5,8,0:0:0:0:
404,236,59777,1,2,0:2:0:0:
356,316,59911,1,8,0:0:0:0:
443,159,60045,2,0,P|363:160|322:230,1,167.999994873047,2|2,0:2|3:2,0:0:0:0:
248,264,60380,1,2,3:2:0:0:
244,276,60447,2,0,L|260:364,1,83.9999974365235,8|2,3:2|3:2,0:0:0:0:
132,288,60715,6,0,P|76:292|32:280,1,83.9999974365235,8|2,3:0|0:2,0:0:0:0:
96,192,60983,1,8,0:0:0:0:
200,196,61116,2,0,B|216:140|216:140|200:24,1,167.999994873047,2|0,0:2|0:0,0:0:0:0:
300,112,61518,2,0,L|288:20,1,83.9999974365235,2|0,0:2|2:0,0:0:0:0:
360,180,61786,6,0,P|408:176|472:212,1,112,6|8,0:2|0:0,0:0:0:0:
392,260,62188,2,0,P|352:268|288:232,1,112,0|0,0:0|0:0,0:0:0:0:
236,304,62590,2,0,P|196:300|168:308,1,56,8|0,0:0|0:0,0:0:0:0:
44,336,62858,6,0,P|72:284|72:224,1,112,2|8,0:2|0:0,0:0:0:0:
40,92,63259,2,0,P|36:140|64:204,1,112,0|0,0:0|0:0,0:0:0:0:
152,200,63661,2,0,L|208:192,1,56,8|0,0:0|0:0,0:0:0:0:
304,256,63929,6,0,P|316:309|297:361,1,112,2|8,0:2|0:0,0:0:0:0:
232,296,64331,2,0,P|219:242|238:190,1,112,0|0,0:0|0:0,0:0:0:0:
336,168,64733,2,0,L|396:164,1,56,8|0,0:0|0:0,0:0:0:0:
472,240,65000,6,0,P|480:292|464:352,1,112,2|8,0:2|0:0,0:0:0:0:
364,348,65402,2,0,L|300:344,1,56,0|2,0:0|0:2,0:0:0:0:
248,224,65670,1,0,0:0:0:0:
248,224,65804,2,0,P|188:232|144:224,1,84,8|0,0:0|0:0,0:0:0:0:
128,216,66072,6,0,L|136:292,1,56,2|0,0:2|0:0,0:0:0:0:
152,360,66340,1,8,0:0:0:0:
152,360,66474,2,0,P|96:348|44:360,1,112,0|0,0:0|0:0,0:0:0:0:
44,276,66875,2,0,L|32:200,1,56,8|0,0:0|0:0,0:0:0:0:
28,128,67143,5,2,0:2:0:0:
28,128,67277,2,0,L|104:116,1,56,0|8,0:0|0:0,0:0:0:0:
192,40,67545,2,0,L|168:156,1,112,0|0,0:0|0:0,0:0:0:0:
284,184,67947,2,0,L|268:116,1,56,8|0,0:0|0:0,0:0:0:0:
324,56,68215,5,2,0:2:0:0:
324,56,68349,2,0,P|368:68|420:64,1,84,0|0,0:0|0:0,0:0:0:0:
440,64,68616,2,0,L|428:148,1,84,0|0,0:0|0:0,0:0:0:0:
424,168,68884,2,0,L|424:232,1,56,0|8,0:0|0:0,0:0:0:0:
480,328,69152,1,0,0:0:0:0:
480,328,69286,6,0,B|440:316|440:316|324:332,1,154.000004699707,8|2,0:0|3:2,0:0:0:0:
268,132,69688,6,0,B|280:172|280:172|264:283,1,154.000004699707,2|10,0:2|3:2,0:0:0:0:
232,352,70023,1,10,3:2:0:0:
220,360,70090,2,0,P|172:352|124:356,1,84,10|0,3:2|0:0,0:0:0:0:
100,352,70358,6,0,L|112:260,1,70,2|0,0:2|0:2,0:0:0:0:
37,170,70625,2,0,L|28:240,1,70,8|0,0:0|0:0,0:0:0:0:
128,176,70893,2,0,P|159:115|151:31,1,140,2|8,0:2|0:0,0:0:0:0:
76,88,71295,1,0,0:0:0:0:
128,176,71429,6,0,L|212:180,1,70,2|0,0:2|0:0,0:0:0:0:
272,268,71697,2,0,L|352:264,1,70,8|0,0:0|0:0,0:0:0:0:
476,120,71965,1,2,0:2:0:0:
268,196,72099,1,0,0:0:0:0:
452,196,72233,1,8,0:0:0:0:
248,120,72366,1,0,0:0:0:0:
419,31,72500,6,0,L|280:38,1,140,2|8,0:2|0:0,0:0:0:0:
248,120,72902,1,0,0:0:0:0:
248,120,73036,2,0,P|216:96|200:52,2,70,2|0|8,0:2|0:0|0:0,0:0:0:0:
288,208,73438,1,0,0:0:0:0:
288,208,73572,5,2,0:2:0:0:
372,184,73706,1,0,0:0:0:0:
452,156,73840,1,8,0:0:0:0:
452,156,74108,6,0,L|448:240,1,70,2|0,0:2|0:0,0:0:0:0:
372,352,74375,2,0,L|368:268,1,70,8|0,0:0|0:0,0:0:0:0:
324,132,74643,5,2,0:2:0:0:
160,116,74777,1,0,0:0:0:0:
216,208,74911,1,8,0:0:0:0:
272,28,75045,1,0,0:0:0:0:
90,107,75179,2,0,P|126:115|176:114,1,70,2|0,0:2|0:0,0:0:0:0:
156,208,75447,2,0,P|121:209|86:216,1,70,8|0,0:0|0:0,0:0:0:0:
32,320,75715,5,2,0:2:0:0:
128,288,75849,1,0,0:0:0:0:
212,344,75983,1,8,0:0:0:0:
212,344,76250,2,0,L|224:268,1,70,2|0,0:2|0:0,0:0:0:0:
244,172,76518,2,0,L|256:96,1,70,8|0,0:0|0:0,0:0:0:0:
368,72,76786,6,0,P|416:108|500:136,1,140,2|8,0:2|0:0,0:0:0:0:
496,256,77188,2,0,P|429:277|373:318,1,140,0|0,0:0|0:0,0:0:0:0:
352,192,77590,1,8,0:0:0:0:
352,192,77858,6,0,L|324:280,1,70,2|0,0:2|0:0,0:0:0:0:
292,104,78125,2,0,L|268:24,1,70,8|0,0:0|0:0,0:0:0:0:
236,220,78393,2,0,L|208:308,1,70,8|2,0:1|0:2,0:0:0:0:
192,96,78661,2,0,L|168:16,1,70,8|8,0:1|0:1,0:0:0:0:
44,176,78929,5,6,0:2:0:0:
44,176,79063,2,0,P|136:252|40:252,1,280,2|2,0:2|0:2,0:0:0:0:
164,344,79733,2,0,P|200:308|220:152,1,210,8|2,0:0|0:2,0:0:0:0:
184,64,80268,6,0,P|208:52|252:48,1,70,8|2,0:0|0:2,0:0:0:0:
364,140,80536,2,0,P|324:140|288:124,1,70,0|2,0:0|0:2,0:0:0:0:
456,40,80804,2,0,L|444:128,1,70,8|0,0:0|0:0,0:0:0:0:
436,200,81072,5,2,0:2:0:0:
332,272,81206,2,0,P|372:268|408:284,2,70,2|8|2,0:2|0:0|0:2,0:0:0:0:
272,192,81608,2,0,L|284:108,1,70,0|2,0:0|0:2,0:0:0:0:
204,256,81875,2,0,L|116:244,1,70,8|0,0:0|0:0,0:0:0:0:
32,112,82143,5,0,0:0:0:0:
116,152,82277,1,2,0:2:0:0:
200,116,82411,2,0,P|204:56|196:28,1,70,8|0,0:0|0:0,0:0:0:0:
116,152,82679,2,0,L|28:144,1,70,0|2,0:0|0:2,0:0:0:0:
192,280,82947,2,0,P|188:236|196:208,1,70,8|0,0:0|0:0,0:0:0:0:
276,144,83215,6,0,P|292:196|288:252,1,83.9999974365235,2|0,0:2|0:0,0:0:0:0:
304,344,83483,2,0,P|288:292|292:236,1,83.9999974365235,8|0,0:0|0:0,0:0:0:0:
350,163,83750,6,0,P|325:211|282:248,1,83.9999974365235,2|0,0:2|0:0,0:0:0:0:
229,324,84018,2,0,P|254:276|297:239,1,83.9999974365235,8|0,0:0|0:0,0:0:0:0:
460,236,84286,6,0,P|384:260|298:242,1,167.999994873047,2|8,0:2|0:0,0:0:0:0:
190,258,84688,2,0,P|242:242|298:246,1,83.9999974365235,0|2,0:0|0:2,0:0:0:0:
124,184,84956,1,0,0:0:0:0:
124,184,85090,2,0,P|72:200|16:196,1,83.9999974365235,8|0,0:0|0:0,0:0:0:0:
176,104,85358,6,0,L|168:16,1,83.9999974365235,2|0,0:2|0:0,0:0:0:0:
392,116,85625,2,0,L|404:12,1,83.9999974365235,8|0,0:0|0:0,0:0:0:0:
228,168,85893,6,0,L|235:251,1,83.9999974365235,2|0,0:2|0:0,0:0:0:0:
364,364,86161,2,0,L|378:196,1,167.999994873047,8|2,0:0|0:2,0:0:0:0:
392,116,86563,1,0,0:0:0:0:
392,116,86697,2,0,P|348:124|304:112,1,83.9999974365235,8|0,0:0|0:0,0:0:0:0:
216,48,86965,2,0,P|175:39|134:47,1,83.9999974365235,2|0,0:2|0:0,0:0:0:0:
36,140,87233,1,8,0:0:0:0:
48,16,87366,1,0,0:0:0:0:
44,124,87500,6,0,P|56:176|52:220,1,83.9999974365235,2|2,0:2|0:2,0:0:0:0:
144,304,87768,2,0,P|132:252|136:208,1,83.9999974365235,8|2,0:0|0:2,0:0:0:0:
336,188,88036,2,0,P|356:276|324:372,1,167.999994873047,0|8,0:0|0:0,0:0:0:0:
168,124,88438,6,0,B|224:128|264:80|264:80|284:120|328:128,1,167.999994873047,0|2,0:0|0:2,0:0:0:0:
352,44,88840,2,0,P|396:40|440:28,1,83.9999974365235,8|2,0:0|0:2,0:0:0:0:
176,36,89108,2,0,P|132:32|88:20,1,83.9999974365235,0|2,0:0|0:2,0:0:0:0:
260,140,89375,1,8,0:0:0:0:
272,36,89509,1,0,0:0:0:0:
256,160,89643,6,0,L|272:332,1,167.999994873047,2|8,0:2|0:0,0:0:0:0:
432,336,90045,1,2,0:2:0:0:
432,336,90179,2,0,P|448:280|432:228,1,83.9999974365235,0|2,0:0|0:2,0:0:0:0:
348,116,90447,1,8,0:0:0:0:
376,196,90581,6,0,P|416:156|392:48,1,167.999994873047,0|2,0:0|0:2,0:0:0:0:
304,40,90983,2,0,L|216:44,1,83.9999974365235,8|0,0:0|0:0,0:0:0:0:
172,163,91250,2,0,L|260:159,1,83.9999974365235,0|2,0:0|0:2,0:0:0:0:
348,116,91518,1,8,0:0:0:0:
68,352,91786,6,0,P|48:296|76:192,1,167.999994873047,8|8,0:1|0:1,0:0:0:0:
220,248,92188,1,0,0:0:0:0:
220,248,92255,1,0,0:0:0:0:
220,248,92322,2,0,P|172:256|124:248,1,83.9999974365235,8|0,0:1|0:0,0:0:0:0:
128,72,92590,2,0,P|176:64|224:72,1,83.9999974365235,8|0,0:1|0:0,0:0:0:0:
276,148,92858,5,8,0:1:0:0:
300,156,92924,1,0,0:0:0:0:
324,156,92991,1,0,0:0:0:0:
348,152,93058,1,0,0:0:0:0:
372,148,93125,1,8,0:1:0:0:
396,136,93192,1,0,0:0:0:0:
420,124,93259,1,0,0:0:0:0:
440,108,93326,1,0,0:0:0:0:
456,88,93393,2,0,L|448:40,7,41.9999987182618,8|0|0|0|8|0|0|0,0:1|0:0|0:0|0:0|0:1|0:0|0:0|0:0,0:0:0:0:
356,72,93929,6,0,L|348:8,11,56,8|0|0|0|8|0|0|0|8|0|0|0,0:1|0:0|0:0|0:0|0:1|0:0|0:0|0:0|0:1|0:0|0:0|0:0,0:0:0:0:
300,124,94733,6,0,L|292:188,3,56,8|0|0|0,0:1|0:0|0:0|0:0,0:0:0:0:
252,48,95000,6,0,L|104:40,1,140,8|0,0:1|0:0,0:0:0:0:
24,232,95670,1,0,0:0:0:0:
24,232,95804,1,8,1:0:0:0:
24,232,96072,6,0,B|80:220|80:220|216:232,1,167.999994873047,6|8,0:2|0:0,0:0:0:0:
300,124,96474,1,0,0:0:0:0:
352,248,96608,2,0,L|344:340,1,83.9999974365235,2|2,0:2|0:2,0:0:0:0:
216,152,96875,2,0,P|216:96|232:64,1,83.9999974365235,8|0,0:0|0:0,0:0:0:0:
463,111,97143,6,0,B|419:131|419:131|295:123,1,167.999994873047,2|8,0:2|0:0,0:0:0:0:
396,44,97545,1,0,0:0:0:0:
476,204,97679,2,0,L|472:296,1,83.9999974365235,2|2,0:2|0:2,0:0:0:0:
312,356,97947,2,0,L|316:264,1,83.9999974365235,8|0,0:0|0:0,0:0:0:0:
216,152,98215,6,0,P|280:164|344:72,1,167.999994873047,2|8,0:2|0:0,0:0:0:0:
144,84,98616,2,0,B|132:140|132:140|140:260,1,167.999994873047,0|2,0:0|0:2,0:0:0:0:
236,364,99018,2,0,L|232:264,1,83.9999974365235,8|0,0:0|0:0,0:0:0:0:
52,152,99286,6,0,L|64:348,1,167.999994873047,2|8,0:2|0:0,0:0:0:0:
232,264,99688,1,2,0:2:0:0:
396,320,99822,2,0,P|348:316|304:324,1,83.9999974365235,8|2,0:0|0:2,0:0:0:0:
308,208,100090,2,0,P|356:212|400:204,1,83.9999974365235,8|2,0:0|0:2,0:0:0:0:
484,128,100358,6,0,B|428:120|388:76|388:76|372:100|340:112,1,167.999994873047,6|8,0:2|0:2,0:0:0:0:
304,32,100759,1,0,0:0:0:0:
232,264,100893,2,0,P|236:200|232:156,1,83.9999974365235,2|2,0:2|0:2,0:0:0:0:
172,36,101161,2,0,P|168:100|172:144,1,83.9999974365235,8|0,0:0|0:0,0:0:0:0:
112,208,101429,6,0,P|56:212|12:200,1,83.9999974365235,2|2,0:2|0:2,0:0:0:0:
144,344,101697,2,0,P|200:340|244:352,1,83.9999974365235,8|0,0:0|0:0,0:0:0:0:
344,248,101965,1,2,0:2:0:0:
456,328,102099,1,2,0:2:0:0:
336,272,102233,2,0,P|284:260|232:264,1,83.9999974365235,8|0,0:0|0:0,0:0:0:0:
56,180,102500,6,0,B|120:200|168:168|168:168|120:168|96:140,1,167.999994873047,2|8,0:2|0:0,0:0:0:0:
296,52,102902,2,0,B|232:32|184:64|184:64|232:64|256:92,1,167.999994873047,0|2,0:0|0:2,0:0:0:0:
376,120,103304,2,0,P|396:72|392:28,1,83.9999974365235,8|0,0:0|0:0,0:0:0:0:
344,268,103572,5,2,0:2:0:0:
496,196,103706,1,2,0:2:0:0:
332,252,103840,1,8,0:0:0:0:
504,216,103974,1,2,0:2:0:0:
284,168,104108,1,8,3:0:0:0:
264,156,104174,1,0,3:0:0:0:
240,152,104241,1,0,3:0:0:0:
216,152,104308,1,0,3:0:0:0:
192,160,104375,2,0,L|160:208,1,41.9999987182618,8|0,3:0|3:0,0:0:0:0:
116,104,104509,2,0,L|104:52,1,41.9999987182618,0|0,3:0|3:0,0:0:0:0:
60,224,104643,6,0,L|36:128,1,83.9999974365235,6|2,0:2|0:2,0:0:0:0:
24,48,104911,1,8,0:0:0:0:
192,160,105045,2,0,L|168:256,1,83.9999974365235,0|2,0:0|0:2,0:0:0:0:
156,336,105313,1,2,0:2:0:0:
308,212,105447,6,0,L|284:116,1,83.9999974365235,8|0,0:0|0:0,0:0:0:0:
272,36,105715,1,2,0:2:0:0:
384,120,105849,2,0,P|444:112|480:72,1,83.9999974365235,2|8,0:2|0:0,0:0:0:0:
308,212,106116,1,0,0:0:0:0:
116,68,106250,6,0,P|56:60|20:20,1,83.9999974365235,2|2,0:2|0:2,0:0:0:0:
192,160,106517,1,8,0:0:0:0:
248,332,106652,2,0,P|256:272|244:236,1,83.9999974365235,0|2,0:0|0:2,0:0:0:0:
48,292,106920,1,2,0:2:0:0:
168,332,107054,6,0,P|160:272|172:236,1,83.9999974365235,8|0,0:0|0:0,0:0:0:0:
368,292,107322,1,2,0:2:0:0:
192,160,107456,2,0,P|248:168|288:152,1,83.9999974365235,2|8,0:2|0:0,0:0:0:0:
356,44,107724,1,0,0:0:0:0:
480,168,107858,6,0,L|464:340,1,167.999994873047,2|8,0:2|0:0,0:0:0:0:
196,288,108259,1,0,0:0:0:0:
284,216,108393,2,0,P|296:176|292:132,1,83.9999974365235,2|2,0:2|0:2,0:0:0:0:
125,111,108661,2,0,P|153:141|193:159,1,83.9999974365235,8|0,0:0|0:0,0:0:0:0:
300,52,108929,6,0,L|200:64,1,83.9999974365235,6|2,0:2|0:2,0:0:0:0:
284,216,109197,2,0,L|384:228,1,83.9999974365235,8|0,0:0|0:0,0:0:0:0:
484,312,109465,2,0,P|416:304|384:316,1,83.9999974365235,2|2,0:2|0:2,0:0:0:0:
312,336,109733,2,0,P|272:344|224:332,1,83.9999974365235,8|0,0:0|0:0,0:0:0:0:
160,280,110000,6,0,L|164:136,1,125.999996154785,2|0,0:2|0:0,0:0:0:0:
140,96,110268,2,0,L|136:280,1,167.999994873047,8|2,0:0|0:2,0:0:0:0:
228,176,110670,1,2,0:2:0:0:
48,248,110804,2,0,L|44:348,1,83.9999974365235,8|0,0:0|0:0,0:0:0:0:
312,336,111072,6,0,L|405:370,1,83.9999974365235,2|2,0:2|0:2,0:0:0:0:
464,136,111340,2,0,L|468:36,1,83.9999974365235,8|0,0:0|0:0,0:0:0:0:
200,48,111608,2,0,L|106:13,1,83.9999974365235,2|2,0:2|0:2,0:0:0:0:
368,188,111875,2,0,L|364:271,1,83.9999974365235,8|0,0:0|0:0,0:0:0:0:
252,136,112143,6,0,L|257:94,3,41.9999987182618,8|0|2|0,3:2|3:0|3:2|3:0,0:0:0:0:
184,208,112411,2,0,L|192:268,1,41.9999987182618,8|0,3:0|3:0,0:0:0:0:
116,128,112545,2,0,L|124:64,1,41.9999987182618,2|0,3:2|3:0,0:0:0:0:
44,200,112679,2,0,L|52:264,3,41.9999987182618,8|0|8|0,3:0|3:0|3:0|3:0,0:0:0:0:
72,328,112947,1,8,3:0:0:0:
96,316,113014,1,0,3:1:0:0:
120,312,113081,1,8,3:0:0:0:
144,316,113148,1,0,3:1:0:0:
164,324,113215,5,6,0:2:0:0:
187,322,118170,5,2,3:2:0:0:
187,322,118237,1,2,3:2:0:0:
187,322,118304,1,8,3:0:0:0:
312,320,118572,6,0,P|244:312|164:332,1,125.999996154785,12|0,0:2|0:0,0:0:0:0:
96,248,118974,2,0,P|52:252|8:240,2,62.9999980773926,2|8|2,0:2|0:0|0:2,0:0:0:0:
168,156,119375,2,0,L|160:93,1,62.9999980773926,0|0,0:0|0:0,0:0:0:0:
288,80,119643,5,8,0:2:0:0:
288,80,119777,2,0,L|268:204,1,125.999996154785,2|2,0:2|0:2,0:0:0:0:
244,324,120179,1,8,0:0:0:0:
144,256,120313,1,2,0:2:0:0:
336,280,120447,2,0,P|360:240|356:168,1,94.499997116089,0|0,0:0|0:0,0:0:0:0:
364,160,120715,6,0,L|440:184,1,62.9999980773926,8|2,0:0|0:2,0:0:0:0:
336,280,120983,1,0,0:0:0:0:
261,198,121116,2,0,P|257:150|293:74,1,125.999996154785,2|2,0:2|0:2,0:0:0:0:
180,28,121518,2,0,L|184:100,1,62.9999980773926,0|0,0:0|0:0,0:0:0:0:
100,180,121786,6,0,L|96:117,1,62.9999980773926,8|2,0:0|0:2,0:0:0:0:
44,256,122054,1,0,0:0:0:0:
108,320,122188,2,0,P|144:308|232:336,1,125.999996154785,2|2,0:2|0:2,0:0:0:0:
316,292,122590,2,0,L|312:200,1,62.9999980773926,0|0,0:0|0:0,0:0:0:0:
228,96,122858,6,0,L|212:248,1,125.999996154785,8|0,0:0|0:0,0:0:0:0:
432,152,123259,2,0,L|304:136,1,125.999996154785,2|2,0:2|0:2,0:0:0:0:
444,64,123661,2,0,L|356:52,1,62.9999980773926,0|0,0:0|0:0,0:0:0:0:
400,240,123929,6,0,P|460:248|516:188,1,125.999996154785,8|0,0:0|0:0,0:0:0:0:
316,196,124331,2,0,P|304:248|308:280,2,62.9999980773926,2|8|2,0:2|0:0|0:2,0:0:0:0:
376,98,124733,2,0,P|381:66|376:36,1,62.9999980773926,0|0,0:0|0:0,0:0:0:0:
268,116,125000,6,0,B|212:108|212:108|116:120,1,125.999996154785,8|4,0:0|3:0,0:0:0:0:
48,136,125358,1,4,3:0:0:0:
48,136,125447,1,4,3:0:0:0:
48,136,125536,1,4,3:0:0:0:
312,264,126072,6,0,L|288:376,2,83.9999974365235,2|2|2,0:0|0:0|0:0,0:0:0:0:
268,116,126608,2,0,L|252:20,2,83.9999974365235,2|2|2,0:0|0:0|0:0,0:0:0:0:
220,208,127143,5,6,0:2:0:0:
360,168,127277,1,0,0:0:0:0:
260,84,127411,1,8,0:0:0:0:
304,240,127545,5,0,0:0:0:0:
352,76,127679,1,2,0:2:0:0:
184,128,127813,1,0,0:0:0:0:
360,168,127947,2,0,L|444:156,1,77.0000023498536,8|0,0:0|0:0,0:0:0:0:
432,284,128215,5,2,0:2:0:0:
304,240,128349,1,0,0:0:0:0:
304,368,128483,1,8,0:0:0:0:
416,312,128616,1,0,0:0:0:0:
304,212,128750,5,2,0:2:0:0:
180,288,128884,1,0,0:0:0:0:
296,352,129018,1,8,0:0:0:0:
208,276,129152,1,0,0:0:0:0:
120,352,129286,6,0,P|72:356|28:344,1,77.0000023498536,2|0,0:2|0:0,0:0:0:0:
36,176,129554,2,0,P|84:172|128:184,1,77.0000023498536,8|0,0:0|0:0,0:0:0:0:
208,276,129822,2,0,L|192:376,1,77.0000023498536,2|0,0:2|0:0,0:0:0:0:
252,140,130090,2,0,L|236:48,1,77.0000023498536,8|0,0:0|0:0,0:0:0:0:
320,248,130358,6,0,P|376:236|416:256,1,77.0000023498536,2|0,0:2|0:0,0:0:0:0:
480,128,130625,2,0,P|428:136|328:108,1,154.000004699707,8|2,0:0|0:2,0:0:0:0:
180,184,131027,1,0,0:0:0:0:
180,184,131094,1,0,0:0:0:0:
180,184,131161,2,0,P|124:176|72:184,1,77.0000023498536,8|0,0:0|0:0,0:0:0:0:
32,240,131429,5,2,0:2:0:0:
140,304,131563,1,0,0:0:0:0:
256,228,131697,2,0,P|264:160|256:124,1,77.0000023498536,8|0,0:0|0:0,0:0:0:0:
244,32,131965,2,0,P|236:100|244:136,1,77.0000023498536,2|0,0:2|0:0,0:0:0:0:
380,200,132233,1,8,0:0:0:0:
316,84,132366,1,0,0:0:0:0:
472,176,132500,6,0,L|456:256,1,77.0000023498536,2|0,0:2|0:0,0:0:0:0:
262,304,132768,2,0,L|254:208,1,77.0000023498536,8|0,0:0|0:0,0:0:0:0:
212,76,133036,1,2,0:2:0:0:
36,168,133170,6,0,P|108:140|184:172,1,154.000004699707,0|0,0:0|0:0,0:0:0:0:
262,304,133572,2,0,L|250:392,1,77.0000023498536,2|0,0:2|0:0,0:0:0:0:
336,196,133840,1,8,0:0:0:0:
336,196,133974,2,0,L|328:112,1,77.0000023498536,0|2,0:0|0:2,0:0:0:0:
184,136,134241,1,0,0:0:0:0:
240,212,134375,1,8,0:0:0:0:
252,52,134509,1,0,0:0:0:0:
252,52,134643,6,0,P|196:40|84:96,1,154.000004699707,8|8,0:0|0:0,0:0:0:0:
40,128,135045,1,2,0:2:0:0:
112,208,135179,1,8,3:0:0:0:
108,220,135246,1,0,3:0:0:0:
104,232,135313,1,2,3:2:0:0:
100,244,135380,1,0,3:0:0:0:
96,256,135447,2,0,L|80:320,1,38.5000011749268,8|0,3:0|3:1,0:0:0:0:
196,328,135581,2,0,L|200:384,1,38.5000011749268,2|0,3:2|3:1,0:0:0:0:
296,280,135715,5,8,3:0:0:0:
368,348,135849,2,0,P|392:268|364:204,1,154.000004699707,0|8,3:0|3:1,0:0:0:0:
200,128,137858,5,8,3:0:0:0:
128,196,137991,2,0,P|104:116|132:52,2,154.000004699707,0|8|2,3:0|3:0|3:2,0:0:0:0:
225,278,138661,2,0,B|240:288|280:268|280:268|304:280|304:280|336:260|372:272,1,154.000004699707,8|0,3:1|2:0,0:0:0:0:
220,196,139063,1,2,3:2:0:0:
112,320,139197,2,0,P|68:312|8:328,1,77.0000023498536,8|0,2:0|0:0,0:0:0:0:
12,176,139465,2,0,P|60:172|116:148,1,77.0000023498536,2|2,2:2|0:2,0:0:0:0:
152,64,139733,1,8,3:0:0:0:
164,68,139799,1,0,3:0:0:0:
176,72,139866,1,0,3:0:0:0:
188,76,139933,1,0,3:0:0:0:
200,80,140000,6,0,P|244:80|280:72,1,77.0000023498536,6|0,0:2|0:0,0:0:0:0:
428,144,140268,2,0,P|384:144|348:152,1,77.0000023498536,8|0,0:0|0:0,0:0:0:0:
252,220,140536,2,0,L|164:208,1,77.0000023498536,2|0,0:2|0:0,0:0:0:0:
324,288,140804,2,0,L|424:276,1,77.0000023498536,8|0,0:0|0:0,0:0:0:0:
240,360,141072,6,0,L|152:348,1,77.0000023498536,2|0,0:2|0:0,0:0:0:0:
60,348,141340,1,8,0:0:0:0:
132,272,141474,2,0,L|176:268,3,38.5000011749268,0|0|2|0,3:0|3:0|3:2|3:0,0:0:0:0:
56,220,141741,2,0,L|12:216,1,38.5000011749268,0|0,3:0|3:0,0:0:0:0:
80,136,141875,2,0,L|-24:124,1,77.0000023498536,8|0,0:0|0:0,0:0:0:0:
160,76,142143,6,0,L|143:-8,1,77.0000023498536,2|0,3:2|3:0,0:0:0:0:
208,168,142411,2,0,L|188:268,1,77.0000023498536,8|0,3:0|3:0,0:0:0:0:
268,60,142679,2,0,L|276:7,3,38.5000011749268,2|0|0|0,3:2|3:0|3:0|3:0,0:0:0:0:
312,152,142947,2,0,L|324:204,5,38.5000011749268,8|0|0|0|8|0,3:0|3:0|3:0|3:0|3:0|3:0,0:0:0:0:
392,88,143349,6,0,L|404:36,1,38.5000011749268,2|0,3:2|3:0,0:0:0:0:
476,172,143483,2,0,L|404:180,3,38.5000011749268,2|0|8|0,3:2|3:0|3:0|3:0,0:0:0:0:
420,272,143750,2,0,L|492:280,3,38.5000011749268,2|0|2|0,3:2|3:0|3:2|3:0,0:0:0:0:
336,316,144018,2,0,L|360:356,1,38.5000011749268,8|0,3:0|3:0,0:0:0:0:
252,240,144152,2,0,L|220:292,1,38.5000011749268,0|0,3:0|3:0,0:0:0:0:
140,336,144286,6,0,P|132:280|144:216,1,115.50000352478,6|0,0:2|0:0,0:0:0:0:
176,76,144554,2,0,P|184:132|160:224,1,115.50000352478,0|0,0:0|0:0,0:0:0:0:
40,184,144822,2,0,L|144:196,1,77.0000023498536,8|0,0:0|0:0,0:0:0:0:
387,204,145090,1,0,0:0:0:0:
252,240,145224,1,2,0:2:0:0:
464,216,145358,6,0,B|476:156|476:156|460:84,1,115.50000352478,0|0,0:0|0:0,0:0:0:0:
464,216,145625,2,0,B|452:276|452:276|468:348,1,115.50000352478,0|0,0:0|0:0,0:0:0:0:
464,216,145893,2,0,L|384:204,1,77.0000023498536,8|0,0:0|0:0,0:0:0:0:
228,128,146161,2,0,L|308:116,1,77.0000023498536,2|0,0:2|0:0,0:0:0:0:
385,353,146429,6,0,P|369:277|393:193,1,154.000004699707,2|2,0:2|0:2,0:0:0:0:
222,203,146831,1,0,0:0:0:0:
222,203,146898,1,0,0:0:0:0:
222,203,146965,2,0,P|230:143|218:99,1,77.0000023498536,8|2,0:0|0:2,0:0:0:0:
136,156,147233,1,0,0:0:0:0:
296,260,147366,6,0,P|320:172|304:84,1,154.000004699707,2|0,0:2|0:0,0:0:0:0:
248,40,147768,2,0,P|200:40|168:28,1,77.0000023498536,0|2,0:0|0:2,0:0:0:0:
61,146,148036,2,0,P|109:146|141:158,1,77.0000023498536,8|2,0:0|0:2,0:0:0:0:
180,232,148304,2,0,L|132:260,1,38.5000011749268,8|0,0:1|0:1,0:0:0:0:
44,304,148438,2,0,L|104:328,1,38.5000011749268,0|0,0:1|0:1,0:0:0:0:
184,344,148572,6,0,L|252:304,7,52.5000020027161,8|0|0|0|0|0|0|0,0:0|0:0|0:0|0:0|0:0|0:0|0:0|0:0,0:0:0:0:
296,360,149108,2,0,L|364:320,7,52.5000020027161,8|0|0|0|0|0|0|0,0:0|0:0|0:0|0:0|0:0|0:0|0:0|0:0,0:0:0:0:
250,237,149643,2,0,L|296:264,7,52.5000020027161,8|0|0|0|0|0|0|0,0:0|0:0|0:0|0:0|0:0|0:0|0:0|0:0,0:0:0:0:
362,221,150179,2,0,L|408:248,7,52.5000020027161,8|0|0|0|0|0|0|0,0:0|0:0|0:0|0:0|0:0|0:0|0:0|0:0,0:0:0:0:
420,144,150715,6,0,P|432:88|420:20,1,105.000004005432,8|0,0:0|0:0,0:0:0:0:
216,48,150983,2,0,P|204:104|216:172,1,105.000004005432,8|0,0:0|0:0,0:0:0:0:
296,264,151250,2,0,L|424:248,1,105.000004005432,8|0,0:0|0:0,0:0:0:0:
208,352,151518,2,0,L|80:336,1,105.000004005432,8|0,0:0|0:0,0:0:0:0:
36,228,151786,5,8,0:0:0:0:
51,225,151852,1,0,0:0:0:0:
66,222,151919,1,0,0:0:0:0:
82,219,151986,1,0,0:0:0:0:
97,216,152053,1,8,0:0:0:0:
113,213,152120,1,0,0:0:0:0:
128,210,152187,1,0,0:0:0:0:
144,207,152254,1,0,0:0:0:0:
159,204,152321,5,8,0:0:0:0:
175,201,152388,1,0,0:0:0:0:
190,198,152455,1,0,0:0:0:0:
206,195,152522,1,0,0:0:0:0:
221,192,152589,1,8,0:0:0:0:
237,189,152656,1,0,0:0:0:0:
252,186,152723,1,0,0:0:0:0:
268,183,152790,1,0,0:0:0:0:
284,180,152858,6,0,P|288:132|276:64,1,105.000004005432,10|0,0:0|0:0,0:0:0:0:
376,248,153125,1,10,0:0:0:0:
376,248,153259,2,0,P|380:296|368:364,1,105.000004005432,2|8,0:0|0:0,0:0:0:0:
176,344,153527,2,0,P|172:296|184:228,1,105.000004005432,2|8,0:0|0:0,0:0:0:0:
212,100,153795,1,2,0:0:0:0:
108,172,153929,2,0,L|0:160,1,105.000004005432,10|0,0:0|0:0,0:0:0:0:
404,72,154599,6,0,L|349:58,1,52.5000020027161,0|0,3:0|3:0,0:0:0:0:
356,40,154733,6,0,L|416:56,1,52.5,8|0,1:0|3:0,0:0:0:0:
452,56,155000,6,0,P|436:108|460:220,1,167.999994873047,6|8,0:2|0:0,0:0:0:0:
500,304,155402,1,0,0:0:0:0:
500,304,155536,2,0,P|432:296|388:312,1,83.9999974365235,2|2,0:2|0:2,0:0:0:0:
332,344,155804,2,0,P|292:352|236:336,1,83.9999974365235,8|0,0:0|0:0,0:0:0:0:
168,376,156072,6,0,B|152:324|188:268|188:268|168:240|164:212,1,167.999994873047,2|8,0:2|0:0,0:0:0:0:
92,268,156474,1,0,0:0:0:0:
252,204,156608,2,0,L|352:192,1,83.9999974365235,2|2,0:2|0:2,0:0:0:0:
112,136,156875,2,0,L|24:128,1,83.9999974365235,8|0,0:0|0:0,0:0:0:0:
197,68,157143,6,0,B|196:72|240:44|240:44|212:160,1,167.999994873047,2|8,0:2|0:0,0:0:0:0:
246,257,157545,2,0,B|244:254|246:306|246:306|160:224,1,167.999994873047,0|2,0:0|0:2,0:0:0:0:
307,130,157947,2,0,L|416:112,1,83.9999974365235,8|0,0:0|0:0,0:0:0:0:
480,232,158215,5,2,0:2:0:0:
480,232,158349,2,0,L|384:216,1,83.9999974365235,2|8,0:2|0:0,0:0:0:0:
316,280,158616,1,0,0:0:0:0:
307,130,158750,1,8,3:0:0:0:
287,124,158816,1,0,3:0:0:0:
266,122,158883,1,2,3:2:0:0:
245,125,158950,1,0,3:0:0:0:
223,130,159018,2,0,P|216:184|236:236,1,83.9999974365235,8|2,0:0|0:2,0:0:0:0:
180,300,159286,6,0,P|187:341|183:382,1,83.9999974365235,6|2,0:2|0:2,0:0:0:0:
139,178,159554,1,8,0:0:0:0:
139,178,159688,1,0,0:0:0:0:
311,304,159822,6,0,P|352:309|390:326,1,83.9999974365235,2|2,0:2|0:2,0:0:0:0:
183,304,160090,1,8,0:0:0:0:
183,304,160224,1,0,0:0:0:0:
351,181,160358,6,0,P|369:143|397:112,1,83.9999974365235,2|2,0:2|0:2,0:0:0:0:
311,303,160626,1,8,0:0:0:0:
311,303,160760,1,0,0:0:0:0:
224,84,160893,6,0,P|193:55|172:18,1,83.9999974365235,2|2,0:2|0:2,0:0:0:0:
351,181,161161,1,8,0:0:0:0:
351,181,161295,1,0,0:0:0:0:
224,84,161429,6,0,B|200:116|192:148|192:148|128:120|80:128,1,167.999994873047,2|8,0:2|0:0,0:0:0:0:
104,280,161831,2,0,B|150:266|163:222|163:222|124:199|68:220,1,167.999994873047,0|2,0:0|0:2,0:0:0:0:
332,110,162233,2,0,B|285:123|272:167|272:167|311:190|367:169,1,167.999994873047,8|2,0:0|0:2,0:0:0:0:
224,288,162634,6,0,B|236:276|244:252|244:252|280:260|312:256,1,83.9999974365235,2|8,0:2|0:0,0:0:0:0:
360,312,162902,1,0,0:0:0:0:
464,256,163036,1,8,3:0:0:0:
469,235,163102,1,0,3:0:0:0:
473,215,163169,1,0,3:0:0:0:
475,194,163236,1,0,3:0:0:0:
476,173,163303,1,8,3:0:0:0:
475,152,163370,1,0,3:0:0:0:
472,131,163437,1,0,3:0:0:0:
467,111,163504,1,0,3:0:0:0:
460,92,163572,6,0,L|356:100,1,83.9999974365235,6|2,0:2|0:2,0:0:0:0:
268,209,163840,1,8,0:0:0:0:
388,288,163974,6,0,L|380:184,1,83.9999974365235,0|2,0:0|0:2,0:0:0:0:
264,104,164242,1,2,0:2:0:0:
185,216,164375,6,0,L|289:208,1,83.9999974365235,8|0,0:0|0:0,0:0:0:0:
373,108,164643,1,2,0:2:0:0:
257,20,164777,6,0,L|265:124,1,83.9999974365235,2|8,0:2|0:0,0:0:0:0:
381,204,165045,1,0,0:0:0:0:
272,312,165179,6,0,L|176:320,1,83.9999974365235,2|2,0:2|0:2,0:0:0:0:
80,256,165447,1,8,0:0:0:0:
297,197,165581,6,0,L|393:205,1,83.9999974365235,0|2,0:0|0:2,0:0:0:0:
489,141,165849,1,2,0:2:0:0:
257,20,165983,6,0,L|249:116,1,83.9999974365235,8|0,0:0|0:0,0:0:0:0:
297,197,166251,1,2,0:2:0:0:
257,374,166384,6,0,L|249:278,1,83.9999974365235,2|8,0:2|0:0,0:0:0:0:
297,197,166652,1,0,0:0:0:0:
200,208,166786,6,0,B|152:224|152:224|56:212,1,125.999996154785,2|0,0:2|0:0,0:0:0:0:
200,208,167054,2,0,B|184:160|184:160|196:64,1,125.999996154785,8|0,0:0|0:0,0:0:0:0:
200,208,167322,2,0,B|248:192|248:192|344:204,1,125.999996154785,2|0,0:2|0:0,0:0:0:0:
200,208,167590,2,0,B|216:256|216:256|204:352,1,125.999996154785,8|0,0:0|0:0,0:0:0:0:
124,352,167858,6,0,L|136:264,1,83.9999974365235,6|2,0:2|0:2,0:0:0:0:
56,128,168125,2,0,L|144:140,1,83.9999974365235,8|0,0:0|0:0,0:0:0:0:
280,48,168393,2,0,L|268:144,1,83.9999974365235,2|2,0:2|0:2,0:0:0:0:
360,280,168661,2,0,L|272:268,1,83.9999974365235,8|0,0:0|0:0,0:0:0:0:
91,253,168929,6,0,P|135:213|223:217,1,125.999996154785,2|0,0:2|0:0,0:0:0:0:
153,99,169197,2,0,P|193:143|189:231,1,125.999996154785,8|0,0:0|0:0,0:0:0:0:
307,161,169465,2,0,P|263:201|175:197,1,125.999996154785,2|0,0:2|0:0,0:0:0:0:
245,315,169733,2,0,P|205:271|209:183,1,125.999996154785,8|0,0:0|0:0,0:0:0:0:
307,161,170000,6,0,L|415:169,1,83.9999974365235,2|2,0:2|0:2,0:0:0:0:
236,93,170268,2,0,L|112:101,1,83.9999974365235,8|0,0:0|0:0,0:0:0:0:
52,148,170536,2,0,P|44:80|52:40,1,83.9999974365235,2|2,0:2|0:2,0:0:0:0:
144,236,170804,2,0,P|152:304|144:344,1,83.9999974365235,8|0,0:0|0:0,0:0:0:0:
48,280,171072,6,0,L|12:276,1,35,0|0,3:0|3:0,0:0:0:0:
153,99,171340,2,0,L|200:96,1,35,0|0,3:0|3:0,0:0:0:0:
272,280,171608,2,0,L|236:276,1,35,0|0,3:0|3:0,0:0:0:0:
360,136,171875,2,0,L|388:56,1,70,2|2,0:2|0:2,0:0:0:0:
480,112,172143,6,0,B|464:160|464:160|476:272,1,140,6|8,0:2|0:0,0:0:0:0:
364,368,172545,2,0,B|380:320|380:320|368:208,1,140,0|2,0:0|0:2,0:0:0:0:
265,210,172947,2,0,L|274:302,1,70,8|0,0:0|0:0,0:0:0:0:
168,160,173215,6,0,P|196:120|292:108,1,140,2|8,0:2|0:0,0:0:0:0:
164,32,173616,1,0,0:0:0:0:
164,32,173750,2,0,P|120:32|76:24,1,70,2|2,0:2|0:2,0:0:0:0:
0,128,174018,2,0,P|44:128|88:136,1,70,8|0,0:0|0:0,0:0:0:0:
128,368,174286,6,0,P|152:316|156:292,1,70,2|2,0:2|0:2,0:0:0:0:
168,160,174554,1,8,0:0:0:0:
288,224,174688,6,0,P|230:229|208:237,1,70,0|2,0:0|0:2,0:0:0:0:
64,276,174956,1,2,0:2:0:0:
236,336,175090,1,8,3:0:0:0:
252,332,175157,1,0,3:0:0:0:
268,328,175224,1,0,3:0:0:0:
284,324,175291,1,0,3:0:0:0:
300,320,175358,6,0,P|336:320|400:336,1,70,2|2,0:2|0:2,0:0:0:0:
500,252,175625,2,0,P|464:252|400:236,1,70,8|2,0:0|0:2,0:0:0:0:
348,164,175893,2,0,L|356:76,1,70,8|2,0:0|0:2,0:0:0:0:
240,20,176161,2,0,L|248:116,1,70,8|2,0:0|0:2,0:0:0:0:
240,200,176429,6,0,P|184:184|96:208,1,140,2|8,0:2|0:0,0:0:0:0:
20,304,176831,1,0,0:0:0:0:
20,304,176965,2,0,P|76:288|164:328,1,140,2|8,0:2|0:0,0:0:0:0:
328,256,177366,1,0,0:0:0:0:
328,256,177500,6,0,P|348:204|324:112,1,140,2|8,0:2|0:0,0:0:0:0:
172,232,177902,1,0,0:0:0:0:
172,232,178036,2,0,P|156:184|160:156,1,70,2|2,0:2|0:2,0:0:0:0:
128,68,178304,2,0,P|98:85|77:113,1,70,8|0,0:0|0:0,0:0:0:0:
35,216,178572,6,0,B|71:208|71:208|172:232,1,140,2|8,0:2|0:0,0:0:0:0:
388,336,178974,2,0,B|352:344|352:344|248:320,1,140,0|2,0:0|0:2,0:0:0:0:
284,168,179375,2,0,L|264:248,1,70,8|0,0:0|0:0,0:0:0:0:
364,232,179643,5,2,3:2:0:0:
368,216,179710,1,0,3:0:0:0:
372,200,179777,1,2,3:2:0:0:
376,184,179844,1,0,3:0:0:0:
380,168,179911,1,8,3:0:0:0:
384,152,179978,1,0,3:0:0:0:
388,136,180045,1,2,3:2:0:0:
392,120,180112,1,0,3:0:0:0:
396,104,180179,6,0,L|300:96,1,70,10|10,0:0|0:2,0:0:0:0:
181,101,180447,2,0,L|192:32,1,70,8|10,0:0|0:2,0:0:0:0:
176,204,180715,6,0,L|-4:192,1,167.999994873047,6|8,0:0|0:0,0:0:0:0:
228,288,181116,2,0,B|236:240|272:212|272:212|244:180|244:132,1,167.999994873047,0|2,0:0|0:2,0:0:0:0:
416,312,181518,2,0,B|452:328|452:328|376:376|328:304,1,167.999994873047,8|2,0:0|0:2,0:0:0:0:
432,200,181920,2,0,B|448:168|480:156|480:156|444:116|452:44,1,167.999994873047,2|0,0:2|0:0,0:0:0:0:
356,39,182322,6,0,L|368:151,1,83.9999974365235,2|2,0:2|0:2,0:0:0:0:
280,248,182590,2,0,L|292:156,1,83.9999974365235,8|0,0:0|0:0,0:0:0:0:
260,52,182858,6,0,B|224:68|224:68|96:48,1,167.999994873047,2|8,0:2|0:0,0:0:0:0:
20,136,183259,2,0,B|56:120|56:120|192:144,1,167.999994873047,0|2,0:0|0:2,0:0:0:0:
82,218,183661,2,0,L|168:232,2,83.9999974365235,8|0|2,0:0|0:0|0:2,0:0:0:0:
104,312,184063,6,0,P|69:315|20:304,1,83.9999974365235,2|8,0:2|0:0,0:0:0:0:
199,343,184331,1,0,0:0:0:0:
199,343,184465,2,0,P|255:331|323:351,1,125.999996154785,2|0,0:2|0:0,0:0:0:0:
320,350,184733,2,0,L|312:248,1,83.9999974365235,2|0,0:2|0:0,0:0:0:0:
416,252,185000,1,6,0:2:0:0:
296,184,185134,2,0,L|200:196,1,83.9999974365235,2|8,0:2|0:0,0:0:0:0:
384,160,185402,6,0,P|408:88|388:24,1,140,0|2,0:0|0:2,0:0:0:0:
180,100,185804,2,0,L|320:88,1,140,8|2,0:0|0:2,0:0:0:0:
108,168,186206,2,0,P|88:120|112:28,1,140,2|0,0:2|0:0,0:0:0:0:
88,264,186608,2,0,L|8:260,2,70,2|2|8,0:2|0:2|0:0,0:0:0:0:
152,344,187009,1,0,0:0:0:0:
208,276,187143,5,8,3:0:0:0:
240,288,187210,1,0,3:0:0:0:
268,292,187277,1,0,3:0:0:0:
296,288,187344,1,0,3:0:0:0:
320,272,187411,2,0,L|332:228,3,35,0|0|0|0,3:0|3:0|3:0|3:0,0:0:0:0:
340,212,187679,1,8,3:0:0:0:
364,200,187746,1,0,3:0:0:0:
392,196,187813,1,0,3:0:0:0:
420,200,187880,1,0,3:0:0:0:
444,216,187947,2,0,L|456:260,3,35,0|0|0|0,3:0|3:0|3:0|3:0,0:0:0:0:
476,124,188215,6,0,L|486:90,1,35,8|0,3:0|3:0,0:0:0:0:
464,212,188349,2,0,L|484:268,1,35,0|0,3:0|3:0,0:0:0:0:
396,104,188483,2,0,L|408:64,1,41.9999987182618,0|0,3:0|3:0,0:0:0:0:
384,236,188617,2,0,L|408:308,1,41.9999987182618,0|0,3:0|3:0,0:0:0:0:
312,88,188750,2,0,L|336:16,1,48.9999985046387,8|0,3:0|3:0,0:0:0:0:
304,252,188884,2,0,L|320:324,1,48.9999985046387,0|0,3:0|3:0,0:0:0:0:
224,72,189018,2,0,L|244:16,1,56,0|0,3:0|3:0,0:0:0:0:
212,260,189152,2,0,L|224:332,1,56,0|0,3:0|3:0,0:0:0:0:
144,196,189286,6,0,B|184:208|212:124|120:104|120:104|72:112|0:84|0:84|48:152|84:156|84:156|4:192|4:192|40:208|76:204|76:204|36:248|36:248|72:252|96:248|96:248|80:280|80:280|112:280|128:264|128:264|112:312|132:360,1,840.000032043458,4|2,2:0|0:0,2:0:0:0:
305,181,197456,6,0,L|336:223,1,45.4999979171754,0|0,2:0|2:0,0:0:0:0:
464,172,197590,2,0,L|414:176,1,45.4999979171754,0|0,2:0|2:0,0:0:0:0:
382,303,197724,2,0,L|404:256,1,45.4999979171754,2|2,2:0|2:0,0:0:0:0:
356,104,197858,6,0,L|221:110,1,90.9999958343508,8|0,0:0|0:0,0:0:0:0:
144,196,198125,1,0,0:0:0:0:
168,48,198259,1,0,0:0:0:0:
144,196,198393,2,0,L|53:192,1,90.9999958343508,8|0,0:0|0:0,0:0:0:0:
236,164,198661,1,0,0:0:0:0:
336,252,198795,1,0,0:0:0:0:
336,252,198862,1,0,0:0:0:0:
336,252,198929,6,0,P|356:160|336:72,1,181.999991668702,8|0,0:0|0:0,0:0:0:0:
148,168,199331,1,0,0:0:0:0:
200,343,199465,2,0,P|208:279|200:239,1,90.9999958343508,8|0,0:0|0:0,0:0:0:0:
56,112,199733,2,0,P|48:176|56:216,1,90.9999958343508,0|0,0:0|0:0,0:0:0:0:
280,348,200000,6,0,P|248:272|132:296,1,181.999991668702,8|0,0:0|0:0,0:0:0:0:
108,344,200402,1,0,0:0:0:0:
200,344,200536,2,0,B|236:264|236:264|232:169,1,181.999991668702,8|0,0:0|0:0,0:0:0:0:
53,167,200938,2,0,B|137:187|137:187|245:167,1,181.999991668702
300,52,201340,2,0,L|176:72,1,90.9999958343508,0|0,0:0|0:0,0:0:0:0:
348,224,201608,2,0,L|448:208,1,90.9999958343508,8|0,0:0|0:0,0:0:0:0:
268,180,201875,1,0,0:0:0:0:
256,204,201942,1,0,0:0:0:0:
252,232,202009,1,0,0:0:0:0:
260,256,202076,1,0,0:0:0:0:
276,284,202143,6,0,P|272:340|260:376,1,90.9999958343508,8|0,0:0|0:0,0:0:0:0:
192,308,202411,2,0,P|149:344|115:361,1,90.9999958343508,8|8,0:0|0:0,0:0:0:0:
108,272,202679,2,0,P|52:267|16:256,1,90.9999958343508,8|8,0:0|0:0,0:0:0:0:
80,180,202947,2,0,P|43:137|26:103,1,90.9999958343508,8|8,0:0|0:0,0:0:0:0:
120,96,203215,2,0,P|124:40|136:4,1,90.9999958343508,8|8,0:0|0:0,0:0:0:0:
208,68,203483,2,0,P|250:31|284:14,1,90.9999958343508,8|8,0:0|0:0,0:0:0:0:
300,108,203750,2,0,P|355:112|391:124,1,90.9999958343508,8|8,0:0|0:0,0:0:0:0:
340,204,204018,2,0,P|376:246|393:280,1,90.9999958343508,8|8,0:0|0:0,0:0:0:0:
296,296,204286,6,0,P|300:320|296:360,1,45.4999979171754,8|0,0:0|0:0,0:0:0:0:
216,320,204420,2,0,P|201:339|170:365,1,45.4999979171754,0|0,0:0|0:0,0:0:0:0:
140,284,204554,2,0,P|116:287|76:284,1,45.4999979171754,8|0,0:0|0:0,0:0:0:0:
116,204,204688,2,0,P|96:189|70:158,1,45.4999979171754,0|0,0:0|0:0,0:0:0:0:
152,128,204822,2,0,P|148:104|152:64,1,45.4999979171754,8|0,0:0|0:0,0:0:0:0:
232,96,204956,2,0,P|246:76|277:50,1,45.4999979171754,0|0,0:0|0:0,0:0:0:0:
304,136,205090,2,0,P|328:132|368:136,1,45.4999979171754,8|0,0:0|0:0,0:0:0:0:
332,216,205224,2,0,P|351:230|377:261,1,45.4999979171754,0|0,0:0|0:0,0:0:0:0:
296,296,205358,6,0,P|308:320|308:384,1,90.9999958343508,8|0,0:0|0:0,0:0:0:0:
212,344,205625,6,0,B|172:328|172:328|132:336|132:336|172:300|188:260,1,175,0|0,2:0|2:0,0:0:0:0:
16,132,206429,6,0,P|56:199|5:259,1,167.999994873047,6|8,0:2|0:0,0:0:0:0:
72,44,206831,1,0,0:0:0:0:
144,104,206965,2,0,P|160:40|148:-8,1,83.9999974365235,2|2,0:2|0:2,0:0:0:0:
224,152,207233,2,0,P|208:216|220:264,1,83.9999974365235,8|0,0:0|0:0,0:0:0:0:
308,372,207500,6,0,B|320:320|320:320|296:204,1,167.999994873047,2|8,0:2|0:0,0:0:0:0:
232,320,207902,1,0,0:0:0:0:
400,272,208036,2,0,B|412:312|412:312|400:356,1,83.9999974365235,2|2,0:2|0:2,0:0:0:0:
296,207,208304,2,0,B|280:164|280:164|296:123,1,83.9999974365235,8|0,0:0|0:0,0:0:0:0:
468,176,208572,6,0,B|368:160|368:160|412:148|424:116,1,167.999994873047,2|8,0:2|0:0,0:0:0:0:
440,324,208974,2,0,B|420:252|420:252|484:260|484:260|544:244,1,167.999994873047,0|2,0:0|0:2,0:0:0:0:
312,244,209375,2,0,L|336:325,1,83.9999974365235,8|0,0:0|0:0,0:0:0:0:
192,328,209643,6,0,P|144:336|100:320,1,83.9999974365235,2|2,0:2|0:2,0:0:0:0:
36,232,209911,1,8,0:0:0:0:
132,140,210045,1,0,0:0:0:0:
36,232,210179,2,0,L|52:328,1,83.9999974365235,8|2,0:0|0:2,0:0:0:0:
149,57,210447,2,0,L|129:153,1,83.9999974365235,8|2,0:0|0:2,0:0:0:0:
236,296,210715,6,0,P|240:228|220:188,1,83.9999974365235,6|2,0:2|0:2,0:0:0:0:
248,28,210983,2,0,P|244:96|264:136,1,83.9999974365235,8|0,0:0|0:0,0:0:0:0:
348,204,211250,2,0,B|392:216|392:216|448:204,1,83.9999974365235,2|2,0:2|0:2,0:0:0:0:
152,252,211518,2,0,B|108:264|108:264|52:252,1,83.9999974365235,8|0,0:0|0:0,0:0:0:0:
196,168,211786,5,2,0:2:0:0:
300,280,211920,1,2,0:2:0:0:
280,120,212054,2,0,B|248:104|224:80|224:80|172:96|108:84,1,167.999994873047,8|2,0:0|0:2,0:0:0:0:
196,168,212456,1,2,0:2:0:0:
352,176,212590,2,0,P|360:120|352:84,1,83.9999974365235,8|0,0:0|0:0,0:0:0:0:
197,333,212858,6,0,B|181:265|181:265|197:157,1,167.999994873047,2|8,0:2|0:0,0:0:0:0:
428,260,213259,2,0,B|444:192|444:192|428:84,1,167.999994873047,0|2,0:0|0:2,0:0:0:0:
276,261,213661,2,0,L|292:344,1,83.9999974365235,8|0,0:0|0:0,0:0:0:0:
343,146,213929,6,0,L|328:64,1,83.9999974365235,2|2,0:2|0:2,0:0:0:0:
150,174,214197,2,0,L|232:156,1,83.9999974365235,8|0,0:0|0:0,0:0:0:0:
176,288,214465,1,8,3:0:0:0:
152,288,214532,1,0,3:0:0:0:
128,284,214599,1,0,3:0:0:0:
104,272,214666,1,0,3:0:0:0:
88,252,214733,2,0,L|32:268,1,41.9999987182618,8|0,3:0|3:0,0:0:0:0:
40,168,214866,2,0,L|0:156,1,41.9999987182618,0|0,3:0|3:0,0:0:0:0:
80,76,215000,6,0,P|48:44|24:0,1,83.9999974365235,6|2,0:2|0:2,0:0:0:0:
156,132,215268,1,8,0:0:0:0:
232,200,215402,2,0,P|264:232|288:276,1,83.9999974365235,0|2,0:0|0:2,0:0:0:0:
232,64,215670,1,2,0:2:0:0:
384,76,215804,6,0,P|416:44|440:0,1,83.9999974365235,8|0,0:0|0:0,0:0:0:0:
308,132,216072,1,2,0:2:0:0:
232,200,216206,2,0,P|200:232|176:276,1,83.9999974365235,2|8,0:2|0:0,0:0:0:0:
340,280,216474,1,0,0:0:0:0:
492,196,216608,6,0,P|432:200|392:184,1,83.9999974365235,2|2,0:2|0:2,0:0:0:0:
308,132,216875,1,8,0:0:0:0:
156,344,217009,2,0,P|216:348|256:332,1,83.9999974365235,0|2,0:0|0:2,0:0:0:0:
340,280,217277,1,2,0:2:0:0:
32,132,217411,6,0,P|92:136|132:120,1,83.9999974365235,8|0,0:0|0:0,0:0:0:0:
216,68,217679,1,2,0:2:0:0:
340,280,217813,2,0,P|280:284|240:268,1,83.9999974365235,2|8,0:2|0:0,0:0:0:0:
156,216,218081,1,0,0:0:0:0:
428,256,218215,6,0,P|432:308|424:348,1,83.9999974365235,2|2,0:2|0:2,0:0:0:0:
272,288,218483,2,0,P|219:292|179:284,1,83.9999974365235,8|0,0:0|0:0,0:0:0:0:
244,136,218750,2,0,P|240:84|248:44,1,83.9999974365235,2|2,0:2|0:2,0:0:0:0:
408,92,219018,2,0,P|460:88|500:96,1,83.9999974365235,8|0,0:0|0:0,0:0:0:0:
392,236,219286,6,0,P|320:228|284:220,1,83.9999974365235,6|2,0:2|0:2,0:0:0:0:
244,136,219554,2,0,P|201:206|217:287,1,167.999994873047,8|2,0:0|0:2,0:0:0:0:
240,364,219956,1,2,0:2:0:0:
148,348,220090,2,0,P|116:304|104:256,1,83.9999974365235,8|0,0:0|0:0,0:0:0:0:
48,200,220358,6,0,B|88:155|88:155|147:137|147:137|199:156,2,167.999994873047,2|8|2,0:2|0:0|0:2,0:0:0:0:
106,276,221027,1,2,0:2:0:0:
221,117,221161,2,0,L|144:84,1,83.9999974365235,8|0,0:0|0:0,0:0:0:0:
284,208,221429,6,0,P|316:152|276:40,2,167.999994873047,2|8|2,0:2|0:0|0:2,0:0:0:0:
208,288,222099,1,2,0:2:0:0:
300,340,222233,2,0,L|384:352,1,83.9999974365235,8|0,0:0|0:0,0:0:0:0:
484,260,222500,6,0,L|436:264,1,35,2|0,3:2|2:0,0:0:0:0:
464,176,222768,2,0,L|420:180,1,35,2|0,3:2|2:0,0:0:0:0:
276,40,223036,2,0,L|332:36,1,35,2|0,3:2|2:0,0:0:0:0:
260,136,223304,2,0,L|316:132,1,35,2|0,3:2|2:0,0:0:0:0:
196,344,223572,6,0,P|148:280|32:292,1,181.999991668702,6|8,0:2|0:0,0:0:0:0:
96,356,223974,1,0,0:0:0:0:
280,304,224108,2,0,P|248:244|216:216,1,90.9999958343508,2|2,0:2|0:2,0:0:0:0:
144,80,224375,2,0,P|211:82|252:68,1,90.9999958343508,8|0,0:0|0:0,0:0:0:0:
316,180,224643,6,0,B|364:172|364:172|444:196|444:196|496:184,1,181.999991668702,2|8,0:2|0:0,0:0:0:0:
492,184,225045,1,0,0:0:0:0:
360,88,225179,1,2,0:2:0:0:
368,264,225313,1,2,0:2:0:0:
444,100,225447,2,0,P|452:32|444:0,1,90.9999958343508,8|0,0:0|0:0,0:0:0:0:
296,220,225715,6,0,P|288:264|296:316,1,90.9999958343508,2|2,0:2|0:2,0:0:0:0:
380,176,225983,1,8,0:0:0:0:
304,112,226116,2,0,P|260:104|208:112,1,90.9999958343508,0|2,0:0|0:2,0:0:0:0:
380,176,226384,1,2,0:2:0:0:
444,100,226518,2,0,P|452:56|444:4,1,90.9999958343508,8|2,0:0|0:0,0:0:0:0:
400,284,226786,6,0,B|444:252|500:252|500:252|472:228|464:176,1,181.999991668702,2|8,0:2|0:0,0:0:0:0:
472,340,227188,1,0,0:0:0:0:
465,186,227322,2,0,P|448:144|444:96,1,90.9999958343508,8|2,0:0|0:2,0:0:0:0:
356,200,227590,2,0,P|304:212|252:200,1,90.9999958343508,8|2,0:0|0:2,0:0:0:0:
92,288,227858,6,0,B|113:287|141:303|141:303|205:283|205:283|229:295|265:299,1,181.999991668702,6|8,0:2|0:0,0:0:0:0:
144,204,228259,2,0,P|168:148|80:164,1,181.999991668702,0|2,0:0|0:2,0:0:0:0:
260,200,228661,2,0,P|268:128|260:96,1,90.9999958343508,8|0,0:0|0:0,0:0:0:0:
376,32,228929,6,0,P|356:116|380:208,1,181.999991668702,2|8,0:2|0:0,0:0:0:0:
456,112,229331,1,0,0:0:0:0:
464,248,229465,2,0,P|468:300|456:344,1,90.9999958343508,2|2,0:2|0:2,0:0:0:0:
368,288,229733,2,0,P|328:324|292:340,1,90.9999958343508,8|0,0:0|0:0,0:0:0:0:
276,240,230000,6,0,P|204:220|184:108,1,181.999991668702,2|8,0:2|0:0,0:0:0:0:
440,132,230402,2,0,B|384:152|384:152|316:132|316:132|260:148,1,181.999991668702,0|2,0:0|0:2,0:0:0:0:
372,52,230804,2,0,L|472:24,1,90.9999958343508,8|0,0:0|0:0,0:0:0:0:
476,204,231072,5,2,3:2:0:0:
464,220,231139,1,0,3:0:0:0:
452,232,231206,1,2,3:2:0:0:
436,244,231273,1,0,3:0:0:0:
420,252,231340,1,8,3:0:0:0:
404,260,231407,1,0,3:0:0:0:
388,264,231474,1,0,3:0:0:0:
368,264,231541,1,0,3:0:0:0:
348,260,231608,6,0,L|328:196,1,45.4999979171754,8|0,3:0|3:0,0:0:0:0:
268,332,231741,2,0,L|248:392,1,45.4999979171754,0|0,3:0|3:0,0:0:0:0:
240,208,231875,2,0,L|220:140,1,52.5000020027161,8|0,3:0|3:0,0:0:0:0:
164,332,232009,2,0,L|136:396,1,52.5000020027161,0|0,3:0|3:0,0:0:0:0:
144,188,232143,6,0,L|100:80,1,90.9999958343508,6|2,0:2|0:2,0:0:0:0:
56,244,232411,1,8,0:0:0:0:
144,292,232545,2,0,L|100:400,1,90.9999958343508,0|2,0:0|0:2,0:0:0:0:
228,244,232813,1,2,0:2:0:0:
316,196,232947,6,0,L|360:88,1,90.9999958343508,8|0,0:2|0:2,0:0:0:0:
404,256,233215,1,2,0:2:0:0:
316,300,233349,2,0,L|360:408,1,90.9999958343508,2|8,0:2|0:0,0:0:0:0:
228,244,233616,1,0,0:0:0:0:
72,128,233750,6,0,P|144:120|184:108,1,90.9999958343508,2|2,0:2|0:2,0:0:0:0:
108,24,234018,1,8,0:0:0:0:
72,216,234152,2,0,P|144:224|184:236,1,90.9999958343508,0|2,0:0|0:2,0:0:0:0:
104,316,234420,1,2,0:2:0:0:
264,192,234554,6,0,B|252:240|252:240|264:296,1,90.9999958343508,8|0,0:0|0:0,0:0:0:0:
161,228,234822,1,2,0:2:0:0:
336,344,234956,2,0,B|348:296|348:296|336:240,1,90.9999958343508,2|8,0:2|0:0,0:0:0:0:
424,304,235224,1,0,0:0:0:0:
339,255,235358,5,2,0:2:0:0:
408,384,235491,1,2,0:2:0:0:
496,252,235625,1,8,0:0:0:0:
264,316,235759,2,0,P|256:232|328:160,1,181.999991668702,0|2,0:0|0:2,0:0:0:0:
236,112,236161,2,0,P|176:120|132:104,1,90.9999958343508,8|0,0:0|0:0,0:0:0:0:
48,56,236429,6,0,P|40:104|48:168,1,90.9999958343508,6|2,0:2|0:2,0:0:0:0:
56,244,236630,1,0,0:0:0:0:
48,256,236697,2,0,P|112:248|152:264,1,90.9999958343508,8|0,0:0|0:0,0:0:0:0:
232,352,236965,2,0,P|248:292|240:248,1,90.9999958343508,2|2,0:2|0:2,0:0:0:0:
220,148,237166,1,0,0:0:0:0:
216,168,237233,2,0,P|284:184|356:164,1,136.499993751526,8|0,0:0|0:0,0:0:0:0:
364,152,237500,6,0,L|352:280,1,90.9999958343508,2|2,0:2|0:2,0:0:0:0:
344,348,237768,1,8,0:0:0:0:
252,288,237902,1,0,0:0:0:0:
252,288,237969,1,0,0:0:0:0:
252,288,238036,2,0,P|200:276|128:296,1,90.9999958343508,2|2,0:2|0:2,0:0:0:0:
40,188,238304,2,0,P|92:200|164:180,1,90.9999958343508,8|0,0:0|0:0,0:0:0:0:
196,108,238572,6,0,L|188:12,1,90.9999958343508,8|2,0:0|0:2,0:0:0:0:
288,132,238840,6,0,L|308:44,1,83.9999974365235,8|2,0:0|0:2,0:0:0:0:
364,188,239108,6,0,L|412:108,1,77.0000023498536,8|2,0:0|0:2,0:0:0:0:
408,268,239375,6,0,L|472:232,1,70,8|2,0:0|0:2,0:0:0:0:
420,356,239643,6,0,L|492:348,1,66.6666666666667,0|6,2:0|0:2,0:0:0:0:
