osu file format v14

[General]
AudioFilename: Snow Drive.mp3
AudioLeadIn: 0
PreviewTime: 95717
Countdown: 0
SampleSet: Soft
StackLeniency: 0.3
Mode: 0
LetterboxInBreaks: 0
WidescreenStoryboard: 0

[Editor]
Bookmarks: 1801,18929,40355,45846,61784,78927,96072,113215,118572,127141,135713,139998,155000,171072,189284,206429,239643,240715
DistanceSpacing: 1.4
BeatDivisor: 4
GridSize: 4
TimelineZoom: 2.699999

[Metadata]
Title:Snow Drive(01.23)
TitleUnicode:スノウドライヴ(01.23)
Artist:Omoi
ArtistUnicode:Omoi
Creator:Kroytz
Version:moph's Expert
Source:
Tags:Vocaloid Hatsune Miku k2pudding Battle HappyRocket88 Anxient pkk Rumia MoeMoeKyunNN moph SnowNiNo_
BeatmapID:1083053
BeatmapSetID:478405

[Difficulty]
HPDrainRate:6
CircleSize:4
OverallDifficulty:8.5
ApproachRate:9.3
SliderMultiplier:1.8
SliderTickRate:1

[Events]
//Background and Video events
0,0,"BG.jpg",0,0
Video,0,"video.mp4"
//Break Periods
2,113415,117366
2,191629,196886
//Storyboard Layer 0 (Background)
//Storyboard Layer 1 (Fail)
//Storyboard Layer 2 (Pass)
//Storyboard Layer 3 (Foreground)
//Storyboard Sound Samples

[TimingPoints]
730,267.857142857143,4,1,1,60,1,0
1801,-200,4,2,0,60,0,0
9301,-133.333333333333,4,2,0,60,0,0
9837,-200,4,2,0,60,0,0
10358,267.857142857143,4,2,0,60,1,0
10358,-200,4,2,0,60,0,0
10558,-200,4,2,0,20,0,0
10625,-200,4,2,0,60,0,0
11362,-200,4,2,0,20,0,0
11429,-200,4,2,0,60,0,0
12166,-200,4,2,0,20,0,0
12233,-200,4,2,0,60,0,0
12969,-200,4,2,0,20,0,0
13036,-200,4,2,0,60,0,0
17858,-133.333333333333,4,2,1,60,0,0
18058,-133.333333333333,4,2,1,15,0,0
18125,-133.333333333333,4,2,1,60,0,0
18326,-133.333333333333,4,2,1,15,0,0
18393,-133.333333333333,4,2,1,60,0,0
18460,-133.333333333333,4,2,1,15,0,0
18527,-133.333333333333,4,2,1,60,0,0
18594,-133.333333333333,4,2,1,15,0,0
18661,-133.333333333333,4,2,1,60,0,0
18929,-100,4,1,1,70,0,0
27500,-133.333333333333,4,1,1,70,0,0
31786,-100,4,1,1,70,0,0
36072,-133.333333333333,4,3,1,70,0,0
40358,-133.333333333333,4,1,1,70,0,0
70291,-133.333333333333,4,1,1,20,0,0
70358,-133.333333333333,4,1,1,70,0,0
91786,-133.333333333333,4,3,1,70,0,0
96072,-100,4,1,1,70,0,1
99219,-100,4,1,1,20,0,1
99286,-100,4,1,1,70,0,1
103505,-100,4,1,1,20,0,1
103572,-100,4,1,1,70,0,1
105648,-100,4,1,1,20,0,1
105715,-100,4,1,1,70,0,1
107255,-100,4,1,1,20,0,1
107322,-100,4,1,1,70,0,1
108862,-100,4,1,1,20,0,1
108929,-100,4,1,1,70,0,1
113215,-83.3333333333333,4,1,1,70,0,0
118170,-200,4,1,1,70,0,0
118505,-200,4,1,1,20,0,0
118572,-133.333333333333,4,1,1,70,0,0
125268,-133.333333333333,4,3,2,70,0,0
126072,-133.333333333333,4,1,1,70,0,0
148572,-133.333333333333,4,3,1,70,0,0
154933,-133.333333333333,4,1,1,20,0,0
155000,-100,4,1,1,70,0,1
158148,-100,4,1,1,20,0,1
158215,-100,4,1,1,70,0,1
164576,-100,4,1,1,20,0,1
164643,-100,4,1,1,70,0,1
166183,-100,4,1,1,20,0,1
166250,-100,4,1,1,70,0,1
167791,-100,4,1,1,20,0,1
167858,-100,4,1,1,70,0,1
171072,-133.333333333333,4,1,1,70,0,0
172143,-100,4,1,1,70,0,0
175291,-100,4,1,1,20,0,0
175358,-100,4,1,1,70,0,0
179576,-100,4,1,1,20,0,0
179643,-100,4,1,1,70,0,0
181719,-100,4,1,1,20,0,0
181786,-100,4,1,1,70,0,0
183862,-100,4,1,1,20,0,0
183929,-100,4,1,1,70,0,0
184666,-100,4,1,1,20,0,0
184733,-100,4,1,1,70,0,0
184933,-100,4,1,1,20,0,0
185000,-100,4,1,1,70,0,0
187076,-100,4,1,1,20,0,0
187143,-100,4,1,1,70,0,0
197523,-100,4,1,1,15,0,0
197590,-100,4,1,1,70,0,0
197657,-100,4,1,1,15,0,0
197724,-100,4,1,1,70,0,0
197858,-100,4,3,1,70,0,0
205625,-200,4,2,1,70,0,0
206362,-200,4,1,1,20,0,0
206429,-83.3333333333333,4,1,1,70,0,1
207433,-83.3333333333333,4,1,1,20,0,1
207500,-83.3333333333333,4,1,1,70,0,1
209576,-83.3333333333333,4,1,1,20,0,1
209643,-83.3333333333333,4,1,1,70,0,1
212791,-83.3333333333333,4,1,1,20,0,1
212858,-83.3333333333333,4,1,1,70,0,1
213862,-83.3333333333333,4,1,1,20,0,1
213929,-83.3333333333333,4,1,1,70,0,1
216005,-83.3333333333333,4,1,1,20,0,1
216072,-83.3333333333333,4,1,1,70,0,1
217612,-83.3333333333333,4,1,1,20,0,1
217679,-83.3333333333333,4,1,1,70,0,1
222500,-71.4285714285714,4,1,1,70,0,0
223572,-83.3333333333333,4,1,2,70,0,1
223840,-83.3333333333333,4,1,1,70,0,1
231005,-83.3333333333333,4,1,1,20,0,1
231072,-83.3333333333333,4,1,1,70,0,1
236362,-83.3333333333333,4,1,1,20,0,1
236429,-100,4,1,1,70,0,1
238572,-125,4,1,1,70,0,1
239643,-500,4,1,1,40,0,0

[Colours]
Combo1 : 114,64,247
Combo2 : 128,255,255
Combo3 : 0,121,242
SliderBorder : 212,231,238
SliderTrackOverride : 40,42,68

[HitObjects]
248,204,1801,6,0,L|264:304,1,90,2|0,0:0|0:0,0:0:0:0:
320,168,2337,2,0,L|336:268,1,90,0|0,0:0|0:0,0:0:0:0:
352,340,2738,1,0,0:0:0:0:
500,284,2872,6,0,P|456:272|400:292,1,90,2|0,0:0|0:0,0:0:0:0:
276,372,3408,1,2,0:0:0:0:
457,358,3676,1,2,0:0:0:0:
413,282,3810,1,0,0:0:0:0:
448,204,3944,6,0,L|456:104,1,90,2|0,0:0|0:0,0:0:0:0:
380,24,4346,2,0,L|372:124,1,90,2|0,0:0|0:0,0:0:0:0:
296,164,4747,2,0,P|272:168|248:164,1,45,2|0,0:0|0:0,0:0:0:0:
152,40,5015,6,0,P|194:43|238:73,1,90,2|0,0:0|0:0,0:0:0:0:
144,216,5551,2,0,L|172:120,1,90,2|2,0:0|0:0,0:0:0:0:
144,216,6087,5,2,0:0:0:0:
92,380,6355,1,0,0:0:0:0:
208,256,6622,1,0,0:0:0:0:
48,316,6890,1,0,0:0:0:0:
220,332,7158,6,0,L|312:336,1,90,2|0,0:0|0:0,0:0:0:0:
476,296,7694,2,0,L|386:292,1,90,0|2,0:0|0:0,0:0:0:0:
309,335,8096,1,0,0:0:0:0:
312,248,8230,6,0,P|320:188|304:148,1,90,2|0,0:0|0:0,0:0:0:0:
156,160,8631,2,0,P|203:196|246:203,1,90,2|0,0:0|0:0,0:0:0:0:
248,60,9033,2,0,L|236:120,1,45,2|0,0:0|0:0,0:0:0:0:
176,340,9301,6,0,L|196:252,1,67.5000025749208,2|0,0:0|0:0,0:0:0:0:
84,52,9569,2,0,L|64:140,1,67.5000025749208,0|0,0:0|0:0,0:0:0:0:
190,274,9837,6,0,L|202:226,1,45,2|0,0:0|0:0,0:0:0:0:
69,117,10105,2,0,L|57:165,1,45,0|0,0:0|0:0,0:0:0:0:
28,292,10358,6,0,L|116:292,1,67.5,2|0,0:0|0:0,0:0:0:0:
112,292,10625,1,0,0:0:0:0:
260,324,10759,2,0,L|360:324,1,90,2|0,0:0|0:0,0:0:0:0:
460,184,11161,6,0,P|452:224|460:268,1,67.5,2|0,0:0|0:0,0:0:0:0:
464,272,11429,1,0,0:0:0:0:
504,108,11563,2,0,B|460:96|460:96|412:108,1,90,2|0,0:0|0:0,0:0:0:0:
276,224,11965,6,0,L|348:224,1,67.5,2|0,0:0|0:0,0:0:0:0:
360,224,12233,1,0,0:0:0:0:
336,56,12366,2,0,P|324:96|336:152,1,90,2|0,0:0|0:0,0:0:0:0:
196,256,12768,6,0,P|204:216|200:180,1,67.5,2|0,0:0|0:0,0:0:0:0:
196,168,13036,1,0,0:0:0:0:
64,88,13170,2,0,B|112:100|112:100|152:88,1,90,2|0,0:0|0:0,0:0:0:0:
150,88,13572,6,0,L|156:40,1,45,2|0,0:0|0:0,0:0:0:0:
8,196,13840,2,0,L|2:148,1,45,2|0,0:0|0:0,0:0:0:0:
104,348,14108,2,0,L|110:300,1,45,2|0,0:0|0:0,0:0:0:0:
116,216,14375,1,2,0:0:0:0:
116,216,14643,5,2,0:0:0:0:
204,208,14911,1,2,0:0:0:0:
444,328,15179,1,2,0:0:0:0:
356,336,15447,1,2,0:0:0:0:
356,336,15581,1,0,0:0:0:0:
388,252,15715,6,0,L|372:148,1,90,2|2,0:0|0:0,0:0:0:0:
404,8,16250,2,0,L|420:108,1,90,2|2,0:0|0:0,0:0:0:0:
374,163,16652,1,0,0:0:0:0:
374,163,16786,6,0,P|332:175|276:163,1,90,2|0,0:0|0:0,0:0:0:0:
224,104,17322,1,2,0:0:0:0:
272,28,17590,1,2,0:0:0:0:
248,240,17858,6,0,L|260:352,1,101.250003862381,2|0,1:2|2:0,0:0:0:0:
269,240,18125,2,0,L|257:352,1,101.250003862381,2|0,1:2|2:0,0:0:0:0:
160,304,18393,2,0,L|127:304,1,33.7500012874604,2|0,3:2|2:0,0:0:0:0:
344,276,18527,2,0,L|378:274,1,33.7500012874604,2|0,3:2|2:0,0:0:0:0:
176,180,18661,1,8,3:2:0:0:
160,152,18728,1,0,3:0:0:0:
156,120,18795,1,0,3:0:0:0:
160,88,18862,1,0,3:0:0:0:
172,60,18929,6,0,L|64:64,1,90,6|2,0:2|0:2,0:0:0:0:
328,116,19197,2,0,L|436:112,1,90,8|0,0:0|0:0,0:0:0:0:
160,152,19465,2,0,L|68:156,1,90,2|2,0:2|0:2,0:0:0:0:
340,24,19733,2,0,L|444:24,1,90,8|0,0:0|0:0,0:0:0:0:
384,208,20000,5,2,0:2:0:0:
384,208,20134,1,2,0:2:0:0:
256,164,20268,2,0,P|244:120|260:64,1,90,8|0,0:0|0:0,0:0:0:0:
464,164,20536,2,0,P|476:208|460:264,1,90,2|2,0:2|0:2,0:0:0:0:
300,244,20804,1,8,0:0:0:0:
392,96,20938,1,0,0:0:0:0:
428,336,21072,6,0,B|384:328|384:328|328:340,1,90,2|2,0:2|0:2,0:0:0:0:
212,244,21340,2,0,B|256:252|256:252|312:240,1,90,8|0,0:0|0:0,0:0:0:0:
252,160,21608,1,2,0:2:0:0:
168,336,21741,1,2,0:2:0:0:
32,256,21875,2,0,P|80:244|124:260,1,90,8|0,0:0|0:0,0:0:0:0:
72,336,22143,5,10,0:2:0:0:
4,176,22277,1,2,0:2:0:0:
212,244,22411,1,8,0:0:0:0:
144,84,22545,1,0,0:0:0:0:
204,252,22679,1,10,0:2:0:0:
136,92,22813,1,2,0:2:0:0:
196,260,22947,1,8,0:0:0:0:
128,100,23081,1,0,0:0:0:0:
328,64,23215,6,0,L|424:64,1,90,6|2,0:2|0:2,0:0:0:0:
498,284,23483,2,0,L|408:284,1,90,8|0,0:0|0:0,0:0:0:0:
364,148,23750,1,2,0:2:0:0:
408,284,23884,1,2,0:2:0:0:
454,148,24018,2,0,L|355:148,1,90,8|0,0:2|0:0,0:0:0:0:
200,148,24286,5,2,0:2:0:0:
344,64,24420,1,2,0:2:0:0:
284,200,24554,1,8,0:0:0:0:
256,8,24688,1,0,0:0:0:0:
124,132,24822,2,0,L|24:132,1,90,2|2,0:2|0:2,0:0:0:0:
34,132,25090,1,8,0:0:0:0:
188,68,25224,1,0,0:0:0:0:
164,312,25358,6,0,L|172:212,1,90,2|2,0:2|0:2,0:0:0:0:
80,328,25625,2,0,L|88:228,1,90,8|0,0:0|0:0,0:0:0:0:
248,288,25893,1,2,0:2:0:0:
248,288,26027,1,2,0:2:0:0:
155,70,26161,2,0,L|147:170,1,90,8|0,0:0|0:0,0:0:0:0:
0,256,26429,5,2,0:2:0:0:
148,160,26563,1,2,0:2:0:0:
228,372,26697,1,8,0:0:0:0:
376,276,26831,1,2,0:2:0:0:
164,312,26965,1,8,0:1:0:0:
332,360,27099,1,10,0:2:0:0:
208,232,27233,1,8,0:1:0:0:
376,276,27366,1,10,0:2:0:0:
328,112,27500,6,0,P|320:156|336:200,1,67.5000025749208,6|2,0:2|0:2,0:0:0:0:
468,148,27768,2,0,L|380:148,1,67.5000025749208,2|0,0:3|0:0,0:0:0:0:
240,132,28036,2,0,L|152:132,1,67.5000025749208,10|2,0:2|0:2,0:0:0:0:
324,46,28304,2,0,P|332:90|316:134,1,67.5000025749208,2|0,0:3|0:0,0:0:0:0:
92,212,28572,6,0,L|100:124,1,67.5000025749208,10|2,0:2|0:2,0:0:0:0:
12,244,28840,2,0,L|20:156,1,67.5000025749208,2|0,0:3|0:0,0:0:0:0:
32,60,29108,1,10,0:2:0:0:
32,60,29375,1,2,0:3:0:0:
92,212,29509,1,8,0:0:0:0:
0,348,29643,6,0,L|76:340,1,67.5000025749208,10|2,0:2|0:2,0:0:0:0:
144,352,29911,2,0,L|220:344,1,67.5000025749208,2|0,0:3|0:0,0:0:0:0:
472,248,30179,2,0,L|396:256,1,67.5000025749208,10|2,0:2|0:2,0:0:0:0:
328,244,30447,2,0,L|252:252,1,67.5000025749208,2|0,0:3|0:0,0:0:0:0:
384,168,30715,5,10,0:2:0:0:
388,332,30849,1,2,0:2:0:0:
420,92,30983,2,0,P|388:84|344:92,1,67.5000025749208,2|8,0:3|0:0,0:0:0:0:
300,168,31250,1,2,0:2:0:0:
464,168,31384,1,8,0:0:0:0:
224,200,31518,2,0,P|220:156|232:120,1,67.5000025749208,2|8,0:3|0:2,0:0:0:0:
304,36,31786,5,6,0:2:0:0:
304,36,31920,1,2,0:2:0:0:
225,133,32054,2,0,L|121:133,1,90,8|0,0:0|0:0,0:0:0:0:
90,256,32322,1,2,0:2:0:0:
0,132,32456,1,2,0:2:0:0:
130,46,32590,2,0,P|143:99|127:147,1,90,8|0,0:0|0:0,0:0:0:0:
0,256,32858,6,0,L|96:256,1,90,2|2,0:2|0:2,0:0:0:0:
222,342,33125,2,0,P|178:352|132:344,1,90,8|0,0:0|0:0,0:0:0:0:
134,132,33393,2,0,P|178:122|224:130,1,90,2|2,0:2|0:2,0:0:0:0:
134,344,33661,1,8,0:0:0:0:
180,216,33795,1,0,0:0:0:0:
332,328,33929,6,0,L|436:328,1,90,2|2,0:2|0:2,0:0:0:0:
340,152,34197,2,0,P|328:204|352:260,1,90,8|0,0:0|0:0,0:0:0:0:
422,328,34465,1,2,0:2:0:0:
422,328,34599,1,2,0:2:0:0:
500,196,34733,2,0,L|388:200,1,90,8|0,0:0|0:0,0:0:0:0:
244,252,35000,5,2,0:2:0:0:
280,84,35134,1,2,0:2:0:0:
410,199,35268,1,8,0:0:0:0:
446,31,35402,1,0,0:0:0:0:
312,180,35536,1,8,0:0:0:0:
312,180,35670,1,10,0:2:0:0:
456,352,35804,1,8,0:0:0:0:
456,352,35938,1,10,0:2:0:0:
448,112,36072,6,0,L|368:116,1,67.5000025749208,12|4,0:1|0:0,0:0:0:0:
280,84,36340,2,0,L|200:88,1,67.5000025749208,8|4,0:0|0:0,0:0:0:0:
124,132,36608,1,4,0:0:0:0:
308,245,36741,2,0,P|316:201|308:169,1,67.5000025749208,8|4,0:0|0:0,0:0:0:0:
280,84,37009,1,4,0:0:0:0:
152,216,37143,6,0,L|232:212,1,67.5000025749208,8|4,0:0|0:0,0:0:0:0:
308,245,37411,1,4,0:0:0:0:
120,376,37545,2,0,P|112:332|120:292,1,67.5000025749208,8|4,0:0|0:0,0:0:0:0:
152,216,37813,1,4,0:0:0:0:
268,336,37947,2,0,L|188:340,1,67.5000025749208,8|4,0:0|0:0,0:0:0:0:
376,292,38215,6,0,L|380:368,1,67.5000025749208,8|4,0:0|0:0,0:0:0:0:
452,208,38483,2,0,L|456:284,1,67.5000025749208,8|4,0:0|0:0,0:0:0:0:
472,360,38750,1,4,0:0:0:0:
376,168,38884,2,0,P|424:128|452:128,1,67.5000025749208,8|4,0:0|0:0,0:0:0:0:
512,152,39152,1,4,0:0:0:0:
296,204,39286,6,0,P|288:160|300:124,1,67.5000025749208,8|4,0:0|0:0,0:0:0:0:
344,12,39554,2,0,P|352:56|340:92,1,67.5000025749208,8|4,0:0|0:0,0:0:0:0:
170,150,39822,1,8,0:0:0:0:
146,174,39889,1,0,0:0:0:0:
114,183,39956,1,4,0:0:0:0:
82,175,40023,1,0,0:0:0:0:
58,152,40090,1,8,0:0:0:0:
50,119,40157,1,0,0:0:0:0:
58,87,40224,1,4,0:0:0:0:
82,64,40291,1,0,0:0:0:0:
115,48,40358,6,0,L|113:201,1,135.000005149842,6|8,0:2|0:0,0:0:0:0:
36,248,40759,1,0,0:0:0:0:
128,344,40893,2,0,P|208:340|260:288,1,135.000005149842,0|8,0:0|0:0,0:0:0:0:
228,104,41429,5,2,0:2:0:0:
228,104,41563,1,2,0:2:0:0:
196,200,41697,1,8,0:0:0:0:
296,180,41831,2,0,L|440:184,1,135.000005149842,0|0,0:0|0:0,0:0:0:0:
392,32,42233,2,0,P|385:62|404:115,1,67.5000025749208,8|0,0:0|0:0,0:0:0:0:
432,328,42500,5,2,0:2:0:0:
432,328,42634,2,0,P|438:297|419:244,1,67.5000025749208,2|8,0:2|0:0,0:0:0:0:
216,236,42902,2,0,P|196:296|224:380,1,135.000005149842,0|0,0:0|0:0,0:0:0:0:
356,300,43304,2,0,L|272:300,1,67.5000025749208,8|0,0:0|0:0,0:0:0:0:
104,348,43572,5,2,0:2:0:0:
104,348,43706,1,2,0:2:0:0:
8,316,43840,1,8,0:0:0:0:
84,252,43974,2,0,P|100:188|80:112,1,135.000005149842,0|0,0:0|0:0,0:0:0:0:
8,56,44375,1,8,0:0:0:0:
504,56,44643,5,2,0:2:0:0:
504,56,44777,1,2,0:2:0:0:
404,76,44911,1,8,0:0:0:0:
468,156,45045,2,0,L|492:320,1,135.000005149842,0|0,0:0|0:0,0:0:0:0:
376,352,45447,2,0,P|368:304|380:268,1,67.5000025749208,8|0,0:0|0:0,0:0:0:0:
304,172,45715,5,2,0:2:0:0:
304,172,45849,2,0,P|312:204|308:237,1,67.5000025749208,2|8,0:2|0:0,0:0:0:0:
172,340,46116,2,0,B|240:316|240:316|304:348,1,135.000005149842,0|0,0:0|0:0,0:0:0:0:
184,240,46518,2,0,P|179:206|188:174,1,67.5000025749208,8|0,0:0|0:0,0:0:0:0:
152,80,46786,5,2,0:2:0:0:
152,80,46920,1,2,0:2:0:0:
253,87,47054,1,8,0:0:0:0:
76,144,47188,2,0,P|56:96|76:16,1,135.000005149842,0|0,0:0|0:0,0:0:0:0:
72,228,47590,2,0,P|32:217|-5:185,1,67.5000025749208,8|0,0:0|0:0,0:0:0:0:
188,174,47858,5,2,2:0:0:0:
188,174,47991,1,2,2:0:0:0:
188,174,48259,2,0,L|148:320,1,135.000005149842,2|10,2:0|2:1,0:0:0:0:
56,340,48661,1,10,2:1:0:0:
168,244,48795,1,10,2:1:0:0:
252,356,48929,6,0,L|332:348,1,67.5000025749208,6|2,0:2|0:2,0:0:0:0:
404,340,49197,2,0,L|484:332,1,67.5000025749208,8|0,0:0|0:0,0:0:0:0:
468,192,49465,1,2,0:2:0:0:
468,192,49599,1,2,0:2:0:0:
348,264,49733,1,8,0:0:0:0:
348,264,49866,1,0,0:0:0:0:
412,116,50000,6,0,P|416:76|396:28,2,67.5000025749208,2|2|8,0:2|0:2|0:0,0:0:0:0:
204,84,50402,2,0,B|272:60|272:60|344:92,1,135.000005149842,0|2,0:0|0:2,0:0:0:0:
268,220,50804,2,0,L|268:140,1,67.5000025749208,8|0,0:0|0:0,0:0:0:0:
180,260,51072,6,0,L|180:180,1,67.5000025749208,2|2,0:2|0:2,0:0:0:0:
204,84,51340,1,8,0:0:0:0:
100,128,51474,1,0,0:0:0:0:
116,16,51608,1,2,0:2:0:0:
116,16,51741,1,2,0:2:0:0:
180,192,51875,1,8,0:0:0:0:
180,192,52009,1,0,0:0:0:0:
12,160,52143,6,0,P|4:120|28:72,1,67.5000025749208,2|2,0:2|0:2,0:0:0:0:
92,216,52411,2,0,L|76:364,1,135.000005149842,8|2,0:0|0:2,0:0:0:0:
0,276,52813,1,2,0:2:0:0:
176,264,52947,2,0,L|168:336,1,67.5000025749208,8|0,0:0|0:0,0:0:0:0:
343,331,53215,6,0,L|336:264,1,67.5000025749208,2|2,0:2|0:2,0:0:0:0:
448,240,53483,1,8,0:0:0:0:
448,240,53616,1,0,0:0:0:0:
384,84,53750,1,2,0:2:0:0:
376,180,53884,1,2,0:2:0:0:
480,48,54018,1,8,0:0:0:0:
472,144,54152,1,0,0:0:0:0:
292,128,54286,6,0,L|212:128,1,67.5000025749208,2|2,0:2|0:2,0:0:0:0:
140,24,54554,2,0,B|156:72|156:72|140:164,1,135.000005149842,8|2,0:0|0:2,0:0:0:0:
124,248,54956,1,2,0:2:0:0:
0,192,55090,2,0,P|36:184|76:192,1,67.5000025749208,8|0,0:0|0:0,0:0:0:0:
268,216,55358,6,0,P|232:224|192:216,1,67.5000025749208,2|2,0:2|0:2,0:0:0:0:
141,155,55625,1,8,0:0:0:0:
141,155,55759,1,0,0:0:0:0:
36,276,55893,2,0,L|32:352,1,67.5000025749208,2|2,0:2|0:2,0:0:0:0:
120,315,56161,2,0,L|124:239,1,67.5000025749208,8|2,0:0|0:2,0:0:0:0:
3,57,56429,6,0,L|-1:201,1,135.000005149842,2|8,0:2|0:0,0:0:0:0:
0,191,56831,1,2,0:2:0:0:
76,136,56965,1,10,0:2:0:0:
168,128,57099,1,2,0:2:0:0:
260,152,57233,1,10,0:2:0:0:
324,220,57366,1,2,0:2:0:0:
356,132,57500,6,0,L|400:80,1,67.5000025749208,12|2,0:0|0:2,0:0:0:0:
464,152,57768,2,0,L|420:204,1,67.5000025749208,8|2,0:0|0:2,0:0:0:0:
324,220,58036,1,8,0:0:0:0:
324,220,58170,1,2,0:2:0:0:
388,360,58304,2,0,P|393:327|385:294,1,67.5000025749208,8|0,0:0|0:0,0:0:0:0:
240,344,58572,6,0,L|320:332,1,67.5000025749208,8|2,0:0|0:2,0:0:0:0:
172,252,58840,2,0,L|252:240,1,67.5000025749208,8|2,0:0|0:2,0:0:0:0:
324,220,59108,1,8,0:0:0:0:
324,220,59241,1,2,0:2:0:0:
256,88,59375,2,0,P|251:121|259:153,1,67.5000025749208,8|0,0:0|0:0,0:0:0:0:
116,152,59643,6,0,L|36:160,1,67.5000025749208,8|2,0:0|0:2,0:0:0:0:
164,64,59911,2,0,L|96:70,1,67.5000025749208,8|2,0:0|0:2,0:0:0:0:
4,80,60179,1,8,3:0:0:0:
88,256,60313,1,2,3:2:0:0:
88,256,60380,1,2,3:2:0:0:
88,256,60447,6,0,L|8:264,1,67.5000025749208,8|2,3:2|3:2,0:0:0:0:
136,348,60715,2,0,L|184:344,1,33.7500012874604,8|0,3:0|3:0,0:0:0:0:
228,280,60849,2,0,L|261:282,1,33.7500012874604,2|0,3:2|3:0,0:0:0:0:
304,356,60983,2,0,L|352:352,1,33.7500012874604,8|0,3:0|3:0,0:0:0:0:
412,288,61116,2,0,B|396:240|396:240|412:144,1,135.000005149842,2|0,0:2|0:0,0:0:0:0:
412,288,61518,1,2,0:2:0:0:
409,156,61786,6,0,L|424:72,1,67.5000025749208,6|0,0:2|0:0,0:0:0:0:
504,140,62054,1,8,0:0:0:0:
504,140,62188,1,0,0:0:0:0:
316,172,62322,2,0,L|344:28,1,135.000005149842,2|8,0:2|0:0,0:0:0:0:
104,196,62858,6,0,L|76:340,1,135.000005149842,2|8,0:2|0:0,0:0:0:0:
78,328,63259,1,0,0:0:0:0:
172,316,63393,2,0,P|208:328|235:346,1,67.5000025749208,2|0,0:2|0:0,0:0:0:0:
344,288,63661,2,0,P|308:276|280:257,1,67.5000025749208,8|0,0:0|0:0,0:0:0:0:
208,104,63929,6,0,B|228:164|228:164|204:236,1,135.000005149842,2|8,0:2|0:0,0:0:0:0:
205,232,64331,1,0,0:0:0:0:
112,200,64465,2,0,L|36:200,1,67.5000025749208,2|0,0:2|0:0,0:0:0:0:
120,300,64733,2,0,L|44:300,1,67.5000025749208,8|0,0:0|0:0,0:0:0:0:
208,104,65000,6,0,L|288:104,1,67.5000025749208,2|0,0:2|0:0,0:0:0:0:
336,32,65268,1,8,0:0:0:0:
404,168,65402,2,0,L|404:96,1,67.5000025749208,0|2,0:0|0:2,0:0:0:0:
336,32,65670,1,0,0:0:0:0:
240,196,65804,2,0,L|324:196,1,67.5000025749208,8|0,0:0|0:0,0:0:0:0:
404,299,66072,6,0,B|388:235|388:235|408:147,1,135.000005149842,2|8,0:2|0:0,0:0:0:0:
472,232,66474,1,0,0:0:0:0:
328,336,66608,2,0,P|308:312|252:288,1,67.5000025749208,2|0,0:2|0:0,0:0:0:0:
184,292,66875,2,0,P|153:298|106:337,1,67.5000025749208,8|0,0:0|0:0,0:0:0:0:
24,224,67143,6,0,B|44:288|44:288|26:354,1,135.000005149842,2|8,0:2|0:0,0:0:0:0:
96,168,67545,2,0,L|116:232,1,67.5000025749208,0|2,0:0|0:2,0:0:0:0:
8,140,67813,1,0,0:0:0:0:
56,16,67947,2,0,L|76:96,1,67.5000025749208,8|0,0:0|0:0,0:0:0:0:
208,160,68215,6,0,B|184:96|184:96|216:20,1,135.000005149842,2|8,0:2|0:0,0:0:0:0:
276,100,68616,1,0,0:0:0:0:
208,160,68750,2,0,L|140:160,1,67.5000025749208,2|0,0:2|0:0,0:0:0:0:
364,100,69018,2,0,L|432:100,1,67.5000025749208,8|0,0:0|0:0,0:0:0:0:
320,20,69286,5,8,0:0:0:0:
332,192,69420,1,2,3:2:0:0:
332,192,69487,1,2,3:2:0:0:
332,192,69554,1,2,3:2:0:0:
280,272,69688,1,2,0:2:0:0:
376,272,69822,1,2,0:2:0:0:
336,364,69956,1,2,3:2:0:0:
336,364,70023,1,2,3:2:0:0:
336,364,70090,2,0,P|280:376|212:356,1,101.250003862381,10|0,3:2|0:0,0:0:0:0:
216,356,70358,6,0,L|132:364,1,67.5000025749208,2|0,0:2|0:2,0:0:0:0:
8,316,70625,2,0,L|92:324,1,67.5000025749208,8|0,0:0|0:0,0:0:0:0:
156,252,70893,1,2,0:2:0:0:
112,168,71027,1,0,0:0:0:0:
141,256,71161,1,8,0:0:0:0:
126,163,71295,1,0,0:0:0:0:
24,72,71429,6,0,L|180:32,1,135.000005149842,2|8,0:2|0:0,0:0:0:0:
216,112,71831,1,0,0:0:0:0:
360,56,71965,2,0,P|328:48|284:64,1,67.5000025749208,2|0,0:2|0:0,0:0:0:0:
396,136,72233,2,0,P|364:144|320:128,1,67.5000025749208,8|0,0:0|0:0,0:0:0:0:
480,68,72500,6,0,P|500:144|472:212,1,135.000005149842,2|8,0:2|0:0,0:0:0:0:
392,244,72902,1,0,0:0:0:0:
420,378,73036,1,2,0:2:0:0:
477,296,73170,1,0,0:0:0:0:
334,325,73304,2,0,L|261:323,1,67.5000025749208,8|0,0:0|0:0,0:0:0:0:
128,364,73572,5,2,0:2:0:0:
185,282,73706,1,0,0:0:0:0:
108,164,73840,2,0,L|108:248,1,67.5000025749208,8|0,0:0|0:0,0:0:0:0:
52,308,74108,1,2,0:2:0:0:
0,164,74241,2,0,L|0:248,1,67.5000025749208,0|8,0:0|0:0,0:0:0:0:
52,308,74509,1,0,0:0:0:0:
76,88,74643,6,0,P|112:80|160:96,1,67.5000025749208,2|0,0:2|0:0,0:0:0:0:
216,168,74911,2,0,P|252:176|300:160,1,67.5000025749208,8|0,0:0|0:0,0:0:0:0:
416,40,75179,1,2,0:2:0:0:
368,124,75313,1,0,0:0:0:0:
368,220,75447,1,8,0:0:0:0:
416,300,75581,1,0,0:0:0:0:
296,336,75715,6,0,L|220:336,1,67.5000025749208,2|0,0:2|0:0,0:0:0:0:
184,188,75983,2,0,P|192:220|184:260,1,67.5000025749208,8|0,0:0|0:0,0:0:0:0:
20,368,76250,2,0,P|14:334|22:302,1,67.5000025749208,2|0,0:2|0:0,0:0:0:0:
84,124,76518,1,8,0:0:0:0:
100,224,76652,1,0,0:0:0:0:
84,124,76786,6,0,L|0:124,1,67.5000025749208,2|0,0:2|0:0,0:0:0:0:
72,24,77054,1,8,0:0:0:0:
172,52,77188,2,0,P|200:108|168:200,1,135.000005149842,0|0,0:0|0:0,0:0:0:0:
288,136,77590,2,0,L|360:136,1,67.5000025749208,8|0,0:0|0:0,0:0:0:0:
368,44,77858,5,2,0:2:0:0:
448,96,77991,1,0,0:0:0:0:
336,228,78125,1,8,0:0:0:0:
416,280,78259,1,0,0:0:0:0:
420,196,78393,5,8,0:1:0:0:
496,320,78527,1,2,0:2:0:0:
332,316,78661,1,8,0:1:0:0:
500,232,78795,1,8,0:1:0:0:
416,364,78929,6,0,L|280:364,1,135.000005149842,6|8,0:2|0:0,0:0:0:0:
248,152,79331,2,0,B|272:216|272:216|244:296,1,135.000005149842,2|2,0:2|0:2,0:0:0:0:
216,80,79733,2,0,P|248:72|296:92,1,67.5000025749208,8|0,0:0|0:0,0:0:0:0:
176,220,80000,6,0,L|100:220,1,67.5000025749208,0|2,0:0|0:2,0:0:0:0:
136,312,80268,1,8,0:0:0:0:
136,312,80402,1,2,0:2:0:0:
32,256,80536,2,0,P|24:216|36:180,1,67.5000025749208,0|2,0:0|0:2,0:0:0:0:
100,72,80804,2,0,P|108:112|96:148,1,67.5000025749208,8|0,0:0|0:0,0:0:0:0:
12,104,81072,5,2,0:2:0:0:
12,104,81206,1,2,0:2:0:0:
188,32,81340,1,8,0:0:0:0:
176,220,81474,2,0,L|340:196,1,135.000005149842,2|2,0:2|0:2,0:0:0:0:
296,48,81875,2,0,P|284:84|288:112,1,67.5000025749208,8|0,0:0|0:0,0:0:0:0:
376,148,82143,5,0,0:0:0:0:
376,148,82277,1,2,0:2:0:0:
460,320,82411,2,0,P|480:252|452:184,1,135.000005149842,8|0,0:0|0:0,0:0:0:0:
459,193,82813,1,2,0:2:0:0:
320,324,82947,1,8,0:0:0:0:
388,256,83081,1,0,0:0:0:0:
232,240,83215,6,0,L|312:240,1,67.5000025749208,2|0,0:2|0:0,0:0:0:0:
168,324,83483,2,0,L|248:324,1,67.5000025749208,8|0,0:0|0:0,0:0:0:0:
80,240,83750,2,0,L|160:240,1,67.5000025749208,2|0,0:2|0:0,0:0:0:0:
16,320,84018,2,0,L|96:320,1,67.5000025749208,8|0,0:0|0:0,0:0:0:0:
147,240,84286,6,0,B|132:176|132:176|156:96,1,135.000005149842,2|8,0:2|0:0,0:0:0:0:
60,16,84688,2,0,P|52:52|60:88,1,67.5000025749208,0|2,0:0|0:2,0:0:0:0:
151,109,84956,1,0,0:0:0:0:
288,56,85090,1,8,0:0:0:0:
288,156,85224,1,0,0:0:0:0:
432,108,85358,6,0,L|356:108,1,67.5000025749208,2|0,0:2|0:0,0:0:0:0:
440,200,85625,2,0,L|364:200,1,67.5000025749208,8|0,0:0|0:0,0:0:0:0:
472,348,85893,2,0,P|480:312|464:272,1,67.5000025749208,2|0,0:2|0:0,0:0:0:0:
304,248,86161,2,0,P|280:312|312:384,1,135.000005149842,8|2,0:0|0:2,0:0:0:0:
372,312,86563,5,0,0:0:0:0:
200,332,86697,2,0,L|120:340,1,67.5000025749208,8|0,0:0|0:0,0:0:0:0:
52,292,86965,1,2,0:2:0:0:
52,380,87099,1,0,0:0:0:0:
200,244,87233,1,8,0:0:0:0:
200,332,87366,1,0,0:0:0:0:
122,176,87500,6,0,P|116:142|122:109,1,67.5000025749208,2|2,0:2|0:2,0:0:0:0:
288,212,87768,2,0,P|294:253|281:295,1,67.5000025749208,8|2,0:0|0:2,0:0:0:0:
216,128,88036,2,0,L|356:128,1,135.000005149842,0|8,0:0|0:0,0:0:0:0:
440,296,88438,2,0,P|416:236|456:156,1,135.000005149842,0|2,0:0|0:2,0:0:0:0:
424,8,88840,2,0,P|431:54|419:94,1,67.5000025749208,8|2,0:0|0:2,0:0:0:0:
351,128,89108,1,0,0:0:0:0:
351,128,89241,1,2,0:2:0:0:
216,44,89375,1,8,0:0:0:0:
216,208,89509,1,0,0:0:0:0:
13,127,89643,6,0,L|80:127,1,67.5000025749208,2|2,0:2|0:2,0:0:0:0:
152,272,89911,2,0,L|84:272,1,67.5000025749208,8|2,0:0|0:2,0:0:0:0:
132,60,90179,2,0,P|160:128|128:196,1,135.000005149842,0|8,0:0|0:0,0:0:0:0:
24,336,90581,2,0,P|-4:268|28:200,1,135.000005149842,0|2,0:0|0:2,0:0:0:0:
136,352,90983,2,0,L|216:352,1,67.5000025749208,8|0,0:0|0:0,0:0:0:0:
272,280,91250,1,0,0:0:0:0:
328,356,91384,1,2,0:2:0:0:
420,236,91518,1,8,0:0:0:0:
420,329,91652,1,0,0:0:0:0:
324,204,91786,1,8,0:1:0:0:
324,204,92054,6,0,L|316:156,3,33.7500012874604,8|0|0|0,0:1|0:0|0:0|0:0,0:0:0:0:
400,140,92322,2,0,L|392:92,3,33.7500012874604,8|0|0|0,0:1|0:0|0:0|0:0,0:0:0:0:
304,84,92590,2,0,L|296:36,3,33.7500012874604,8|0|0|0,0:1|0:0|0:0|0:0,0:0:0:0:
208,84,92858,6,0,L|216:36,3,33.7500012874604,8|0|0|0,0:1|0:0|0:0|0:0,0:0:0:0:
188,204,93125,2,0,L|196:156,3,33.7500012874604,8|0|0|0,0:1|0:0|0:0|0:0,0:0:0:0:
112,140,93393,2,0,L|120:92,3,33.7500012874604,8|0|0|0,0:1|0:0|0:0|0:0,0:0:0:0:
92,260,93661,2,0,L|100:212,3,33.7500012874604,8|0|0|0,0:1|0:0|0:0|0:0,0:0:0:0:
0,304,93929,5,8,0:1:0:0:
15,323,93996,1,0,0:0:0:0:
35,339,94063,1,0,0:0:0:0:
58,350,94130,1,0,0:0:0:0:
83,355,94197,1,8,0:1:0:0:
108,354,94264,1,0,0:0:0:0:
132,347,94331,1,0,0:0:0:0:
155,336,94398,1,0,0:0:0:0:
176,322,94465,5,8,0:1:0:0:
196,307,94532,1,0,0:0:0:0:
217,293,94599,1,0,0:0:0:0:
240,282,94666,1,0,0:0:0:0:
265,276,94733,1,8,0:1:0:0:
290,277,94799,1,0,0:0:0:0:
315,282,94866,1,0,0:0:0:0:
338,293,94933,1,0,0:0:0:0:
358,307,95000,5,8,0:1:0:0:
358,307,95670,1,2,3:2:0:0:
460,272,95804,2,0,P|468:324|456:360,1,67.5000025749208,8|0,1:0|0:0,0:0:0:0:
376,204,96072,6,0,B|348:120|348:120|384:8,2,180,6|8|2,0:2|0:0|0:2,0:0:0:0:
464,120,96741,1,2,0:2:0:0:
348,120,96875,2,0,L|248:120,1,90,8|0,0:0|0:0,0:0:0:0:
68,120,97143,5,2,0:2:0:0:
68,120,97277,1,2,0:2:0:0:
160,68,97411,2,0,P|172:124|156:172,1,90,8|0,0:0|0:0,0:0:0:0:
80,220,97679,1,2,0:2:0:0:
160,68,97813,1,2,0:2:0:0:
236,228,97947,2,0,L|336:228,1,90,8|0,0:0|0:0,0:0:0:0:
172,360,98215,6,0,P|162:315|180:260,1,90,2|2,0:2|0:2,0:0:0:0:
280,144,98483,1,8,0:0:0:0:
336,316,98616,2,0,L|236:316,1,90,0|2,0:0|0:2,0:0:0:0:
164,168,98884,1,2,0:2:0:0:
384,68,99018,2,0,P|412:132|380:224,1,135,8|0,0:0|0:0,0:0:0:0:
384,220,99286,1,2,0:2:0:0:
280,144,99420,5,2,0:2:0:0:
164,168,99554,2,0,L|52:168,1,90,8|2,0:0|0:2,0:0:0:0:
120,80,99822,1,8,0:0:0:0:
156,248,99956,1,2,0:2:0:0:
4,348,100090,1,8,0:0:0:0:
74,168,100224,1,2,0:2:0:0:
200,320,100358,6,0,L|290:320,1,90,6|2,0:2|0:2,0:0:0:0:
468,352,100625,2,0,B|444:292|444:292|476:172,1,180,8|2,0:2|0:2,0:0:0:0:
473,180,101027,1,2,0:2:0:0:
364,56,101161,2,0,P|352:112|368:152,1,90,8|0,0:0|0:0,0:0:0:0:
444,292,101429,5,2,0:2:0:0:
444,292,101563,1,2,0:2:0:0:
300,200,101697,2,0,B|252:180|196:200|224:216|168:236|124:212,1,180,8|2,0:0|0:2,0:0:0:0:
160,124,102099,1,2,0:2:0:0:
264,284,102233,2,0,P|276:328|260:376,1,90,8|0,0:0|0:0,0:0:0:0:
52,256,102500,6,0,P|40:212|56:164,1,90,2|2,0:2|0:2,0:0:0:0:
208,208,102768,1,8,0:0:0:0:
100,332,102902,2,0,P|56:344|0:328,1,90,0|2,0:0|0:2,0:0:0:0:
51,170,103170,1,2,0:2:0:0:
220,60,103304,2,0,B|248:128|248:128|208:200,1,135,8|0,0:0|0:0,0:0:0:0:
208,208,103572,6,0,L|312:192,1,90,2|2,0:2|0:2,0:0:0:0:
400,268,103840,2,0,L|504:252,1,90,8|2,0:0|0:2,0:0:0:0:
404,172,104108,1,8,3:0:0:0:
476,352,104241,1,8,3:0:0:0:
484,164,104375,1,8,3:0:0:0:
396,360,104509,1,8,3:0:0:0:
228,284,104643,6,0,L|124:300,1,90,6|2,0:2|0:2,0:0:0:0:
64,344,104911,1,8,0:0:0:0:
68,168,105045,2,0,P|56:220|68:264,1,90,0|2,0:0|0:2,0:0:0:0:
139,297,105313,1,2,0:2:0:0:
164,80,105447,6,0,L|16:80,1,135,8|0,0:0|0:0,0:0:0:0:
4,80,105715,1,2,0:2:0:0:
232,36,105849,2,0,P|245:78|234:121,1,90,2|8,0:2|0:0,0:0:0:0:
156,164,106116,1,0,0:0:0:0:
296,188,106250,5,2,0:2:0:0:
172,248,106384,1,2,0:2:0:0:
234,121,106518,1,8,0:0:0:0:
256,268,106652,2,0,L|360:292,1,90,0|2,0:0|0:2,0:0:0:0:
428,308,106920,1,2,0:2:0:0:
400,84,107054,6,0,P|368:156|404:232,1,135,8|0,0:0|0:0,0:0:0:0:
400,228,107322,1,2,0:2:0:0:
368,376,107456,2,0,L|280:355,1,90,2|8,0:2|0:0,0:0:0:0:
256,268,107724,1,0,0:0:0:0:
112,340,107858,6,0,P|160:352|212:332,1,90,2|2,0:2|0:2,0:0:0:0:
302,178,108125,2,0,P|254:166|202:186,1,90,8|0,0:0|0:0,0:0:0:0:
112,340,108393,1,2,0:2:0:0:
216,177,108527,1,2,0:2:0:0:
84,32,108661,2,0,B|76:128|76:128|92:192,1,135,8|0,0:0|0:0,0:0:0:0:
92,188,108929,6,0,L|-4:188,1,90,6|2,0:2|0:2,0:0:0:0:
180,88,109197,2,0,L|276:88,1,90,8|0,0:0|0:0,0:0:0:0:
217,262,109465,2,0,P|205:214|217:174,1,90,2|2,0:2|0:2,0:0:0:0:
408,36,109733,2,0,P|420:84|408:124,1,90,8|0,0:0|0:0,0:0:0:0:
296,216,110000,5,2,0:2:0:0:
409,121,110134,1,2,0:2:0:0:
472,312,110268,2,0,B|388:280|388:280|300:308,1,180,8|2,0:0|0:2,0:0:0:0:
302,307,110670,1,2,0:2:0:0:
140,312,110804,2,0,P|128:264|148:212,1,90,8|0,0:0|0:0,0:0:0:0:
208,80,111072,6,0,P|220:128|200:180,1,90,2|2,0:2|0:2,0:0:0:0:
40,120,111340,2,0,L|136:120,1,90,8|0,0:0|0:0,0:0:0:0:
276,28,111608,1,2,0:2:0:0:
276,28,111741,1,2,0:2:0:0:
284,204,111875,2,0,L|388:204,1,90,8|0,0:0|0:0,0:0:0:0:
456,200,112143,5,8,0:2:0:0:
324,120,112277,1,2,0:2:0:0:
328,292,112411,1,8,0:0:0:0:
328,292,112545,1,2,0:2:0:0:
212,136,112679,1,8,0:0:0:0:
212,264,112813,1,8,0:0:0:0:
88,104,112947,1,8,0:0:0:0:
88,296,113081,1,8,0:0:0:0:
284,204,113215,5,6,0:2:0:0:
156,328,118170,5,2,3:2:0:0:
156,328,118237,1,2,3:2:0:0:
156,328,118304,2,0,L|156:240,1,67.5,8|0,3:0|0:0,0:0:0:0:
100,200,118572,6,0,P|96:156|112:116,1,67.5000025749208,12|2,0:2|0:0,0:0:0:0:
172,68,118840,1,0,0:0:0:0:
252,172,118974,1,2,0:2:0:0:
252,172,119108,2,0,P|216:180|176:168,1,67.5000025749208,8|2,0:0|0:2,0:0:0:0:
312,244,119375,2,0,P|272:264|236:268,1,67.5000025749208,0|0,0:0|0:0,0:0:0:0:
352,152,119643,6,0,L|456:248,1,135.000005149842,8|0,0:2|0:0,0:0:0:0:
451,243,120045,1,2,0:2:0:0:
428,344,120179,2,0,L|376:296,1,67.5000025749208,8|2,0:0|0:2,0:0:0:0:
492,164,120447,2,0,L|440:116,1,67.5000025749208,0|0,0:0|0:0,0:0:0:0:
364,60,120715,5,8,0:0:0:0:
352,152,120849,1,2,0:2:0:0:
276,96,120983,1,0,0:0:0:0:
264,188,121116,1,2,0:2:0:0:
264,188,121250,2,0,L|208:244,1,67.5000025749208,8|2,0:0|0:2,0:0:0:0:
144,296,121518,1,0,0:0:0:0:
144,296,121786,6,0,B|76:272|76:272|8:296,1,135.000005149842,8|0,0:0|0:0,0:0:0:0:
80,364,122188,1,2,0:2:0:0:
32,196,122322,1,8,0:0:0:0:
128,196,122456,1,2,0:2:0:0:
80,24,122590,1,0,0:0:0:0:
80,116,122724,1,0,0:0:0:0:
260,72,122858,6,0,L|348:72,2,67.5000025749208,8|2|0,0:0|0:2|0:0,0:0:0:0:
164,72,123259,1,2,0:2:0:0:
212,164,123393,2,0,P|216:204|208:240,1,67.5000025749208,8|2,0:0|0:2,0:0:0:0:
288,336,123661,2,0,P|284:296|292:260,1,67.5000025749208,0|0,0:0|0:0,0:0:0:0:
436,304,123929,6,0,B|400:312|400:312|364:304,2,67.5000025749208,8|2|0,0:0|0:2|0:0,0:0:0:0:
492,228,124331,1,2,0:2:0:0:
432,152,124465,2,0,B|396:144|396:144|360:152,1,67.5000025749208,8|2,0:0|0:2,0:0:0:0:
304,220,124733,1,0,0:0:0:0:
304,220,125000,6,0,B|224:220,1,67.5000025749208,8|0,0:0|0:0,0:0:0:0:
148,256,125268,2,0,L|88:256,3,45.0000017166138,4|4|4|4,3:0|3:0|3:0|3:0,0:0:0:0:
139,211,126072,6,0,L|148:256,1,45.0000017166138,2|0,0:0|0:0,0:0:0:0:
165,137,126250,2,0,L|200:108,1,45.0000017166138,2|0,0:0|0:0,0:0:0:0:
90,150,126429,2,0,L|48:136,1,45.0000017166138,2|0,0:0|0:0,0:0:0:0:
147,255,126608,6,0,L|156:300,1,45.0000017166138,2|0,0:0|0:0,0:0:0:0:
199,107,126786,2,0,L|234:78,1,45.0000017166138,2|0,0:0|0:0,0:0:0:0:
47,135,126965,2,0,L|5:121,1,45.0000017166138,2|0,0:0|0:0,0:0:0:0:
232,208,127143,6,0,L|308:236,1,67.5000025749208,6|0,0:2|0:0,0:0:0:0:
376,356,127411,2,0,L|300:328,1,67.5000025749208,8|0,0:0|0:0,0:0:0:0:
228,344,127679,1,2,0:2:0:0:
228,344,127813,1,0,0:0:0:0:
392,212,127947,1,8,0:0:0:0:
392,212,128081,1,0,0:0:0:0:
284,52,128215,6,0,P|277:84|282:118,1,67.5000025749208,2|0,0:2|0:0,0:0:0:0:
468,248,128483,2,0,P|474:215|469:181,1,67.5000025749208,8|0,0:0|0:0,0:0:0:0:
364,92,128750,1,2,0:2:0:0:
472,56,128884,1,0,0:0:0:0:
368,108,129018,1,8,0:0:0:0:
468,40,129152,1,0,0:0:0:0:
392,212,129286,6,0,L|308:212,1,67.5000025749208,2|0,0:2|0:0,0:0:0:0:
172,284,129554,2,0,L|256:284,1,67.5000025749208,8|0,0:0|0:0,0:0:0:0:
88,284,129822,1,2,0:2:0:0:
204,176,129956,1,0,0:0:0:0:
316,284,130090,1,8,0:0:0:0:
204,384,130224,1,0,0:0:0:0:
128,208,130358,6,0,P|120:176|140:124,1,67.5000025749208,2|0,0:2|0:0,0:0:0:0:
200,24,130625,2,0,P|208:56|188:108,1,67.5000025749208,8|0,0:0|0:0,0:0:0:0:
60,56,130893,2,0,L|144:56,1,67.5000025749208,2|0,0:2|0:0,0:0:0:0:
204,176,131161,2,0,L|288:176,1,67.5000025749208,8|0,0:0|0:0,0:0:0:0:
425,48,131429,5,2,0:2:0:0:
492,115,131563,1,0,0:0:0:0:
420,228,131697,1,8,0:0:0:0:
488,296,131831,1,0,0:0:0:0:
422,363,131965,2,0,P|385:373|346:363,1,67.5000025749208,2|0,0:2|0:0,0:0:0:0:
354,232,132233,2,0,P|391:222|430:232,1,67.5000025749208,8|0,0:0|0:0,0:0:0:0:
232,295,132500,6,0,L|144:295,1,67.5000025749208,2|0,0:2|0:0,0:0:0:0:
88,352,132768,1,8,0:0:0:0:
97,157,132902,2,0,P|105:193|97:229,1,67.5000025749208,0|2,0:0|0:2,0:0:0:0:
9,192,133170,1,0,0:0:0:0:
99,66,133304,2,0,P|135:74|167:106,1,67.5000025749208,8|0,0:0|0:0,0:0:0:0:
256,192,133572,6,0,L|412:168,1,135.000005149842,2|8,0:2|0:0,0:0:0:0:
336,92,133974,1,0,0:0:0:0:
356,268,134108,2,0,L|440:252,1,67.5000025749208,2|0,0:2|0:0,0:0:0:0:
402,79,134375,2,0,L|318:95,1,67.5000025749208,8|0,0:0|0:0,0:0:0:0:
256,192,134643,5,8,0:0:0:0:
177,91,134777,1,2,0:2:0:0:
177,91,134844,1,0,0:3:0:0:
177,91,134911,1,8,0:0:0:0:
256,192,135045,1,2,0:2:0:0:
124,208,135179,1,8,0:0:0:0:
208,316,135313,1,2,0:2:0:0:
184,160,135447,1,8,0:0:0:0:
148,360,135581,1,2,0:2:0:0:
0,272,135715,6,0,L|80:272,1,67.5000025749208,8|0,3:0|3:0,0:0:0:0:
67,272,136116,1,8,3:1:0:0:
512,112,137858,6,0,L|432:112,1,67.5000025749208,8|0,3:0|3:0,0:0:0:0:
445,112,138259,1,8,3:0:0:0:
445,112,138527,1,2,3:2:0:0:
380,180,138661,6,0,B|360:244|360:244|384:324,1,135.000005149842,8|0,3:1|2:0,0:0:0:0:
452,248,139063,1,2,3:2:0:0:
292,336,139197,2,0,L|212:336,1,67.5000025749208,8|0,2:0|3:0,0:0:0:0:
184,256,139465,1,2,2:2:0:0:
184,256,139599,1,2,0:2:0:0:
72,336,139733,1,8,3:0:0:0:
72,336,139799,1,0,3:0:0:0:
72,336,139866,1,0,3:0:0:0:
72,336,139933,1,0,3:0:0:0:
72,336,140000,6,0,P|80:296|68:256,1,67.5000025749208,6|0,0:2|0:0,0:0:0:0:
44,184,140268,2,0,P|36:144|48:104,1,67.5000025749208,8|0,0:0|0:0,0:0:0:0:
200,148,140536,2,0,P|168:156|124:144,1,67.5000025749208,2|0,0:2|0:0,0:0:0:0:
8,32,140804,2,0,P|40:24|84:36,1,67.5000025749208,8|0,0:0|0:0,0:0:0:0:
252,72,141072,6,0,B|320:92|320:92|388:72,1,135.000005149842,2|8,0:2|0:0,0:0:0:0:
366,166,141474,2,0,P|359:199|368:232,1,67.5000025749208,0|2,0:0|0:2,0:0:0:0:
428,308,141741,1,0,0:0:0:0:
504,196,141875,2,0,L|420:196,1,67.5000025749208,8|0,0:0|0:0,0:0:0:0:
280,340,142143,6,0,L|368:340,1,67.5000025749208,2|0,0:2|0:0,0:0:0:0:
196,216,142411,2,0,B|216:284|216:284|192:356,1,135.000005149842,8|2,0:0|0:2,0:0:0:0:
195,344,142813,1,0,0:0:0:0:
48,280,142947,2,0,L|120:280,1,67.5000025749208,8|0,0:0|0:0,0:0:0:0:
128,88,143215,6,0,P|120:140|136:180,1,67.5000025749208,8|2,0:0|0:2,0:0:0:0:
196,216,143483,1,2,0:2:0:0:
348,168,143616,2,0,P|356:116|340:76,1,67.5000025749208,8|2,0:0|0:2,0:0:0:0:
280,40,143884,1,2,0:2:0:0:
204,128,144018,2,0,L|276:128,1,67.5000025749208,8|0,0:0|0:0,0:0:0:0:
340,268,144286,6,0,L|268:268,1,67.5000025749208,6|2,0:2|0:2,0:0:0:0:
425,201,144554,2,0,B|445:265|445:265|421:341,1,135.000005149842,0|8,0:0|0:0,0:0:0:0:
195,344,145090,1,0,0:2:0:0:
195,344,145224,6,0,B|175:280|175:280|199:204,1,135.000005149842,2|8,0:2|0:0,0:0:0:0:
100,272,145625,2,0,L|28:272,1,67.5000025749208,0|2,0:0|0:2,0:0:0:0:
64,164,145893,1,8,0:0:0:0:
60,364,146161,1,2,0:2:0:0:
104,72,146429,6,0,P|64:64|24:76,1,67.5000025749208,2|0,0:2|0:0,0:0:0:0:
224,152,146697,2,0,P|184:160|144:148,1,67.5000025749208,2|0,0:2|0:0,0:0:0:0:
280,72,146965,1,8,0:0:0:0:
280,72,147099,1,2,0:2:0:0:
236,308,147366,1,2,0:2:0:0:
236,308,147500,6,0,L|376:308,1,135.000005149842,8|0,0:0|0:0,0:0:0:0:
448,372,147902,1,2,0:2:0:0:
440,216,148036,1,8,0:0:0:0:
371,308,148170,1,2,0:2:0:0:
512,284,148304,1,8,0:1:0:0:
440,120,148438,1,0,0:1:0:0:
440,112,148505,1,0,0:1:0:0:
440,104,148572,6,0,L|360:104,1,67.5000025749208,8|0,0:0|0:0,0:0:0:0:
304,160,148840,2,0,L|224:160,1,67.5000025749208,0|0,0:0|0:0,0:0:0:0:
164,224,149108,1,8,0:0:0:0:
96,156,149241,1,0,0:0:0:0:
164,92,149375,1,0,0:0:0:0:
160,312,149509,1,0,0:0:0:0:
160,320,149576,1,0,0:0:0:0:
160,328,149643,6,0,L|80:328,1,67.5000025749208,8|0,0:0|0:0,0:0:0:0:
312,276,149911,2,0,L|232:276,1,67.5000025749208,0|0,0:0|0:0,0:0:0:0:
376,216,150179,1,8,0:0:0:0:
376,332,150313,1,0,0:0:0:0:
504,276,150447,2,0,L|432:276,1,67.5000025749208,0|0,0:0|0:0,0:0:0:0:
308,156,150715,5,8,0:0:0:0:
308,156,150849,1,0,0:0:0:0:
436,276,150983,1,8,0:0:0:0:
436,276,151116,1,0,0:0:0:0:
304,384,151250,1,8,0:0:0:0:
304,384,151384,1,0,0:0:0:0:
172,276,151518,2,0,L|84:276,1,67.5000025749208,8|0,0:0|0:0,0:0:0:0:
52,180,151786,6,0,L|40:120,3,33.7500012874604,8|0|0|0,0:0|0:0|0:0|0:0,0:0:0:0:
192,180,152054,2,0,L|204:120,3,33.7500012874604,8|0|0|0,0:0|0:0|0:0|0:0,0:0:0:0:
112,96,152322,1,8,0:0:0:0:
90,84,152389,1,0,0:0:0:0:
79,61,152456,1,0,0:0:0:0:
82,37,152523,1,0,0:0:0:0:
99,19,152590,1,8,0:0:0:0:
124,13,152657,1,0,0:0:0:0:
147,23,152724,1,0,0:0:0:0:
160,44,152791,1,0,0:0:0:0:
160,72,152858,6,0,L|208:72,3,33.7500012874604,10|0|0|0,0:0|0:0|0:0|0:0,0:0:0:0:
280,72,153125,2,0,L|328:72,1,33.7500012874604,10|0,0:0|0:0,0:0:0:0:
436,68,153259,2,0,L|440:24,3,33.7500012874604,2|0|8|0,0:0|0:0|0:0|0:0,0:0:0:0:
468,148,153527,2,0,L|504:173,3,33.7500012874604,2|0|8|0,0:0|0:0|0:0|0:0,0:0:0:0:
384,136,153795,2,0,L|343:154,1,33.7500012874604,2|0,0:0|0:0,0:0:0:0:
272,188,153929,5,10,0:0:0:0:
272,188,154599,5,0,3:0:0:0:
137,271,154733,2,0,P|161:234|173:274,1,101.250003862381,8|0,1:0|3:0,0:0:0:0:
176,269,155000,6,0,B|151:179|151:179|184:77,2,180,6|8|2,0:2|0:0|0:2,0:0:0:0:
204,356,155670,1,2,0:2:0:0:
360,284,155804,2,0,P|368:228|356:188,1,90,8|0,0:0|0:0,0:0:0:0:
276,240,156072,5,2,0:2:0:0:
276,240,156206,1,2,0:2:0:0:
432,320,156340,2,0,P|448:248|420:132,1,180,8|2,0:0|0:2,0:0:0:0:
344,108,156741,1,2,0:2:0:0:
204,196,156875,2,0,P|192:248|208:292,1,90,8|0,0:0|0:0,0:0:0:0:
248,104,157143,6,0,L|136:104,1,90,2|2,0:2|0:2,0:0:0:0:
76,140,157411,1,8,0:0:0:0:
30,318,157545,2,0,L|142:318,1,90,0|2,0:0|0:2,0:0:0:0:
202,282,157813,1,2,0:2:0:0:
104,68,157947,2,0,P|76:132|108:224,1,135,8|0,0:0|0:0,0:0:0:0:
104,220,158215,1,2,0:2:0:0:
280,220,158349,5,2,0:2:0:0:
244,356,158483,2,0,P|192:368|136:344,1,90,8|0,0:0|0:0,0:0:0:0:
200,184,158750,1,8,0:0:0:0:
202,282,158884,1,2,0:2:0:0:
336,152,159018,1,8,0:0:0:0:
336,320,159152,1,2,0:2:0:0:
420,236,159286,6,0,L|510:236,1,90,6|2,0:2|0:2,0:0:0:0:
336,320,159554,2,0,B|304:236|304:236|340:144,1,180,8|2,0:0|0:2,0:0:0:0:
372,68,159956,1,2,0:2:0:0:
232,28,160090,2,0,P|221:71|234:113,1,90,8|0,0:0|0:0,0:0:0:0:
168,256,160358,6,0,P|178:212|165:170,1,90,2|2,0:2|0:2,0:0:0:0:
52,24,160625,2,0,B|88:108|88:108|56:196,1,180,8|2,0:0|0:2,0:0:0:0:
32,276,161027,1,2,0:2:0:0:
184,355,161161,2,0,L|276:328,1,90,8|0,0:0|0:0,0:0:0:0:
256,232,161429,6,0,L|163:258,1,90,2|2,0:2|0:2,0:0:0:0:
104,321,161697,1,8,0:0:0:0:
336,272,161831,2,0,P|344:212|328:172,1,90,0|2,0:0|0:2,0:0:0:0:
256,140,162099,1,2,0:2:0:0:
340,12,162233,2,0,P|332:72|348:112,1,90,8|0,0:0|0:0,0:0:0:0:
504,56,162500,6,0,L|408:56,1,90,2|2,0:2|0:2,0:0:0:0:
164,231,162768,2,0,L|260:231,1,90,8|0,0:0|0:0,0:0:0:0:
335,184,163036,1,8,3:0:0:0:
256,324,163170,1,8,3:0:0:0:
256,140,163304,1,8,3:0:0:0:
336,272,163438,1,8,3:0:0:0:
164,231,163572,6,0,L|60:232,1,90,6|2,0:2|0:2,0:0:0:0:
52,320,163840,1,8,0:0:0:0:
120,136,163974,2,0,P|127:92|115:49,1,90,0|2,0:0|0:2,0:0:0:0:
40,100,164241,1,2,0:2:0:0:
200,48,164375,6,0,P|260:28|335:48,1,135,8|0,0:0|0:0,0:0:0:0:
344,56,164643,1,2,0:2:0:0:
265,217,164777,2,0,P|252:175|263:132,1,90,2|8,0:2|0:0,0:0:0:0:
344,168,165045,1,0,0:0:0:0:
188,264,165179,5,2,0:2:0:0:
263,131,165313,1,2,0:2:0:0:
276,308,165447,1,8,0:0:0:0:
344,168,165581,2,0,L|456:168,1,90,0|2,0:0|0:2,0:0:0:0:
484,244,165849,1,2,0:2:0:0:
344,384,165983,6,0,P|376:312|344:240,1,135,8|0,0:0|0:0,0:0:0:0:
344,244,166250,1,2,0:2:0:0:
192,360,166384,2,0,L|93:362,1,90,2|8,0:2|0:0,0:0:0:0:
44,292,166652,1,0,0:0:0:0:
136,140,166786,6,0,L|140:260,1,90,2|2,0:2|0:2,0:0:0:0:
256,300,167054,2,0,L|258:210,1,90,8|0,0:0|0:0,0:0:0:0:
260,88,167322,1,2,0:2:0:0:
260,88,167456,1,2,0:2:0:0:
376,200,167590,2,0,P|356:168|384:64,1,135,8|0,0:0|0:0,0:0:0:0:
392,60,167858,6,0,L|480:80,1,90,6|2,0:2|0:2,0:0:0:0:
452,304,168125,2,0,L|364:284,1,90,8|0,0:0|0:0,0:0:0:0:
148,284,168393,2,0,L|60:304,1,90,2|2,0:2|0:2,0:0:0:0:
32,80,168661,2,0,L|120:60,1,90,8|0,0:0|0:0,0:0:0:0:
256,156,168929,5,2,0:2:0:0:
256,156,169063,1,2,0:2:0:0:
368,232,169197,2,0,P|396:152|360:64,1,180,8|2,0:0|0:2,0:0:0:0:
362,66,169599,1,2,0:2:0:0:
252,268,169733,2,0,P|280:316|324:336,1,90,8|0,0:0|0:0,0:0:0:0:
428,336,170000,6,0,P|465:311|484:271,1,90,2|2,0:2|0:2,0:0:0:0:
372,145,170268,2,0,P|359:190|379:250,1,90,8|0,0:0|0:0,0:0:0:0:
428,336,170536,1,2,0:2:0:0:
428,336,170670,1,2,0:2:0:0:
308,332,170804,1,8,0:0:0:0:
308,332,170938,1,0,0:0:0:0:
165,328,171072,6,0,B|138:330|121:319|121:319|102:325|102:325|85:313|62:317,1,101.250003862381,0|0,3:0|3:0,0:0:0:0:
44,312,171340,2,0,L|48:284,6,16.8750006437302,0|0|0|0|0|0|0,0:0|3:0|0:0|3:0|0:0|3:0|0:0,0:0:0:0:
48,188,171608,6,0,B|75:190|92:179|92:179|111:185|111:185|128:173|151:177,1,101.250003862381,0|0,3:0|2:0,0:0:0:0:
172,172,171875,2,0,L|168:132,1,33.7500012874604,2|0,0:2|0:0,0:0:0:0:
212,52,172009,2,0,L|208:18,1,33.7500012874604,2|0,0:2|0:0,0:0:0:0:
316,88,172143,6,0,B|400:132|400:132|476:92,2,180,6|8|2,0:2|0:0|0:2,0:0:0:0:
400,24,172813,1,2,0:2:0:0:
480,188,172947,2,0,P|488:234|480:278,1,90,8|0,0:0|0:0,0:0:0:0:
336,300,173215,6,0,P|312:252|408:244,1,180,2|8,0:2|0:0,0:0:0:0:
403,233,173616,1,0,0:0:0:0:
384,368,173750,2,0,P|340:380|276:356,1,90,2|2,0:2|0:2,0:0:0:0:
144,312,174018,2,0,P|188:300|252:324,1,90,8|0,0:0|0:0,0:0:0:0:
328,220,174286,6,0,L|300:120,1,90,2|2,0:2|0:2,0:0:0:0:
233,91,174554,1,8,0:0:0:0:
49,183,174688,2,0,L|77:283,1,90,0|2,0:0|0:2,0:0:0:0:
144,312,174956,1,2,0:2:0:0:
233,91,175090,2,0,P|165:76|90:105,1,135,8|0,0:0|0:0,0:0:0:0:
85,109,175358,6,0,P|73:60|86:18,1,90,2|2,0:2|0:2,0:0:0:0:
302,47,175625,2,0,P|314:96|301:138,1,90,8|2,0:0|0:2,0:0:0:0:
174,194,175893,1,8,0:0:0:0:
174,194,176027,1,2,0:2:0:0:
233,91,176161,1,8,0:0:0:0:
85,109,176295,1,2,0:2:0:0:
186,283,176429,6,0,L|171:173,1,90,2|2,0:2|0:2,0:0:0:0:
380,154,176697,2,0,L|361:348,1,180,8|2,0:0|0:2,0:0:0:0:
362,333,177099,1,2,0:2:0:0:
300,183,177233,1,8,0:0:0:0:
448,251,177366,1,0,0:0:0:0:
428,90,177500,6,0,P|388:73|340:83,1,90,2|2,0:2|0:2,0:0:0:0:
145,226,177768,2,0,L|127:46,1,180,8|2,0:0|0:2,0:0:0:0:
127,46,178170,1,2,0:2:0:0:
62,195,178304,1,8,0:0:0:0:
214,138,178438,1,0,0:0:0:0:
192,298,178572,6,0,P|133:312|82:280,2,90,2|2|8,0:2|0:2|0:0,0:0:0:0:
257,223,178974,1,0,0:0:0:0:
420,345,179108,2,0,P|355:355|315:332,1,90,2|2,0:2|0:2,0:0:0:0:
375,107,179375,2,0,L|374:241,1,135,8|0,0:0|0:0,0:0:0:0:
374,265,179643,5,2,0:2:0:0:
301,143,179777,1,2,0:2:0:0:
453,61,179911,2,0,L|452:154,1,90,8|2,0:0|0:2,0:0:0:0:
420,345,180179,1,10,0:0:0:0:
257,223,180313,1,10,0:2:0:0:
460,261,180447,1,8,0:0:0:0:
260,314,180581,1,10,0:2:0:0:
372,148,180715,6,0,L|372:48,1,90,6|2,0:0|0:2,0:0:0:0:
372,58,180983,1,8,0:0:0:0:
120,268,181116,2,0,L|120:368,1,90,0|2,0:0|0:2,0:0:0:0:
120,358,181384,1,2,0:2:0:0:
190,182,181518,2,0,B|125:163|125:163|37:188,1,135,8|0,0:0|0:0,0:0:0:0:
39,187,181786,6,0,L|39:88,1,90,2|2,0:2|0:2,0:0:0:0:
39,97,182054,1,8,0:0:0:0:
36,273,182188,1,0,0:0:0:0:
190,182,182322,2,0,P|236:171|282:185,1,90,2|2,0:2|0:2,0:0:0:0:
233,261,182590,1,8,0:0:0:0:
144,102,182724,1,0,0:0:0:0:
319,94,182858,6,0,L|410:94,1,90,2|2,0:2|0:2,0:0:0:0:
409,94,183125,1,8,0:0:0:0:
386,330,183259,2,0,L|295:330,1,90,0|2,0:0|0:2,0:0:0:0:
296,330,183527,1,2,0:2:0:0:
479,155,183661,2,0,B|498:226|498:226|473:297,1,135,8|0,0:0|0:0,0:0:0:0:
468,301,183929,5,2,0:2:0:0:
396,224,184063,1,2,0:2:0:0:
227,286,184197,2,0,P|216:345|231:383,1,90,8|0,0:0|0:0,0:0:0:0:
336,256,184465,2,0,B|372:260|396:224|396:224|360:236|324:220,1,135,2|0,0:2|0:0,0:0:0:0:
256,176,184733,2,0,B|220:172|196:208|196:208|232:196|268:212,1,135,2|0,0:2|0:0,0:0:0:0:
227,286,185000,5,6,0:2:0:0:
156,344,185134,1,2,0:2:0:0:
68,336,185268,1,8,0:0:0:0:
16,260,185402,2,0,L|16:157,1,90,0|2,0:0|0:2,0:0:0:0:
161,43,185670,1,2,0:2:0:0:
241,82,185804,2,0,L|241:185,1,90,8|0,0:0|0:0,0:0:0:0:
448,262,186072,5,2,0:2:0:0:
415,336,186206,2,0,P|371:346|328:336,1,90,2|8,0:2|0:0,0:0:0:0:
293,258,186474,1,0,0:0:0:0:
410,185,186608,1,2,0:2:0:0:
328,336,186741,1,2,0:2:0:0:
333,182,186875,2,0,B|352:116|352:116|332:49,1,135,8|0,0:0|0:0,0:0:0:0:
325,28,187143,5,8,3:0:0:0:
247,110,187277,1,0,3:0:0:0:
86,113,187411,1,0,3:0:0:0:
164,31,187545,1,0,3:0:0:0:
168,183,187679,2,0,L|151:275,1,90,8|0,3:0|3:0,0:0:0:0:
52,306,187947,1,0,3:0:0:0:
256,244,188081,1,0,3:0:0:0:
86,113,188215,5,8,3:0:0:0:
172,351,188349,2,0,B|257:323|257:323|345:354,1,180,0|0,3:0|3:0,0:0:0:0:
343,354,188750,1,8,3:0:0:0:
469,311,188884,1,0,3:0:0:0:
339,128,189018,1,0,3:0:0:0:
256,244,189152,1,0,3:0:0:0:
471,179,189286,5,4,2:0:0:0:
256,192,189353,12,0,191429,2:0:0:0:
92,296,197456,6,0,P|107:308|131:316,1,45,0|0,2:0|2:0,0:0:0:0:
212,331,197590,2,0,P|231:329|254:319,1,45,0|0,2:0|2:0,0:0:0:0:
340,272,197724,1,2,2:0:0:0:
340,272,197791,1,2,2:0:0:0:
340,272,197858,6,0,L|347:369,1,90,8|0,0:0|0:0,0:0:0:0:
480,216,198125,2,0,L|473:313,1,90,0|0,0:0|0:0,0:0:0:0:
240,224,198393,2,0,P|212:144|252:44,1,180,8|0,0:0|0:0,0:0:0:0:
240,56,198795,1,0,0:0:0:0:
128,116,198929,6,0,L|28:108,1,90,8|0,0:0|0:0,0:0:0:0:
40,248,199197,2,0,L|140:240,1,90,0|0,0:0|0:0,0:0:0:0:
240,224,199465,1,8,0:0:0:0:
196,384,199599,2,0,P|188:332|204:284,1,90,0|0,0:0|0:0,0:0:0:0:
424,288,199866,1,0,0:0:0:0:
424,288,199933,1,0,0:0:0:0:
424,288,200000,6,0,P|432:340|416:388,1,90,8|0,0:0|0:0,0:0:0:0:
320,184,200268,2,0,L|424:184,1,90,0|0,0:0|0:0,0:0:0:0:
496,24,200536,2,0,B|469:113|469:113|508:200,1,180,8|0,0:0|0:0,0:0:0:0:
504,192,200938,1,0,0:0:0:0:
404,48,201072,6,0,L|314:48,1,90,8|0,0:0|0:0,0:0:0:0:
220,172,201340,2,0,P|232:116|208:68,1,90,0|0,0:0|0:0,0:0:0:0:
156,28,201608,1,8,0:0:0:0:
36,164,201741,2,0,P|24:220|48:268,1,90,0|0,0:0|0:0,0:0:0:0:
100,308,202009,1,0,0:0:0:0:
152,124,202143,5,8,0:0:0:0:
152,124,202411,5,8,0:0:0:0:
156,216,202545,1,8,0:0:0:0:
216,284,202679,1,8,0:0:0:0:
296,324,202813,1,8,0:0:0:0:
388,324,202947,1,8,0:0:0:0:
464,276,203081,1,8,0:0:0:0:
504,196,203215,5,8,0:0:0:0:
416,204,203349,1,8,0:0:0:0:
440,36,203483,1,8,0:0:0:0:
448,124,203616,1,8,0:0:0:0:
268,96,203750,1,8,0:0:0:0:
356,88,203884,1,8,0:0:0:0:
328,264,204018,1,8,0:0:0:0:
320,176,204152,1,8,0:0:0:0:
312,180,204219,1,0,0:0:0:0:
304,184,204286,6,0,P|260:188|208:168,1,90,8|0,0:0|0:0,0:0:0:0:
37,81,204554,1,8,0:0:0:0:
54,46,204621,1,0,0:0:0:0:
88,27,204688,1,0,0:0:0:0:
127,31,204755,1,0,0:0:0:0:
157,56,204822,1,8,0:0:0:0:
168,93,204889,1,0,0:0:0:0:
156,130,204956,1,0,0:0:0:0:
125,154,205023,1,0,0:0:0:0:
83,156,205090,6,0,P|68:172|59:193,1,45,8|0,0:0|0:0,0:0:0:0:
5,270,205224,2,0,P|22:284|42:293,1,45,0|0,0:0|0:0,0:0:0:0:
114,362,205358,2,0,P|128:345|137:324,1,45,8|0,0:0|0:0,0:0:0:0:
196,248,205491,2,0,P|178:233|158:224,1,45,0|0,0:0|0:0,0:0:0:0:
281,329,205625,6,0,B|332:333|380:317|380:285|372:261|352:245|332:261|324:285|324:317|372:333|431:329,1,247.5,0|0,2:0|0:0,0:0:0:0:
475,382,206429,6,0,P|494:313|469:269,1,107.999996704102,6|2,0:2|0:2,0:0:0:0:
409,92,206697,2,0,P|390:161|415:205,1,107.999996704102,8|0,0:0|0:0,0:0:0:0:
415,329,206965,1,2,0:2:0:0:
472,144,207099,1,2,0:2:0:0:
268,188,207233,2,0,B|152:192|152:192|92:164,1,161.999995056153,8|0,0:0|0:0,0:0:0:0:
56,120,207500,6,0,P|36:188|64:236,1,107.999996704102,2|2,0:2|0:2,0:0:0:0:
160,332,207768,1,8,0:0:0:0:
110,172,207902,1,0,0:0:0:0:
58,327,208036,2,0,P|126:344|174:320,1,107.999996704102,2|2,0:2|0:2,0:0:0:0:
320,348,208304,2,0,L|228:284,1,107.999996704102,8|0,0:0|0:0,0:0:0:0:
380,176,208572,6,0,P|396:240|372:292,1,107.999996704102,2|2,0:2|0:2,0:0:0:0:
320,348,208840,1,8,0:0:0:0:
220,192,208974,2,0,P|204:128|228:76,1,107.999996704102,0|2,0:0|0:2,0:0:0:0:
284,24,209241,1,2,0:2:0:0:
460,148,209375,2,0,B|380:176|380:176|284:144,1,161.999995056153,8|0,0:0|0:0,0:0:0:0:
288,140,209643,5,2,0:2:0:0:
136,196,209777,1,2,0:2:0:0:
296,228,209911,1,8,0:0:0:0:
144,284,210045,1,0,0:0:0:0:
296,331,210179,2,0,P|308:267|284:211,1,107.999996704102,8|2,0:0|0:2,0:0:0:0:
56,236,210447,2,0,P|44:300|68:356,1,107.999996704102,8|2,0:0|0:2,0:0:0:0:
128,108,210715,6,0,L|20:108,1,107.999996704102,6|2,0:2|0:2,0:0:0:0:
216,8,210983,2,0,B|248:112|248:112|204:244,1,215.999993408203,8|2,0:0|0:2,0:0:0:0:
214,213,211384,1,2,0:2:0:0:
404,164,211518,2,0,B|420:224|420:224|400:288,1,107.999996704102,8|0,0:0|0:0,0:0:0:0:
332,216,211786,5,2,0:2:0:0:
496,168,211920,1,2,0:2:0:0:
456,344,212054,2,0,P|392:360|352:340,1,107.999996704102,8|0,0:0|0:0,0:0:0:0:
356,88,212322,2,0,P|420:72|460:92,1,107.999996704102,2|2,0:2|0:2,0:0:0:0:
296,292,212590,2,0,B|332:216|332:216|288:124,1,161.999995056153,8|0,0:0|0:0,0:0:0:0:
240,216,212858,6,0,L|132:216,1,107.999996704102,2|2,0:2|0:2,0:0:0:0:
68,128,213125,1,8,0:0:0:0:
188,24,213259,2,0,P|204:96|176:152,1,107.999996704102,0|2,0:0|0:2,0:0:0:0:
132,216,213527,1,2,0:2:0:0:
244,369,213661,2,0,P|264:309|228:201,1,161.999995056153,8|0,0:0|0:0,0:0:0:0:
340,252,213929,6,0,P|392:268|448:252,1,107.999996704102,2|2,0:2|0:2,0:0:0:0:
492,164,214197,1,8,0:0:0:0:
396,164,214331,1,0,0:0:0:0:
448,72,214465,1,8,3:0:0:0:
442,255,214599,1,8,3:0:0:0:
304,164,214733,1,8,3:0:0:0:
492,164,214866,1,8,3:0:0:0:
344,72,215000,6,0,L|236:72,1,107.999996704102,6|2,0:2|0:2,0:0:0:0:
176,164,215268,1,8,0:0:0:0:
240,348,215402,2,0,P|252:272|224:220,1,107.999996704102,0|2,0:0|0:2,0:0:0:0:
144,292,215670,1,2,0:2:0:0:
40,76,215804,2,0,P|12:156|40:240,1,161.999995056153,8|0,0:0|0:0,0:0:0:0:
52,248,216072,5,2,0:2:0:0:
241,244,216206,2,0,L|352:244,1,107.999996704102,2|8,0:2|0:0,0:0:0:0:
420,164,216474,1,0,0:0:0:0:
420,328,216608,1,2,0:2:0:0:
349,244,216741,1,2,0:2:0:0:
492,248,216875,1,8,0:0:0:0:
468,80,217009,2,0,P|412:68|360:84,1,107.999996704102,0|2,0:0|0:2,0:0:0:0:
284,156,217277,5,2,0:2:0:0:
180,32,217411,2,0,B|208:112|208:112|180:196,1,161.999995056153,8|0,0:0|0:0,0:0:0:0:
176,212,217679,1,2,0:2:0:0:
20,112,217813,2,0,P|76:96|132:120,1,107.999996704102,2|8,0:2|0:0,0:0:0:0:
72,208,218081,1,0,0:0:0:0:
256,360,218215,6,0,P|272:296|248:244,1,107.999996704102,2|2,0:2|0:2,0:0:0:0:
80,308,218483,2,0,L|204:308,1,107.999996704102,8|0,0:0|0:0,0:0:0:0:
348,304,218750,1,2,0:2:0:0:
176,212,218884,1,2,0:2:0:0:
324,112,219018,2,0,P|308:176|332:228,1,107.999996704102,8|0,0:0|0:0,0:0:0:0:
500,164,219286,6,0,L|392:164,1,107.999996704102,6|2,0:2|0:2,0:0:0:0:
236,76,219554,2,0,P|320:20|416:92,1,215.999993408203,8|2,0:0|0:2,0:0:0:0:
392,164,219956,1,2,0:2:0:0:
448,344,220090,2,0,P|464:284|440:228,1,107.999996704102,8|0,0:0|0:0,0:0:0:0:
324,108,220358,5,2,0:2:0:0:
324,108,220491,1,2,0:2:0:0:
176,184,220625,2,0,L|32:184,1,107.999996704102,8|0,0:0|0:0,0:0:0:0:
128,0,220893,2,0,P|144:64|124:112,1,107.999996704102,2|2,0:2|0:2,0:0:0:0:
64,264,221161,2,0,P|48:328|68:376,1,107.999996704102,8|0,0:0|0:0,0:0:0:0:
288,320,221429,6,0,B|216:260|132:320|132:320|192:352,2,215.999993408203,2|8|2,0:2|0:0|0:2,0:0:0:0:
380,376,222099,1,2,0:2:0:0:
456,216,222233,2,0,P|470:267|455:318,1,107.999996704102,8|0,0:0|0:0,0:0:0:0:
376,144,222500,6,0,L|420:132,1,31.4999990386963,2|0,3:2|2:0,0:0:0:0:
316,64,222768,2,0,L|360:52,1,31.4999990386963,2|0,3:2|2:0,0:0:0:0:
196,64,223036,2,0,L|152:52,1,31.4999990386963,2|0,3:2|2:0,0:0:0:0:
136,144,223304,2,0,L|92:132,1,31.4999990386963,2|0,3:2|2:0,0:0:0:0:
256,352,223572,6,0,B|240:272|240:272|268:224|268:224|256:128,1,215.999993408203,6|8,0:2|0:0,0:0:0:0:
258,145,223974,1,0,0:0:0:0:
428,292,224108,2,0,P|356:304|312:276,1,107.999996704102,2|2,0:2|0:2,0:0:0:0:
360,80,224375,2,0,L|376:212,1,107.999996704102,8|0,0:0|0:0,0:0:0:0:
326,289,224643,5,2,0:2:0:0:
258,145,224777,1,2,0:2:0:0:
212,252,224911,2,0,L|100:256,1,107.999996704102,8|0,0:0|0:0,0:0:0:0:
152,152,225179,1,2,0:2:0:0:
208,336,225313,1,2,0:2:0:0:
28,308,225447,2,0,P|15:247|47:182,1,107.999996704102,8|0,0:0|0:0,0:0:0:0:
153,49,225715,6,0,P|165:109|133:174,1,107.999996704102,2|2,0:2|0:2,0:0:0:0:
151,151,225983,1,8,0:0:0:0:
312,104,226116,2,0,L|428:104,1,107.999996704102,0|2,0:0|0:2,0:0:0:0:
420,104,226384,1,2,0:2:0:0:
296,348,226518,2,0,P|280:288|304:232,1,107.999996704102,8|2,0:0|0:0,0:0:0:0:
372,296,226786,5,2,0:2:0:0:
220,200,226920,1,2,0:2:0:0:
296,3,227054,2,0,P|316:72|296:127,1,107.999996704102,8|0,0:0|0:0,0:0:0:0:
300,116,227255,1,0,0:0:0:0:
292,124,227322,1,8,0:0:0:0:
212,68,227456,1,2,0:2:0:0:
220,200,227590,1,8,0:0:0:0:
140,144,227724,1,2,0:2:0:0:
32,300,227858,6,0,B|72:204|72:204|28:80,1,215.999993408203,6|8,0:2|0:0,0:0:0:0:
172,264,228259,2,0,P|224:284|280:260,1,107.999996704102,0|2,0:0|0:2,0:0:0:0:
352,192,228527,1,2,0:2:0:0:
468,332,228661,2,0,P|416:312|360:336,1,107.999996704102,8|0,0:0|0:0,0:0:0:0:
284,384,228929,5,2,0:2:0:0:
284,384,229063,1,2,0:2:0:0:
456,240,229197,2,0,B|488:144|488:144|440:24,1,215.999993408203,8|2,0:0|0:2,0:0:0:0:
445,37,229599,1,2,0:2:0:0:
304,96,229733,2,0,P|224:80|200:48,1,107.999996704102,8|0,0:0|0:0,0:0:0:0:
36,104,230000,6,0,P|116:120|140:152,1,107.999996704102,2|2,0:2|0:2,0:0:0:0:
60,192,230268,1,8,0:0:0:0:
208,240,230402,2,0,P|224:300|196:364,1,107.999996704102,0|2,0:0|0:2,0:0:0:0:
124,296,230670,1,2,0:2:0:0:
284,204,230804,2,0,P|304:268|292:372,1,161.999995056153,8|0,0:0|0:0,0:0:0:0:
380,352,231072,6,0,P|432:336|488:352,1,107.999996704102,2|2,0:2|0:2,0:0:0:0:
482,348,231340,1,8,0:0:0:0:
424,216,231474,1,0,0:0:0:0:
424,216,231541,1,0,0:0:0:0:
424,216,231608,1,8,3:0:0:0:
492,132,231741,1,8,3:0:0:0:
352,28,231875,2,0,P|332:108|352:148,1,107.999996704102,8|8,3:0|3:0,0:0:0:0:
416,88,232143,5,6,0:2:0:0:
240,144,232277,1,2,0:2:0:0:
352,28,232411,1,8,0:0:0:0:
304,208,232545,1,0,0:0:0:0:
184,76,232679,2,0,L|72:108,1,107.999996704102,2|2,0:2|0:2,0:0:0:0:
160,196,232947,5,8,0:2:0:0:
100,16,233081,1,0,0:2:0:0:
60,208,233215,1,2,0:2:0:0:
184,76,233349,1,2,0:2:0:0:
216,280,233483,2,0,P|164:292|104:276,1,107.999996704102,8|0,0:0|0:0,0:0:0:0:
160,196,233750,5,2,0:2:0:0:
168,372,233884,1,2,0:2:0:0:
60,208,234018,1,8,0:0:0:0:
256,184,234152,1,0,0:0:0:0:
352,368,234286,2,0,L|468:360,1,107.999996704102,2|2,0:2|0:2,0:0:0:0:
384,180,234554,5,8,0:0:0:0:
352,368,234688,1,0,0:0:0:0:
456,232,234822,1,2,0:2:0:0:
288,312,234956,1,2,0:2:0:0:
336,108,235090,2,0,P|388:92|440:116,1,107.999996704102,8|0,0:0|0:0,0:0:0:0:
296,180,235358,5,2,0:2:0:0:
380,16,235491,1,2,0:2:0:0:
384,180,235625,1,8,0:0:0:0:
292,16,235759,1,0,0:0:0:0:
192,180,235893,2,0,L|40:180,1,107.999996704102,2|2,0:2|0:2,0:0:0:0:
220,100,236161,2,0,B|192:176|192:176|224:268,1,161.999995056153,8|0,0:0|0:0,0:0:0:0:
188,336,236429,6,0,P|240:340|284:312,1,90,6|2,0:2|0:2,0:0:0:0:
303,239,236697,2,0,P|251:235|207:263,1,90,8|0,0:0|0:0,0:0:0:0:
372,348,236965,2,0,L|388:240,1,90,2|2,0:2|0:2,0:0:0:0:
465,270,237233,2,0,L|452:360,1,90,8|0,0:0|0:0,0:0:0:0:
391,158,237500,6,0,B|380:116|380:116|392:72,1,90,2|2,0:2|0:2,0:0:0:0:
472,77,237768,2,0,B|484:120|484:120|472:164,1,90,8|0,0:0|0:0,0:0:0:0:
391,158,238036,1,2,0:2:0:0:
436,0,238170,1,2,0:2:0:0:
284,48,238304,2,0,L|188:48,1,90,8|0,0:0|0:0,0:0:0:0:
64,68,238572,6,0,P|56:108|64:140,1,72,8|2,0:0|0:2,0:0:0:0:
172,184,238840,2,0,P|180:224|172:256,1,72,8|2,0:0|0:2,0:0:0:0:
88,216,239108,1,8,0:0:0:0:
272,154,239241,1,2,0:2:0:0:
243,347,239375,1,8,0:0:0:0:
243,347,239643,6,0,P|261:297|264:348,1,144,0|6,2:0|0:2,0:0:0:0:
