osu file format v14

[General]
AudioFilename: Snow Drive.mp3
AudioLeadIn: 0
PreviewTime: 95717
Countdown: 0
SampleSet: Normal
StackLeniency: 0.5
Mode: 0
LetterboxInBreaks: 0
WidescreenStoryboard: 0

[Editor]
DistanceSpacing: 1.4
BeatDivisor: 2
GridSize: 4
TimelineZoom: 1.399999

[Metadata]
Title:Snow Drive(01.23)
TitleUnicode:スノウドライヴ(01.23)
Artist:Omoi
ArtistUnicode:Omoi
Creator:Kroytz
Version:Hard
Source:
Tags:Vocaloid Hatsune Miku k2pudding Battle HappyRocket88 Anxient pkk Rumia MoeMoeKyunNN moph SnowNiNo_
BeatmapID:1088291
BeatmapSetID:478405

[Difficulty]
HPDrainRate:5
CircleSize:3.5
OverallDifficulty:6
ApproachRate:8
SliderMultiplier:1.4
SliderTickRate:1

[Events]
//Background and Video events
0,0,"BG.jpg",0,0
Video,0,"video.mp4"
//Break Periods
2,19129,26750
2,113415,117822
2,191629,197108
//Storyboard Layer 0 (Background)
//Storyboard Layer 1 (Fail)
//Storyboard Layer 2 (Pass)
//Storyboard Layer 3 (Foreground)
//Storyboard Sound Samples

[TimingPoints]
730,267.857142857143,4,1,1,60,1,0
1801,-166.666666666667,4,2,0,30,0,0
9301,-100,4,2,0,35,0,0
10358,267.857142857143,4,2,0,40,1,0
10358,-125,4,2,0,40,0,0
17858,-125,4,2,1,40,0,0
18929,-100,4,1,1,60,0,0
36072,-100,4,3,1,60,0,0
40358,-100,4,1,1,50,0,0
48929,-100,4,1,1,55,0,0
61786,-100,4,1,1,60,0,0
87500,-111.111111111111,4,1,1,60,0,0
91786,-111.111111111111,4,3,1,60,0,0
95000,-100,4,1,1,60,0,0
95804,-100,4,1,1,60,0,0
96072,-100,4,1,1,70,0,1
113215,-100,4,1,1,70,0,0
118572,-111.111111111111,4,1,1,70,0,0
125268,-111.111111111111,4,3,2,70,0,0
126072,-111.111111111111,4,2,1,70,0,0
127143,-100,4,1,1,70,0,0
144286,-111.111111111111,4,1,1,70,0,0
148572,-111.111111111111,4,3,1,70,0,0
153929,-100,4,1,1,70,0,0
155000,-100,4,1,1,70,0,1
171072,-100,4,1,1,70,0,0
187143,-100,4,3,1,70,0,0
189286,-100,4,2,1,70,0,0
197858,-111.111111111111,4,3,1,70,0,0
205625,-200,4,2,1,70,0,0
206429,-100,4,1,1,100,0,1
206698,-100,4,1,1,70,0,1
222500,-100,4,1,1,70,0,0
223572,-100,4,1,2,70,0,1
223840,-100,4,1,1,70,0,1
239643,-263.157894736842,4,1,1,40,0,0

[Colours]
Combo1 : 114,64,247
Combo2 : 128,255,255
Combo3 : 0,121,242
SliderBorder : 212,231,238
SliderTrackOverride : 40,42,68

[HitObjects]
352,39,1801,6,0,B|312:95|352:154|352:154|400:221|343:281,1,251.999992309571,2|0,0:0|0:0,0:0:0:0:
415,338,2872,2,0,P|338:363|266:305,1,167.999994873047,2|2,0:0|0:0,0:0:0:0:
259,224,3676,1,2,0:0:0:0:
185,281,3944,6,0,B|145:295|145:295|42:267,2,125.999996154785,2|2|2,0:0|0:0|0:0,0:0:0:0:
259,224,5015,2,0,P|288:150|240:75,1,167.999994873047,2|2,0:0|0:0,0:0:0:0:
154,72,5819,1,2,0:0:0:0:
195,156,6087,6,0,B|296:145|296:145|429:240,1,251.999992309571,2|0,0:0|0:0,0:0:0:0:
497,184,7158,2,0,P|497:282|433:324,1,167.999994873047,2|0,0:0|0:0,0:0:0:0:
358,293,7962,1,2,0:0:0:0:
358,293,8230,6,0,P|299:279|227:315,2,125.999996154785,2|2|2,0:0|0:0|0:0,0:0:0:0:
446,320,9301,1,2,0:0:0:0:
41,202,10358,6,0,P|16:148|31:88,1,112,2|0,0:0|0:0,0:0:0:0:
104,138,10759,2,0,P|128:191|113:251,1,112,2|0,0:0|0:0,0:0:0:0:
66,315,11161,2,0,P|111:296|187:328,1,112,2|0,0:0|0:0,0:0:0:0:
251,349,11563,2,0,P|303:365|355:345,1,112,2|0,0:0|0:0,0:0:0:0:
430,295,11965,6,0,B|450:231|450:231|436:172,1,112,2|0,0:0|0:0,0:0:0:0:
356,221,12366,2,0,B|336:157|336:157|346:113,1,112,2|0,0:0|0:0,0:0:0:0:
411,50,12768,2,0,P|369:26|294:40,1,112,2|0,0:0|0:0,0:0:0:0:
218,17,13170,2,0,L|241:126,1,112,2|0,0:0|0:0,0:0:0:0:
216,213,13572,6,0,P|161:220|112:195,2,112,2|2|2,0:0|0:0|0:0,0:0:0:0:
346,113,14375,1,2,0:0:0:0:
346,113,14643,2,0,B|375:143|375:143|376:229,1,112,2|2,0:0|0:0,0:0:0:0:
270,319,15179,2,0,B|281:278|281:278|355:235,1,112,2|2,0:0|0:0,0:0:0:0:
487,282,15715,6,0,B|446:292|446:292|371:249,1,112,2|2,0:0|0:0,0:0:0:0:
245,186,16250,2,0,B|177:204|177:204|155:240,1,112,2|2,0:0|0:0,0:0:0:0:
72,374,16786,2,0,B|72:308|72:308|43:237|43:237|43:138,1,224,2|2,0:0|0:0,0:0:0:0:
132,26,17590,1,2,0:0:0:0:
132,26,17858,6,0,B|133:105|133:105|168:143,1,112,2|2,1:2|1:2,0:0:0:0:
272,232,18393,2,0,L|291:173,1,56,2|2,3:2|3:2,0:0:0:0:
358,113,18661,2,0,L|368:140,3,28,8|0|0|0,3:2|3:0|3:0|3:0,0:0:0:0:
385,185,18929,5,6,0:2:0:0:
33,109,27500,6,0,B|99:90|99:90|167:109,1,140,6|2,0:2|0:3,0:0:0:0:
252,160,27902,1,0,0:0:0:0:
252,160,28036,2,0,P|265:101|209:23,1,140,10|2,0:2|0:3,0:0:0:0:
101,185,28572,2,0,P|88:244|144:322,1,140,10|2,0:2|0:3,0:0:0:0:
205,368,28974,1,0,0:0:0:0:
271,296,29108,2,0,B|426:296,1,140,10|2,0:2|0:3,0:0:0:0:
495,345,29509,1,8,0:0:0:0:
491,247,29643,6,0,B|468:181|468:181|490:96,1,140,10|2,0:2|0:3,0:0:0:0:
411,48,30045,1,0,0:0:0:0:
411,48,30179,2,0,B|271:48,1,140,10|2,0:2|0:3,0:0:0:0:
74,48,30715,2,0,P|48:111|72:175,1,140,10|2,0:2|0:3,0:0:0:0:
144,241,31116,1,8,0:0:0:0:
144,241,31250,2,0,L|171:165,1,70,2|8,0:2|0:0,0:0:0:0:
51,271,31518,2,0,L|74:336,1,70,2|8,0:3|0:2,0:0:0:0:
201,342,31786,6,0,B|290:341|290:341|331:308,1,140,6|8,0:2|0:0,0:0:0:0:
397,237,32188,1,0,0:0:0:0:
464,164,32322,2,0,P|391:140|334:162,1,140,2|8,0:2|0:0,0:0:0:0:
162,66,32858,2,0,P|185:130|160:193,1,140,2|8,0:2|0:0,0:0:0:0:
89,129,33259,1,0,0:0:0:0:
89,129,33393,2,0,P|63:192|87:256,1,140,2|8,0:2|0:0,0:0:0:0:
178,288,33795,1,0,0:0:0:0:
103,351,33929,6,0,B|175:330|175:330|245:366,1,140,2|8,0:2|0:0,0:0:0:0:
331,361,34331,1,0,0:0:0:0:
331,361,34465,2,0,B|424:360|424:360|462:333,1,140,2|8,0:2|0:0,0:0:0:0:
479,138,35000,2,0,P|445:129|412:138,1,70,2|2,0:2|0:2,0:0:0:0:
343,208,35268,2,0,P|309:216|276:207,1,70,8|0,0:0|0:0,0:0:0:0:
205,138,35536,2,0,L|184:204,1,70,8|10,0:0|0:2,0:0:0:0:
302,112,35804,2,0,L|281:45,1,70,8|10,0:0|0:2,0:0:0:0:
131,38,36072,6,0,B|94:53|94:53|66:151,1,140,12|8,0:1|0:0,0:0:0:0:
48,246,36474,1,4,0:0:0:0:
48,246,36608,2,0,L|132:263,1,70,4|8,0:0|0:0,0:0:0:0:
158,340,36875,2,0,L|226:326,1,70,4|4,0:0|0:0,0:0:0:0:
310,378,37143,2,0,P|321:307|279:242,1,140,8|4,0:0|0:0,0:0:0:0:
243,162,37545,2,0,B|340:162|340:162|389:192,1,140,8|4,0:0|0:0,0:0:0:0:
469,149,37947,2,0,L|469:60,1,70,8|4,0:0|0:0,0:0:0:0:
376,51,38215,6,0,B|340:73|340:73|243:73,1,140,8|8,0:0|0:0,0:0:0:0:
159,23,38616,1,4,0:0:0:0:
159,23,38750,2,0,B|121:62|121:62|121:77,1,70,4|8,0:0|0:0,0:0:0:0:
121,168,39018,2,0,B|121:183|121:183|83:222,1,70,4|4,0:0|0:0,0:0:0:0:
13,293,39286,2,0,B|47:268|47:268|161:269,1,140,8|8,0:0|0:0,0:0:0:0:
197,352,39688,1,4,0:0:0:0:
243,265,39822,2,0,L|282:195,1,70,8|4,0:0|0:0,0:0:0:0:
295,348,40090,2,0,L|334:278,1,70,8|4,0:0|0:0,0:0:0:0:
384,170,40358,6,0,P|402:104|358:30,1,140,6|8,0:2|0:0,0:0:0:0:
306,112,40759,2,0,B|237:93|237:93|171:112,1,140,0|0,0:0|0:0,0:0:0:0:
77,144,41161,2,0,P|65:111|75:78,1,70,8|0,0:0|0:0,0:0:0:0:
151,210,41429,2,0,P|169:276|125:350,1,140,2|8,0:2|0:0,0:0:0:0:
149,186,41831,2,0,P|208:219|229:303,1,140,0|0,0:0|0:0,0:0:0:0:
284,367,42233,2,0,L|327:296,1,70,8|0,0:0|0:0,0:0:0:0:
377,185,42500,6,0,B|378:231|378:231|445:321,1,140,2|8,0:2|0:0,0:0:0:0:
464,182,42902,2,0,P|441:125|359:100,1,140,0|0,0:0|0:0,0:0:0:0:
285,146,43304,2,0,P|247:131|232:102,1,70,8|0,0:0|0:0,0:0:0:0:
166,34,43572,2,0,B|139:63|139:63|139:163,1,140,2|8,0:2|0:0,0:0:0:0:
66,214,43974,2,0,P|134:205|188:248,1,140,0|0,0:0|0:0,0:0:0:0:
110,356,44375,2,0,P|101:323|111:290,1,70,8|0,0:0|0:0,0:0:0:0:
243,178,44643,6,0,P|275:237|251:312,1,140,2|8,0:2|0:0,0:0:0:0:
229,145,45045,2,0,L|391:183,1,140,0|0,0:0|0:0,0:0:0:0:
449,228,45447,2,0,P|465:191|455:149,1,70,8|0,0:0|0:0,0:0:0:0:
398,84,45715,2,0,B|303:64|303:64|276:31,1,140,2|8,0:2|0:0,0:0:0:0:
178,25,46116,2,0,L|152:118,1,70,0|0,0:0|0:0,0:0:0:0:
127,185,46384,1,0,0:0:0:0:
64,109,46518,2,0,B|-11:88,1,70,8|0,0:0|0:0,0:0:0:0:
50,239,46786,6,0,P|100:276|191:254,1,140,2|8,0:2|0:0,0:0:0:0:
257,213,47188,2,0,P|324:202|380:241,1,140,0|0,0:0|0:0,0:0:0:0:
450,312,47590,2,0,L|476:222,1,70,8|0,0:0|0:0,0:0:0:0:
494,149,47858,5,2,2:0:0:0:
82,339,48929,6,0,B|43:313|43:313|20:204,1,140,6|8,0:2|0:0,0:0:0:0:
44,126,49331,1,0,0:0:0:0:
120,191,49465,2,0,L|137:264,1,70,2|2,0:2|0:2,0:0:0:0:
140,95,49733,2,0,L|194:43,1,70,8|0,0:0|0:0,0:0:0:0:
281,173,50000,2,0,L|212:159,2,70,2|2|8,0:2|0:2|0:0,0:0:0:0:
362,117,50402,2,0,P|375:195|322:256,1,140,0|2,0:0|0:2,0:0:0:0:
402,327,50804,2,0,L|334:341,1,70,8|0,0:0|0:0,0:0:0:0:
253,282,51072,6,0,L|213:359,1,70,2|2,0:2|0:2,0:0:0:0:
143,282,51340,2,0,L|103:359,1,70,8|0,0:0|0:0,0:0:0:0:
47,257,51608,2,0,B|15:214|15:214|15:190,1,70,2|2,0:2|0:2,0:0:0:0:
7,99,51875,2,0,B|39:56|39:56|39:39,1,70,8|0,0:0|0:0,0:0:0:0:
95,144,52143,2,0,P|130:153|170:137,1,70,2|2,0:2|0:2,0:0:0:0:
228,70,52411,2,0,P|261:60|294:69,1,70,8|0,0:0|0:0,0:0:0:0:
351,149,52679,2,0,B|381:84|381:84|367:-6,1,140,2|8,0:2|0:0,0:0:0:0:
260,179,53215,6,0,L|278:260,1,70,2|2,0:2|0:2,0:0:0:0:
370,271,53483,2,0,L|388:352,1,70,8|0,0:0|0:0,0:0:0:0:
284,338,53750,2,0,P|238:336|204:309,1,70,2|2,0:2|0:2,0:0:0:0:
180,233,54018,2,0,P|148:218|114:219,1,70,8|0,0:0|0:0,0:0:0:0:
40,285,54286,2,0,P|18:238|64:137,2,140,2|8|2,0:2|0:0|0:2,0:0:0:0:
122,339,54956,1,2,0:2:0:0:
218,324,55090,2,0,P|252:322|283:337,1,70,8|0,0:0|0:0,0:0:0:0:
382,345,55358,6,0,B|441:270|441:270|438:202,1,140,2|8,0:2|0:0,0:0:0:0:
504,164,55759,2,0,P|447:138|377:162,1,140,0|2,0:0|0:2,0:0:0:0:
309,234,56161,2,0,L|287:139,1,70,8|2,0:0|0:2,0:0:0:0:
274,68,56429,2,0,B|220:55|220:55|120:97,1,140,2|8,0:2|0:0,0:0:0:0:
81,164,56831,2,0,P|46:106|55:38,1,140,2|2,0:2|0:2,0:0:0:0:
180,178,57233,1,10,0:2:0:0:
119,255,57366,1,2,0:2:0:0:
57,331,57500,6,0,L|137:352,1,70,12|2,0:0|0:2,0:0:0:0:
203,289,57768,2,0,L|283:310,1,70,8|2,0:0|0:2,0:0:0:0:
349,247,58036,2,0,L|429:268,1,70,8|2,0:0|0:2,0:0:0:0:
495,205,58304,1,8,0:0:0:0:
360,75,58572,2,0,P|326:66|292:73,1,70,8|2,0:0|0:2,0:0:0:0:
246,161,58840,2,0,P|212:169|178:162,1,70,8|2,0:0|0:2,0:0:0:0:
131,75,59108,2,0,P|97:67|63:76,1,70,8|2,0:0|0:2,0:0:0:0:
16,160,59375,1,8,0:0:0:0:
178,269,59643,6,0,L|198:361,1,70,8|2,0:0|0:2,0:0:0:0:
291,337,59911,2,0,L|305:268,1,70,8|2,0:0|0:2,0:0:0:0:
325,171,60179,2,0,L|335:122,2,35,8|8|2,3:0|3:0|3:2,0:0:0:0:
400,235,60447,2,0,L|406:269,2,35,8|0|2,3:2|3:0|3:2,0:0:0:0:
450,150,60715,2,0,P|459:106|440:68,1,70,8|2,3:0|0:2,0:0:0:0:
369,28,60983,2,0,L|284:28,1,70,8|2,0:0|0:2,0:0:0:0:
24,284,61786,6,0,P|73:328|158:313,1,140,6|8,0:2|0:0,0:0:0:0:
225,267,62188,2,0,P|292:261|344:305,1,140,0|0,0:0|0:0,0:0:0:0:
425,361,62590,2,0,L|440:265,1,70,8|0,0:0|0:0,0:0:0:0:
390,204,62858,2,0,P|350:148|364:81,1,140,2|8,0:2|0:0,0:0:0:0:
431,22,63259,2,0,L|281:36,1,140,0|0,0:0|0:0,0:0:0:0:
232,114,63661,2,0,L|142:122,1,70,8|0,0:0|0:0,0:0:0:0:
82,62,63929,6,0,B|50:99|50:99|63:208,1,140,2|8,0:2|0:0,0:0:0:0:
18,277,64331,2,0,P|88:284|151:227,1,140,0|0,0:0|0:0,0:0:0:0:
230,200,64733,2,0,L|299:193,1,70,8|0,0:0|0:0,0:0:0:0:
364,119,65000,2,0,B|390:184|390:184|371:271,1,140,2|8,0:2|0:0,0:0:0:0:
439,315,65402,2,0,L|283:287,1,140,0|0,0:0|0:0,0:0:0:0:
219,346,65804,2,0,L|150:358,1,70,8|0,0:0|0:0,0:0:0:0:
57,322,66072,6,0,B|20:272|20:272|8:173,1,140,2|8,0:2|0:0,0:0:0:0:
62,110,66474,2,0,B|98:159|98:159|110:258,1,140,0|0,0:0|0:0,0:0:0:0:
205,229,66875,2,0,L|281:221,1,70,8|0,0:0|0:0,0:0:0:0:
340,149,67143,2,0,P|371:211|355:277,1,140,2|8,0:2|0:0,0:0:0:0:
464,233,67545,2,0,P|457:192|483:140,1,70,0|2,0:0|0:2,0:0:0:0:
499,72,67813,1,0,0:0:0:0:
400,55,67947,2,0,P|360:40|328:-7,1,70,8|0,0:0|0:0,0:0:0:0:
242,25,68215,6,0,B|142:54|142:54|128:87,1,140,2|8,0:2|0:0,0:0:0:0:
75,158,68616,2,0,L|209:117,1,140,0|0,0:0|0:0,0:0:0:0:
204,209,69018,2,0,L|136:229,1,70,8|0,0:0|0:0,0:0:0:0:
65,337,69286,2,0,P|133:313|207:348,1,140,8|2,0:0|3:2,0:0:0:0:
292,346,69688,2,0,P|356:368|421:344,1,140,2|2,0:2|0:2,0:0:0:0:
503,289,70090,1,2,0:2:0:0:
459,66,70358,6,0,L|437:132,1,70,2|0,0:2|0:2,0:0:0:0:
362,69,70625,2,0,P|332:49|222:77,1,140,8|2,0:0|0:2,0:0:0:0:
163,132,71027,1,0,0:0:0:0:
163,132,71161,2,0,L|141:65,1,70,8|0,0:0|0:0,0:0:0:0:
258,160,71429,2,0,L|206:320,1,140,2|8,0:2|0:0,0:0:0:0:
308,302,71831,1,0,0:0:0:0:
308,302,71965,2,0,P|348:295|393:312,1,70,2|0,0:2|0:0,0:0:0:0:
251,376,72233,2,0,P|211:383|166:366,1,70,8|0,0:0|0:0,0:0:0:0:
93,335,72500,6,0,B|62:305|62:305|61:202,1,140,2|8,0:2|0:0,0:0:0:0:
61,109,72902,1,0,0:0:0:0:
61,109,73036,2,0,L|133:138,1,70,2|0,0:2|0:0,0:0:0:0:
195,64,73304,2,0,L|267:93,1,70,8|0,0:0|0:0,0:0:0:0:
349,113,73572,2,0,P|359:72|348:37,1,70,2|0,0:2|0:0,0:0:0:0:
278,175,73840,2,0,P|268:216|279:251,1,70,8|0,0:0|0:0,0:0:0:0:
367,214,74108,2,0,B|403:206|403:206|437:215,1,70,2|0,0:2|0:0,0:0:0:0:
477,302,74375,2,0,B|441:310|441:310|407:301,1,70,8|0,0:0|0:0,0:0:0:0:
343,375,74643,6,0,L|326:307,1,70,2|0,0:2|0:0,0:0:0:0:
227,307,74911,2,0,L|210:374,1,70,8|0,0:0|0:0,0:0:0:0:
111,376,75179,2,0,L|94:308,1,70,2|0,0:2|0:0,0:0:0:0:
159,234,75447,2,0,L|182:142,1,70,8|0,0:0|0:0,0:0:0:0:
100,107,75715,2,0,L|77:15,2,70,2|0|8,0:2|0:0|0:0,0:0:0:0:
52,190,76116,1,0,0:0:0:0:
52,190,76250,2,0,P|119:203|177:166,1,140,2|8,0:2|0:0,0:0:0:0:
234,86,76652,1,0,0:0:0:0:
317,137,76786,6,0,P|374:100|443:112,1,140,2|8,0:2|0:0,0:0:0:0:
504,50,77188,2,0,L|476:217,1,140,0|0,0:0|0:0,0:0:0:0:
463,285,77590,1,8,0:0:0:0:
275,341,77858,2,0,B|228:324|228:324|136:343,1,140,2|8,0:2|0:0,0:0:0:0:
55,292,78259,1,0,0:0:0:0:
55,292,78393,2,0,L|83:194,1,70,8|2,0:1|0:2,0:0:0:0:
169,198,78661,2,0,L|141:100,1,70,8|8,0:1|0:1,0:0:0:0:
78,62,78929,6,0,P|126:37|221:63,1,140,6|8,0:2|0:0,0:0:0:0:
296,96,79331,1,2,0:2:0:0:
296,96,79465,2,0,P|341:103|381:84,1,70,0|2,0:0|0:2,0:0:0:0:
457,65,79733,2,0,L|444:153,1,70,8|0,0:0|0:0,0:0:0:0:
481,225,80000,2,0,B|442:214|442:214|333:280,1,140,0|8,0:0|0:0,0:0:0:0:
258,264,80402,1,2,0:2:0:0:
258,264,80536,2,0,P|263:308|298:346,1,70,0|2,0:0|0:2,0:0:0:0:
190,377,80804,2,0,P|149:359|98:370,1,70,8|0,0:0|0:0,0:0:0:0:
26,346,81072,6,0,L|66:196,1,140,2|8,0:2|0:0,0:0:0:0:
24,119,81474,1,2,0:2:0:0:
24,119,81608,2,0,P|72:109|117:128,1,70,0|2,0:0|0:2,0:0:0:0:
170,171,81875,2,0,P|204:175|237:165,1,70,8|0,0:0|0:0,0:0:0:0:
288,80,82143,2,0,B|325:110|325:110|337:213,1,140,0|8,0:0|0:0,0:0:0:0:
256,260,82545,1,0,0:0:0:0:
256,260,82679,2,0,B|266:351|266:351|303:381,1,140,0|8,0:0|0:0,0:0:0:0:
487,312,83215,6,0,P|497:278|489:245,1,70,2|0,0:2|0:0,0:0:0:0:
437,161,83483,2,0,P|427:127|435:94,1,70,8|0,0:0|0:0,0:0:0:0:
391,6,83750,2,0,L|319:16,1,70,2|0,0:2|0:0,0:0:0:0:
268,99,84018,2,0,L|196:109,1,70,8|0,0:0|0:0,0:0:0:0:
121,47,84286,2,0,P|98:112|132:184,1,140,2|8,0:2|0:0,0:0:0:0:
27,201,84688,2,0,P|71:253|151:259,1,140,0|0,0:0|0:0,0:0:0:0:
217,202,85090,1,8,0:0:0:0:
345,350,85358,6,0,L|362:275,1,70,2|0,0:2|0:0,0:0:0:0:
454,255,85625,2,0,L|437:180,1,70,8|0,0:0|0:0,0:0:0:0:
446,88,85893,2,0,P|409:86|376:103,1,70,2|0,0:2|0:0,0:0:0:0:
327,183,86161,2,0,P|274:221|199:215,1,140,8|2,0:0|0:2,0:0:0:0:
211,116,86563,1,0,0:0:0:0:
211,116,86697,2,0,L|277:94,1,70,8|0,0:0|0:0,0:0:0:0:
130,60,86965,2,0,L|77:13,1,70,2|0,0:2|0:0,0:0:0:0:
121,158,87233,2,0,L|106:226,1,70,8|0,0:0|0:0,0:0:0:0:
33,291,87500,6,0,B|88:318|88:318|155:308,1,125.999996154785,2|8,0:2|0:0,0:0:0:0:
240,296,87902,1,2,0:2:0:0:
240,296,88036,2,0,L|316:285,1,62.9999980773926,0|2,0:0|0:2,0:0:0:0:
378,333,88304,1,8,0:0:0:0:
378,333,88438,2,0,P|388:264|357:215,1,125.999996154785,0|2,0:0|0:2,0:0:0:0:
305,148,88840,2,0,L|355:82,1,62.9999980773926,8|2,0:0|0:2,0:0:0:0:
426,128,89108,2,0,L|476:62,1,62.9999980773926,0|2,0:0|0:2,0:0:0:0:
394,23,89375,1,8,0:0:0:0:
217,24,89643,6,0,P|184:31|152:64,1,62.9999980773926,2|2,0:2|0:2,0:0:0:0:
88,98,89911,2,0,P|110:123|155:134,1,62.9999980773926,8|2,0:0|0:2,0:0:0:0:
217,173,90179,2,0,P|227:140|214:96,2,62.9999980773926,0|2|8,0:0|0:2|0:0,0:0:0:0:
143,222,90581,2,0,B|120:303|120:303|147:356,1,125.999996154785,0|2,0:0|0:2,0:0:0:0:
212,289,90983,2,0,B|275:275|275:275|345:307,1,125.999996154785,8|0,0:0|0:0,0:0:0:0:
407,344,91384,1,2,0:2:0:0:
408,255,91518,2,0,L|408:184,1,62.9999980773926,8|0,0:0|0:0,0:0:0:0:
410,91,91786,6,0,P|357:70|290:93,1,125.999996154785,8|8,0:1|0:1,0:0:0:0:
219,139,92188,1,0,0:0:0:0:
219,139,92322,2,0,L|199:68,1,62.9999980773926,8|0,0:1|0:0,0:0:0:0:
302,175,92590,2,0,L|284:235,1,62.9999980773926,8|0,0:1|0:0,0:0:0:0:
195,228,92858,2,0,B|109:277|109:277|88:330,1,125.999996154785,8|8,0:1|0:1,0:0:0:0:
11,309,93259,1,0,0:0:0:0:
11,309,93393,2,0,L|29:249,1,62.9999980773926,8|0,0:1|0:0,0:0:0:0:
92,185,93661,2,0,L|74:125,1,62.9999980773926,8|0,0:1|0:0,0:0:0:0:
14,58,93929,6,0,P|66:38|145:73,1,125.999996154785,8|8,0:1|0:1,0:0:0:0:
204,108,94331,1,0,0:0:0:0:
252,34,94465,2,0,L|327:71,1,62.9999980773926,8|0,0:1|0:0,0:0:0:0:
385,106,94733,2,0,L|411:185,1,62.9999980773926,8|0,0:1|0:0,0:0:0:0:
430,260,95000,5,8,0:1:0:0:
48,301,95804,5,8,1:0:0:0:
48,301,96072,2,0,P|99:345|167:341,1,140,6|8,0:2|0:0,0:0:0:0:
261,311,96474,1,0,0:0:0:0:
188,244,96608,2,0,P|171:204|178:160,1,70,2|2,0:2|0:2,0:0:0:0:
247,114,96875,2,0,P|264:154|257:198,1,70,8|0,0:0|0:0,0:0:0:0:
261,311,97143,2,0,B|301:293|301:293|422:317,1,140,2|8,0:2|0:0,0:0:0:0:
466,243,97545,1,0,0:0:0:0:
466,243,97679,2,0,L|381:225,1,70,2|2,0:2|0:2,0:0:0:0:
395,129,97947,2,0,L|310:111,1,70,8|0,0:0|0:0,0:0:0:0:
275,30,98215,6,0,P|231:35|187:122,1,140,2|8,0:2|0:0,0:0:0:0:
126,190,98616,2,0,P|143:149|90:67,1,140,0|2,0:0|0:2,0:0:0:0:
42,151,99018,2,0,L|33:242,1,70,8|0,0:0|0:0,0:0:0:0:
19,318,99286,2,0,B|108:305|108:305|161:334,1,140,2|8,0:2|0:0,0:0:0:0:
238,376,99688,1,2,0:2:0:0:
238,376,99822,2,0,L|251:294,1,70,8|2,0:0|0:2,0:0:0:0:
342,337,100090,2,0,L|355:255,1,70,8|2,0:0|0:2,0:0:0:0:
446,298,100358,6,0,B|459:221|459:221|432:146,1,140,6|8,0:2|0:2,0:0:0:0:
397,73,100759,1,0,0:0:0:0:
340,152,100893,2,0,P|301:159|262:144,1,70,2|2,0:2|0:2,0:0:0:0:
199,84,101161,2,0,L|179:164,1,70,8|0,0:0|0:0,0:0:0:0:
107,216,101429,2,0,B|86:174|86:174|107:83,2,140,2|8|2,0:2|0:0|0:2,0:0:0:0:
198,248,102099,1,2,0:2:0:0:
198,248,102233,2,0,B|245:255|245:255|279:288,1,70,8|0,0:0|0:0,0:0:0:0:
341,329,102500,6,0,P|282:365|215:355,1,140,2|8,0:2|0:0,0:0:0:0:
125,314,102902,2,0,P|57:303|0:340,1,140,0|2,0:0|0:2,0:0:0:0:
3,235,103304,2,0,L|20:154,1,70,8|0,0:0|0:0,0:0:0:0:
34,69,103572,1,2,0:2:0:0:
106,134,103706,1,2,0:2:0:0:
106,134,103840,2,0,B|196:153|196:153|264:125,1,140,8|8,0:0|3:0,0:0:0:0:
278,45,104241,1,8,3:0:0:0:
336,123,104375,2,0,L|433:150,1,70,8|8,3:0|3:0,0:0:0:0:
423,238,104643,6,0,P|479:212|495:182,2,70,6|2|8,0:2|0:2|0:0,0:0:0:0:
326,215,105045,2,0,P|268:204|200:252,1,140,0|2,0:0|0:2,0:0:0:0:
285,302,105447,2,0,L|309:367,2,70,8|0|2,0:0|0:0|0:2,0:0:0:0:
195,344,105849,2,0,P|131:313|107:234,1,140,2|0,0:2|0:0,0:0:0:0:
91,155,106250,6,0,L|4:187,2,70,2|2|8,0:2|0:2|0:0,0:0:0:0:
185,127,106652,2,0,B|269:97|269:97|314:119,1,140,0|2,0:0|0:2,0:0:0:0:
408,149,107054,2,0,P|413:95|398:62,2,70,8|0|2,0:0|0:0|0:2,0:0:0:0:
335,215,107456,2,0,P|316:273|357:350,1,140,2|0,0:2|0:0,0:0:0:0:
414,271,107858,6,0,L|262:290,1,140,2|8,0:2|0:0,0:0:0:0:
201,352,108259,1,0,0:0:0:0:
180,256,108393,2,0,L|165:183,1,70,2|2,0:2|0:2,0:0:0:0:
88,248,108661,2,0,L|73:175,1,70,8|0,0:0|0:0,0:0:0:0:
12,102,108929,6,0,B|47:72|47:72|161:58,1,140,6|8,0:2|0:0,0:0:0:0:
222,116,109331,1,0,0:0:0:0:
222,116,109465,2,0,B|314:104|314:104|350:75,1,140,2|8,0:2|0:0,0:0:0:0:
419,5,109866,1,0,0:0:0:0:
456,95,110000,2,0,P|478:159|455:224,1,140,2|8,0:2|0:0,0:0:0:0:
381,159,110402,1,0,0:0:0:0:
381,159,110536,2,0,P|358:223|381:288,1,140,2|8,0:2|0:0,0:0:0:0:
197,357,111072,6,0,L|110:342,1,70,2|2,0:2|0:2,0:0:0:0:
196,274,111340,2,0,L|109:259,1,70,8|0,0:0|0:0,0:0:0:0:
28,253,111608,2,0,P|24:215|45:182,1,70,2|2,0:2|0:2,0:0:0:0:
134,166,111875,2,0,P|149:135|144:100,1,70,8|0,0:0|0:0,0:0:0:0:
77,42,112143,2,0,L|245:65,1,140,8|8,0:2|0:0,0:0:0:0:
310,33,112545,1,2,0:2:0:0:
310,33,112679,2,0,L|334:102,1,70,8|8,0:0|0:0,0:0:0:0:
421,142,112947,2,0,L|397:211,1,70,8|8,0:0|0:0,0:0:0:0:
363,300,113215,5,6,0:2:0:0:
33,286,118572,6,0,B|84:252|84:252|151:265,1,125.999996154785,12|0,0:2|0:0,0:0:0:0:
200,336,118974,1,2,0:2:0:0:
200,336,119108,2,0,P|229:291|214:206,1,125.999996154785,8|0,0:0|0:0,0:0:0:0:
146,177,119509,1,0,0:0:0:0:
224,135,119643,2,0,L|377:161,1,125.999996154785,8|0,0:2|0:0,0:0:0:0:
422,107,120045,1,2,0:2:0:0:
422,107,120179,2,0,P|393:152|408:237,1,125.999996154785,8|0,0:0|0:0,0:0:0:0:
476,265,120581,1,0,0:0:0:0:
449,349,120715,6,0,B|409:323|409:323|311:333,1,125.999996154785,8|0,0:0|0:0,0:0:0:0:
277,261,121116,1,2,0:2:0:0:
230,336,121250,2,0,B|152:343|152:343|112:317,1,125.999996154785,8|0,0:0|0:0,0:0:0:0:
43,261,121652,1,0,0:0:0:0:
124,226,121786,2,0,P|144:174|118:110,1,125.999996154785,8|0,0:0|0:0,0:0:0:0:
51,53,122188,1,2,0:2:0:0:
51,53,122322,2,0,L|120:20,1,62.9999980773926,8|2,0:0|0:2,0:0:0:0:
191,55,122590,2,0,L|260:22,1,62.9999980773926,0|0,0:0|0:0,0:0:0:0:
336,35,122858,6,0,B|355:74|355:74|358:113|358:113|383:163,1,125.999996154785,8|0,0:0|0:0,0:0:0:0:
438,87,123259,1,2,0:2:0:0:
469,167,123393,2,0,B|449:206|449:206|446:245|446:245|421:295,1,125.999996154785,8|0,0:0|0:0,0:0:0:0:
347,232,123795,1,0,0:0:0:0:
271,186,123929,2,0,P|211:183|158:227,1,125.999996154785,8|0,0:0|0:0,0:0:0:0:
155,310,124331,1,2,0:2:0:0:
236,269,124465,2,0,L|267:352,1,62.9999980773926,8|2,0:0|0:2,0:0:0:0:
346,316,124733,2,0,L|377:399,1,62.9999980773926,0|0,0:0|0:0,0:0:0:0:
446,334,125000,6,0,L|468:274,1,62.9999980773926,8|0,0:0|0:0,0:0:0:0:
487,188,125268,2,0,L|486:136,3,41.9999987182618,4|4|4|4,3:0|3:0|3:0|3:0,0:0:0:0:
142,63,126072,6,0,B|91:98|91:98|69:150,2,83.9999974365235,2|2|2,0:0|0:0|0:0,0:0:0:0:
259,62,126608,2,0,B|310:97|310:97|332:149,2,83.9999974365235,2|2|2,0:0|0:0|0:0,0:0:0:0:
200,162,127143,6,0,B|200:218|200:218|226:253,1,70,6|0,0:2|0:0,0:0:0:0:
302,262,127411,2,0,B|310:274|310:274|310:329,1,70,8|0,0:0|0:0,0:0:0:0:
214,350,127679,2,0,L|138:350,1,70,2|0,0:2|0:0,0:0:0:0:
101,260,127947,2,0,L|25:260,1,70,8|0,0:0|0:0,0:0:0:0:
23,160,128215,2,0,P|28:112|47:90,1,70,2|0,0:2|0:0,0:0:0:0:
137,115,128483,2,0,P|174:84|203:82,1,70,8|0,0:0|0:0,0:0:0:0:
249,163,128750,2,0,P|297:168|319:187,1,70,2|0,0:2|0:0,0:0:0:0:
294,276,129018,2,0,P|324:313|326:342,1,70,8|0,0:0|0:0,0:0:0:0:
421,364,129286,6,0,B|450:328|450:328|450:292,1,70,2|0,0:2|0:0,0:0:0:0:
448,205,129554,2,0,B|419:169|419:169|419:145,1,70,8|0,0:0|0:0,0:0:0:0:
475,63,129822,2,0,L|408:38,1,70,2|0,0:2|0:0,0:0:0:0:
330,98,130090,2,0,L|263:73,1,70,8|0,0:0|0:0,0:0:0:0:
189,137,130358,2,0,B|95:101|95:101|76:60,2,140,2|8|2,0:2|0:0|0:2,0:0:0:0:
280,171,131027,1,0,0:0:0:0:
203,232,131161,2,0,L|129:204,1,70,8|0,0:0|0:0,0:0:0:0:
56,252,131429,6,0,P|41:213|50:170,2,70,2|0|8,0:2|0:0|0:0,0:0:0:0:
144,295,131831,1,0,0:0:0:0:
62,349,131965,2,0,B|25:361|25:361|-3:393,2,70,2|0|8,0:2|0:0|0:0,0:0:0:0:
155,319,132366,1,0,0:0:0:0:
245,357,132500,2,0,P|287:361|322:334,1,70,2|0,0:2|0:0,0:0:0:0:
395,297,132768,1,8,0:0:0:0:
475,352,132902,1,0,0:0:0:0:
475,352,133036,2,0,L|487:263,1,70,2|0,0:2|0:0,0:0:0:0:
491,184,133304,1,8,0:0:0:0:
347,50,133572,6,0,P|275:32|217:74,1,140,2|8,0:2|0:0,0:0:0:0:
151,11,133974,2,0,L|208:148,1,140,0|0,0:0|0:0,0:0:0:0:
107,130,134375,2,0,L|3:116,1,70,8|0,0:0|0:0,0:0:0:0:
144,220,134643,2,0,L|171:285,1,70,8|2,0:0|0:2,0:0:0:0:
257,236,134911,2,0,L|321:262,1,70,8|2,0:0|0:2,0:0:0:0:
393,330,135179,2,0,B|427:295|427:295|427:250,1,70,8|2,0:0|0:2,0:0:0:0:
379,187,135447,2,0,B|379:165|379:165|413:130,1,70,8|2,0:0|0:2,0:0:0:0:
477,56,135715,6,0,L|403:49,1,70,8|0,3:0|3:0,0:0:0:0:
211,35,136116,1,8,3:1:0:0:
37,350,137858,6,0,L|110:337,1,70,8|0,3:0|3:0,0:0:0:0:
299,301,138259,1,8,3:0:0:0:
116,228,138527,1,2,3:2:0:0:
116,228,138661,2,0,B|91:161|91:161|121:94,1,140,8|0,3:1|2:0,0:0:0:0:
192,164,139063,1,2,3:2:0:0:
192,164,139197,2,0,L|275:158,1,70,8|0,2:0|0:0,0:0:0:0:
320,238,139465,2,0,L|403:232,1,70,2|2,2:2|0:2,0:0:0:0:
474,282,139733,2,0,L|484:239,3,35,8|0|0|0,3:0|3:0|3:0|3:0,0:0:0:0:
484,198,140000,6,0,P|486:159|468:129,1,70,6|0,0:2|0:0,0:0:0:0:
377,101,140268,2,0,P|350:72|316:63,1,70,8|0,0:0|0:0,0:0:0:0:
242,122,140536,2,0,L|172:127,1,70,2|0,0:2|0:0,0:0:0:0:
103,55,140804,2,0,L|33:60,1,70,8|0,0:0|0:0,0:0:0:0:
19,157,141072,2,0,B|20:221|20:221|68:295,1,140,2|8,0:2|0:0,0:0:0:0:
24,369,141474,2,0,P|66:327|165:337,1,140,0|0,0:0|0:0,0:0:0:0:
230,368,141875,2,0,P|276:373|304:360,1,70,8|0,0:0|0:0,0:0:0:0:
394,349,142143,6,0,L|365:285,1,70,2|0,0:2|0:0,0:0:0:0:
267,268,142411,2,0,L|295:204,1,70,8|0,0:0|0:0,0:0:0:0:
394,187,142679,2,0,L|365:123,1,70,2|0,0:2|0:0,0:0:0:0:
284,64,142947,2,0,P|219:62|166:115,1,140,8|8,0:0|0:0,0:0:0:0:
102,185,143349,1,2,0:2:0:0:
102,185,143483,2,0,P|80:162|71:120,1,70,2|8,0:2|0:0,0:0:0:0:
203,206,143750,2,0,P|195:239|171:265,1,70,2|2,0:2|0:2,0:0:0:0:
75,286,144018,1,8,0:0:0:0:
237,355,144286,6,0,L|375:323,1,125.999996154785,6|0,0:2|0:0,0:0:0:0:
446,347,144688,1,0,0:0:0:0:
421,262,144822,2,0,P|397:202|417:138,1,125.999996154785,8|0,0:0|0:2,0:0:0:0:
470,77,145224,1,2,0:2:0:0:
383,59,145358,2,0,L|245:27,1,125.999996154785,0|0,0:0|0:0,0:0:0:0:
195,90,145759,1,2,0:2:0:0:
131,28,145893,2,0,P|107:88|133:152,1,125.999996154785,8|2,0:0|0:2,0:0:0:0:
224,290,146429,6,0,B|160:281|160:281|78:317,1,125.999996154785,2|2,0:2|0:2,0:0:0:0:
22,341,146831,1,0,0:0:0:0:
22,341,146965,2,0,L|-2:264,1,62.9999980773926,8|2,0:0|0:2,0:0:0:0:
63,215,147233,2,0,L|39:138,1,62.9999980773926,0|2,0:0|0:2,0:0:0:0:
8,73,147500,2,0,B|65:70|65:70|124:104,1,125.999996154785,8|0,0:0|0:0,0:0:0:0:
198,154,147902,1,2,0:2:0:0:
271,105,148036,2,0,B|330:70|330:70|387:73,1,125.999996154785,8|8,0:0|0:1,0:0:0:0:
492,239,148572,6,0,L|418:258,1,62.9999980773926,8|0,0:0|0:0,0:0:0:0:
370,319,148840,2,0,L|296:338,1,62.9999980773926,0|0,0:0|0:0,0:0:0:0:
257,261,149108,2,0,L|183:280,1,62.9999980773926,8|0,0:0|0:0,0:0:0:0:
135,341,149376,2,0,L|61:360,1,62.9999980773926,0|0,0:0|0:0,0:0:0:0:
25,283,149643,2,0,P|14:239|27:206,1,62.9999980773926,8|0,0:0|0:0,0:0:0:0:
106,212,149911,2,0,P|109:180|98:151,1,62.9999980773926,0|0,0:0|0:0,0:0:0:0:
49,77,150179,2,0,L|110:61,1,62.9999980773926,8|0,0:0|0:0,0:0:0:0:
178,117,150447,2,0,L|239:101,1,62.9999980773926,0|0,0:0|0:0,0:0:0:0:
293,31,150715,6,0,B|328:66|328:66|322:167,1,125.999996154785,8|8,0:0|0:0,0:0:0:0:
258,202,151116,1,0,0:0:0:0:
258,202,151250,2,0,L|322:258,1,62.9999980773926,8|0,0:0|0:0,0:0:0:0:
385,203,151518,2,0,L|431:153,1,62.9999980773926,8|0,0:0|0:0,0:0:0:0:
471,246,151786,2,0,P|478:316|423:367,1,125.999996154785,8|8,0:0|0:0,0:0:0:0:
364,319,152188,1,0,0:0:0:0:
364,319,152322,2,0,P|331:320|290:345,1,62.9999980773926,8|0,0:0|0:0,0:0:0:0:
215,330,152590,2,0,P|182:329|141:304,1,62.9999980773926,8|0,0:0|0:0,0:0:0:0:
60,322,152858,6,0,B|85:251|85:251|131:230,1,125.999996154785,10|10,0:0|0:0,0:0:0:0:
216,208,153259,1,2,0:0:0:0:
153,145,153393,2,0,L|108:90,1,62.9999980773926,8|2,0:0|0:0,0:0:0:0:
47,155,153661,2,0,L|2:100,1,62.9999980773926,8|2,0:0|0:0,0:0:0:0:
50,16,153929,5,10,0:0:0:0:
462,23,154733,5,8,1:0:0:0:
462,23,155000,2,0,P|410:47|396:129,1,140,6|8,0:2|0:0,0:0:0:0:
431,213,155402,1,0,0:0:0:0:
333,203,155536,2,0,B|298:202|298:202|258:227,1,70,2|2,0:2|0:2,0:0:0:0:
185,274,155804,2,0,L|165:191,1,70,8|0,0:0|0:0,0:0:0:0:
277,325,156072,2,0,P|228:370|154:376,1,140,2|8,0:2|0:0,0:0:0:0:
97,299,156474,1,0,0:0:0:0:
4,332,156608,2,0,L|24:249,1,70,2|2,0:2|0:2,0:0:0:0:
83,188,156875,2,0,L|103:105,1,70,8|0,0:0|0:0,0:0:0:0:
180,63,157143,6,0,P|225:89|324:62,1,140,2|8,0:2|0:0,0:0:0:0:
404,52,157545,2,0,P|358:77|332:177,1,140,0|2,0:0|0:2,0:0:0:0:
279,242,157947,2,0,P|321:255|372:245,1,70,8|0,0:0|0:0,0:0:0:0:
421,188,158215,2,0,B|454:218|454:218|476:317,1,140,2|8,0:2|0:0,0:0:0:0:
381,341,158616,1,0,0:0:0:0:
381,341,158750,2,0,L|289:364,1,70,8|2,0:0|0:2,0:0:0:0:
221,321,159018,2,0,L|129:344,1,70,8|2,0:0|0:2,0:0:0:0:
69,285,159286,6,0,P|71:224|128:173,1,140,6|8,0:2|0:0,0:0:0:0:
217,152,159688,2,0,P|269:108|274:40,1,140,0|2,0:0|0:2,0:0:0:0:
372,30,160090,2,0,P|368:65|391:104,1,70,8|0,0:0|0:0,0:0:0:0:
477,123,160358,2,0,B|434:116|434:116|353:170,1,140,2|8,0:2|0:0,0:0:0:0:
422,239,160759,2,0,B|341:293|341:293|298:286,1,140,0|2,0:0|0:2,0:0:0:0:
257,196,161161,2,0,L|186:243,1,70,8|0,0:0|0:0,0:0:0:0:
171,327,161429,6,0,P|116:286|104:218,1,140,2|8,0:2|0:0,0:0:0:0:
36,150,161831,2,0,P|98:121|163:143,1,140,0|2,0:0|0:2,0:0:0:0:
252,102,162233,2,0,L|310:63,1,70,8|0,0:0|0:0,0:0:0:0:
400,101,162500,2,0,B|422:150|422:150|395:243,1,140,2|8,0:2|0:0,0:0:0:0:
340,313,162902,1,0,0:0:0:0:
340,313,163036,2,0,L|410:334,1,70,8|8,3:0|3:0,0:0:0:0:
307,223,163304,2,0,L|236:244,1,70,8|8,3:0|3:0,0:0:0:0:
141,244,163572,6,0,P|143:285|168:314,2,70,6|2|8,0:2|0:2|0:0,0:0:0:0:
193,160,163974,2,0,P|195:91|150:35,1,140,0|2,0:0|0:2,0:0:0:0:
94,125,164375,2,0,L|8:142,2,70,8|0|2,0:0|0:0|0:2,0:0:0:0:
192,173,164777,2,0,P|252:140|276:71,1,140,2|0,0:2|0:0,0:0:0:0:
355,16,165179,6,0,L|381:105,1,70,2|2,0:2|0:2,0:0:0:0:
445,151,165447,1,8,0:0:0:0:
351,179,165581,2,0,B|374:281|374:281|424:312,1,140,0|2,0:0|0:2,0:0:0:0:
338,373,165983,2,0,L|259:326,1,70,8|0,0:0|0:0,0:0:0:0:
192,289,166250,1,2,0:2:0:0:
110,343,166384,2,0,P|96:278|139:206,1,140,2|0,0:2|0:0,0:0:0:0:
174,67,166786,6,0,B|174:116|174:116|223:192,1,140,2|8,0:2|0:0,0:0:0:0:
317,163,167188,1,0,0:0:0:0:
317,163,167322,2,0,P|324:196|317:230,1,70,2|2,0:2|0:2,0:0:0:0:
237,289,167590,2,0,P|229:322|236:356,1,70,8|0,0:0|0:0,0:0:0:0:
330,326,167858,6,0,B|432:326|432:326|458:291,1,140,6|8,0:2|0:0,0:0:0:0:
506,212,168259,1,0,0:0:0:0:
506,212,168393,2,0,B|483:181|483:181|381:181,1,140,2|8,0:2|0:0,0:0:0:0:
313,109,168795,1,0,0:0:0:0:
246,181,168929,2,0,B|144:181|144:181|121:150,1,140,2|8,0:2|0:0,0:0:0:0:
68,66,169331,1,0,0:0:0:0:
22,152,169465,2,0,L|110:275,1,140,2|8,0:2|0:0,0:0:0:0:
275,360,170000,6,0,L|362:345,1,70,2|2,0:2|0:2,0:0:0:0:
276,277,170268,2,0,L|363:262,1,70,8|0,0:0|0:0,0:0:0:0:
444,256,170536,2,0,P|448:218|427:185,1,70,2|2,0:2|0:2,0:0:0:0:
338,169,170804,2,0,P|323:138|328:103,1,70,8|0,0:0|0:0,0:0:0:0:
395,45,171072,6,0,L|227:68,1,140,0|0,3:0|0:0,0:0:0:0:
162,36,171473,1,0,0:0:0:0:
162,36,171607,2,0,L|138:105,1,70,0|0,3:0|3:0,0:0:0:0:
51,145,171875,2,0,L|75:214,1,70,2|2,0:2|0:2,0:0:0:0:
109,303,172143,6,0,P|168:273|241:294,1,140,6|8,0:2|0:0,0:0:0:0:
279,372,172545,2,0,L|303:219,1,140,0|2,0:0|0:2,0:0:0:0:
385,285,172947,2,0,L|399:193,1,70,8|0,0:0|0:0,0:0:0:0:
466,146,173215,2,0,P|421:122|333:140,1,140,2|8,0:2|0:0,0:0:0:0:
240,156,173616,1,0,0:0:0:0:
240,156,173750,2,0,L|226:85,1,70,2|2,0:2|0:2,0:0:0:0:
150,24,174018,2,0,L|136:92,1,70,8|0,0:0|0:0,0:0:0:0:
53,145,174286,6,0,B|35:236|35:236|78:287,1,140,2|8,0:2|0:0,0:0:0:0:
87,368,174688,2,0,P|139:335|162:264,1,140,0|2,0:0|0:2,0:0:0:0:
260,252,175090,2,0,L|262:326,1,70,8|0,0:0|0:0,0:0:0:0:
198,169,175358,2,0,P|264:150|328:175,1,140,2|8,0:2|0:0,0:0:0:0:
403,236,175759,1,2,0:2:0:0:
421,140,175893,2,0,L|437:63,1,70,8|2,0:0|0:2,0:0:0:0:
495,201,176161,2,0,L|509:269,1,70,8|2,0:0|0:2,0:0:0:0:
436,328,176429,6,0,P|357:322|305:255,1,140,2|8,0:2|0:0,0:0:0:0:
216,281,176831,2,0,P|164:325|95:327,1,140,0|2,0:0|0:2,0:0:0:0:
11,275,177233,2,0,L|25:206,1,70,8|0,0:0|0:0,0:0:0:0:
1,111,177500,2,0,P|65:117|118:175,1,140,2|8,0:2|0:0,0:0:0:0:
191,105,177902,1,0,0:0:0:0:
191,105,178036,2,0,P|181:67|194:37,1,70,2|2,0:2|0:2,0:0:0:0:
278,86,178304,2,0,P|288:124|275:154,1,70,8|0,0:0|0:0,0:0:0:0:
209,223,178572,6,0,B|240:194|240:194|363:195,1,140,2|8,0:2|0:0,0:0:0:0:
409,132,178974,2,0,B|437:197|437:197|410:261,1,140,0|2,0:0|0:2,0:0:0:0:
346,350,179375,2,0,L|315:288,1,70,8|0,0:0|0:0,0:0:0:0:
219,311,179643,2,0,B|154:285|154:285|128:219,1,140,2|8,0:2|0:0,0:0:0:0:
194,139,180045,1,2,0:2:0:0:
194,139,180179,2,0,L|227:219,1,70,10|10,0:0|0:2,0:0:0:0:
91,123,180447,2,0,L|117:58,1,70,8|10,0:0|0:2,0:0:0:0:
210,91,180715,6,0,L|272:241,1,140,6|8,0:0|0:0,0:0:0:0:
338,157,181116,2,0,B|401:130|401:130|489:149,1,140,0|2,0:0|0:2,0:0:0:0:
483,243,181518,2,0,B|420:270|420:270|332:251,1,140,8|2,0:0|0:2,0:0:0:0:
272,315,181920,2,0,P|211:285|137:303,1,140,2|0,0:2|0:0,0:0:0:0:
84,378,182322,2,0,L|39:241,1,140,2|8,0:2|0:0,0:0:0:0:
17,148,182724,1,0,0:0:0:0:
17,148,182858,6,0,B|69:108|69:108|151:106,1,140,2|8,0:2|0:0,0:0:0:0:
220,166,183259,2,0,B|294:164|294:164|346:124,1,140,0|2,0:0|0:2,0:0:0:0:
358,26,183661,2,0,P|417:59|439:124,1,140,8|2,0:0|0:2,0:0:0:0:
394,213,184063,2,0,P|415:277|475:311,1,140,2|0,0:2|0:0,0:0:0:0:
404,381,184465,2,0,B|343:347|343:347|254:347,1,140,2|2,0:2|0:2,0:0:0:0:
76,348,185000,6,0,L|92:277,1,70,6|2,0:2|0:2,0:0:0:0:
118,184,185268,1,8,0:0:0:0:
184,256,185402,2,0,B|254:256|254:256|315:222,1,140,0|2,0:0|0:2,0:0:0:0:
413,228,185804,2,0,L|473:190,1,70,8|0,0:0|0:0,0:0:0:0:
456,98,186072,2,0,L|375:67,1,70,2|2,0:2|0:2,0:0:0:0:
304,35,186340,1,8,0:0:0:0:
252,118,186474,2,0,L|171:87,1,70,0|2,0:0|0:2,0:0:0:0:
124,16,186741,1,2,0:2:0:0:
84,105,186875,2,0,L|55:171,1,70,8|0,0:0|0:0,0:0:0:0:
46,267,187143,6,0,P|117:253|177:302,1,140,8|0,3:0|3:0,0:0:0:0:
246,351,187545,1,0,3:0:0:0:
246,351,187679,2,0,L|272:273,1,70,8|0,3:0|3:0,0:0:0:0:
335,212,187947,2,0,L|357:278,1,70,0|0,3:0|3:0,0:0:0:0:
403,362,188215,2,0,P|441:326|440:230,1,140,8|0,3:0|3:0,0:0:0:0:
497,161,188616,1,0,3:0:0:0:
497,161,188750,2,0,L|427:146,1,70,8|0,3:0|3:0,0:0:0:0:
343,95,189018,2,0,L|274:109,1,70,0|0,3:0|3:0,0:0:0:0:
205,180,189286,5,4,2:0:0:0:
256,192,189353,12,0,191429,2:0:0:0:
68,133,197858,6,0,L|99:202,1,62.9999980773926,8|0,0:0|0:0,0:0:0:0:
72,276,198125,2,0,P|115:228|183:221,1,125.999996154785,0|8,0:0|0:0,0:0:0:0:
261,233,198527,1,0,0:0:0:0:
230,150,198661,2,0,L|204:92,1,62.9999980773926,0|0,0:0|0:0,0:0:0:0:
290,72,198929,2,0,B|358:57|358:57|419:87,1,125.999996154785,8|0,0:0|0:0,0:0:0:0:
481,132,199331,1,0,0:0:0:0:
481,132,199465,2,0,L|466:212,1,62.9999980773926,8|0,0:0|0:0,0:0:0:0:
382,214,199733,2,0,L|397:294,1,62.9999980773926,0|0,0:0|0:0,0:0:0:0:
464,328,200000,6,0,B|402:317|402:317|344:352,1,125.999996154785,8|0,0:0|0:0,0:0:0:0:
287,284,200402,1,0,0:0:0:0:
246,362,200536,2,0,P|212:330|211:242,1,125.999996154785,8|0,0:0|0:0,0:0:0:0:
272,196,200938,1,0,0:0:0:0:
187,169,201072,2,0,B|106:145,1,62.9999980773926,8|0,0:0|0:0,0:0:0:0:
253,110,201340,2,0,B|334:86,1,62.9999980773926,0|0,0:0|0:0,0:0:0:0:
162,61,201608,2,0,P|100:57|41:107,1,125.999996154785,8|0,0:0|0:0,0:0:0:0:
18,266,202143,6,0,B|108:265|108:265|158:299,1,125.999996154785,8|8,0:0|0:0,0:0:0:0:
202,345,202545,1,8,0:0:0:0:
275,295,202679,2,0,L|340:261,1,62.9999980773926,8|8,0:0|0:0,0:0:0:0:
397,325,202947,2,0,L|467:348,1,62.9999980773926,8|8,0:0|0:0,0:0:0:0:
477,258,203215,2,0,P|488:211|472:182,1,62.9999980773926,8|8,0:0|0:0,0:0:0:0:
407,152,203483,2,0,P|381:110|349:101,1,62.9999980773926,8|8,0:0|0:0,0:0:0:0:
282,126,203750,2,0,P|235:115|206:130,1,62.9999980773926,8|8,0:0|0:0,0:0:0:0:
175,196,204018,2,0,P|133:221|124:253,1,62.9999980773926,8|8,0:0|0:0,0:0:0:0:
84,305,204286,6,0,L|68:169,1,125.999996154785,8|8,0:0|0:0,0:0:0:0:
3,119,204688,1,0,0:0:0:0:
3,119,204822,2,0,B|60:90|60:90|145:113,1,125.999996154785,8|8,0:0|0:0,0:0:0:0:
205,133,205224,1,0,0:0:0:0:
185,46,205358,1,8,0:0:0:0:
376,121,205625,2,0,P|440:106|379:83,1,175,0|0,2:0|0:0,0:0:0:0:
309,47,206429,6,0,P|290:113|317:176,1,140,6|8,0:2|0:0,0:0:0:0:
391,242,206831,1,0,0:0:0:0:
297,270,206965,2,0,L|214:291,1,70,2|2,0:2|0:2,0:0:0:0:
370,335,207233,2,0,L|437:352,1,70,8|0,0:0|0:0,0:0:0:0:
276,363,207500,2,0,P|215:373|142:314,1,140,2|8,0:2|0:0,0:0:0:0:
119,239,207902,1,0,0:0:0:0:
119,239,208036,2,0,L|99:162,1,70,2|2,0:2|0:2,0:0:0:0:
16,222,208304,2,0,L|-4:145,1,70,8|0,0:0|0:0,0:0:0:0:
63,80,208572,6,0,P|121:46|203:67,1,140,2|8,0:2|0:0,0:0:0:0:
265,121,208974,2,0,P|332:133|391:98,1,140,0|2,0:0|0:2,0:0:0:0:
461,30,209375,2,0,L|486:107,1,70,8|0,0:0|0:0,0:0:0:0:
442,186,209643,2,0,L|397:324,1,140,2|8,0:2|0:0,0:0:0:0:
301,304,210045,1,0,0:0:0:0:
301,304,210179,2,0,L|211:281,1,70,8|2,0:0|0:2,0:0:0:0:
158,351,210447,2,0,L|68:328,1,70,8|2,0:0|0:2,0:0:0:0:
38,249,210715,6,0,P|16:187|60:111,2,140,6|8|2,0:2|0:0|0:2,0:0:0:0:
114,190,211384,1,2,0:2:0:0:
114,190,211518,2,0,L|204:213,1,70,8|0,0:0|0:0,0:0:0:0:
276,234,211786,2,0,B|346:251|346:251|426:219,2,140,2|8|2,0:2|0:0|0:2,0:0:0:0:
253,137,212456,1,2,0:2:0:0:
253,137,212590,2,0,L|227:47,1,70,8|0,0:0|0:0,0:0:0:0:
181,207,212858,6,0,P|187:279|246:334,1,140,2|8,0:2|0:0,0:0:0:0:
323,359,213259,2,0,B|386:333|386:333|456:350,1,140,0|2,0:0|0:2,0:0:0:0:
452,252,213661,2,0,L|473:168,1,70,8|0,0:0|0:0,0:0:0:0:
447,87,213929,2,0,B|377:104|377:104|313:78,1,140,2|8,0:2|0:0,0:0:0:0:
225,34,214331,1,0,0:0:0:0:
225,34,214465,2,0,L|204:118,1,70,8|8,3:0|3:0,0:0:0:0:
277,172,214733,2,0,L|256:256,1,70,8|8,3:0|3:0,0:0:0:0:
279,335,215000,6,0,L|362:357,2,70,6|2|8,0:2|0:2|0:0,0:0:0:0:
184,305,215402,2,0,P|147:269|149:169,1,140,0|2,0:0|0:2,0:0:0:0:
42,188,215804,2,0,L|24:262,2,70,8|0|2,0:0|0:0|0:2,0:0:0:0:
93,103,216206,2,0,B|130:74|130:74|247:78,1,140,2|0,0:2|0:0,0:0:0:0:
314,115,216608,6,0,L|321:42,2,70,2|2|8,0:2|0:2|0:0,0:0:0:0:
232,169,217009,2,0,P|271:203|380:186,1,140,0|2,0:0|0:2,0:0:0:0:
413,122,217411,2,0,L|420:49,2,70,8|0|2,0:0|0:0|0:2,0:0:0:0:
450,213,217813,2,0,B|484:256|484:256|476:346,1,140,2|0,0:2|0:0,0:0:0:0:
380,318,218215,6,0,P|341:309|299:322,1,70,2|2,0:2|0:2,0:0:0:0:
221,353,218483,2,0,P|186:359|153:350,1,70,8|0,0:0|0:0,0:0:0:0:
57,327,218750,2,0,B|40:281|40:281|51:241,1,70,2|2,0:2|0:2,0:0:0:0:
143,244,219018,2,0,B|160:198|160:198|149:158,1,70,8|0,0:0|0:0,0:0:0:0:
61,143,219286,6,0,B|49:104|49:104|102:-7,2,140,6|8|2,0:2|0:0|0:2,0:0:0:0:
154,177,219956,1,2,0:2:0:0:
227,111,220090,2,0,B|263:103|263:103|297:113,1,70,8|0,0:0|0:0,0:0:0:0:
364,181,220358,2,0,P|388:140|366:47,2,140,2|8|2,0:2|0:0|0:2,0:0:0:0:
268,201,221027,1,2,0:2:0:0:
268,201,221161,2,0,P|257:242|271:278,1,70,8|0,0:0|0:0,0:0:0:0:
340,330,221429,6,0,B|308:358|308:358|198:358,1,140,2|8,0:2|0:0,0:0:0:0:
21,303,221965,2,0,B|53:275|53:275|163:275,1,140,2|8,0:2|0:0,0:0:0:0:
453,82,223572,6,0,P|396:57|316:86,1,140,6|8,0:2|0:0,0:0:0:0:
258,152,223974,2,0,P|201:177|121:148,1,140,0|2,0:0|0:2,0:0:0:0:
50,97,224375,2,0,L|37:170,1,70,8|0,0:0|0:0,0:0:0:0:
99,242,224643,2,0,L|126:395,1,140,2|8,0:2|0:0,0:0:0:0:
198,315,225045,1,0,0:0:0:0:
198,315,225179,2,0,B|215:293|215:293|264:280,1,70,2|2,0:2|0:2,0:0:0:0:
342,329,225447,2,0,B|382:318|382:318|399:296,1,70,8|0,0:0|0:0,0:0:0:0:
426,200,225715,6,0,P|453:130|417:62,1,140,2|8,0:2|0:0,0:0:0:0:
356,8,226116,2,0,P|328:70|352:134,1,140,0|2,0:0|0:2,0:0:0:0:
257,162,226518,2,0,P|239:132|196:114,1,70,8|2,0:0|0:0,0:0:0:0:
114,86,226786,2,0,B|83:117|83:117|86:232,1,140,2|8,0:2|0:0,0:0:0:0:
181,236,227188,1,0,0:0:0:0:
111,306,227322,2,0,L|33:336,1,70,8|2,0:0|0:2,0:0:0:0:
207,328,227590,2,0,L|285:358,1,70,8|2,0:0|0:2,0:0:0:0:
369,334,227858,6,0,B|390:268|390:268|452:226,1,140,6|8,0:2|0:0,0:0:0:0:
395,147,228259,2,0,B|338:187|338:187|264:184,1,140,0|2,0:0|0:2,0:0:0:0:
287,28,228661,2,0,L|310:95,1,70,8|0,0:0|0:0,0:0:0:0:
211,102,228929,2,0,P|148:103|90:159,1,140,2|8,0:2|0:0,0:0:0:0:
180,194,229331,1,0,0:0:0:0:
180,194,229465,2,0,L|212:267,1,70,2|2,0:2|0:2,0:0:0:0:
100,248,229733,2,0,L|71:312,1,70,8|0,0:0|0:0,0:0:0:0:
162,349,230000,6,0,B|178:315|178:315|293:284,1,140,2|8,0:2|0:0,0:0:0:0:
368,325,230402,2,0,B|466:298|466:298|482:264,1,140,0|2,0:0|0:2,0:0:0:0:
499,166,230804,2,0,L|430:181,1,70,8|0,0:0|0:0,0:0:0:0:
332,161,231072,2,0,P|280:116|280:36,1,140,2|8,0:2|0:0,0:0:0:0:
182,18,231474,1,0,0:0:0:0:
182,18,231608,2,0,P|164:52|133:74,1,70,8|8,3:0|3:0,0:0:0:0:
43,91,231875,2,0,P|56:122|84:143,1,70,8|8,3:0|3:0,0:0:0:0:
147,219,232143,6,0,L|182:159,2,70,6|2|8,0:2|0:2|0:0,0:0:0:0:
56,258,232545,2,0,B|98:242|98:242|215:288,1,140,0|2,0:0|0:2,0:0:0:0:
277,314,232947,2,0,L|290:403,2,70,8|0|2,0:2|0:2|0:2,0:0:0:0:
263,216,233349,2,0,L|384:127,1,140,2|0,0:2|0:0,0:0:0:0:
324,49,233750,6,0,L|259:20,2,70,2|2|8,0:2|0:2|0:0,0:0:0:0:
421,48,234152,2,0,P|456:79|462:179,1,140,0|2,0:0|0:2,0:0:0:0:
441,262,234554,2,0,L|473:342,2,70,8|0|2,0:0|0:0|0:2,0:0:0:0:
371,192,234956,2,0,B|338:185|338:185|266:267,1,140,2|0,0:2|0:0,0:0:0:0:
175,272,235358,6,0,L|201:337,2,70,2|2|8,0:2|0:2|0:0,0:0:0:0:
91,220,235759,2,0,B|49:203|49:203|9:102,1,140,0|2,0:0|0:2,0:0:0:0:
93,55,236161,2,0,L|129:148,1,70,8|0,0:0|0:0,0:0:0:0:
210,156,236429,6,0,P|246:136|272:93,1,70,6|2,0:2|0:2,0:0:0:0:
291,19,236697,2,0,P|327:39|353:82,1,70,8|0,0:0|0:0,0:0:0:0:
358,159,236965,2,0,L|406:231,1,70,2|2,0:2|0:2,0:0:0:0:
473,155,237233,2,0,L|521:227,1,70,8|0,0:0|0:0,0:0:0:0:
456,293,237500,2,0,B|435:312|435:312|367:312,1,70,2|2,0:2|0:2,0:0:0:0:
307,265,237768,2,0,B|265:264|265:264|244:284,1,70,8|0,0:0|0:0,0:0:0:0:
185,363,238036,2,0,L|137:291,1,70,2|2,0:2|0:2,0:0:0:0:
70,367,238304,2,0,L|22:295,1,70,8|0,0:0|0:0,0:0:0:0:
12,211,238572,6,0,P|39:189|73:182,1,70,8|2,0:0|0:2,0:0:0:0:
169,204,238840,2,0,P|202:196|230:175,1,70,8|2,0:0|0:2,0:0:0:0:
298,104,239108,2,0,B|304:139|304:139|332:179,1,70,8|2,0:0|0:2,0:0:0:0:
396,232,239375,2,0,B|415:203|415:203|421:168,1,70,8|2,0:0|0:2,0:0:0:0:
297,258,239643,6,0,P|238:295|315:279,1,212.799997402344,0|6,2:0|0:2,0:0:0:0:
