osu file format v14

[General]
AudioFilename: Snow Drive.mp3
AudioLeadIn: 0
PreviewTime: 95717
Countdown: 0
SampleSet: Normal
StackLeniency: 0.5
Mode: 0
LetterboxInBreaks: 0
WidescreenStoryboard: 0

[Editor]
Bookmarks: 162480
DistanceSpacing: 1.1
BeatDivisor: 2
GridSize: 4
TimelineZoom: 1.399999

[Metadata]
Title:Snow Drive(01.23)
TitleUnicode:スノウドライヴ(01.23)
Artist:Omoi
ArtistUnicode:Omoi
Creator:Kroytz
Version:BHR's Easy
Source:
Tags:Vocaloid Hatsune Miku k2pudding Battle HappyRocket88 Anxient pkk Rumia MoeMoeKyunNN moph SnowNiNo_
BeatmapID:1083051
BeatmapSetID:478405

[Difficulty]
HPDrainRate:4
CircleSize:3
OverallDifficulty:4
ApproachRate:5
SliderMultiplier:0.799999999999999
SliderTickRate:1

[Events]
//Background and Video events
Video,0,"video.mp4"
0,0,"BG.jpg",0,0
//Break Periods
2,19129,26180
2,79129,86180
2,113415,117252
2,172343,179395
2,189486,196538
//Storyboard Layer 0 (Background)
//Storyboard Layer 1 (Fail)
//Storyboard Layer 2 (Pass)
//Storyboard Layer 3 (Foreground)
//Storyboard Sound Samples

[TimingPoints]
730,267.857142857143,4,1,1,60,1,0
1801,-100,4,2,0,30,0,0
9301,-100,4,2,0,35,0,0
10358,267.857142857143,4,2,0,40,1,0
10358,-100,4,2,0,40,0,0
17858,-100,4,2,1,40,0,0
18929,-100,4,1,1,60,0,0
36072,-100,4,3,1,50,0,0
40358,-100,4,1,1,50,0,0
47858,-100,4,1,1,40,0,0
48929,-100,4,1,1,55,0,0
61786,-100,4,1,1,60,0,0
91786,-100,4,3,1,60,0,0
95000,-100,4,1,1,60,0,0
96072,-100,4,1,1,70,0,1
113215,-100,4,1,1,70,0,0
125402,-100,4,3,2,70,0,0
126072,-100,4,1,1,70,0,0
148572,-100,4,3,1,70,0,0
153929,-100,4,1,1,70,0,0
155000,-100,4,1,1,70,0,1
171072,-100,4,1,1,70,0,0
189286,-100,4,2,1,70,0,0
197858,-100,4,1,1,70,0,0
205625,-100,4,2,1,70,0,0
206429,-100,4,1,1,100,0,1
206697,-100,4,1,1,70,0,1
222500,-100,4,1,1,70,0,0
223572,-100,4,1,2,70,0,1
224108,-100,4,1,1,70,0,1
239643,-100,4,1,1,40,0,0

[Colours]
Combo1 : 114,64,247
Combo2 : 128,255,255
Combo3 : 0,121,242
SliderBorder : 212,231,238
SliderTrackOverride : 40,42,68

[HitObjects]
65,245,1801,6,0,P|32:194|55:101,1,160,2|0,0:0|0:0,0:0:0:0:
128,54,2605,1,0,0:0:0:0:
185,120,2872,2,0,B|229:140|229:140|353:139,1,160,2|2,0:0|0:0,0:0:0:0:
400,74,3676,1,0,0:0:0:0:
472,123,3944,6,0,P|505:189|496:239,2,120,2|2|2,0:0|0:0|0:0,0:0:0:0:
417,192,5015,2,0,P|414:311|412:362,1,160,2|2,0:0|0:0,0:0:0:0:
327,376,5819,1,2,0:0:0:0:
245,343,6087,6,0,P|216:258|332:196,1,240,2|0,0:0|0:0,0:0:0:0:
302,278,7158,2,0,B|136:303|136:303|62:283,1,240,2|0,0:0|0:0,0:0:0:0:
14,212,8230,6,0,P|-8:152|19:88,2,120,2|2|2,0:0|0:0|0:0,0:0:0:0:
80,154,9301,2,0,P|194:157|330:154,1,240,2|0,2:0|0:0,0:0:0:0:
402,186,10358,6,0,P|398:123|398:54,1,120,2|0,0:0|0:0,0:0:0:0:
493,157,11161,2,0,P|497:220|497:289,1,120,2|0,0:0|0:0,0:0:0:0:
392,358,11965,2,0,P|313:366|271:348,1,120,2|0,0:0|0:0,0:0:0:0:
229,228,12768,2,0,P|150:220|108:238,1,120,2|0,0:0|0:0,0:0:0:0:
39,343,13572,6,0,L|34:171,1,160,2|2,0:0|0:0,0:0:0:0:
71,103,14375,1,2,0:0:0:0:
140,157,14643,2,0,P|203:184|285:134,1,160,2|2,0:0|0:0,0:0:0:0:
294,56,15447,1,2,0:0:0:0:
379,76,15715,6,0,B|376:253,1,160,2|2,0:0|0:0,0:0:0:0:
342,317,16518,1,2,0:0:0:0:
276,257,16786,2,0,P|214:216|122:240,1,160,2|2,0:0|0:0,0:0:0:0:
9,356,17858,6,0,P|6:313|6:266,2,79.9999999999999,2|2|2,1:2|1:2|1:2,0:0:0:0:
95,338,18661,1,2,3:2:0:0:
180,364,18929,1,4,0:0:0:0:
33,248,27500,6,0,P|10:171|54:104,2,160,12|8|8,0:0|0:0|0:0,0:0:0:0:
110,205,28840,1,0,0:0:0:0:
153,281,29108,2,0,P|196:280|248:280,1,79.9999999999999,8|0,0:0|0:0,0:0:0:0:
315,311,29643,6,0,P|313:212|312:147,2,160,8|8|8,0:0|0:0|0:0,0:0:0:0:
398,284,30983,2,0,L|400:368,2,79.9999999999999,8|8|8,0:0|0:0|0:0,0:0:0:0:
472,235,31786,6,0,P|498:160|376:80,1,240,4|8,0:0|0:0,0:0:0:0:
308,122,32858,2,0,B|299:165|299:165|307:213,2,79.9999999999999,0|8|0,0:0|0:0|0:0,0:0:0:0:
250,53,33661,1,10,0:0:0:0:
190,117,33929,6,0,P|134:171|19:81,1,240,0|8,0:0|0:0,0:0:0:0:
107,88,35000,2,0,L|107:263,1,160,8|8,0:0|0:0,0:0:0:0:
160,318,35804,1,8,0:0:0:0:
221,255,36072,6,0,B|296:288|296:288|455:266,1,240,12|4,0:1|0:0,0:0:0:0:
505,195,37143,2,0,P|502:110|475:82,2,120,8|8|8,0:0|0:0|0:0,0:0:0:0:
425,155,38215,6,0,B|276:158|178:160,1,240,8|4,0:0|0:0,0:0:0:0:
108,203,39286,2,0,P|98:148|109:119,2,79.9999999999999,8|8|8,0:0|0:0|0:0,0:0:0:0:
156,277,40090,1,8,0:0:0:0:
236,241,40358,6,0,L|374:240,2,120,4|0|8,0:0|0:0|0:0,0:0:0:0:
196,161,41429,2,0,L|60:160,2,120,0|0|8,0:0|0:0|0:0,0:0:0:0:
236,81,42500,6,0,P|336:63|405:166,1,240,0|8,0:0|0:0,0:0:0:0:
359,242,43572,2,0,P|346:302|357:369,1,120,0|0,0:0|0:0,0:0:0:0:
471,173,44643,6,0,P|478:113|444:59,2,120,0|0|8,0:0|0:0|0:0,0:0:0:0:
393,130,45715,2,0,P|327:130|264:130,2,120,0|0|8,0:0|0:0|0:0,0:0:0:0:
369,214,46786,6,0,P|303:214|122:212,1,240,0|8,0:0|0:0,0:0:0:0:
52,255,47858,2,0,P|43:188|77:141,1,120,2|2,0:0|0:0,0:0:0:0:
200,323,48929,6,0,L|371:324,1,160,4|0,0:0|0:0,0:0:0:0:
444,349,49733,1,8,0:0:0:0:
496,278,50000,2,0,P|508:191|484:153,2,120,0|0|8,0:0|0:0|0:0,0:0:0:0:
426,223,51072,6,0,B|351:194|351:194|182:214,1,240,0|8,0:0|0:0,0:0:0:0:
120,263,52143,2,0,P|108:194|113:174,1,79.9999999999999,0|8,0:0|0:0,0:0:0:0:
170,120,52679,2,0,L|256:110,1,79.9999999999999,0|8,0:0|0:0,0:0:0:0:
290,32,53215,6,0,P|338:87|299:239,1,240,4|8,0:0|0:0,0:0:0:0:
219,205,54286,2,0,P|215:252|369:293,1,240,0|8,0:0|0:0,0:0:0:0:
445,262,55358,6,0,P|444:317|443:392,2,120,0|0|8,0:0|0:0|0:0,0:0:0:0:
499,192,56429,2,0,P|500:133|483:107,1,79.9999999999999,0|8,0:0|0:0,0:0:0:0:
402,112,56965,2,0,P|387:148|393:188,1,79.9999999999999,0|8,0:0|0:0,0:0:0:0:
341,258,57500,6,0,B|297:239|261:236|261:236|220:256|189:259|189:259|167:240|99:240,1,240,12|8,0:0|0:0,0:0:0:0:
45,298,58572,2,0,P|27:223|50:175,2,120,8|0|8,0:0|0:0|0:0,0:0:0:0:
133,300,59643,6,0,B|162:253|138:205|138:205|155:174|155:174|117:123|132:71,1,240,8|0,0:0|3:0,0:0:0:0:
48,44,60715,1,8,3:0:0:0:
48,44,61786,6,0,P|120:66|211:39,1,160,4|0,0:0|0:0,0:0:0:0:
283,15,62590,1,8,0:0:0:0:
329,90,62858,2,0,P|316:164|322:210,2,120,0|0|8,0:0|0:0|0:0,0:0:0:0:
417,83,63929,6,0,P|447:158|418:321,1,240,0|8,0:0|0:0,0:0:0:0:
341,342,65000,2,0,P|295:351|228:319,2,120,0|0|8,0:0|0:0|0:0,0:0:0:0:
297,264,66072,6,0,P|293:135|297:89,1,160,0|0,0:0|0:0,0:0:0:0:
243,33,66875,1,8,0:0:0:0:
204,112,67143,2,0,P|207:156|207:240,2,120,0|0|8,0:0|0:0|0:0,0:0:0:0:
135,55,68215,6,0,P|44:99|60:235,1,240,0|8,0:0|0:0,0:0:0:0:
112,285,69286,2,0,L|111:380,2,79.9999999999999,0|8|8,0:0|3:0|0:0,0:0:0:0:
159,210,70090,1,8,0:0:0:0:
226,265,70358,6,0,B|294:285|294:285|464:250,1,240,0|8,0:0|0:0,0:0:0:0:
508,177,71429,2,0,P|515:144|447:48,1,160,0|0,0:0|0:0,0:0:0:0:
382,107,72233,1,8,0:0:0:0:
315,48,72500,6,0,P|264:63|188:50,2,120,0|0|8,0:0|0:0|0:0,0:0:0:0:
382,107,73572,2,0,P|282:141|140:120,1,240,0|8,0:0|0:0,0:0:0:0:
72,163,74643,6,0,P|68:94|104:51,2,120,0|0|8,0:0|0:0|0:0,0:0:0:0:
146,210,75715,2,0,P|142:300|139:377,1,160,0|0,0:0|0:0,0:0:0:0:
223,345,76518,1,8,0:0:0:0:
308,365,76786,6,0,P|384:360|423:222,1,240,0|8,0:0|0:0,0:0:0:0:
359,160,77858,2,0,P|355:91|354:30,2,120,8|0|8,0:0|0:0|0:0,0:0:0:0:
289,214,78929,5,4,0:0:0:0:
31,193,87500,6,0,P|13:131|66:38,1,160,0|0,0:0|0:0,0:0:0:0:
133,82,88304,1,8,0:0:0:0:
207,34,88572,2,0,L|288:32,1,79.9999999999999,0|8,0:0|0:0,0:0:0:0:
310,116,89108,2,0,L|229:118,1,79.9999999999999,0|8,0:0|0:0,0:0:0:0:
154,163,89643,6,0,P|114:256|136:318,2,160,0|0|0,0:0|0:0|0:0,0:0:0:0:
227,210,90983,1,8,0:0:0:0:
290,149,91250,2,0,L|373:148,1,79.9999999999999,0|8,0:0|0:0,0:0:0:0:
435,207,91786,5,8,0:0:0:0:
256,192,91920,12,8,95000,0:0:0:0:
45,120,96072,6,0,P|138:149|196:118,1,160,4|0,0:0|0:0,0:0:0:0:
242,52,96875,1,8,0:0:0:0:
319,94,97143,2,0,P|320:157|323:272,1,160,0|0,0:0|0:0,0:0:0:0:
378,321,97947,1,8,0:0:0:0:
451,272,98215,6,0,P|472:223|444:150,2,120,0|0|8,0:0|0:0|0:0,0:0:0:0:
378,321,99286,2,0,B|290:300|290:300|208:317,1,160,0|8,0:0|0:0,0:0:0:0:
142,353,100090,1,8,0:0:0:0:
66,308,100358,6,0,P|8:230|71:112,1,240,4|8,0:0|0:0,0:0:0:0:
150,84,101429,2,0,B|221:118|221:118|395:93,1,240,0|8,0:0|0:0,0:0:0:0:
458,135,102500,6,0,P|459:58|423:15,2,120,0|0|8,0:0|0:0|0:0,0:0:0:0:
397,199,103572,2,0,P|398:247|398:296,2,79.9999999999999,0|8|0,0:0|0:0|3:0,0:0:0:0:
339,132,104375,1,0,3:0:0:0:
267,183,104643,6,0,P|196:193|130:130,1,160,4|0,0:0|0:0,0:0:0:0:
216,110,105447,2,0,L|205:280,1,160,8|8,0:0|0:0,0:0:0:0:
289,295,106250,2,0,L|300:125,1,160
309,47,107054,2,0,P|390:6|457:43,1,160,8|8,0:0|0:0,0:0:0:0:
471,117,107858,6,0,P|472:170|471:211,2,79.9999999999999,0|8|0,0:0|0:0|0:0,0:0:0:0:
385,93,108661,1,8,0:0:0:0:
327,159,108929,2,0,P|257:198|146:106,1,240,4|8,0:0|0:0,0:0:0:0:
63,77,110000,6,0,P|63:174|59:253,1,160,0|0,0:0|0:0,0:0:0:0:
117,304,110804,1,8,0:0:0:0:
176,238,111072,2,0,P|229:236|259:236,1,79.9999999999999,0|8,0:0|0:0,0:0:0:0:
316,299,111608,2,0,P|369:301|399:301,1,79.9999999999999,0|8,0:0|0:0,0:0:0:0:
470,254,112143,6,0,P|481:299|474:343,2,79.9999999999999,8|8|8,0:0|0:0|0:0,0:0:0:0:
404,194,112947,1,8,0:0:0:0:
449,118,113215,1,12,0:0:0:0:
55,111,118572,6,0,P|31:186|154:197,1,240,12|0,0:0|0:0,0:0:0:0:
196,120,119643,2,0,B|263:142|263:142|362:129,1,160,8|8,0:0|0:0,0:0:0:0:
424,80,120447,1,0,0:0:0:0:
475,151,120715,6,0,P|476:200|477:270,2,120,8|0|0,0:0|0:0|0:0,0:0:0:0:
424,80,121786,2,0,P|334:86|301:146,1,160,8|8,0:0|0:0,0:0:0:0:
294,228,122590,1,0,0:0:0:0:
220,179,122858,6,0,P|155:183|89:182,2,120,8|0|0,0:0|0:0|0:0,0:0:0:0:
302,147,123929,2,0,P|342:102|501:146,1,240,8|0,0:0|0:0,0:0:0:0:
480,226,125000,6,0,P|478:316|481:350,1,120,8|4,0:0|3:0,0:0:0:0:
310,242,126072,2,0,B|275:244|239:217|239:217|198:246|166:250|166:250|127:227|83:237,1,240,2|0,0:0|0:0,0:0:0:0:
24,300,127143,6,0,B|-12:268|-12:208|24:172|24:172|32:128|32:128|80:92,1,240,4|8,0:0|0:0,0:0:0:0:
148,148,128215,2,0,B|151:229,2,79.9999999999999,0|8|0,0:0|0:0|0:0,0:0:0:0:
156,60,129018,1,8,0:0:0:0:
230,101,129286,6,0,B|297:129|297:129|470:125,1,240,0|8,0:0|0:0,0:0:0:0:
455,213,130358,2,0,B|362:215|362:215|300:241,1,160,0|0,0:0|0:0,0:0:0:0:
246,311,131161,1,8,0:0:0:0:
172,261,131429,6,0,P|169:194|171:98,1,160,0|0,0:0|0:0,0:0:0:0:
115,32,132233,1,8,0:0:0:0:
55,97,132500,2,0,P|58:169|57:338,1,240,0|8,0:0|0:0,0:0:0:0:
140,365,133572,6,0,B|198:355|198:355|265:369,2,120,0|0|8,0:0|0:0|0:0,0:0:0:0:
144,277,134643,2,0,L|142:99,1,160,8|8,0:0|0:0,0:0:0:0:
114,33,135447,1,8,0:0:0:0:
201,40,135715,6,0,B|254:47,1,40,8|0,3:0|3:0,0:0:0:0:
326,63,136116,1,0,3:0:0:0:
470,212,137858,6,0,B|417:219,1,40,8|0,3:0|3:0,0:0:0:0:
345,235,138259,1,0,3:0:0:0:
230,301,138661,2,0,P|227:221|223:132,1,160,0|0,3:0|3:0,0:0:0:0:
266,63,139465,2,0,P|216:52|175:62,1,79.9999999999999,0|0,3:0|3:0,0:0:0:0:
106,90,140000,6,0,P|32:84|16:-4,2,160,4|0|0,0:0|0:0|0:0,0:0:0:0:
188,56,141340,1,8,0:0:0:0:
227,134,141608,2,0,L|228:228,1,79.9999999999999,0|8,0:0|0:0,0:0:0:0:
228,302,142143,6,0,P|303:322|383:301,1,160,0|0,0:0|0:0,0:0:0:0:
452,250,142947,2,0,P|452:106|453:79,1,160,8|8,0:0|0:0,0:0:0:0:
370,59,143750,2,0,P|370:103|368:149,1,79.9999999999999,0|8,0:0|0:0,0:0:0:0:
336,221,144286,6,0,P|235:213|193:252,1,160,4|8,0:0|0:0,0:0:0:0:
170,378,145224,2,0,L|42:375,1,120,0|0,0:0|0:0,0:0:0:0:
4,299,145893,1,8,0:0:0:0:
41,126,146429,6,0,P|98:82|188:101,1,160,0|8,0:0|0:0,0:0:0:0:
243,211,147366,2,0,B|366:216,1,120,0|0,0:0|0:0,0:0:0:0:
425,153,148036,2,0,P|433:104|422:70,1,79.9999999999999,8|0,0:0|0:0,0:0:0:0:
345,37,148572,5,8,0:0:0:0:
256,192,148706,12,8,153929,0:0:0:0:
74,115,155000,6,0,P|166:55|209:66,1,160,4|0,0:0|0:0,0:0:0:0:
229,151,155804,1,8,0:0:0:0:
316,158,156072,2,0,P|326:239|321:318,1,160,0|0,0:0|0:0,0:0:0:0:
249,368,156875,1,8,0:0:0:0:
185,307,157143,6,0,P|101:306|65:306,2,120,0|0|8,0:0|0:0|0:0,0:0:0:0:
225,228,158215,2,0,P|295:230|390:228,1,160,0|8,0:0|0:0,0:0:0:0:
452,171,159018,1,8,0:0:0:0:
437,84,159286,6,0,P|379:36|298:56,1,160,4|0,0:0|0:0,0:0:0:0:
238,115,160090,1,8,0:0:0:0:
172,56,160358,2,0,P|96:38|36:87,1,160,0|0,0:0|0:0,0:0:0:0:
9,171,161161,1,8,0:0:0:0:
93,196,161429,6,0,P|95:305|96:328,2,120,0|0|8,0:0|0:0|0:0,0:0:0:0:
148,128,162500,2,0,B|212:80|252:136|256:132|260:128|296:200|368:140,1,240,0|0,0:0|3:0,0:0:0:0:
396,60,163572,6,0,P|452:120|432:200,1,160,4|0,0:0|0:0,0:0:0:0:
372,248,164375,2,0,B|356:280|364:328|364:328|328:308|284:332,1,160,8|8,0:0|0:0,0:0:0:0:
204,352,165179,2,0,B|156:352|132:308|132:308|56:276,1,160,0|0,0:0|0:0,0:0:0:0:
72,192,165983,2,0,B|148:216|148:216|196:224|208:272,1,160,8|8,0:0|0:0,0:0:0:0:
204,352,166786,6,0,P|236:348|280:316,2,79.9999999999999,0|8|0,0:0|0:0|0:0,0:0:0:0:
124,312,167590,1,8,0:0:0:0:
39,337,167858,2,0,B|20:280|72:236|72:236|71:185,1,160,4|0,0:0|0:0,0:0:0:0:
60,104,168661,1,8,0:0:0:0:
144,128,168929,6,0,B|180:140|180:140|224:124,1,79.9999999999999,0|8,0:0|0:0,0:0:0:0:
260,48,169465,2,0,B|224:36|224:36|180:52,1,79.9999999999999,0|8,0:0|0:0,0:0:0:0:
144,128,170000,2,0,P|100:140|60:116,2,79.9999999999999,0|8|0,0:0|0:0|0:0,0:0:0:0:
188,52,170804,1,8,0:0:0:0:
272,72,171072,6,0,B|296:72|296:72|308:80|320:76|320:76|332:84|348:80|348:80|380:140|380:140|328:200|328:200|288:168|232:184,1,320,0|4,3:0|0:0,0:0:0:0:
176,116,180715,6,0,P|228:96|296:120,2,120,4|0|8,0:0|0:0|0:0,0:0:0:0:
232,184,181786,2,0,B|288:128|288:128|376:116,1,160,0|0,0:0|0:0,0:0:0:0:
456,136,182590,1,8,0:0:0:0:
404,208,182858,6,0,P|380:264|408:328,2,120,0|0|8,0:0|0:0|0:0,0:0:0:0:
468,268,183929,2,0,B|403:255|403:255|352:284|296:264,1,160,0|0,0:0|0:0,0:0:0:0:
236,224,184733,1,8,0:0:0:0:
160,180,185000,6,0,P|108:212|88:272,2,120,4|0|8,0:0|0:0|0:0,0:0:0:0:
176,268,186072,2,0,P|140:336|88:352,2,120,0|0|8,0:0|0:0|0:0,0:0:0:0:
160,180,187143,6,0,P|192:250|284:265,3,160,0|0|0|0,3:0|3:0|3:0|3:0,0:0:0:0:
103,350,189286,5,4,0:0:0:0:
140,360,197858,6,0,B|192:316|164:252|164:252|138:185|194:139,1,240,0|0,0:0|0:0,0:0:0:0:
242,213,198929,2,0,P|293:235|303:157,1,160,0|0,0:0|0:0,0:0:0:0:
162,261,200000,6,0,P|252:329|369:301,1,240,0|0,0:0|0:0,0:0:0:0:
325,224,201072,2,0,P|273:246|245:167,1,160,0|0,0:0|0:0,0:0:0:0:
256,192,202143,12,0,205625,0:0:0:0:
207,116,206429,22,0,B|254:183|254:183|300:109,1,160,4|0,0:0|0:0,0:0:0:0:
352,49,207233,1,8,0:0:0:0:
380,132,207500,2,0,L|295:276,1,160,0|0,0:0|0:0,0:0:0:0:
252,344,208304,1,8,0:0:0:0:
180,296,208572,6,0,P|132:284|68:316,2,120,0|0|8,0:0|0:0|0:0,0:0:0:0:
136,372,209643,2,0,B|120:316|120:316|128:272|128:272|112:212,1,160,0|8,0:0|0:0,0:0:0:0:
72,140,210447,1,8,0:0:0:0:
152,104,210715,6,0,B|212:60|256:112|256:112|304:156|376:112,1,240,4|8,0:0|0:0,0:0:0:0:
312,48,211786,2,0,B|279:114|337:149|337:149|390:192|354:263,1,240,0|8,0:0|0:0,0:0:0:0:
312,336,212858,6,0,B|364:312|364:312|428:332,2,120,0|0|8,0:0|0:0|0:0,0:0:0:0:
228,368,213929,2,0,P|163:373|157:233,1,240,0|0,0:0|3:0,0:0:0:0:
227,189,215000,6,0,B|263:161|263:117|263:117|263:29,1,160,4|0,0:0|0:0,0:0:0:0:
183,81,215804,2,0,B|183:113|183:113|179:145|111:141|110:117|110:117|111:81,1,160,8|8,0:0|0:0,0:0:0:0:
63,9,216608,2,0,B|27:37|27:81|27:81|27:169,1,160,0|0,0:0|0:0,0:0:0:0:
68,236,217411,2,0,B|92:272|84:312|84:312|124:296|160:324,1,160,8|8,0:0|0:0,0:0:0:0:
236,368,218215,6,0,B|276:384|276:384|320:372,1,79.9999999999999,0|8,0:0|0:0,0:0:0:0:
356,300,218750,2,0,B|316:284|316:284|272:296,1,79.9999999999999,0|8,0:0|0:0,0:0:0:0:
236,368,219286,2,0,P|196:300|228:228,1,160,4|0,0:0|0:0,0:0:0:0:
303,190,220090,1,8,0:0:0:0:
381,238,220358,6,0,P|389:141|303:189,1,240,0|8,0:0|0:0,0:0:0:0:
293,277,221429,2,0,P|316:313|351:330,1,79.9999999999999,0|8,0:0|0:0,0:0:0:0:
432,300,221965,2,0,P|480:296|520:316,1,79.9999999999999,0|8,0:0|0:0,0:0:0:0:
460,380,222500,6,0,B|459:335|434:304|434:304|459:271|452:233|452:233|485:201|473:144,1,240,0|0,2:0|3:0,0:0:0:0:
392,168,223572,6,0,P|319:154|292:68,1,160,4|0,0:0|0:0,0:0:0:0:
340,8,224375,1,8,0:0:0:0:
368,92,224643,2,0,L|300:244,1,160,0|0,0:0|0:0,0:0:0:0:
256,312,225447,1,8,0:0:0:0:
208,240,225715,6,0,B|172:192|172:192|112:176,2,120,0|0|8,0:0|0:0|0:0,0:0:0:0:
126,276,226786,2,0,B|139:309|182:333|182:333|231:334|264:305,1,160,0|8,0:0|0:0,0:0:0:0:
331,265,227590,1,8,0:0:0:0:
399,210,227858,6,0,P|417:261|351:351,1,160,4|0,0:0|0:0,0:0:0:0:
331,265,228661,1,8,0:0:0:0:
315,178,228929,2,0,B|330:146|330:146|371:121,1,79.9999999999999,0|8,0:0|0:0,0:0:0:0:
318,49,229465,2,0,B|287:66|287:66|239:63,1,79.9999999999999,0|8,0:0|0:0,0:0:0:0:
158,38,230000,6,0,P|103:28|40:72,2,120,0|0|8,0:0|0:0|0:0,0:0:0:0:
116,115,231072,2,0,P|151:201|201:107,1,240
164,40,232143,6,0,P|217:87|304:72,1,160,4|0,0:0|0:0,0:0:0:0:
370,25,232947,2,0,B|411:18|411:18|446:37|446:37|467:71|467:71|458:119,1,160,8|8,0:0|0:0,0:0:0:0:
423,188,233750,2,0,B|404:240|404:240|385:300|436:343,1,160,0|0,0:0|0:0,0:0:0:0:
485,268,234554,2,0,B|437:251|404:272|404:272|360:300|323:259,1,160,8|8,0:0|0:0,0:0:0:0:
285,200,235358,6,0,P|242:137|158:137,1,160,0|0,0:0|0:0,0:0:0:0:
201,213,236161,1,8,0:0:0:0:
255,283,236429,2,0,B|292:290|292:290|341:273,2,79.9999999999999,4|8|0,0:0|0:0|0:0,0:0:0:0:
285,200,237233,1,8,0:0:0:0:
373,201,237500,6,0,P|404:230|417:279,2,79.9999999999999,0|8|0,0:0|0:0|0:0,0:0:0:0:
285,200,238304,1,8,0:0:0:0:
255,283,238572,1,8,0:0:0:0:
300,358,238840,1,8,0:0:0:0:
387,351,239108,1,8,0:0:0:0:
416,264,239375,1,8,0:0:0:0:
256,192,239643,12,4,240715,0:0:0:0:
