osu file format v14

[General]
AudioFilename: Snow Drive.mp3
AudioLeadIn: 0
PreviewTime: 95717
Countdown: 0
SampleSet: None
StackLeniency: 0.5
Mode: 0
LetterboxInBreaks: 0
WidescreenStoryboard: 0

[Editor]
Bookmarks: 16585,27500
DistanceSpacing: 1
BeatDivisor: 4
GridSize: 32
TimelineZoom: 1.699999

[Metadata]
Title:Snow Drive(01.23)
TitleUnicode:スノウドライヴ(01.23)
Artist:Omoi
ArtistUnicode:Omoi
Creator:Kroytz
Version:Anxient's Normal
Source:
Tags:Vocaloid Hatsune Miku k2pudding Battle HappyRocket88 Anxient pkk Rumia MoeMoeKyunNN moph SnowNiNo_
BeatmapID:1209054
BeatmapSetID:478405

[Difficulty]
HPDrainRate:4
CircleSize:3.5
OverallDifficulty:5
ApproachRate:6
SliderMultiplier:1
SliderTickRate:1

[Events]
//Background and Video events
Video,0,"video.mp4"
0,0,"BG.jpg",0,0
//Break Periods
2,19129,26450
2,113414,117522
2,191429,196808
//Storyboard Layer 0 (Background)
//Storyboard Layer 1 (Fail)
//Storyboard Layer 2 (Pass)
//Storyboard Layer 3 (Foreground)
//Storyboard Sound Samples

[TimingPoints]
730,267.857142857143,4,1,1,60,1,0
1801,-100,4,2,1,30,0,0
9301,-100,4,2,1,35,0,0
10358,267.857142857143,4,2,1,40,1,0
10358,-100,4,2,1,40,0,0
18929,-100,4,1,1,60,0,0
36072,-100,4,3,1,60,0,0
40358,-100,4,1,1,50,0,0
41697,-100,4,1,4,50,0,0
41831,-100,4,1,1,50,0,0
47054,-100,4,1,4,50,0,0
47188,-100,4,1,1,50,0,0
48929,-100,4,1,1,55,0,0
55625,-100,4,1,4,55,0,0
55759,-100,4,1,1,55,0,0
56697,-100,4,1,4,55,0,0
56831,-100,4,1,1,55,0,0
61786,-100,4,1,1,60,0,0
91786,-100,4,3,1,60,0,0
95000,-100,4,1,1,60,0,0
95804,-100,4,1,1,60,0,0
96072,-100,4,1,1,70,0,1
97411,-100,4,1,4,70,0,1
97545,-100,4,1,1,70,0,1
98483,-100,4,1,4,70,0,1
98616,-100,4,1,1,70,0,1
100625,-100,4,1,4,70,0,1
100759,-100,4,1,1,70,0,1
102768,-100,4,1,4,70,0,1
102902,-100,4,1,1,70,0,1
104911,-100,4,1,4,70,0,1
105045,-100,4,1,1,70,0,1
113215,-100,4,1,1,70,0,0
118572,-100,4,1,1,70,0,0
125268,-100,4,3,2,70,0,0
126072,-100,4,2,1,70,0,0
127143,-100,4,1,1,70,0,0
144286,-100,4,1,1,70,0,0
148572,-100,4,3,1,70,0,0
153929,-100,4,1,1,70,0,0
155000,-100,4,1,1,70,0,1
157411,-100,4,1,4,70,0,1
157545,-100,4,1,1,70,0,1
163840,-100,4,1,4,70,0,1
163974,-100,4,1,1,70,0,1
171072,-100,4,1,1,70,0,0
174554,-100,4,1,4,70,0,0
174688,-100,4,1,1,70,0,0
178840,-100,4,1,4,70,0,0
178974,-100,4,1,1,70,0,0
187143,-100,4,3,1,70,0,0
189286,-100,4,2,1,70,0,0
197858,-100,4,3,1,70,0,0
205625,-100,4,2,1,70,0,0
206429,-100,4,1,1,100,0,1
206697,-100,4,1,1,70,0,1
207768,-100,4,1,4,70,0,1
207902,-100,4,1,1,70,0,1
208840,-100,4,1,4,70,0,1
208974,-100,4,1,1,70,0,1
210983,-100,4,1,4,70,0,1
211116,-100,4,1,1,70,0,1
222500,-100,4,1,1,70,0,0
223572,-100,4,1,2,70,0,1
223840,-100,4,1,1,70,0,1
239643,-200,4,2,1,40,0,0

[Colours]
Combo1 : 114,64,247
Combo2 : 128,255,255
Combo3 : 0,121,242
SliderBorder : 212,231,238
SliderTrackOverride : 40,42,68

[HitObjects]
68,39,1801,6,0,L|279:29,2,200,2|0|2,0:0|0:0|0:0,0:0:0:0:
0,112,3140,1,0,0:0:0:0:
6,211,3408,2,0,L|12:337,1,100,2|2,0:0|0:0,0:0:0:0:
106,281,3944,6,0,L|97:91,2,150,2|2|2,0:0|0:0|0:0,0:0:0:0:
168,359,5015,2,0,P|215:370|261:352,1,100,2|0,0:0|0:0,0:0:0:0:
334,283,5551,2,0,P|381:271|427:289,1,100,2|2,0:0|0:0,0:0:0:0:
490,210,6087,6,0,L|480:-1,2,200,2|0|2,0:0|0:0|0:0,0:0:0:0:
427,289,7426,1,0,0:0:0:0:
349,225,7694,2,0,L|344:125,1,100,0|2,0:0|0:0,0:0:0:0:
275,52,8230,6,0,L|85:61,2,150,2|2|2,0:0|0:0|0:0,0:0:0:0:
344,125,9301,1,2,0:0:0:0:
64,146,10358,6,0,L|71:295,2,150,2|2|2,0:0|0:0|0:0,0:0:0:0:
124,61,11429,2,0,L|223:56,1,100,0|0,0:0|0:0,0:0:0:0:
307,111,11965,2,0,P|326:153|306:211,1,100,2|0,0:0|0:0,0:0:0:0:
230,260,12500,6,0,P|178:309|194:379,2,150,0|0|0,0:0|0:0|0:0,0:0:0:0:
320,304,13572,2,0,L|419:299,2,100,2|2|2,0:0|0:0|0:0,0:0:0:0:
230,260,14375,1,2,0:0:0:0:
186,170,14643,6,0,L|190:70,2,100,2|2|2,0:0|0:0|0:0,0:0:0:0:
230,260,15447,1,2,0:0:0:0:
140,304,15715,2,0,L|40:299,2,100,2|2|2,0:0|0:0|0:0,0:0:0:0:
222,360,16518,1,2,0:0:0:0:
230,260,16786,6,0,L|439:250,2,200,2|2|2,0:0|0:0|1:2,0:0:0:0:
186,170,18125,2,0,L|190:70,2,100,2|2|8,1:2|3:2|3:2,0:0:0:0:
147,202,18795,1,0,3:0:0:0:
108,234,18929,5,6,0:2:0:0:
108,234,27500,6,0,L|207:229,1,100,6|2,0:2|0:3,0:0:0:0:
284,293,28036,2,0,L|383:288,1,100,10|2,0:2|0:3,0:0:0:0:
458,221,28572,6,0,P|473:188|456:117,1,100,10|2,0:2|0:3,0:0:0:0:
393,54,29108,2,0,P|345:42|298:58,1,100,10|2,0:2|0:3,0:0:0:0:
266,96,29509,1,8,0:0:0:0:
233,134,29643,6,0,P|185:145|138:129,1,100,10|2,0:2|0:3,0:0:0:0:
59,67,30179,1,10,0:2:0:0:
45,166,30447,2,0,L|48:235,1,50,2|0,0:3|0:0,0:0:0:0:
89,244,30715,6,0,L|93:343,1,100,10|2,0:2|0:3,0:0:0:0:
192,350,31250,2,0,L|261:346,1,50,2|8,0:2|0:0,0:0:0:0:
277,311,31518,2,0,L|346:307,1,50,2|8,0:3|0:2,0:0:0:0:
375,305,31786,6,0,L|370:205,1,100,6|8,0:2|0:0,0:0:0:0:
318,118,32322,2,0,P|352:103|427:126,1,100,2|8,0:2|0:0,0:0:0:0:
467,185,32858,6,0,L|469:234,2,50,2|2|8,0:2|0:2|0:0,0:0:0:0:
412,102,33393,2,0,P|364:89|318:106,1,100,2|8,0:2|0:0,0:0:0:0:
281,140,33795,1,0,0:0:0:0:
245,175,33929,6,0,L|249:274,1,100,2|8,0:2|0:0,0:0:0:0:
174,341,34465,2,0,L|124:343,2,50,2|2|8,0:2|0:2|0:0,0:0:0:0:
146,244,35000,2,0,L|46:248,1,100,2|8,0:2|0:0,0:0:0:0:
18,151,35536,6,0,L|118:147,2,100,8|8|12,0:0|0:0|0:1,0:0:0:0:
256,192,36206,12,4,39286,0:0:0:0:
117,147,40358,6,0,L|217:143,1,100,6|8,0:2|0:0,0:0:0:0:
256,173,40759,2,0,L|316:170,1,50,0|0,0:0|0:0,0:0:0:0:
373,96,41161,1,8,0:0:0:0:
404,191,41429,2,0,L|410:361,2,150,2|0|8,0:2|0:0|0:0,0:0:0:0:
305,171,42500,6,0,L|205:175,1,100,2|8,0:2|0:0,0:0:0:0:
172,213,42902,2,0,L|174:273,1,50,0|0,0:0|0:0,0:0:0:0:
96,326,43304,1,8,0:0:0:0:
19,261,43572,5,2,0:2:0:0:
17,211,43706,2,0,L|11:76,1,100,2|0,0:2|0:0,0:0:0:0:
77,34,44241,2,0,L|126:32,1,50,0|8,0:0|0:0,0:0:0:0:
225,28,44643,6,0,L|325:24,1,100,2|8,0:2|0:0,0:0:0:0:
364,54,45045,2,0,L|426:51,1,50,0|0,0:0|0:0,0:0:0:0:
416,150,45447,1,8,0:0:0:0:
420,250,45715,6,0,L|424:350,1,100,2|8,0:2|0:0,0:0:0:0:
377,331,46116,2,0,L|277:335,1,100,0|0,0:0|0:0,0:0:0:0:
296,288,46518,1,8,0:0:0:0:
220,222,46786,6,0,L|70:228,1,150,2|0,0:2|0:0,0:0:0:0:
27,255,47322,2,0,L|23:155,1,100,0|8,0:0|0:0,0:0:0:0:
19,55,47858,2,0,L|169:49,2,150,2|2|10,2:0|2:0|2:1,0:0:0:0:
23,155,48929,6,0,L|27:255,1,100,6|8,0:2|0:0,0:0:0:0:
93,329,49465,2,0,L|153:326,1,50,2|2,0:2|0:2,0:0:0:0:
179,291,49733,2,0,L|239:288,1,50,8|0,0:0|0:0,0:0:0:0:
277,285,50000,6,0,L|281:385,1,100,2|8,0:2|0:0,0:0:0:0:
324,359,50402,2,0,L|424:355,1,100,0|2,0:0|0:2,0:0:0:0:
454,315,50804,1,8,0:0:0:0:
450,215,51072,6,0,L|446:115,1,100,2|8,0:2|0:0,0:0:0:0:
374,44,51608,2,0,L|274:48,1,100,2|8,0:2|0:0,0:0:0:0:
203,120,52143,2,0,L|206:210,1,50,2|2,0:2|0:2,0:0:0:0:
252,187,52411,2,0,L|256:287,1,100,8|2,0:0|0:2,0:0:0:0:
174,346,52947,1,8,0:0:0:0:
92,286,53215,6,0,L|88:186,1,100,2|8,0:2|0:0,0:0:0:0:
16,115,53750,2,0,L|14:65,1,50,2|2,0:2|0:2,0:0:0:0:
47,27,54018,2,0,L|96:25,1,50,8|0,0:0|0:0,0:0:0:0:
137,54,54286,6,0,L|237:50,1,100,2|8,0:2|0:0,0:0:0:0:
335,46,54822,2,0,L|336:95,1,50,2|2,0:2|0:2,0:0:0:0:
373,130,55090,2,0,L|422:128,1,50,8|0,0:0|0:0,0:0:0:0:
457,168,55358,6,0,L|463:323,1,150,2|0,0:2|0:0,0:0:0:0:
423,352,55893,2,0,L|373:353,1,50,2|2,0:2|0:2,0:0:0:0:
330,327,56161,1,8,0:0:0:0:
230,330,56429,6,0,L|80:335,1,150,2|2,0:2|0:2,0:0:0:0:
43,301,56965,2,0,P|16:255|36:199,1,100,10|10,0:2|0:2,0:0:0:0:
113,163,57500,5,12,0:0:0:0:
200,114,57768,2,0,P|209:66|183:25,2,100,8|8|8,0:0|0:0|0:0,0:0:0:0:
112,162,58572,6,0,P|146:199|193:214,1,100,8|8,0:0|0:0,0:0:0:0:
239,192,58974,2,0,L|388:186,1,150,2|8,0:2|0:0,0:0:0:0:
487,182,59643,6,0,L|482:77,1,100,8|8,0:0|0:0,0:0:0:0:
461,36,60045,2,0,P|389:15|317:33,1,150,2|8,0:2|3:2,0:0:0:0:
235,92,60715,2,0,L|237:165,1,50,8|2,3:0|0:2,0:0:0:0:
239,192,60983,2,0,L|241:265,1,50,8|2,0:0|0:2,0:0:0:0:
20,361,61786,6,0,L|15:241,1,100,6|8,0:2|0:0,0:0:0:0:
10,161,62322,2,0,L|130:156,1,100,2|8,0:2|0:0,0:0:0:0:
208,151,62858,2,0,L|213:271,1,100,2|8,0:2|0:0,0:0:0:0:
245,287,63259,2,0,L|294:284,1,50,0|2,0:0|0:2,0:0:0:0:
393,279,63661,1,8,0:0:0:0:
387,180,63929,6,0,L|382:60,1,100,2|8,0:2|0:0,0:0:0:0:
350,44,64331,2,0,L|298:45,1,50,0|2,0:0|0:2,0:0:0:0:
201,51,64733,1,8,0:0:0:0:
101,55,65000,6,0,L|106:175,1,100,2|8,0:2|0:0,0:0:0:0:
69,190,65402,2,0,L|74:310,1,100,0|0,0:0|0:0,0:0:0:0:
109,325,65804,1,8,0:0:0:0:
208,320,66072,6,0,L|307:315,1,100,2|8,0:2|0:0,0:0:0:0:
394,264,66608,2,0,P|414:212|389:163,1,100,2|8,0:2|0:0,0:0:0:0:
314,118,67143,6,0,P|298:71|318:26,1,100,2|8,0:2|0:0,0:0:0:0:
369,25,67545,2,0,L|468:20,1,100,0|0,0:0|0:0,0:0:0:0:
478,70,67947,1,8,0:0:0:0:
498,168,68215,6,0,L|398:172,1,100,2|8,0:2|0:0,0:0:0:0:
314,118,68750,2,0,L|214:122,1,100,2|8,0:2|0:0,0:0:0:0:
145,195,69286,6,0,L|147:264,2,50,8|2|2,0:0|3:2|3:2,0:0:0:0:
107,161,69688,1,2,0:2:0:0:
69,128,69822,2,0,L|64:28,1,100,2|2,0:2|0:2,0:0:0:0:
163,23,70358,6,0,L|262:18,1,100,2|8,0:2|0:0,0:0:0:0:
322,99,70893,2,0,L|421:94,1,100,2|8,0:2|0:0,0:0:0:0:
484,173,71429,6,0,P|501:220|480:282,1,100,2|8,0:2|0:0,0:0:0:0:
427,345,71965,2,0,P|380:362|318:341,1,100,2|8,0:2|0:0,0:0:0:0:
293,320,72366,1,0,0:0:0:0:
253,289,72500,6,0,P|206:272|144:293,1,100,2|8,0:2|0:0,0:0:0:0:
72,334,73036,2,0,P|55:287|76:225,1,100,2|8,0:2|0:0,0:0:0:0:
149,183,73572,2,0,L|144:83,2,100,2|8|2,0:2|0:0|0:2,0:0:0:0:
65,239,74375,1,8,0:0:0:0:
158,282,74643,6,0,P|204:298|252:288,1,100,2|8,0:2|0:0,0:0:0:0:
294,259,75045,1,0,0:0:0:0:
336,232,75179,2,0,L|331:132,1,100,2|8,0:2|0:0,0:0:0:0:
389,50,75715,6,0,L|489:45,1,100,2|8,0:2|0:0,0:0:0:0:
493,144,76250,2,0,L|498:244,1,100,2|8,0:2|0:0,0:0:0:0:
455,270,76652,1,0,0:0:0:0:
413,298,76786,6,0,P|365:309|319:293,1,100,2|8,0:2|0:0,0:0:0:0:
288,252,77188,2,0,L|280:92,1,150,0|8,0:0|0:0,0:0:0:0:
203,37,77858,6,0,P|154:26|108:42,1,100,2|8,0:2|0:0,0:0:0:0:
77,83,78259,2,0,L|84:232,1,150,0|8,0:0|0:1,0:0:0:0:
164,293,78929,6,0,L|292:286,1,100,6|8,0:2|0:0,0:0:0:0:
314,286,79331,2,0,P|345:217|261:195,1,150,2|8,0:2|0:0,0:0:0:0:
207,136,80000,6,0,L|202:36,1,100,0|8,0:0|0:0,0:0:0:0:
301,31,80536,2,0,L|400:26,1,100,0|8,0:0|0:0,0:0:0:0:
499,21,81072,6,0,L|503:120,1,100,2|8,0:2|0:0,0:0:0:0:
467,156,81474,2,0,L|474:315,1,150,2|8,0:2|0:0,0:0:0:0:
374,309,82143,2,0,L|274:313,1,100,0|8,0:0|0:0,0:0:0:0:
212,235,82679,2,0,L|208:165,2,50,0|2|8,0:0|0:2|0:0,0:0:0:0:
114,211,83215,6,0,L|118:310,1,100,2|8,0:2|0:0,0:0:0:0:
20,286,83750,2,0,L|16:187,1,100,2|8,0:2|0:0,0:0:0:0:
86,115,84286,6,0,L|81:15,1,100,2|8,0:2|0:0,0:0:0:0:
124,40,84688,2,0,L|293:31,1,150,0|8,0:0|0:0,0:0:0:0:
372,27,85358,6,0,L|376:126,1,100,2|8,0:2|0:0,0:0:0:0:
308,199,85893,1,2,0:2:0:0:
209,185,86161,2,0,L|216:344,1,150,8|0,0:0|0:0,0:0:0:0:
253,300,86697,2,0,L|352:295,2,100,8|2|8,0:0|0:2|0:0,0:0:0:0:
160,262,87500,6,0,L|60:266,1,100,2|8,0:2|0:0,0:0:0:0:
17,240,87902,2,0,L|11:135,1,100,2|2,0:2|0:2,0:0:0:0:
9,89,88304,1,8,0:0:0:0:
96,39,88572,6,0,L|195:34,1,100,0|8,0:0|0:0,0:0:0:0:
223,75,88974,2,0,L|322:70,1,100,2|2,0:2|0:2,0:0:0:0:
350,111,89375,1,8,0:0:0:0:
449,106,89643,6,0,L|453:205,1,100,2|8,0:2|0:0,0:0:0:0:
433,252,90045,2,0,L|313:257,1,100,2|2,0:2|0:2,0:0:0:0:
283,258,90447,1,8,0:0:0:0:
192,216,90715,6,0,P|180:256|207:328,2,100,0|8|0,0:0|0:0|0:0,0:0:0:0:
161,176,91384,1,2,0:2:0:0:
130,136,91518,1,8,0:0:0:0:
30,140,91786,5,8,0:1:0:0:
256,192,92054,12,8,95000,0:1:0:0:
230,132,95804,5,8,1:0:0:0:
130,136,96072,2,0,L|135:255,1,100,6|8,0:2|0:0,0:0:0:0:
138,334,96608,2,0,L|18:339,1,100,2|8,0:2|0:0,0:0:0:0:
33,239,97143,6,0,L|22:29,1,200,2|2,0:2|0:2,0:0:0:0:
121,34,97947,1,8,0:0:0:0:
221,29,98215,6,0,L|228:178,1,150,2|0,0:2|0:0,0:0:0:0:
265,212,98750,2,0,L|364:207,1,100,2|8,0:2|0:0,0:0:0:0:
463,202,99286,6,0,L|458:102,1,100,2|8,0:2|0:0,0:0:0:0:
416,10,99822,2,0,P|367:0|316:14,1,100,8|8,0:0|0:0,0:0:0:0:
220,29,100358,6,0,L|227:178,1,150,6|0,0:2|0:0,0:0:0:0:
265,212,100893,2,0,L|269:311,1,100,2|8,0:2|0:0,0:0:0:0:
348,373,101429,6,0,L|447:368,1,100,2|8,0:2|0:0,0:0:0:0:
509,290,101965,2,0,L|504:190,1,100,2|8,0:2|0:0,0:0:0:0:
426,129,102500,6,0,L|276:136,1,150,2|0,0:2|0:0,0:0:0:0:
236,105,103036,2,0,L|136:109,1,100,2|8,0:2|0:0,0:0:0:0:
36,113,103572,6,0,P|18:150|40:216,1,100,2|8,0:2|0:0,0:0:0:0:
98,280,104108,2,0,L|102:379,1,100,8|8,3:0|3:0,0:0:0:0:
188,328,104643,6,0,L|337:320,2,150,6|0|8,0:2|0:0|0:0,0:0:0:0:
98,280,105715,2,0,L|93:180,1,100,2|8,0:2|0:0,0:0:0:0:
47,91,106250,2,0,P|93:76|143:93,1,100,2|8,0:2|0:0,0:0:0:0:
223,149,106786,5,2,0:2:0:0:
291,76,107054,1,8,0:0:0:0:
320,171,107322,2,0,L|419:166,1,100,2|8,0:2|0:0,0:0:0:0:
473,250,107858,6,0,L|477:349,2,100,2|8|2,0:2|0:0|0:2,0:0:0:0:
419,166,108661,1,8,0:0:0:0:
320,171,108929,6,0,L|324:270,1,100,6|8,0:2|0:0,0:0:0:0:
265,351,109465,2,0,L|205:353,1,50,2|2,0:2|0:2,0:0:0:0:
177,319,109733,1,8,0:0:0:0:
77,323,110000,6,0,L|72:223,1,100,2|8,0:2|0:0,0:0:0:0:
67,123,110536,2,0,L|62:23,1,100,2|8,0:2|0:0,0:0:0:0:
162,19,111072,6,0,L|166:118,1,100,2|8,0:2|0:0,0:0:0:0:
172,219,111608,2,0,L|174:268,1,50,2|2,0:2|0:2,0:0:0:0:
177,319,111875,1,8,0:0:0:0:
325,311,112143,6,0,L|323:262,1,50,8|2,0:2|0:2,0:0:0:0:
320,211,112411,1,8,0:0:0:0:
315,111,112679,2,0,L|414:106,2,100,8|8|6,0:0|0:0|0:2,0:0:0:0:
166,118,118572,6,0,L|67:123,1,100,12|0,0:2|0:0,0:0:0:0:
38,165,118974,1,2,0:2:0:0:
11,207,119108,2,0,L|16:306,1,100,8|0,0:0|0:0,0:0:0:0:
115,300,119643,6,0,L|214:295,1,100,8|0,0:2|0:0,0:0:0:0:
243,253,120045,1,2,0:2:0:0:
270,211,120179,2,0,L|265:112,1,100,8|0,0:0|0:0,0:0:0:0:
311,22,120715,6,0,L|380:18,1,50,8|2,0:0|0:2,0:0:0:0:
407,39,120983,2,0,L|412:138,1,100,0|8,0:0|0:0,0:0:0:0:
473,217,121518,1,0,0:0:0:0:
374,231,121786,6,0,L|377:300,1,50,8|2,0:0|0:2,0:0:0:0:
344,319,122054,2,0,L|347:388,1,50,0|2,0:0|0:2,0:0:0:0:
302,345,122322,2,0,L|203:350,1,100,8|0,0:0|0:0,0:0:0:0:
115,301,122858,6,0,L|16:306,2,100,8|0|8,0:0|0:0|0:0,0:0:0:0:
201,250,123661,1,0,0:0:0:0:
113,201,123929,6,0,P|103:172|132:107,1,100,8|0,0:0|0:0,0:0:0:0:
177,107,124331,1,2,0:2:0:0:
227,105,124465,2,0,L|276:102,2,50,8|2|0,0:0|0:2|0:0,0:0:0:0:
250,7,125000,6,0,L|349:2,2,100,8|4|4,0:0|3:0|3:0,0:0:0:0:
204,203,126072,6,0,L|293:198,2,66.6666666666667,2|2|2,0:0|0:0|0:0,0:0:0:0:
181,266,126608,2,0,L|114:269,2,66.6666666666667,2|2|2,0:0|0:0|0:0,0:0:0:0:
204,329,127143,6,0,L|303:324,1,100,6|8,0:2|0:0,0:0:0:0:
402,317,127679,2,0,L|397:218,1,100,2|8,0:2|0:0,0:0:0:0:
374,172,128081,1,0,0:0:0:0:
353,126,128215,6,0,L|348:27,1,100,2|8,0:2|0:0,0:0:0:0:
248,31,128750,2,0,L|253:130,1,100,2|8,0:2|0:0,0:0:0:0:
153,139,129286,6,0,L|158:238,1,100,2|8,0:2|0:0,0:0:0:0:
117,269,129688,1,0,0:0:0:0:
76,300,129822,2,0,L|71:201,1,100,2|8,0:2|0:0,0:0:0:0:
2,126,130358,6,0,L|7:27,1,100,2|8,0:2|0:0,0:0:0:0:
106,20,130893,1,2,0:2:0:0:
205,14,131161,1,8,0:0:0:0:
211,112,131429,6,0,L|216:211,1,100,2|8,0:2|0:0,0:0:0:0:
315,206,131965,2,0,L|374:203,1,50,2|0,0:2|0:0,0:0:0:0:
399,240,132233,2,0,L|402:299,1,50,8|0,0:0|0:0,0:0:0:0:
403,338,132500,6,0,L|304:343,1,100,2|8,0:2|0:0,0:0:0:0:
203,348,133036,2,0,L|104:353,1,100,2|8,0:2|0:0,0:0:0:0:
37,276,133572,6,0,P|17:243|53:175,1,100,2|8,0:2|0:0,0:0:0:0:
77,162,133974,1,0,0:0:0:0:
120,137,134108,2,0,P|141:93|123:48,1,100,2|8,0:2|0:0,0:0:0:0:
222,43,134643,6,0,L|321:38,1,100,8|8,0:0|0:0,0:0:0:0:
361,69,135045,1,2,0:2:0:0:
400,100,135179,2,0,L|469:96,2,50,8|2|8,0:0|0:2|0:0,0:0:0:0:
434,194,135715,5,8,3:0:0:0:
403,233,135849,2,0,L|304:238,1,100,0|8,3:0|3:1,0:0:0:0:
76,196,137858,5,8,3:0:0:0:
107,157,137991,2,0,L|206:152,1,100,0|8,3:0|3:0,0:0:0:0:
253,240,138527,2,0,L|312:237,1,50,2|8,3:2|3:0,0:0:0:0:
302,237,140000,6,0,L|408:231,1,100,6|8,0:2|0:0,0:0:0:0:
472,160,140536,2,0,L|466:53,1,100,2|8,0:2|0:0,0:0:0:0:
379,11,141072,2,0,P|345:7|281:57,1,100,2|8,0:2|0:0,0:0:0:0:
263,81,141474,1,0,0:0:0:0:
236,123,141608,2,0,P|202:127|138:77,1,100,2|8,0:2|0:0,0:0:0:0:
66,35,142143,6,0,P|45:79|52:127,1,100,2|8,0:2|0:0,0:0:0:0:
125,197,142679,1,2,0:2:0:0:
52,266,142947,2,0,P|45:314|67:359,1,100,8|8,0:0|0:0,0:0:0:0:
116,356,143349,1,2,0:2:0:0:
166,353,143483,2,0,L|272:347,1,100,2|2,0:2|0:2,0:0:0:0:
323,266,144018,2,0,L|320:216,1,50,8|0,0:0|0:0,0:0:0:0:
354,179,144286,6,0,L|460:173,2,100,6|0|8,0:2|0:0|0:0,0:0:0:0:
292,99,145090,1,0,0:2:0:0:
231,19,145358,2,0,L|131:24,2,100,0|0|8,0:0|0:0|0:0,0:0:0:0:
292,99,146161,1,2,0:2:0:0:
354,19,146429,6,0,L|453:13,2,100,2|2|8,0:2|0:2|0:0,0:0:0:0:
292,99,147233,1,0,0:0:0:0:
231,179,147500,2,0,L|131:184,2,100,8|0|8,0:0|0:0|0:0,0:0:0:0:
292,99,148304,1,8,0:1:0:0:
354,179,148572,6,0,L|356:228,1,50,8|0,0:0|0:0,0:0:0:0:
332,273,148840,2,0,L|232:278,1,100,0|8,0:0|0:0,0:0:0:0:
187,367,149375,1,0,0:0:0:0:
132,283,149643,6,0,L|126:183,1,100,8|0,0:0|0:0,0:0:0:0:
46,122,150179,2,0,L|42:62,2,50,8|0|0,0:0|0:0|0:0,0:0:0:0:
119,193,150715,6,0,L|125:293,1,100,8|8,0:0|0:0,0:0:0:0:
187,367,151250,2,0,L|286:361,1,100,8|8,0:0|0:0,0:0:0:0:
314,319,151652,1,0,0:0:0:0:
341,277,151786,6,0,L|335:177,1,100,8|8,0:0|0:0,0:0:0:0:
394,96,152322,2,0,L|493:90,1,100,8|8,0:0|0:0,0:0:0:0:
499,190,152858,6,0,L|504:289,1,100,10|10,0:0|0:0,0:0:0:0:
463,317,153259,2,0,L|363:322,1,100,2|2,0:0|0:0,0:0:0:0:
341,277,153661,2,0,L|338:227,2,50,8|2|10,0:0|0:0|0:0,0:0:0:0:
41,294,154733,1,8,1:0:0:0:
140,288,155000,6,0,L|134:188,1,100,6|8,0:2|0:0,0:0:0:0:
45,141,155536,2,0,L|39:41,1,100,2|8,0:2|0:0,0:0:0:0:
138,35,156072,6,0,L|237:29,1,100,2|8,0:2|0:0,0:0:0:0:
322,82,156608,2,0,L|325:141,1,50,2|2,0:2|0:2,0:0:0:0:
362,165,156875,1,8,0:0:0:0:
367,264,157143,6,0,L|217:272,1,150,2|0,0:2|0:0,0:0:0:0:
188,230,157679,2,0,L|88:235,1,100,2|8,0:2|0:0,0:0:0:0:
0,285,158215,6,0,L|5:384,2,100,2|8|8,0:2|0:0|0:0,0:0:0:0:
88,235,159018,1,8,0:0:0:0:
188,230,159286,6,0,L|287:224,1,100,6|8,0:2|0:0,0:0:0:0:
370,166,159822,2,0,L|364:66,1,100,2|8,0:2|0:0,0:0:0:0:
454,110,160358,6,0,L|459:209,1,100,2|8,0:2|0:0,0:0:0:0:
436,307,160893,2,0,L|336:312,1,100,2|8,0:2|0:0,0:0:0:0:
287,224,161429,6,0,L|188:230,1,100,2|8,0:2|0:0,0:0:0:0:
147,199,161831,1,0,0:0:0:0:
107,168,161965,2,0,P|92:134|115:68,2,100,2|8|2,0:2|0:0|0:2,0:0:0:0:
188,230,162768,2,0,P|204:276|188:322,2,100,8|8|8,0:0|3:0|3:0,0:0:0:0:
106,168,163572,6,0,P|170:130|241:142,2,150,6|0|8,0:2|0:0|0:0,0:0:0:0:
188,230,164643,2,0,P|200:251|204:275,1,50,2|2,0:2|0:2,0:0:0:0:
188,322,164911,2,0,L|88:327,2,100,8|2|8,0:0|0:2|0:0,0:0:0:0:
276,370,165715,5,2,0:2:0:0:
326,367,165849,1,2,0:2:0:0:
376,365,165983,2,0,L|370:265,1,100,8|2,0:0|0:2,0:0:0:0:
333,231,166384,2,0,L|327:131,1,100,2|0,0:2|0:0,0:0:0:0:
352,87,166786,6,0,L|451:81,2,100,2|8|2,0:2|0:0|0:2,0:0:0:0:
310,57,167456,1,2,0:2:0:0:
269,29,167590,1,8,0:0:0:0:
169,34,167858,6,0,L|174:133,1,100,6|8,0:2|0:0,0:0:0:0:
108,209,168393,2,0,L|113:308,1,100,2|8,0:2|0:0,0:0:0:0:
180,384,168929,5,2,0:2:0:0:
248,311,169197,2,0,L|347:305,1,100,8|2,0:0|0:2,0:0:0:0:
384,271,169599,2,0,L|381:221,1,50,2|8,0:2|0:0,0:0:0:0:
479,241,170000,6,0,L|484:340,2,100,2|8|2,0:2|0:0|0:2,0:0:0:0:
381,221,170804,2,0,L|378:171,1,50,8|0,0:0|0:0,0:0:0:0:
375,121,171072,6,0,L|369:21,2,100,0|0|0,3:0|0:0|3:0,0:0:0:0:
381,221,171875,2,0,L|331:223,1,50,2|2,0:2|0:2,0:0:0:0:
287,198,172143,6,0,L|187:203,1,100,6|8,0:2|0:0,0:0:0:0:
87,206,172679,2,0,L|84:156,1,50,2|2,0:2|0:2,0:0:0:0:
44,124,172947,1,8,0:0:0:0:
105,44,173215,6,0,L|154:41,1,50,2|2,0:2|0:2,0:0:0:0:
186,81,173483,2,0,L|286:76,1,100,8|2,0:0|0:2,0:0:0:0:
375,121,174018,1,8,0:0:0:0:
464,165,174286,6,0,L|472:329,1,150,2|0,0:2|0:0,0:0:0:0:
431,345,174822,2,0,L|381:347,1,50,2|2,0:2|0:2,0:0:0:0:
345,311,175090,1,8,0:0:0:0:
257,358,175358,6,0,L|252:258,1,100,2|8,0:2|0:0,0:0:0:0:
190,180,175893,2,0,L|185:80,1,100,8|8,0:0|0:0,0:0:0:0:
221,45,176295,1,2,0:2:0:0:
257,10,176429,6,0,L|327:6,1,50,2|2,0:2|0:2,0:0:0:0:
355,4,176697,2,0,L|360:104,1,100,8|2,0:0|0:2,0:0:0:0:
448,150,177233,6,0,L|451:220,1,50,8|0,0:0|0:0,0:0:0:0:
452,250,177500,2,0,L|457:350,1,100,2|8,0:2|0:0,0:0:0:0:
356,353,178036,2,0,L|256:358,1,100,2|8,0:2|0:0,0:0:0:0:
222,320,178438,1,0,0:0:0:0:
188,283,178572,6,0,L|37:290,1,150,2|0,0:2|0:0,0:0:0:0:
9,249,179108,2,0,L|4:149,1,100,2|8,0:2|0:0,0:0:0:0:
68,73,179643,2,0,P|105:55|175:87,1,100,2|8,0:2|0:0,0:0:0:0:
231,140,180179,2,0,P|268:158|338:126,1,100,10|8,0:0|0:0,0:0:0:0:
390,68,180715,6,0,P|419:107|423:156,1,100,6|8,0:0|0:0,0:0:0:0:
398,200,181116,1,0,0:0:0:0:
374,243,181250,2,0,L|377:313,2,50,2|2|8,0:2|0:2|0:0,0:0:0:0:
276,268,181786,5,2,0:2:0:0:
235,239,181920,2,0,L|230:139,1,100,2|0,0:2|0:0,0:0:0:0:
189,110,182322,2,0,L|89:115,1,100,2|8,0:2|0:0,0:0:0:0:
94,214,182858,6,0,L|99:314,1,100,2|8,0:2|0:0,0:0:0:0:
140,340,183259,1,0,0:0:0:0:
182,367,183393,2,0,L|179:317,2,50,2|2|8,0:2|0:2|0:0,0:0:0:0:
277,337,183929,5,2,0:2:0:0:
314,303,184063,2,0,L|414:298,1,100,2|0,0:2|0:0,0:0:0:0:
450,263,184465,5,2,0:2:0:0:
445,163,184733,1,2,0:2:0:0:
440,63,185000,6,0,L|340:68,1,100,6|8,0:2|0:0,0:0:0:0:
317,113,185402,2,0,L|217:118,1,100,0|2,0:0|0:2,0:0:0:0:
166,120,185804,2,0,P|138:156|156:222,1,100,8|2,0:0|0:2,0:0:0:0:
181,241,186206,5,2,0:2:0:0:
218,274,186340,2,0,P|246:310|228:376,1,100,8|2,0:0|0:2,0:0:0:0:
139,365,186875,1,8,0:0:0:0:
39,369,187143,5,8,3:0:0:0:
256,192,187411,12,4,189286,0:0:0:0:
63,72,197858,6,0,L|169:66,1,100,8|0,0:0|0:0,0:0:0:0:
261,60,198393,2,0,L|367:54,1,100,8|0,0:0|0:0,0:0:0:0:
399,86,198795,1,0,0:0:0:0:
437,118,198929,6,0,L|440:185,1,50,8|0,0:0|0:0,0:0:0:0:
412,209,199197,2,0,L|418:315,2,100,0|8|0,0:0|0:0|0:0,0:0:0:0:
312,214,200000,6,0,L|212:219,1,100,8|0,0:0|0:0,0:0:0:0:
119,177,200536,2,0,P|108:224|126:270,1,100,8|0,0:0|0:0,0:0:0:0:
156,310,200938,1,0,0:0:0:0:
206,319,201072,6,0,L|305:313,1,100,8|0,0:0|0:0,0:0:0:0:
312,214,201608,2,0,L|317:114,1,100,8|0,0:0|0:0,0:0:0:0:
322,14,202143,5,8,0:0:0:0:
256,192,202411,12,0,205625,2:0:0:0:
322,14,206429,6,0,L|222:9,1,100,6|8,0:2|0:0,0:0:0:0:
132,54,206965,2,0,L|127:154,1,100,2|8,0:2|0:0,0:0:0:0:
122,252,207500,6,0,L|272:259,1,150,2|0,0:2|0:0,0:0:0:0:
321,261,208036,2,0,L|326:161,1,100,2|8,0:2|0:0,0:0:0:0:
393,86,208572,6,0,P|443:71|500:149,1,150,2|0,0:2|0:0,0:0:0:0:
496,187,209108,2,0,L|491:287,1,100,2|8,0:2|0:0,0:0:0:0:
416,353,209643,6,0,L|316:348,1,100,2|8,0:2|0:0,0:0:0:0:
271,259,210179,2,0,L|171:254,1,100,8|8,0:0|0:0,0:0:0:0:
93,317,210715,6,0,P|68:248|102:183,1,150,6|0,0:2|0:0,0:0:0:0:
144,157,211250,2,0,L|244:162,1,100,2|8,0:2|0:0,0:0:0:0:
271,259,211786,6,0,L|371:264,1,100,2|8,0:2|0:0,0:0:0:0:
377,163,212322,2,0,L|379:113,1,50,2|2,0:2|0:2,0:0:0:0:
339,82,212590,1,8,0:0:0:0:
405,7,212858,6,0,L|505:12,2,100,2|8|2,0:2|0:0|0:2,0:0:0:0:
339,82,213661,1,8,0:0:0:0:
269,10,213929,6,0,L|169:5,1,100,2|8,0:2|0:0,0:0:0:0:
106,83,214465,2,0,L|101:183,1,100,8|8,3:0|3:0,0:0:0:0:
171,254,215000,6,0,L|271:259,1,100,6|8,0:2|0:0,0:0:0:0:
308,225,215402,2,0,L|478:233,1,150,0|8,0:0|0:0,0:0:0:0:
422,326,216072,6,0,L|372:323,1,50,2|2,0:2|0:2,0:0:0:0:
338,361,216340,2,0,L|238:356,1,100,8|2,0:0|0:2,0:0:0:0:
138,351,216875,1,8,0:0:0:0:
89,349,217009,1,0,0:0:0:0:
38,346,217143,6,0,L|40:296,1,50,2|2,0:2|0:2,0:0:0:0:
71,256,217411,2,0,L|76:156,2,100,8|2|8,0:0|0:2|0:0,0:0:0:0:
171,254,218215,6,0,L|271:259,1,100,2|8,0:2|0:0,0:0:0:0:
347,193,218750,2,0,L|350:121,2,50,2|2|8,0:2|0:2|0:0,0:0:0:0:
366,291,219286,6,0,L|466:296,2,100,6|8|2,0:2|0:0|0:2,0:0:0:0:
270,258,220090,1,8,0:0:0:0:
171,254,220358,6,0,L|176:154,1,100,2|8,0:2|0:0,0:0:0:0:
117,72,220893,1,2,0:2:0:0:
216,63,221161,1,8,0:0:0:0:
315,54,221429,6,0,L|312:114,1,50,2|2,0:2|0:2,0:0:0:0:
346,140,221697,2,0,L|446:145,2,100,8|2|8,0:0|0:2|0:0,0:0:0:0:
273,209,222500,6,0,L|173:204,2,100,2|2|2,3:2|3:2|3:2,0:0:0:0:
346,278,223304,1,2,3:2:0:0:
419,346,223572,6,0,P|443:302|441:250,1,100,6|8,0:2|0:0,0:0:0:0:
346,278,224108,1,2,0:2:0:0:
273,209,224375,1,8,0:0:0:0:
173,204,224643,6,0,L|168:304,1,100,2|8,0:2|0:0,0:0:0:0:
98,376,225179,2,0,L|-2:371,1,100,2|8,0:2|0:0,0:0:0:0:
4,271,225715,6,0,L|7:201,1,50,2|2,0:2|0:2,0:0:0:0:
42,186,225983,2,0,L|47:86,1,100,8|2,0:0|0:2,0:0:0:0:
122,20,226518,1,8,0:0:0:0:
177,104,226786,6,0,L|277:109,1,100,2|8,0:2|0:0,0:0:0:0:
273,209,227322,2,0,L|268:309,1,100,8|8,0:0|0:0,0:0:0:0:
366,312,227858,6,0,L|466:317,1,100,6|8,0:2|0:0,0:0:0:0:
484,218,228393,2,0,P|496:192|471:124,1,100,2|8,0:2|0:0,0:0:0:0:
376,113,228929,6,0,L|276:108,1,100,2|8,0:2|0:0,0:0:0:0:
177,104,229465,2,0,L|77:99,1,100,2|8,0:2|0:0,0:0:0:0:
74,200,230000,6,0,L|174:205,1,100,2|8,0:2|0:0,0:0:0:0:
273,209,230536,2,0,L|343:212,2,50,2|2|8,0:2|0:2|0:0,0:0:0:0:
295,306,231072,6,0,L|195:301,1,100,2|8,0:2|0:0,0:0:0:0:
173,204,231608,2,0,L|178:104,1,100,8|8,3:0|3:0,0:0:0:0:
181,4,232143,6,0,L|281:9,1,100,6|8,0:2|0:0,0:0:0:0:
354,77,232679,1,2,0:2:0:0:
445,35,232947,1,8,0:2:0:0:
435,134,233215,6,0,L|430:234,1,100,2|8,0:2|0:0,0:0:0:0:
341,281,233750,2,0,L|346:381,2,100,2|8|2,0:2|0:0|0:2,0:0:0:0:
272,208,234554,6,0,L|172:203,1,100,8|2,0:0|0:2,0:0:0:0:
140,242,234956,2,0,L|90:244,1,50,2|8,0:2|0:0,0:0:0:0:
4,192,235358,6,0,L|-1:92,1,100,2|8,0:2|0:0,0:0:0:0:
26,50,235759,2,0,L|126:45,1,100,0|2,0:0|0:2,0:0:0:0:
175,42,236161,1,8,0:0:0:0:
253,104,236429,6,0,L|353:99,2,100,6|8|2,0:2|0:0|0:2,0:0:0:0:
179,172,237233,1,8,0:0:0:0:
105,239,237500,6,0,L|108:299,1,50,2|2,0:2|0:2,0:0:0:0:
109,337,237768,2,0,P|154:346|205:325,2,100,8|2|8,0:0|0:2|0:0,0:0:0:0:
105,239,238572,5,8,0:0:0:0:
179,172,238840,2,0,L|279:167,2,100,8|8|8,0:0|0:0|0:0,0:0:0:0:
183,72,239643,6,0,L|383:62,1,200,0|6,2:0|0:2,0:0:0:0:
