osu file format v14

[General]
AudioFilename: Omoi - Snow Drive.mp3
AudioLeadIn: 0
PreviewTime: 11787
Countdown: 0
SampleSet: Normal
StackLeniency: 0.7
Mode: 0
LetterboxInBreaks: 0
WidescreenStoryboard: 0

[Editor]
Bookmarks: 11268,28411,32697,41268,49840,54126,71268,75556,84126,88411,96985,105554,110911,119483,128054,132340,147340,155913,163413,164483,181626,190197,194483,198768,207341,214840,215911,224484,233054,241626,245912,249128,251268,253413
DistanceSpacing: 0.8
BeatDivisor: 4
GridSize: 4
TimelineZoom: 1.5

[Metadata]
Title:Snow Drive
TitleUnicode:スノウドライヴ
Artist:Omoi
ArtistUnicode:Omoi
Creator:Yales
Version:Freeze
Source:
Tags:snowdrive alyssa sakurai hatsune miku vocaloid Synthesizer Rock
BeatmapID:719051
BeatmapSetID:323522

[Difficulty]
HPDrainRate:7
CircleSize:4
OverallDifficulty:8.5
ApproachRate:9.5
SliderMultiplier:2
SliderTickRate:1

[Events]
//Background and Video events
0,0,"BGsnow.jpg",0,0
//Break Periods
2,128773,131381
2,182345,189774
//Storyboard Layer 0 (Background)
//Storyboard Layer 1 (Fail)
//Storyboard Layer 2 (Pass)
//Storyboard Layer 3 (Foreground)
//Storyboard Sound Samples

[TimingPoints]
3216,267.857142857143,4,2,1,20,1,0
3216,-200,4,2,1,20,0,0
10716,-200,4,2,1,50,0,0
11520,-200,4,2,1,70,0,0
11787,-100,4,1,1,70,0,1
11854,-100,4,1,1,70,0,0
20358,-100,4,1,1,70,0,1
20425,-100,4,1,1,70,0,0
28930,-133.333333333333,4,2,1,50,0,0
32680,-133.333333333333,4,3,1,40,0,0
33216,-133.333333333333,4,2,1,40,0,0
41386,-200,4,3,1,50,0,0
41453,-200,4,2,1,20,0,0
41520,-200,4,3,1,50,0,0
41586,-200,4,2,1,20,0,0
41653,-200,4,3,1,50,0,0
41720,-200,4,2,1,20,0,0
41787,-133.333333333333,4,2,1,40,0,0
49287,-133.333333333333,4,2,1,50,0,0
50358,-117.647058823529,4,1,1,60,0,1
50425,-117.647058823529,4,1,1,60,0,0
53975,-200,4,2,1,50,0,0
54243,-200,4,2,1,50,0,0
54645,-100,4,1,1,60,0,0
60002,-100,4,1,1,70,0,0
60069,-100,4,1,1,60,0,0
62546,-200,4,3,1,60,0,0
62948,-83.3333333333333,4,2,1,70,0,0
63216,-100,4,1,1,60,0,0
71787,-133.333333333333,4,1,1,50,0,0
76073,-100,4,1,1,60,0,1
76140,-100,4,1,1,60,0,0
80359,-100,4,1,1,60,0,0
84912,-100,4,3,1,40,0,0
85716,-100,4,3,1,50,0,0
86787,-100,4,3,1,60,0,0
87859,-100,4,3,1,70,0,0
88528,-200,4,3,1,40,0,0
88930,-83.3333333333333,4,1,1,70,0,1
97434,-83.3333333333333,4,1,1,70,0,0
97501,-83.3333333333333,4,1,1,70,0,1
106073,-200,4,1,1,70,0,0
106609,-200,4,3,1,30,0,0
107145,-200,4,1,1,70,0,0
107680,-200,4,3,1,30,0,0
108216,-200,4,1,1,70,0,0
108752,-200,4,3,1,30,0,0
109287,-200,4,3,1,40,0,0
109421,-200,4,3,1,30,0,0
111028,-200,4,1,1,30,0,0
111430,-133.333333333333,4,1,1,40,0,0
118216,-133.333333333333,4,3,1,40,0,0
118930,-100,4,1,1,70,0,1
118997,-100,4,1,1,70,0,0
120002,-111.111111111111,4,1,1,60,0,0
128573,-133.333333333333,4,1,1,40,0,0
132591,-133.333333333333,4,3,1,40,0,0
132858,-100,4,1,1,60,0,1
132925,-100,4,1,1,60,0,0
141430,-100,4,3,1,60,0,0
147457,-200,4,3,1,40,0,0
147858,-83.3333333333333,4,1,1,70,0,1
156363,-83.3333333333333,4,1,1,70,0,0
156430,-83.3333333333333,4,1,1,70,0,1
163930,-200,4,2,1,50,0,0
164165,-200,4,2,1,20,0,0
164198,-200,4,2,1,50,0,0
164432,-200,4,2,1,20,0,0
164466,-200,4,2,1,50,0,0
164700,-200,4,2,1,20,0,0
164734,-200,4,2,1,50,0,0
164801,-200,4,2,1,10,0,0
164868,-200,4,2,1,50,0,0
164935,-200,4,2,1,10,0,0
165001,-83.3333333333333,4,1,1,70,0,1
165068,-83.3333333333333,4,1,1,70,0,0
182145,-200,4,2,1,50,0,0
190314,-200,4,1,1,50,0,0
190582,-100,4,3,1,50,0,0
190716,-100,4,3,1,50,0,1
190782,-100,4,3,1,50,0,0
195002,-100,4,1,1,60,0,0
197145,-200,4,2,1,60,0,0
197412,-100,4,3,1,60,0,0
198484,-400,4,3,1,60,0,0
198617,-200,4,2,1,20,0,0
199287,-83.3333333333333,4,1,1,70,0,1
207791,-83.3333333333333,4,1,1,70,0,0
207858,-83.3333333333333,4,1,1,70,0,1
215358,-200,4,2,1,50,0,0
215593,-200,4,2,1,20,0,0
215627,-200,4,2,1,50,0,0
215861,-200,4,2,1,20,0,0
215895,-200,4,2,1,50,0,0
216129,-200,4,2,1,20,0,0
216162,-200,4,2,1,50,0,0
216397,-200,4,2,1,20,0,0
216430,-83.3333333333333,4,1,1,70,0,1
224934,-83.3333333333333,4,1,1,70,0,0
225001,-83.3333333333333,4,1,1,70,0,1
232501,-400,4,2,1,40,0,0
232701,-200,4,2,1,20,0,0
233573,-100,4,1,1,70,0,1
233640,-100,4,1,1,70,0,0
242144,-100,4,1,1,70,0,1
242211,-100,4,1,1,70,0,0
249644,-200,4,2,1,40,0,0
249879,-200,4,2,1,20,0,0
249912,-200,4,2,1,40,0,0
250147,-200,4,2,1,20,0,0
250180,-200,4,2,1,40,0,0
250415,-200,4,2,1,20,0,0
250448,-200,4,2,1,40,0,0
250682,-200,4,2,1,20,0,0
250715,-133.333333333333,4,2,1,50,0,0
250950,-133.333333333333,4,2,1,20,0,0
251218,-133.333333333333,4,2,1,20,0,0
251251,-133.333333333333,4,1,1,50,0,0
251519,-133.333333333333,4,3,1,50,0,0
251787,-100,4,1,1,70,0,1
251854,-100,4,1,1,70,0,0
252022,-100,4,1,1,20,0,0
252055,-100,4,1,1,70,0,0
252290,-100,4,1,1,20,0,0
252323,-100,4,1,1,70,0,0
252557,-100,4,1,1,20,0,0
252591,-100,4,1,1,70,0,0
252825,-100,4,1,1,20,0,0
252859,-83.3333333333333,4,1,1,70,0,0
253093,-83.3333333333333,4,1,1,20,0,0
253127,-83.3333333333333,4,1,1,70,0,0
253361,-83.3333333333333,4,1,1,20,0,0
253395,-83.3333333333333,4,1,1,70,0,0
253629,-83.3333333333333,4,1,1,20,0,0
253662,-83.3333333333333,4,1,1,70,0,0
253897,-83.3333333333333,4,1,1,20,0,0
253930,-83.3333333333333,4,1,1,70,0,1
253997,-83.3333333333333,4,1,1,70,0,0

[Colours]
Combo1 : 155,205,255
Combo2 : 255,193,235
Combo3 : 183,232,255
Combo4 : 224,193,255

[HitObjects]
108,152,3216,6,0,L|88:88,1,50
204,120,3484,2,0,L|200:60,1,50
308,120,3752,2,0,L|316:64,1,50
400,152,4020,2,0,L|428:92,1,50
304,208,4287,6,0,P|248:196|192:220,1,100,0|0,3:0|0:0,0:0:0:0:
140,280,4689,1,0,0:0:0:0:
304,344,4823,6,0,P|360:356|416:332,1,100,0|0,3:0|0:0,0:0:0:0:
468,272,5225,1,0,0:0:0:0:
135,230,5359,6,0,L|141:297,1,50
304,192,5627,2,0,L|296:120,1,50
152,152,5895,6,0,L|158:219,1,50
321,114,6162,2,0,L|313:42,1,50
200,32,6430,6,0,L|76:44,1,100,0|0,3:0|0:0,0:0:0:0:
0,52,6832,1,0,0:0:0:0:
222,124,6966,6,0,L|346:112,1,100,0|0,3:0|0:0,0:0:0:0:
422,104,7368,1,0,0:0:0:0:
392,256,7502,6,0,P|384:224|384:192,1,50,2|0,0:0|0:0,0:0:0:0:
500,340,7770,2,0,P|508:308|508:272,1,50,2|0,0:0|0:0,0:0:0:0:
312,320,8037,2,0,P|303:287|303:256,1,50,2|0,0:0|0:0,0:0:0:0:
472,212,8305,2,0,P|480:179|480:152,1,50,2|0,0:0|0:0,0:0:0:0:
332,72,8573,6,0,L|212:76,1,100,0|0,3:0|0:0,0:0:0:0:
84,108,8975,1,0,0:0:0:0:
184,108,9109,6,0,L|304:112,1,100,0|0,3:0|0:0,0:0:0:0:
436,132,9511,1,0,0:0:0:0:
348,144,9645,6,0,L|280:148,1,50,2|0,3:0|0:0,0:0:0:0:
156,200,9912,2,0,L|224:204,1,50,2|0,0:0|0:0,0:0:0:0:
380,176,10180,6,0,L|312:180,1,50,2|0,0:0|0:0,0:0:0:0:
116,164,10448,2,0,L|188:168,1,50,2|0,0:0|0:0,0:0:0:0:
372,296,10716,6,0,L|336:288,1,25,4|0,1:0|0:0,0:0:0:0:
164,290,10984,6,0,L|140:296,1,25,2|0,1:0|0:0,0:0:0:0:
472,320,11252,6,0,L|436:312,1,25,4|0,1:0|0:0,0:0:0:0:
272,344,11386,6,0,L|236:352,1,25,8|0,1:0|0:0,0:0:0:0:
68,320,11520,6,0,L|43:314,3,25,8|0|0|0,1:0|0:0|0:0|0:0,0:0:0:0:
12,240,11787,5,4,0:2:0:0:
232,132,11921,1,0,0:0:0:0:
9,140,12055,2,0,L|13:276,1,100,8|0,0:0|0:0,0:0:0:0:
234,231,12323,2,0,L|230:95,1,100,2|0,0:0|0:0,0:0:0:0:
228,20,12591,1,8,0:0:0:0:
340,152,12725,1,0,0:0:0:0:
340,152,12792,1,2,0:0:0:0:
340,152,12859,6,0,L|452:144,1,100,12|0,0:0|0:0,0:0:0:0:
468,36,13127,1,8,0:0:0:0:
236,136,13261,1,0,0:0:0:0:
236,136,13328,1,2,0:0:0:0:
236,136,13395,2,0,L|124:128,1,100,6|0,0:0|0:0,0:0:0:0:
108,24,13662,1,8,0:0:0:0:
88,208,13796,1,0,0:0:0:0:
24,112,13930,5,4,0:0:0:0:
196,208,14064,1,0,0:0:0:0:
8,312,14198,2,0,P|-4:252|4:204,1,100,8|0,0:0|0:0,0:0:0:0:
216,284,14466,2,0,P|220:333|208:381,1,100,2|0,0:0|0:0,0:0:0:0:
356,232,14734,2,0,L|468:228,1,100,8|0,0:0|0:0,0:0:0:0:
300,300,15002,5,8,0:0:0:0:
400,128,15136,1,2,0:0:0:0:
404,324,15270,1,8,0:0:0:0:
296,156,15403,1,2,0:0:0:0:
484,228,15537,1,8,0:0:0:0:
356,232,15671,1,2,0:0:0:0:
492,120,15805,1,8,0:0:0:0:
404,324,15939,1,2,0:0:0:0:
296,156,16073,6,0,L|304:40,1,100,4|0,0:0|0:0,0:0:0:0:
400,128,16341,1,8,0:0:0:0:
108,92,16475,1,0,0:0:0:0:
212,52,16609,2,0,L|204:168,1,100,2|0,0:0|0:0,0:0:0:0:
192,300,16877,1,8,0:0:0:0:
104,220,17011,1,0,0:0:0:0:
284,224,17145,6,0,L|396:228,1,100,4|0,0:0|0:0,0:0:0:0:
404,324,17412,1,8,0:0:0:0:
400,128,17546,1,0,0:0:0:0:
291,303,17680,2,0,L|183:299,1,100,2|0,0:0|0:0,0:0:0:0:
216,196,17948,1,8,0:0:0:0:
200,384,18082,1,0,0:0:0:0:
399,227,18216,6,0,P|403:155|395:107,1,100,6|0,0:0|0:0,0:0:0:0:
168,132,18484,2,0,P|163:83|168:33,1,100,8|0,0:0|0:0,0:0:0:0:
291,303,18752,2,0,P|295:231|287:183,1,100,2|0,0:0|0:0,0:0:0:0:
60,208,19020,2,0,P|55:159|60:109,1,100,8|0,0:0|0:0,0:0:0:0:
272,132,19287,6,0,L|392:132,1,100,4|0,0:0|0:0,0:0:0:0:
417,133,19488,1,2,0:0:0:0:
417,133,19555,1,8,0:0:0:0:
188,52,19689,1,2,0:0:0:0:
265,232,19823,1,8,0:0:0:0:
357,56,19957,1,2,0:0:0:0:
177,168,20091,1,8,0:0:0:0:
337,304,20225,1,2,0:0:0:0:
272,132,20359,6,0,L|264:248,1,100,4|0,0:0|0:0,0:0:0:0:
256,344,20627,1,8,0:0:0:0:
420,272,20761,1,0,0:0:0:0:
177,168,20895,2,0,L|169:284,1,100,2|0,0:0|0:0,0:0:0:0:
420,272,21162,2,0,L|428:156,1,100,8|0,0:0|0:0,0:0:0:0:
440,60,21430,5,4,0:0:0:0:
344,220,21564,1,0,0:0:0:0:
344,220,21631,1,2,0:0:0:0:
344,220,21698,2,0,P|284:228|244:220,1,100,8|0,0:0|0:0,0:0:0:0:
128,84,21966,2,0,P|177:76|226:84,1,100,8|0,0:0|0:0,0:0:0:0:
56,152,22234,1,2,0:0:0:0:
56,16,22368,1,0,0:0:0:0:
177,168,22502,6,0,L|165:292,1,100,4|0,0:0|0:0,0:0:0:0:
156,376,22770,1,8,0:0:0:0:
64,304,22903,1,0,0:0:0:0:
252,324,23037,2,0,L|356:332,1,100,2|0,0:0|0:0,0:0:0:0:
512,240,23305,2,0,L|408:248,1,100,8|0,0:0|0:0,0:0:0:0:
280,160,23573,6,0,P|268:112|280:48,1,100,4|0,0:0|0:0,0:0:0:0:
352,208,23841,1,8,0:0:0:0:
184,120,23975,1,2,0:0:0:0:
352,20,24109,1,8,0:0:0:0:
232,232,24243,5,2,0:0:0:0:
212,24,24377,1,8,0:0:0:0:
400,116,24511,1,2,0:0:0:0:
280,160,24645,6,0,L|160:156,1,100,4|0,0:0|0:0,0:0:0:0:
72,152,24912,1,8,0:0:0:0:
72,152,25046,1,0,0:0:0:0:
240,256,25180,6,0,L|360:252,1,100,4|0,0:0|0:0,0:0:0:0:
448,248,25448,1,8,0:0:0:0:
448,248,25582,1,0,0:0:0:0:
168,320,25716,6,0,P|152:260|168:200,1,100,4|0,0:0|0:0,0:0:0:0:
280,160,25984,1,8,0:0:0:0:
72,152,26118,1,0,0:0:0:0:
200,4,26252,2,0,P|216:50|211:100,1,100,6|0,0:0|0:0,0:0:0:0:
104,64,26520,1,8,0:0:0:0:
280,160,26653,1,0,0:0:0:0:
61,251,26787,6,0,L|73:139,1,100,4|0,0:0|0:0,0:0:0:0:
280,160,27055,2,0,L|268:272,1,100,8|0,0:0|0:0,0:0:0:0:
152,364,27323,2,0,L|164:252,1,100,2|0,0:0|0:0,0:0:0:0:
371,273,27591,2,0,L|359:385,1,100,8|0,0:0|0:0,0:0:0:0:
280,160,27859,5,4,0:0:0:0:
416,204,27993,1,0,0:0:0:0:
436,196,28060,1,2,0:0:0:0:
452,184,28127,2,0,P|460:128|452:72,1,100,8|0,0:0|0:0,0:0:0:0:
280,24,28395,1,8,0:0:0:0:
208,212,28528,1,0,0:0:0:0:
371,273,28662,1,8,0:0:0:0:
280,160,28796,1,0,0:0:0:0:
272,292,28930,6,0,L|280:376,1,75.0000028610231,4|0,0:0|0:0,0:0:0:0:
132,264,29198,2,0,L|124:180,1,75.0000028610231,8|0,3:0|0:0,0:0:0:0:
112,104,29466,1,2,0:0:0:0:
48,272,29600,2,0,L|40:188,1,75.0000028610231,8|0,3:0|0:0,0:0:0:0:
28,112,29868,1,2,0:0:0:0:
188,52,30002,6,0,L|196:136,1,75.0000028610231,8|0,3:0|0:0,0:0:0:0:
208,212,30270,1,2,0:0:0:0:
272,36,30403,2,0,L|280:120,1,75.0000028610231,8|0,3:0|0:0,0:0:0:0:
292,196,30671,1,2,0:0:0:0:
432,268,30805,6,0,L|424:184,1,75.0000028610231,8|0,3:0|0:0,0:0:0:0:
424,288,31073,6,0,L|416:204,1,75.0000028610231,8|0,0:0|0:0,0:0:0:0:
416,308,31341,6,0,L|408:224,1,75.0000028610231,8|0,3:0|0:0,0:0:0:0:
400,132,31609,1,2,0:0:0:0:
488,84,31743,6,0,P|504:136|496:172,1,75.0000028610231,8|0,3:0|0:0,0:0:0:0:
408,233,32011,1,2,0:0:0:0:
292,196,32145,2,0,P|277:161|278:124,1,75.0000028610231,8|0,3:0|0:0,0:0:0:0:
356,32,32412,1,8,3:0:0:0:
408,233,32546,1,0,0:0:0:0:
224,244,32680,6,0,L|168:236,1,37.5000014305115,8|0,0:0|0:0,0:0:0:0:
400,132,32814,2,0,L|456:140,1,37.5000014305115,2|0,0:0|0:0,0:0:0:0:
324,312,32948,6,0,L|328:256,1,37.5000014305115,8|0,0:0|0:0,0:0:0:0:
204,88,33082,2,0,L|200:144,1,37.5000014305115,2|0,0:0|0:0,0:0:0:0:
116,168,33216,6,0,L|24:152,2,75.0000028610231,4|0|8,0:0|0:0|0:0,0:0:0:0:
116,168,33752,1,2,0:0:0:0:
324,312,34020,1,8,0:0:0:0:
324,312,34287,6,0,L|416:296,2,75.0000028610231,4|0|8,0:0|0:0|0:0,0:0:0:0:
324,312,34823,1,2,0:0:0:0:
116,168,35091,1,8,0:0:0:0:
116,168,35359,6,0,L|108:76,2,75.0000028610231,4|0|8,0:0|0:0|0:0,0:0:0:0:
116,168,35895,1,2,0:0:0:0:
330,237,36162,1,8,0:0:0:0:
330,237,36430,6,0,L|322:329,2,75.0000028610231,4|0|8,0:0|0:0|0:0,0:0:0:0:
330,237,36966,1,2,0:0:0:0:
348,28,37234,1,8,0:0:0:0:
348,28,37502,6,0,L|428:32,2,75.0000028610231,4|0|8,0:0|0:0|0:0,0:0:0:0:
348,28,38037,1,2,0:0:0:0:
140,180,38305,1,8,0:0:0:0:
140,180,38573,6,0,L|60:184,2,75.0000028610231,4|0|8,0:0|0:0|0:0,0:0:0:0:
140,180,39109,1,2,0:0:0:0:
400,268,39377,1,8,0:0:0:0:
400,268,39645,6,0,L|396:356,2,75.0000028610231,4|0|8,0:0|0:0|0:0,0:0:0:0:
400,268,40180,1,2,0:0:0:0:
408,40,40448,1,8,0:0:0:0:
124,48,40716,5,4,0:0:0:0:
404,176,40984,1,2,0:0:0:0:
140,308,41252,1,0,0:0:0:0:
272,272,41386,6,0,L|280:232,1,25,2|0,0:0|2:0,0:0:0:0:
172,184,41520,2,0,L|164:144,1,25,2|0,0:0|2:0,0:0:0:0:
284,108,41653,2,0,L|292:68,1,25,2|0,0:0|2:0,0:0:0:0:
198,42,41787,6,0,L|110:47,1,75.0000028610231,4|0,0:0|0:0,0:0:0:0:
52,108,42055,1,8,0:0:0:0:
329,171,42323,2,0,L|417:175,1,75.0000028610231,0|0,3:0|0:0,0:0:0:0:
475,236,42591,1,8,0:0:0:0:
159,320,42859,6,0,L|67:308,1,75.0000028610231,4|0,0:0|0:0,0:0:0:0:
27,236,43127,1,8,0:0:0:0:
343,320,43395,2,0,L|435:308,1,75.0000028610231,0|0,3:0|0:0,0:0:0:0:
475,236,43662,1,8,0:0:0:0:
252,44,43930,6,0,L|260:140,1,75.0000028610231,4|0,0:0|0:0,0:0:0:0:
340,160,44198,1,8,0:0:0:0:
165,245,44466,2,0,L|160:336,1,75.0000028610231,0|0,3:0|0:0,0:0:0:0:
76,356,44734,1,8,0:0:0:0:
308,252,45002,6,0,L|404:244,1,75.0000028610231,4|0,0:0|0:0,0:0:0:0:
475,236,45270,1,8,0:0:0:0:
208,160,45537,2,0,L|112:152,1,75.0000028610231,0|0,3:0|0:0,0:0:0:0:
41,144,45805,1,8,0:0:0:0:
343,85,46073,6,0,L|339:173,1,75.0000028610231,4|0,0:0|0:0,0:0:0:0:
404,28,46341,1,8,0:0:0:0:
208,160,46609,2,0,L|212:248,1,75.0000028610231,0|0,3:0|0:0,0:0:0:0:
147,103,46877,1,8,0:0:0:0:
316,256,47145,6,0,L|312:344,1,75.0000028610231,4|0,0:0|0:0,0:0:0:0:
377,199,47412,1,8,0:0:0:0:
147,103,47680,2,0,L|143:15,1,75.0000028610231,0|0,3:0|0:0,0:0:0:0:
208,160,47948,1,8,0:0:0:0:
144,328,48216,6,0,P|108:280|104:244,1,75.0000028610231,4|0,0:0|0:0,0:0:0:0:
108,172,48484,1,8,0:0:0:0:
368,56,48752,2,0,P|404:104|408:140,1,75.0000028610231,0|0,3:0|0:0,0:0:0:0:
312,136,49020,1,8,0:0:0:0:
472,44,49153,1,0,3:0:0:0:
448,240,49287,6,0,P|400:220|380:184,1,75.0000028610231,4|0,0:0|0:0,0:0:0:0:
332,340,49555,2,0,P|300:298|301:257,1,75.0000028610231,8|0,0:0|0:0,0:0:0:0:
172,360,49823,2,0,P|165:308|186:273,1,75.0000028610231,0|0,3:0|0:0,0:0:0:0:
36,288,50091,2,0,P|55:240|91:220,1,75.0000028610231,8|0,3:0|0:0,0:0:0:0:
228,156,50359,5,4,0:0:0:0:
192,248,50493,1,0,0:0:0:0:
116,80,50627,1,8,0:0:0:0:
304,8,50761,1,0,0:0:0:0:
364,188,50895,1,2,0:0:0:0:
184,204,51028,5,0,0:0:0:0:
233,26,51162,1,8,0:0:0:0:
424,92,51296,1,0,0:0:0:0:
354,268,51430,6,0,L|252:248,1,85.0000016212464,4|0,0:0|0:0,0:0:0:0:
116,80,51698,2,0,L|218:100,1,85.0000016212464,8|0,0:0|0:0,0:0:0:0:
448,252,51966,2,0,L|346:232,1,85.0000016212464,2|0,0:0|0:0,0:0:0:0:
224,72,52234,2,0,L|364:104,1,127.50000243187,8|0,0:0|2:0,0:0:0:0:
388,108,52502,5,4,0:0:0:0:
354,268,52636,1,0,0:0:0:0:
184,204,52770,1,8,0:0:0:0:
296,164,52903,1,0,0:0:0:0:
248,280,53037,6,0,L|240:300,4,21.2500004053116
224,72,53305,2,0,L|232:48,4,21.2500004053116
184,204,53573,5,0,0:0:0:0:
296,164,53707,1,0,0:0:0:0:
120,96,53841,1,0,0:0:0:0:
259,257,53975,6,0,L|298:158,1,100,4|2,3:0|0:0,0:0:0:0:
324,84,54377,1,2,0:0:0:0:
324,84,54645,6,0,L|484:156,1,150,4|0,0:0|2:0,0:0:0:0:
444,224,54912,1,8,0:0:0:0:
296,164,55046,1,0,0:0:0:0:
296,164,55113,1,0,0:0:0:0:
296,164,55180,2,0,L|196:124,1,100,2|0,0:0|0:0,0:0:0:0:
112,168,55448,1,8,0:0:0:0:
112,168,55582,1,2,0:0:0:0:
259,257,55716,6,0,P|327:249|375:217,1,100,4|0,0:0|0:0,0:0:0:0:
112,168,55984,2,0,P|62:170|16:190,1,100,8|0,0:0|0:0,0:0:0:0:
132,344,56252,1,2,0:0:0:0:
132,344,56520,2,0,L|296:336,1,150,8|0,0:0|2:0,0:0:0:0:
320,336,56787,5,4,0:0:0:0:
400,248,56921,1,0,0:0:0:0:
412,228,56988,1,2,0:0:0:0:
420,204,57055,2,0,P|424:156|408:96,1,100,8|0,0:0|0:0,0:0:0:0:
224,120,57323,1,2,0:0:0:0:
396,64,57457,1,0,0:0:0:0:
232,22,57591,2,0,P|220:70|224:120,1,100,8|0,0:0|0:0,0:0:0:0:
292,180,57792,1,2,0:0:0:0:
292,180,57859,6,0,P|216:156|136:192,1,150,4|0,0:0|2:0,0:0:0:0:
112,200,58127,2,0,B|108:256|108:256|120:296|120:296|116:356,1,150,8|0,0:0|2:0,0:0:0:0:
84,380,58395,5,2,0:0:0:0:
216,252,58528,1,0,0:0:0:0:
16,324,58662,5,8,0:0:0:0:
192,356,58796,1,0,0:0:0:0:
24,236,58930,6,0,L|36:132,1,100,4|0,0:0|0:0,0:0:0:0:
228,152,59198,2,0,L|216:251,1,100,8|0,0:0|0:0,0:0:0:0:
0,160,59466,2,0,L|11:60,1,100,2|0,0:0|0:0,0:0:0:0:
268,100,59734,2,0,L|257:200,1,100,8|0,0:0|0:0,0:0:0:0:
240,28,60002,6,0,B|282:15|314:39|314:39|352:44|388:24,1,150,4|0,0:0|2:0,0:0:0:0:
428,8,60270,1,8,0:0:0:0:
268,100,60403,1,0,0:0:0:0:
435,107,60537,2,0,L|427:-1,1,100,2|0,0:0|0:0,0:0:0:0:
332,180,60805,2,0,L|340:288,1,100,8|0,0:0|0:0,0:0:0:0:
428,336,61073,6,0,P|357:312|286:332,1,150,4|0,0:0|2:0,0:0:0:0:
224,368,61341,2,0,P|174:369|130:346,1,100,8|0,0:0|0:0,0:0:0:0:
8,216,61609,2,0,P|52:193|101:194,1,100,2|0,0:0|0:0,0:0:0:0:
72,288,61877,1,8,0:0:0:0:
48,116,62011,1,0,0:0:0:0:
200,248,62145,6,0,L|188:324,1,50,4|2,0:0|2:0,0:0:0:0:
128,184,62278,2,0,L|140:108,1,50,8|2,0:0|2:0,0:0:0:0:
148,56,62412,1,2,0:0:0:0:
148,56,62546,1,0,0:0:0:0:
228,96,62680,6,0,P|260:100|296:84,1,50,8|0,0:0|2:3,0:0:0:0:
276,95,62948,6,0,P|344:64|444:108,1,179.999994506836,4|0,0:0|0:0,0:0:0:0:
472,168,63216,6,0,L|456:280,1,100,12|0,0:0|0:0,0:0:0:0:
472,365,63484,2,0,L|456:253,1,100,8|0,0:0|0:0,0:0:0:0:
348,232,63752,2,0,B|256:256|300:216|200:240,1,150,10|0,0:0|2:0,0:0:0:0:
168,233,64020,1,8,0:0:0:0:
300,168,64153,1,0,0:0:0:0:
304,320,64287,6,0,P|354:318|397:294,1,100,4|0,0:0|0:0,0:0:0:0:
188,360,64555,2,0,P|138:357|95:333,1,100,8|0,0:0|0:0,0:0:0:0:
180,84,64823,2,0,L|168:240,1,150,2|0,0:0|2:0,0:0:0:0:
164,280,65091,1,8,0:0:0:0:
300,168,65225,1,0,0:0:0:0:
100,128,65359,6,0,P|32:116|-4:128,1,100,12|0,0:0|0:0,0:0:0:0:
164,280,65627,2,0,P|212:289|260:276,1,100,8|0,0:0|0:0,0:0:0:0:
300,168,65895,1,10,0:0:0:0:
128,200,66028,1,0,0:0:0:0:
344,248,66162,2,0,P|384:204|388:156,1,100,8|0,0:0|0:0,0:0:0:0:
294,24,66430,6,0,P|278:100|302:172,1,150,4|0,0:0|2:0,0:0:0:0:
220,180,66698,1,8,0:0:0:0:
40,88,66832,1,0,0:0:0:0:
136,24,66966,2,0,P|152:100|136:148,1,100,2|0,0:0|0:0,0:0:0:0:
48,204,67234,1,12,0:0:0:0:
299,167,67368,1,0,0:0:0:0:
132,240,67502,6,0,L|144:344,1,100,12|0,0:0|0:0,0:0:0:0:
220,180,67770,1,8,0:0:0:0:
244,368,67903,1,0,0:0:0:0:
56,308,68037,1,10,0:0:0:0:
240,272,68171,1,0,0:0:0:0:
240,272,68238,1,0,0:0:0:0:
240,272,68305,2,0,P|298:260|368:252,1,100,8|0,0:0|0:0,0:0:0:0:
452,360,68573,6,0,P|393:348|324:340,1,100,4|0,0:0|0:0,0:0:0:0:
244,368,68841,1,8,0:0:0:0:
424,268,68975,1,0,0:0:0:0:
337,157,69109,2,0,P|327:210|349:273,1,100,2|0,0:0|0:0,0:0:0:0:
508,164,69377,2,0,P|518:115|508:66,1,100,8|0,0:0|0:0,0:0:0:0:
368,32,69645,6,0,L|240:44,1,100,12|0,0:0|0:0,0:0:0:0:
160,52,69912,1,8,0:0:0:0:
160,52,70046,1,0,0:0:0:0:
0,128,70180,6,0,L|128:140,1,100,14|0,0:0|0:0,0:0:0:0:
208,148,70448,1,8,0:0:0:0:
208,148,70582,1,0,0:0:0:0:
140,320,70716,6,0,P|132:264|144:212,1,100,6|0,0:0|0:0,0:0:0:0:
300,160,70984,1,8,0:0:0:0:
364,216,71118,2,0,P|372:265|364:314,1,100,0|2,0:0|0:0,0:0:0:0:
212,356,71386,5,8,0:0:0:0:
352,352,71520,1,8,0:0:0:0:
140,320,71653,1,8,0:0:0:0:
272,296,71787,6,0,P|284:260|284:224,1,75.0000028610231,4|0,0:0|0:0,0:0:0:0:
124,188,72055,2,0,P|112:152|112:116,1,75.0000028610231,8|0,0:0|0:0,0:0:0:0:
296,240,72323,6,0,P|296:277|284:312,1,75.0000028610231,2|0,0:0|0:0,0:0:0:0:
144,192,72591,2,0,P|132:156|132:119,1,75.0000028610231,8|0,0:0|0:0,0:0:0:0:
184,48,72859,5,4,0:0:0:0:
320,160,72993,1,0,0:0:0:0:
232,172,73127,2,0,P|240:120|268:92,1,75.0000028610231,8|0,0:0|0:0,0:0:0:0:
456,48,73395,5,2,0:0:0:0:
320,160,73528,1,0,0:0:0:0:
408,172,73662,2,0,P|400:120|372:92,1,75.0000028610231,8|0,0:0|0:0,0:0:0:0:
240,252,73930,5,4,0:0:0:0:
296,308,74064,2,0,L|380:300,1,75.0000028610231,0|8,0:0|0:0,0:0:0:0:
386,103,74332,5,0,0:0:0:0:
330,47,74466,2,0,L|246:55,1,75.0000028610231,2|0,0:0|0:0,0:0:0:0:
96,128,74734,6,0,L|170:120,1,75.0000028610231,8|0,0:0|0:0,0:0:0:0:
28,76,75002,1,4,0:0:0:0:
72,212,75136,6,0,L|146:204,1,75.0000028610231,0|8,0:0|0:0,0:0:0:0:
4,160,75403,1,0,0:0:0:0:
68,308,75537,6,0,L|142:300,1,75.0000028610231,2|0,0:0|0:0,0:0:0:0:
0,256,75805,1,8,0:0:0:0:
184,232,75939,1,0,0:0:0:0:
212,64,76073,5,12,0:0:0:0:
208,44,76207,1,0,0:0:0:0:
308,144,76341,5,8,0:0:0:0:
312,124,76475,1,0,0:0:0:0:
184,232,76609,5,10,0:0:0:0:
180,212,76743,1,0,0:0:0:0:
316,316,76877,5,8,0:0:0:0:
320,296,77011,1,0,0:0:0:0:
203,315,77145,6,0,L|99:303,1,100,12|0,0:0|0:0,0:0:0:0:
36,224,77412,1,8,0:0:0:0:
24,208,77546,1,0,0:0:0:0:
264,252,77680,6,0,L|368:240,1,100,12|0,0:0|0:0,0:0:0:0:
431,161,77948,1,8,0:0:0:0:
443,145,78082,1,0,0:0:0:0:
165,107,78216,6,0,P|161:159|177:207,1,100,4|0,0:0|0:0,0:0:0:0:
336,128,78484,2,0,P|350:80|346:30,1,100,8|0,0:0|0:0,0:0:0:0:
88,56,78752,6,0,P|73:104|77:154,1,100,2|0,0:0|0:0,0:0:0:0:
431,161,79020,2,0,P|445:114|442:65,1,100,8|0,0:0|0:0,0:0:0:0:
247,107,79287,5,4,0:0:0:0:
424,24,79421,1,0,0:0:0:0:
244,8,79555,2,0,L|248:116,1,100,12|0,0:0|0:0,0:0:0:0:
244,207,79823,2,0,L|248:99,1,100,10|0,0:0|0:0,0:0:0:0:
244,352,80091,1,12,0:0:0:0:
404,252,80225,1,0,0:0:0:0:
433,342,80359,6,0,P|384:346|340:324,1,100,12|0,0:0|0:0,0:0:0:0:
386,174,80627,2,0,P|430:152|480:156,1,100,12|0,0:0|0:0,0:0:0:0:
425,363,80895,6,0,P|372:366|317:327,1,100,2|0,0:0|0:0,0:0:0:0:
188,228,81162,1,12,0:0:0:0:
244,352,81296,6,0,P|280:288|264:164,1,200,0|2,0:0|0:0,0:0:0:0:
332,345,81698,2,0,P|288:269|160:229,1,200,12|2,0:0|0:0,0:0:0:0:
20,352,82100,1,2,0:0:0:0:
100,220,82234,2,0,P|96:152|84:100,1,100,12|0,0:0|0:0,0:0:0:0:
0,48,82502,5,12,0:0:0:0:
184,104,82636,1,0,0:0:0:0:
0,136,82770,5,12,0:0:0:0:
144,24,82903,1,0,0:0:0:0:
184,192,83037,6,0,P|172:276|152:316,1,100,2|0,0:0|0:0,0:0:0:0:
20,352,83305,1,12,0:0:0:0:
248,348,83439,6,0,P|272:280|264:136,1,200,0|2,0:0|0:0,0:0:0:0:
184,192,83841,2,0,P|272:240|392:236,1,200,12|2,0:0|0:0,0:0:0:0:
488,108,84243,1,2,0:0:0:0:
448,248,84377,2,0,P|456:312|472:364,1,100,12|0,0:0|0:0,0:0:0:0:
348,164,84645,5,4,0:0:0:0:
348,164,84912,6,0,L|340:92,3,50,8|0|0|0,0:0|0:0|0:0|0:0,0:0:0:0:
252,196,85180,2,0,L|244:268,3,50,8|0|0|0,0:0|0:0|0:0|0:0,0:0:0:0:
180,112,85448,2,0,L|172:40,3,50,8|0|0|0,0:0|0:0|0:0|0:0,0:0:0:0:
104,232,85716,2,0,L|96:304,3,50,12|0|0|0,0:0|0:0|0:0|0:0,0:0:0:0:
48,160,85984,6,0,L|56:88,3,50,12|0|0|0,0:0|0:0|0:0|0:0,0:0:0:0:
184,264,86252,2,0,L|192:336,3,50,8|0|0|0,0:0|0:0|0:0|0:0,0:0:0:0:
258,101,86520,2,0,L|266:29,3,50,8|0|0|0,0:0|0:0|0:0|0:0,0:0:0:0:
304,164,86787,5,12,0:0:0:0:
336,176,86854,1,0,0:0:0:0:
372,176,86921,1,0,0:0:0:0:
404,160,86988,1,0,0:0:0:0:
428,136,87055,1,8,0:0:0:0:
436,100,87122,1,0,0:0:0:0:
424,68,87189,1,0,0:0:0:0:
396,44,87256,1,0,0:0:0:0:
364,28,87323,1,8,0:0:0:0:
328,24,87390,1,0,0:0:0:0:
292,32,87457,1,0,0:0:0:0:
264,52,87524,1,0,0:0:0:0:
232,68,87591,1,8,0:0:0:0:
196,68,87658,1,0,0:0:0:0:
164,52,87725,6,0,L|128:0,2,50,0|0|12,0:0|0:0|0:0,0:0:0:0:
164,52,88528,5,0,0:0:0:0:
69,162,88662,6,0,L|60:70,1,75,8|0,0:0|2:0,0:0:0:0:
44,68,88930,6,0,L|58:210,1,119.999996337891,4|0,0:0|0:0,0:0:0:0:
84,360,89198,1,8,0:0:0:0:
184,152,89332,1,0,0:0:0:0:
200,256,89466,2,0,L|328:248,1,119.999996337891,2|0,0:0|0:0,0:0:0:0:
452,240,89734,1,8,0:0:0:0:
348,376,89868,1,0,0:0:0:0:
304,168,90002,6,0,P|292:96|296:36,1,119.999996337891,4|0,0:0|0:0,0:0:0:0:
452,240,90270,2,0,P|453:299|442:358,1,119.999996337891,8|0,0:0|0:0,0:0:0:0:
296,272,90537,1,2,0:0:0:0:
428,160,90671,1,0,0:0:0:0:
348,376,90805,2,0,P|256:376|200:348,1,119.999996337891,8|0,0:0|0:0,0:0:0:0:
52,180,91073,6,0,P|109:164|169:170,1,119.999996337891,4|0,0:0|0:0,0:0:0:0:
200,288,91341,1,8,0:0:0:0:
208,88,91475,1,0,0:0:0:0:
360,208,91609,2,0,P|302:223|242:217,1,119.999996337891,2|0,0:0|0:0,0:0:0:0:
376,88,91877,1,8,0:0:0:0:
380,304,92011,1,0,0:0:0:0:
380,304,92078,1,2,0:0:0:0:
380,304,92145,6,0,P|439:309|497:294,1,119.999996337891,4|0,0:0|0:0,0:0:0:0:
484,92,92412,1,8,0:0:0:0:
291,111,92546,1,0,0:0:0:0:
304,304,92680,1,10,0:0:0:0:
428,152,92814,5,0,0:0:0:0:
216,176,92948,1,8,0:0:0:0:
236,376,93082,1,0,0:0:0:0:
293,231,93216,6,0,L|291:111,1,119.999996337891,4|0,0:0|0:0,0:0:0:0:
152,104,93484,1,8,0:0:0:0:
376,88,93618,1,0,0:0:0:0:
216,176,93752,2,0,P|148:200|88:176,1,119.999996337891,2|0,0:0|0:0,0:0:0:0:
104,28,94020,2,0,P|161:15|215:39,1,119.999996337891,8|0,0:0|0:0,0:0:0:0:
0,168,94287,6,0,L|-8:24,2,119.999996337891,4|0|8,0:0|0:0|0:0,0:0:0:0:
24,352,94689,1,0,0:0:0:0:
96,256,94823,2,0,L|236:248,1,119.999996337891,6|0,0:0|0:0,0:0:0:0:
292,344,95091,1,8,0:0:0:0:
296,196,95225,1,0,0:0:0:0:
296,196,95292,1,2,0:0:0:0:
296,196,95359,6,0,L|288:64,1,119.999996337891,4|0,0:0|0:0,0:0:0:0:
376,244,95627,1,8,0:0:0:0:
360,16,95761,1,0,0:0:0:0:
368,132,95895,2,0,L|496:124,1,119.999996337891,2|0,0:0|0:0,0:0:0:0:
208,44,96162,2,0,L|80:52,1,119.999996337891,8|0,0:0|0:0,0:0:0:0:
28,136,96430,5,4,0:0:0:0:
132,320,96564,1,0,0:0:0:0:
148,296,96631,1,2,0:0:0:0:
160,268,96698,2,0,P|168:200|156:144,1,119.999996337891,8|0,0:0|0:0,0:0:0:0:
88,51,96966,5,14,0:0:0:0:
64,260,97100,1,0,0:0:0:0:
244,212,97234,1,8,0:0:0:0:
28,136,97368,1,0,0:0:0:0:
208,44,97502,6,0,L|336:60,2,119.999996337891,4|0|8,0:0|0:0|0:0,0:0:0:0:
356,40,97903,1,0,0:0:0:0:
180,64,98037,2,0,L|52:48,1,119.999996337891,2|0,0:0|0:0,0:0:0:0:
256,132,98305,6,0,L|384:148,2,119.999996337891,8|0|4,0:0|0:0|0:0,0:0:0:0:
404,128,98707,1,0,0:0:0:0:
228,152,98841,2,0,L|100:136,1,119.999996337891,8|0,0:0|0:0,0:0:0:0:
272,236,99109,6,0,L|400:252,2,119.999996337891,2|0|8,0:0|0:0|0:0,0:0:0:0:
420,232,99511,1,0,0:0:0:0:
244,256,99645,2,0,L|116:240,1,119.999996337891,4|0,0:0|0:0,0:0:0:0:
173,145,99912,6,0,L|301:161,2,119.999996337891,8|0|2,0:0|0:0|0:0,0:0:0:0:
321,141,100314,1,0,0:0:0:0:
145,165,100448,2,0,L|17:149,1,119.999996337891,8|0,0:0|0:0,0:0:0:0:
316,28,100716,6,0,L|300:288,2,239.999992675781,4|8|2,0:0|0:0|0:0,0:0:0:0:
428,128,101386,1,0,0:0:0:0:
256,200,101520,2,0,P|188:192|132:152,1,119.999996337891,12|0,0:0|0:0,0:0:0:0:
400,44,101787,6,0,P|468:52|524:92,1,119.999996337891,4|0,0:0|0:0,0:0:0:0:
416,247,102055,1,8,0:0:0:0:
220,112,102189,1,0,0:0:0:0:
428,128,102323,2,0,L|416:256,1,119.999996337891,2|0,0:0|0:0,0:0:0:0:
208,231,102591,2,0,L|220:103,1,119.999996337891,8|0,0:0|0:0,0:0:0:0:
264,308,102859,6,0,P|200:324|128:280,1,119.999996337891,4|0,0:0|0:0,0:0:0:0:
64,176,103127,1,8,0:0:0:0:
64,336,103261,1,0,0:0:0:0:
0,108,103395,1,6,0:0:0:0:
8,248,103528,1,0,0:0:0:0:
8,248,103595,1,2,0:0:0:0:
8,248,103662,2,0,P|80:260|136:228,1,119.999996337891,8|0,0:0|0:0,0:0:0:0:
280,60,103930,6,0,P|224:39|166:53,1,119.999996337891,4|0,0:0|0:0,0:0:0:0:
264,184,104198,2,0,P|340:172|424:88,1,179.999994506836,8|0,0:0|2:0,0:0:0:0:
392,32,104466,1,2,0:0:0:0:
224,120,104600,1,0,0:0:0:0:
224,120,104667,1,2,0:0:0:0:
224,120,104734,2,0,L|252:244,1,119.999996337891,8|0,0:0|0:0,0:0:0:0:
179,338,105002,6,0,P|120:356|60:334,1,119.999996337891,4|0,0:0|0:0,0:0:0:0:
342,117,105270,1,8,0:0:0:0:
124,252,105403,1,0,0:0:0:0:
339,237,105537,1,10,0:0:0:0:
120,128,105671,1,0,0:0:0:0:
342,117,105805,2,0,L|338:237,1,119.999996337891,8|0,0:0|0:0,0:0:0:0:
252,288,106073,5,4,0:0:0:0:
456,168,106207,1,0,0:0:0:0:
456,168,106609,2,0,L|468:160,8,12.5,2|0|0|0|0|0|0|0|8,0:0|0:0|0:0|0:0|0:0|0:0|0:0|0:0|0:0,0:0:0:0:
456,168,107145,5,4,0:0:0:0:
252,48,107278,1,0,0:0:0:0:
252,48,107680,2,0,L|240:40,8,12.5,2|0|0|0|0|0|0|0|8,0:0|0:0|0:0|0:0|0:0|0:0|0:0|0:0|0:0,0:0:0:0:
252,48,108216,5,4,0:0:0:0:
372,251,108350,1,0,0:0:0:0:
372,251,108752,2,0,L|378:263,8,12.5,2|0|0|0|0|0|0|0|8,0:0|0:0|0:0|0:0|0:0|0:0|0:0|0:0|0:0,0:0:0:0:
372,251,109287,5,4,0:0:0:0:
316,176,109421,2,0,L|309:163,4,12.5,0|0|0|0|2,0:0|0:0|0:0|0:0|0:0,0:0:0:0:
396,96,109689,2,0,L|389:108,4,12.5,0|0|0|0|2,0:0|0:0|0:0|0:0|0:0,0:0:0:0:
344,24,109957,2,0,L|337:11,4,12.5,0|0|0|0|2,0:0|0:0|0:0|0:0|0:0,0:0:0:0:
232,96,111028,5,0,0:0:0:0:
232,96,111095,1,0,0:0:0:0:
232,96,111162,2,0,L|148:88,1,75,12|0,0:0|0:0,0:0:0:0:
116,80,111430,5,4,0:0:0:0:
308,100,111564,1,0,0:0:0:0:
156,240,111698,2,0,L|164:152,1,75.0000028610231,8|8,0:0|0:0,0:0:0:0:
308,100,111966,2,0,L|300:188,1,75.0000028610231,2|0,0:0|0:0,0:0:0:0:
292,268,112234,1,8,0:0:0:0:
292,268,112502,6,0,P|344:272|384:256,1,75.0000028610231,4|0,0:0|0:0,0:0:0:0:
496,204,112770,2,0,P|459:196|422:201,1,75.0000028610231,8|8,0:0|0:0,0:0:0:0:
456,280,113037,1,2,0:0:0:0:
456,124,113171,1,0,0:0:0:0:
328,196,113305,1,8,0:0:0:0:
328,196,113573,6,0,L|324:108,2,75.0000028610231,4|0|8,0:0|0:0|0:0,0:0:0:0:
336,332,113975,1,8,0:0:0:0:
260,364,114109,2,0,P|216:364|168:336,1,75.0000028610231,2|0,0:0|0:0,0:0:0:0:
56,244,114377,2,0,P|128:224|180:256,1,112.500004291535,8|0,0:0|2:0,0:0:0:0:
196,252,114645,5,4,0:0:0:0:
116,308,114778,1,0,0:0:0:0:
144,152,114912,1,8,0:0:0:0:
116,308,115046,1,8,0:0:0:0:
240,192,115180,6,0,P|244:148|236:96,1,75.0000028610231,2|0,0:0|0:0,0:0:0:0:
164,60,115448,1,8,0:0:0:0:
328,196,115582,1,0,0:0:0:0:
348,100,115716,6,0,L|432:88,1,75.0000028610231,4|0,0:0|0:0,0:0:0:0:
504,156,115984,1,8,0:0:0:0:
504,156,116118,1,8,0:0:0:0:
402,206,116252,6,0,L|318:194,1,75.0000028610231,2|0,0:0|0:0,0:0:0:0:
254,250,116520,1,8,0:0:0:0:
254,250,116787,6,0,L|170:238,1,75.0000028610231,4|0,0:0|0:0,0:0:0:0:
48,344,117055,2,0,L|132:332,1,75.0000028610231,8|8,0:0|0:0,0:0:0:0:
88,228,117323,1,2,0:0:0:0:
204,324,117457,1,0,0:0:0:0:
224,168,117591,1,8,0:0:0:0:
224,168,117859,6,0,P|228:112|220:68,1,75.0000028610231,4|0,0:0|0:0,0:0:0:0:
136,20,118127,1,8,0:0:0:0:
136,20,118216,6,0,L|76:4,2,50.0000019073487,8|0|2,0:0|0:0|0:0,0:0:0:0:
136,20,118930,6,0,L|208:12,1,66.6666666666667,4|0,0:0|2:0,0:0:0:0:
320,76,119109,6,0,L|248:84,1,66.6666666666667,8|0,0:0|2:0,0:0:0:0:
108,56,119287,6,0,L|180:48,1,66.6666666666667,4|0,0:0|2:0,0:0:0:0:
360,104,119466,6,0,L|288:112,1,66.6666666666667,4|0,0:0|2:0,0:0:0:0:
76,92,119645,6,0,L|148:84,1,66.6666666666667,4|0,0:0|2:0,0:0:0:0:
400,132,119823,6,0,L|328:140,1,66.6666666666667,4|0,0:0|2:0,0:0:0:0:
176,208,120002,6,0,P|155:290|184:352,1,134.999995880127,14|0,0:0|2:0,0:0:0:0:
272,276,120270,2,0,P|305:324|392:348,1,134.999995880127,8|0,0:0|2:0,0:0:0:0:
372,244,120537,2,0,P|430:246|504:176,1,134.999995880127,12|0,0:0|2:0,0:0:0:0:
400,132,120805,2,0,P|435:86|444:-4,1,134.999995880127,8|2,0:0|2:0,0:0:0:0:
344,76,121073,6,0,P|295:108|208:112,1,134.999995880127,12|0,0:0|2:0,0:0:0:0:
124,104,121341,2,0,P|64:99|0:56,1,134.999995880127,8|0,0:0|2:0,0:0:0:0:
290,5,121609,2,0,P|273:61|219:115,1,134.999995880127,12|0,0:0|2:0,0:0:0:0:
144,176,121877,2,0,P|95:210|16:220,1,134.999995880127,8|2,0:0|2:0,0:0:0:0:
124,336,122145,6,0,P|170:298|200:224,1,134.999995880127,12|0,0:0|2:0,0:0:0:0:
295,220,122412,2,0,P|270:157|219:113,1,134.999995880127,8|0,0:0|2:0,0:0:0:0:
320,316,122680,2,0,P|366:278|396:204,1,134.999995880127,12|0,0:0|2:0,0:0:0:0:
491,200,122948,2,0,P|466:137|415:93,1,134.999995880127,8|2,0:0|2:0,0:0:0:0:
287,85,123216,6,0,L|295:225,1,134.999995880127,12|0,0:0|2:0,0:0:0:0:
287,354,123484,2,0,L|295:214,1,134.999995880127,8|0,0:0|2:0,0:0:0:0:
130,250,123752,2,0,P|187:266|235:254,1,89.9999972534181,10|2,0:0|0:2,0:0:0:0:
395,209,124020,1,8,0:0:0:0:
160,124,124153,1,0,0:0:0:0:
148,140,124220,1,2,2:0:0:0:
142,158,124287,6,0,P|164:220|216:261,1,134.999995880127,12|0,0:0|2:0,0:0:0:0:
89,259,124555,2,0,P|152:279|216:261,1,134.999995880127,8|0,0:0|2:0,0:0:0:0:
138,362,124823,2,0,P|192:323|216:261,1,134.999995880127,12|0,0:0|2:0,0:0:0:0:
249,384,125091,2,0,P|250:317|216:260,1,134.999995880127,8|0,0:0|2:0,0:0:0:0:
260,20,125359,6,0,B|252:88|252:88|272:132|272:132|260:228,1,179.999994506836,12|8,0:0|0:0,0:0:0:0:
264,194,125694,1,2,2:0:0:0:
264,194,125761,1,2,2:0:0:0:
264,194,125828,1,2,2:0:0:0:
264,194,125895,5,14,0:0:0:0:
510,103,126162,2,0,P|446:87|370:115,1,134.999995880127,8|0,0:0|2:0,0:0:0:0:
400,240,126430,6,0,L|380:96,1,134.999995880127,12|0,0:0|2:0,0:0:0:0:
252,103,126698,2,0,P|315:122|380:106,1,134.999995880127,8|0,0:0|2:0,0:0:0:0:
493,44,126966,6,0,P|427:59|380:106,1,134.999995880127,12|0,0:0|2:0,0:0:0:0:
224,288,127234,2,0,P|285:314|352:308,1,134.999995880127,8|2,0:0|2:0,0:0:0:0:
400,240,127502,5,12,0:0:0:0:
293,46,127636,1,0,0:0:0:0:
289,43,127703,1,2,0:0:0:0:
285,42,127770,1,8,0:0:0:0:
213,122,127903,1,0,0:0:0:0:
317,218,128037,2,0,P|341:158|341:110,1,89.9999972534181,2|0,0:0|0:0,0:0:0:0:
109,202,128305,2,0,P|115:246|134:286,1,89.9999972534181,8|0,0:0|0:0,0:0:0:0:
328,312,128573,5,4,0:0:0:0:
320,248,131921,5,8,0:0:0:0:
136,292,132055,1,8,0:0:0:0:
240,292,132323,5,8,0:0:0:0:
56,248,132457,1,8,0:0:0:0:
136,168,132591,5,8,0:0:0:0:
135,162,132658,1,0,0:0:0:0:
135,156,132725,1,0,0:0:0:0:
134,151,132792,1,0,0:0:0:0:
134,145,132859,6,0,L|121:24,1,100,12|0,0:0|0:0,0:0:0:0:
320,248,133127,2,0,L|333:127,1,100,8|0,0:0|0:0,0:0:0:0:
56,248,133395,2,0,L|43:127,1,100,10|0,0:0|0:0,0:0:0:0:
236,120,133662,2,0,L|249:-1,1,100,8|0,0:0|0:0,0:0:0:0:
424,32,133930,5,12,0:0:0:0:
420,52,134064,1,0,0:0:0:0:
326,128,134198,5,8,0:0:0:0:
330,148,134332,1,0,0:0:0:0:
432,208,134466,5,10,0:0:0:0:
428,228,134600,1,0,0:0:0:0:
344,324,134734,5,8,0:0:0:0:
348,344,134868,1,0,0:0:0:0:
320,248,135002,6,0,L|204:264,1,100,4|0,0:0|0:0,0:0:0:0:
32,208,135270,2,0,L|131:194,1,100,8|0,0:0|0:0,0:0:0:0:
256,64,135537,2,0,L|156:77,1,100,2|0,0:0|0:0,0:0:0:0:
160,360,135805,2,0,L|259:346,1,100,8|0,0:0|0:0,0:0:0:0:
424,316,136073,5,4,0:0:0:0:
220,261,136207,1,0,0:0:0:0:
259,163,136341,2,0,L|255:51,2,100,8|0|2,0:0|0:0|0:0,0:0:0:0:
144,168,136743,1,0,0:0:0:0:
220,261,136877,2,0,P|280:257|332:221,1,100,8|0,0:0|0:0,0:0:0:0:
432,220,137145,5,12,0:0:0:0:
336,64,137278,1,0,0:0:0:0:
452,196,137412,5,12,0:0:0:0:
320,87,137546,1,0,0:0:0:0:
310,211,137680,6,0,P|358:179|386:131,1,100,2|0,0:0|0:0,0:0:0:0:
432,36,137948,1,12,0:0:0:0:
208,52,138082,6,0,P|228:132|320:216,1,200,0|2,0:0|0:0,0:0:0:0:
160,188,138484,2,0,P|268:152|324:80,1,200,12|2,0:0|0:0,0:0:0:0:
208,52,138886,1,2,0:0:0:0:
310,211,139020,2,0,P|368:210|430:227,1,100,12|0,0:0|0:0,0:0:0:0:
464,316,139287,5,12,0:0:0:0:
476,140,139421,1,0,0:0:0:0:
372,312,139555,5,12,0:0:0:0:
512,232,139689,1,0,0:0:0:0:
408,218,139823,6,0,P|359:209|310:211,1,100,2|0,0:0|0:0,0:0:0:0:
136,324,140091,1,12,0:0:0:0:
224,252,140225,6,0,P|256:156|240:52,1,200,0|2,0:0|0:0,0:0:0:0:
160,160,140627,2,0,P|252:132|356:184,1,200,12|2,0:0|0:0,0:0:0:0:
372,312,141028,1,2,0:0:0:0:
343,171,141162,2,0,P|351:107|375:51,1,100,12|0,0:0|0:0,0:0:0:0:
363,73,141363,1,2,0:0:0:0:
363,73,141430,5,4,0:0:0:0:
472,156,141564,1,0,0:0:0:0:
256,104,141698,1,0,0:0:0:0:
476,72,141832,1,0,0:0:0:0:
476,72,141899,1,0,0:0:0:0:
476,72,141966,2,0,L|484:-8,3,50
372,84,142234,2,0,L|380:164,3,50
288,24,142502,5,4,0:0:0:0:
252,16,142569,1,0,0:0:0:0:
216,24,142636,1,0,0:0:0:0:
184,40,142703,1,0,0:0:0:0:
156,64,142770,1,0,0:0:0:0:
128,88,142836,1,0,0:0:0:0:
96,104,142903,1,0,0:0:0:0:
60,104,142970,1,0,0:0:0:0:
32,84,143037,2,0,L|16:20,3,50
0,168,143305,2,0,L|16:232,3,50,8|0|0|0,0:0|0:0|0:0|0:0,0:0:0:0:
44,292,143573,5,12,0:0:0:0:
72,272,143640,1,0,0:0:0:0:
104,260,143707,1,0,0:0:0:0:
140,256,143774,1,0,0:0:0:0:
172,268,143841,1,8,0:0:0:0:
204,280,143908,1,0,0:0:0:0:
236,296,143975,1,0,0:0:0:0:
272,304,144042,1,0,0:0:0:0:
308,304,144109,1,8,0:0:0:0:
344,296,144176,1,0,0:0:0:0:
372,276,144243,1,0,0:0:0:0:
388,244,144310,1,0,0:0:0:0:
392,208,144377,2,0,L|376:140,3,50,8|0|0|0,0:0|0:0|0:0|0:0,0:0:0:0:
352,84,144645,5,12,0:0:0:0:
364,52,144711,1,0,0:0:0:0:
396,36,144778,1,0,0:0:0:0:
432,32,144845,1,0,0:0:0:0:
468,40,144912,1,8,0:0:0:0:
496,60,144979,1,0,0:0:0:0:
508,92,145046,1,0,0:0:0:0:
508,128,145113,1,0,0:0:0:0:
500,164,145180,6,0,L|476:232,1,50,2|0,0:0|0:0,0:0:0:0:
364,52,145314,2,0,L|388:-16,1,50
476,180,145448,6,0,L|452:248,1,50,2|0,0:0|0:0,0:0:0:0:
340,68,145582,2,0,L|364:0,1,50
392,144,145716,5,12,0:0:0:0:
356,152,145783,1,0,0:0:0:0:
320,148,145850,1,0,0:0:0:0:
288,136,145917,1,0,0:0:0:0:
260,116,145984,1,0,0:0:0:0:
240,88,146051,1,0,0:0:0:0:
208,72,146118,1,0,0:0:0:0:
172,68,146185,1,0,0:0:0:0:
140,84,146252,6,0,L|128:144,1,50,8|0,0:0|0:0,0:0:0:0:
40,160,146386,2,0,L|49:209,1,50
156,236,146520,6,0,L|144:296,1,50,2|0,0:0|0:0,0:0:0:0:
56,308,146653,2,0,L|65:357,1,50
160,384,146787,5,12,0:0:0:0:
160,384,147457,5,0,0:0:0:0:
288,372,147591,6,0,L|372:364,1,75,8|0,0:0|2:0,0:0:0:0:
268,356,147859,6,0,L|400:344,1,119.999996337891,4|0,0:0|0:0,0:0:0:0:
512,256,148127,1,8,0:0:0:0:
328,260,148261,1,0,0:0:0:0:
512,256,148395,2,0,P|516:196|508:124,1,119.999996337891,2|0,0:0|0:0,0:0:0:0:
329,140,148662,2,0,P|323:199|327:259,1,119.999996337891,8|0,0:0|0:0,0:0:0:0:
400,92,148930,5,4,0:0:0:0:
248,152,149064,2,0,P|180:152|104:92,1,119.999996337891,0|8,0:0|0:0,0:0:0:0:
32,12,149332,1,0,0:0:0:0:
84,256,149466,1,2,0:0:0:0:
172,48,149600,1,0,0:0:0:0:
0,88,149734,2,0,L|20:228,1,119.999996337891,8|0,0:0|0:0,0:0:0:0:
140,320,150002,6,0,P|212:320|260:284,1,119.999996337891,4|0,0:0|0:0,0:0:0:0:
172,200,150270,1,8,0:0:0:0:
344,328,150403,2,0,L|352:180,1,119.999996337891,0|2,0:0|0:0,0:0:0:0:
356,80,150671,1,0,0:0:0:0:
468,160,150805,1,8,0:0:0:0:
248,152,150939,1,0,0:0:0:0:
248,152,151006,1,2,0:0:0:0:
248,152,151073,6,0,L|256:4,1,119.999996337891,4|0,0:0|0:0,0:0:0:0:
172,200,151341,1,8,0:0:0:0:
316,208,151475,1,0,0:0:0:0:
136,120,151609,1,10,0:0:0:0:
164,316,151743,5,0,0:0:0:0:
248,152,151877,1,8,0:0:0:0:
68,196,152011,1,0,0:0:0:0:
272,280,152145,6,0,P|332:288|400:244,1,119.999996337891,4|0,0:0|0:0,0:0:0:0:
480,64,152412,2,0,P|426:38|368:46,1,119.999996337891,8|0,0:0|0:0,0:0:0:0:
248,152,152680,1,2,0:0:0:0:
408,152,152814,1,0,0:0:0:0:
176,64,152948,2,0,P|229:38|287:45,1,119.999996337891,8|0,0:0|0:0,0:0:0:0:
320,208,153216,6,0,L|308:332,2,119.999996337891,4|0|8,0:0|0:0|0:0,0:0:0:0:
336,60,153618,1,0,0:0:0:0:
168,196,153752,2,0,P|109:203|56:177,1,119.999996337891,6|0,0:0|0:0,0:0:0:0:
0,76,154020,1,8,0:0:0:0:
248,152,154153,1,0,0:0:0:0:
248,152,154220,1,2,0:0:0:0:
248,152,154287,6,0,L|236:276,1,119.999996337891,4|0,0:0|0:0,0:0:0:0:
224,384,154555,1,8,0:0:0:0:
348,320,154689,1,0,0:0:0:0:
152,288,154823,2,0,L|20:264,1,119.999996337891,2|0,0:0|0:0,0:0:0:0:
320,208,155091,2,0,L|452:232,1,119.999996337891,8|0,0:0|0:0,0:0:0:0:
444,360,155359,5,4,0:0:0:0:
248,272,155493,1,0,0:0:0:0:
232,252,155560,1,2,0:0:0:0:
224,228,155627,2,0,P|224:160|272:100,1,119.999996337891,8|0,0:0|0:0,0:0:0:0:
368,84,155895,5,10,0:0:0:0:
476,252,156028,1,0,0:0:0:0:
320,208,156162,5,8,0:0:0:0:
512,120,156296,1,0,0:0:0:0:
400,284,156430,6,0,L|388:148,2,119.999996337891,4|0|8,0:0|0:0|0:0,0:0:0:0:
412,132,156832,1,0,0:0:0:0:
372,312,156966,1,2,0:0:0:0:
504,208,157100,1,0,0:0:0:0:
224,228,157234,6,0,L|236:364,2,119.999996337891,8|0|4,0:0|0:0|0:0,0:0:0:0:
212,380,157636,1,0,0:0:0:0:
252,200,157770,1,8,0:0:0:0:
108,296,157903,1,0,0:0:0:0:
116,180,158037,6,0,L|128:44,2,119.999996337891,2|0|8,0:0|0:0|0:0,0:0:0:0:
104,28,158439,1,0,0:0:0:0:
144,208,158573,1,4,0:0:0:0:
0,112,158707,1,0,0:0:0:0:
262,80,158841,6,0,L|250:216,2,119.999996337891,8|0|2,0:0|0:0|0:0,0:0:0:0:
274,232,159243,1,0,0:0:0:0:
234,52,159377,1,8,0:0:0:0:
378,148,159511,1,0,0:0:0:0:
176,248,159645,6,0,L|196:8,2,239.999992675781,4|8|2,0:0|0:0|0:0,0:0:0:0:
264,336,160314,1,0,0:0:0:0:
128,152,160448,2,0,P|60:140|-8:168,1,119.999996337891,8|0,0:0|0:0,0:0:0:0:
274,232,160716,6,0,P|331:247|389:234,1,119.999996337891,4|0,0:0|0:0,0:0:0:0:
460,104,160984,1,8,0:0:0:0:
444,304,161118,1,0,0:0:0:0:
378,148,161252,2,0,L|396:8,2,119.999996337891,2|0|8,0:0|0:0|0:0,0:0:0:0:
348,336,161653,1,0,0:0:0:0:
274,232,161787,6,0,P|216:218|158:233,1,119.999996337891,4|0,0:0|0:0,0:0:0:0:
88,384,162055,1,8,0:0:0:0:
56,216,162189,1,0,0:0:0:0:
184,328,162323,1,2,0:0:0:0:
20,316,162457,1,0,0:0:0:0:
158,232,162591,2,0,P|168:164|148:88,1,119.999996337891,8|0,0:0|0:0,0:0:0:0:
108,4,162859,5,4,0:0:0:0:
258,154,162993,1,0,0:0:0:0:
258,154,163060,1,2,0:0:0:0:
258,154,163127,2,0,L|398:146,1,119.999996337891,8|0,0:0|0:0,0:0:0:0:
512,140,163395,1,2,0:0:0:0:
344,40,163528,1,0,0:0:0:0:
352,248,163662,2,0,L|492:240,1,119.999996337891,8|0,0:0|0:0,0:0:0:0:
408,140,163930,6,0,P|364:140|316:156,1,87.5,4|0,0:0|0:0,0:0:0:0:
316,160,164198,2,0,P|272:160|224:140,1,87.5,2|0,0:0|0:0,0:0:0:0:
224,140,164466,2,0,P|180:140|136:156,1,83.3333333333333,2|0,0:0|0:0,0:0:0:0:
140,168,164734,6,0,L|144:192,1,25,2|0,0:0|0:0,0:0:0:0:
160,268,164868,2,0,L|164:292,1,25,2|0,0:0|0:0,0:0:0:0:
200,364,165002,6,0,P|312:368|380:256,1,239.999992675781,4|8,0:0|0:0,0:0:0:0:
408,140,165403,1,0,0:0:0:0:
260,260,165537,2,0,P|148:264|76:152,1,239.999992675781,4|8,0:0|0:0,0:0:0:0:
72,36,165939,1,0,0:0:0:0:
277,20,166073,6,0,L|259:264,1,239.999992675781,4|8,0:0|0:0,0:0:0:0:
425,379,166475,2,0,L|407:135,1,239.999992675781,6|2,2:0|0:0,0:0:0:0:
483,43,166877,1,8,3:0:0:0:
483,43,166944,1,2,3:0:0:0:
483,43,167011,1,2,3:0:0:0:
483,43,167078,1,2,3:0:0:0:
483,43,167145,6,0,P|392:83|273:12,1,239.999992675781,4|8,0:0|0:0,0:0:0:0:
36,144,167546,2,0,P|133:80|242:120,1,239.999992675781,2|2,2:0|0:0,0:0:0:0:
176,296,167948,2,0,P|148:236|144:160,1,119.999996337891,8|0,0:0|0:0,0:0:0:0:
371,183,168216,6,0,P|360:241|335:299,1,119.999996337891,12|0,0:0|0:0,0:0:0:0:
136,384,168484,2,0,P|75:356|24:300,1,119.999996337891,8|0,0:0|0:0,0:0:0:0:
475,319,168752,2,0,P|429:356|372:384,1,119.999996337891,12|0,0:0|0:0,0:0:0:0:
256,224,169020,1,8,0:0:0:0:
480,280,169153,1,0,0:0:0:0:
296,348,169287,6,0,L|324:96,1,239.999992675781,4|8,0:0|0:0,0:0:0:0:
149,57,169689,2,0,L|177:309,1,239.999992675781,2|0,2:0|0:0,0:0:0:0:
352,140,170091,1,8,0:0:0:0:
76,196,170225,1,0,0:0:0:0:
337,270,170359,6,0,P|414:256|454:216,1,119.999996337891,4|0,0:0|0:0,0:0:0:0:
488,60,170627,1,8,0:0:0:0:
352,140,170761,2,0,P|224:132|140:36,1,239.999992675781,2|2,2:0|0:0,0:0:0:0:
364,32,171162,1,8,3:0:0:0:
364,32,171229,1,2,3:0:0:0:
364,32,171296,1,2,3:0:0:0:
364,32,171363,1,2,3:0:0:0:
364,32,171430,6,0,L|336:284,2,239.999992675781,4|8|2,0:0|0:0|0:0,0:0:0:0:
440,204,172100,1,0,0:0:0:0:
264,120,172234,2,0,P|148:128|116:164,1,119.999996337891,8|0,0:0|0:0,0:0:0:0:
128,252,172502,6,0,L|100:0,1,239.999992675781,4|8,0:0|0:0,0:0:0:0:
12,176,172903,1,0,0:0:0:0:
264,120,173037,2,0,L|252:0,1,119.999996337891,10|0,0:0|0:0,0:0:0:0:
128,252,173305,2,0,L|140:372,1,119.999996337891,8|0,0:0|0:0,0:0:0:0:
288,248,173573,5,4,0:0:0:0:
52,320,173707,1,0,0:0:0:0:
276,376,173841,2,0,P|344:368|404:324,1,119.999996337891,8|0,0:0|0:0,0:0:0:0:
512,196,174109,2,0,P|459:168|396:168,1,119.999996337891,2|0,0:0|0:0,0:0:0:0:
432,276,174377,1,8,0:0:0:0:
472,84,174511,1,0,0:0:0:0:
281,128,174645,6,0,L|289:268,1,119.999996337891,4|0,0:0|0:0,0:0:0:0:
52,320,174912,2,0,L|36:72,1,239.999992675781,8|2,0:0|0:0,0:0:0:0:
276,56,175314,1,0,0:0:0:0:
156,264,175448,2,0,L|149:144,1,119.999996337891,8|0,0:0|0:0,0:0:0:0:
252,376,175716,5,4,0:0:0:0:
316,276,175850,2,0,P|228:260|136:392,1,239.999992675781,2|0,2:0|0:0,0:0:0:0:
416,320,176252,2,0,L|376:64,1,239.999992675781,2|8,0:0|0:0,0:0:0:0:
192,24,176653,1,0,0:0:0:0:
356,72,176787,6,0,P|415:65|465:33,1,119.999996337891,4|0,0:0|0:0,0:0:0:0:
192,24,177055,2,0,P|132:30|82:62,1,119.999996337891,8|0,0:0|0:0,0:0:0:0:
200,276,177323,2,0,L|176:136,1,119.999996337891,2|0,0:0|0:0,0:0:0:0:
356,72,177591,2,0,L|332:212,1,119.999996337891,12|0,0:0|0:0,0:0:0:0:
312,308,177859,5,4,0:0:0:0:
96,268,177993,1,0,0:0:0:0:
316,272,178127,5,8,0:0:0:0:
100,236,178261,1,0,0:0:0:0:
320,240,178395,5,2,0:0:0:0:
104,208,178528,2,0,L|120:72,2,119.999996337891,0|8|0,0:0|0:0|0:0,0:0:0:0:
212,256,178930,5,4,0:0:0:0:
428,216,179064,1,0,0:0:0:0:
208,220,179198,5,8,0:0:0:0:
424,184,179332,1,0,0:0:0:0:
204,188,179466,5,2,0:0:0:0:
420,156,179600,2,0,L|404:20,2,119.999996337891,0|8|0,0:0|0:0|0:0,0:0:0:0:
276,84,180002,6,0,P|216:68|156:80,1,119.999996337891,4|0,0:0|0:0,0:0:0:0:
48,256,180270,1,8,0:0:0:0:
48,84,180403,1,0,0:0:0:0:
160,248,180537,2,0,P|217:263|276:253,1,119.999996337891,6|0,0:0|0:0,0:0:0:0:
428,140,180805,1,8,0:0:0:0:
372,320,180939,1,0,0:0:0:0:
372,320,181006,1,2,0:0:0:0:
372,320,181073,6,0,L|368:188,1,119.999996337891,4|0,0:0|0:0,0:0:0:0:
356,52,181341,1,8,0:0:0:0:
288,168,181475,1,0,0:0:0:0:
428,140,181609,1,14,0:0:0:0:
224,40,181743,1,0,0:0:0:0:
240,272,181877,1,8,0:0:0:0:
240,272,182145,5,6,0:0:0:0:
240,160,190314,5,12,0:0:0:0:
72,48,190448,1,8,0:0:0:0:
156,100,190582,1,2,0:0:0:0:
156,100,190649,1,2,0:0:0:0:
156,100,190716,6,0,L|148:164,1,50,4|0,0:0|0:0,0:0:0:0:
44,184,190850,1,0,0:0:0:0:
44,184,190917,1,0,0:0:0:0:
44,184,190984,2,0,L|52:248,1,50,8|0,0:0|0:0,0:0:0:0:
164,276,191118,1,0,0:0:0:0:
164,276,191185,1,0,0:0:0:0:
164,276,191252,6,0,L|284:264,1,100,2|0,0:0|0:0,0:0:0:0:
372,292,191453,1,0,0:0:0:0:
372,292,191520,2,0,P|424:272|468:224,1,100,2|0,0:0|0:0,0:0:0:0:
480,156,191720,1,0,0:0:0:0:
480,156,191787,6,0,L|468:44,1,100,4|0,0:0|0:0,0:0:0:0:
388,12,191988,1,0,0:0:0:0:
388,12,192055,2,0,L|376:84,1,50,8|0,0:0|0:0,0:0:0:0:
316,160,192189,2,0,L|304:88,1,50
268,28,192323,6,0,L|156:36,1,100,2|0,0:0|0:0,0:0:0:0:
140,64,192524,1,0,0:0:0:0:
140,64,192591,2,0,L|72:52,1,50,8|0,0:0|0:0,0:0:0:0:
32,128,192725,1,0,0:0:0:0:
32,128,192792,1,0,0:0:0:0:
32,128,192859,6,0,P|36:172|32:200,1,50,12|0,0:0|0:0,0:0:0:0:
148,296,192993,1,0,0:0:0:0:
148,296,193060,1,0,0:0:0:0:
147,296,193127,2,0,P|151:271|151:246,1,50,8|0,0:0|0:0,0:0:0:0:
216,157,193261,1,0,0:0:0:0:
216,157,193328,1,0,0:0:0:0:
216,157,193395,6,0,L|320:160,1,100,2|0,0:0|0:0,0:0:0:0:
360,152,193595,1,0,0:0:0:0:
360,152,193662,2,0,L|356:96,1,50,8|0,0:0|0:0,0:0:0:0:
476,88,193796,2,0,L|480:32,1,50
355,24,193930,6,0,L|255:36,1,100,4|0,0:0|0:0,0:0:0:0:
172,80,194131,1,0,0:0:0:0:
156,84,194198,2,0,L|44:60,1,100,8|0,0:0|0:0,0:0:0:0:
32,148,194399,1,0,0:0:0:0:
40,168,194466,6,0,L|32:296,1,100,2|0,0:0|0:0,0:0:0:0:
52,324,194667,1,2,0:0:0:0:
52,324,194734,1,8,0:0:0:0:
52,324,194801,1,2,0:0:0:0:
52,324,194868,1,2,0:0:0:0:
52,324,194935,1,2,0:0:0:0:
52,324,195002,6,0,P|124:316|176:328,1,100,12|0,0:0|0:0,0:0:0:0:
332,372,195270,2,0,P|282:376|233:368,1,100,12|0,0:0|0:0,0:0:0:0:
152,236,195537,2,0,P|136:216|116:168,2,50,8|2|0,0:0|2:0|0:0,0:0:0:0:
284,292,195805,1,8,0:1:0:0:
216,164,195939,1,0,0:0:0:0:
220,144,196006,1,2,2:0:0:0:
228,124,196073,6,0,P|260:76|324:44,1,100,12|0,0:0|0:0,0:0:0:0:
416,104,196341,1,8,0:0:0:0:
152,64,196475,1,0,0:0:0:0:
312,144,196609,2,0,P|344:204|340:268,1,100,10|0,0:0|0:0,0:0:0:0:
332,372,196877,1,8,0:0:0:0:
232,228,197011,1,0,0:0:0:0:
416,104,197145,6,0,P|464:104|504:124,1,75,4|0,0:0|0:0,0:0:0:0:
500,144,197412,6,0,L|492:224,3,50,8|0|0|0,0:0|0:0|0:0|0:0,0:0:0:0:
432,292,197680,5,2,0:0:0:0:
436,296,197747,1,0,0:0:0:0:
440,300,197814,1,8,0:0:0:0:
444,304,197881,1,0,0:0:0:0:
448,308,197948,6,0,L|440:236,1,50,2|0,0:0|0:0,0:0:0:0:
280,160,198082,2,0,L|288:232,1,50
356,360,198216,6,0,L|364:288,1,50,12|0,0:0|0:0,0:0:0:0:
372,112,198350,2,0,L|364:184,1,50,2|0,0:0|0:0,0:0:0:0:
256,292,198484,6,0,L|108:284,1,137.5,4|0,0:0|0:0,0:0:0:0:
84,312,199287,6,0,L|96:104,1,179.999994506836,4|0,0:0|2:0,0:0:0:0:
100,56,199555,1,8,0:0:0:0:
280,160,199689,1,0,0:0:0:0:
176,220,199823,2,0,L|184:92,1,119.999996337891,2|0,0:0|0:0,0:0:0:0:
384,120,200091,2,0,L|376:248,1,119.999996337891,8|0,0:0|0:0,0:0:0:0:
256,356,200359,6,0,L|264:228,1,119.999996337891,4|0,0:0|0:0,0:0:0:0:
464,256,200627,2,0,L|456:384,1,119.999996337891,8|0,0:0|0:0,0:0:0:0:
256,356,200895,2,0,P|180:364|116:328,1,119.999996337891,2|0,0:0|0:0,0:0:0:0:
0,236,201162,2,0,P|56:212|116:221,1,119.999996337891,8|0,0:0|0:0,0:0:0:0:
68,328,201430,5,4,0:0:0:0:
44,116,201564,1,0,0:0:0:0:
206,229,201698,2,0,P|286:221|334:181,1,119.999996337891,8|0,0:0|0:0,0:0:0:0:
416,56,201966,1,2,0:0:0:0:
232,104,202100,1,0,0:0:0:0:
456,128,202234,1,8,0:0:0:0:
312,80,202368,1,0,0:0:0:0:
312,80,202435,1,2,0:0:0:0:
312,80,202502,6,0,L|320:232,1,119.999996337891,4|0,0:0|0:0,0:0:0:0:
344,356,202770,1,8,0:0:0:0:
432,236,202903,1,0,0:0:0:0:
272,312,203037,2,0,P|188:316|120:284,1,119.999996337891,10|0,0:0|0:0,0:0:0:0:
0,200,203305,2,0,P|57:185|117:193,1,119.999996337891,8|0,0:0|0:0,0:0:0:0:
284,220,203573,6,0,P|342:210|394:180,1,119.999996337891,4|0,0:0|0:0,0:0:0:0:
180,96,203841,1,8,0:0:0:0:
408,100,203975,1,0,0:0:0:0:
208,184,204109,2,0,P|150:174|98:144,1,119.999996337891,2|0,0:0|0:0,0:0:0:0:
116,44,204377,1,8,0:0:0:0:
284,220,204511,1,0,0:0:0:0:
296,24,204645,6,0,L|288:156,2,119.999996337891,4|0|8,0:0|0:0|0:0,0:0:0:0:
180,96,205046,1,0,0:0:0:0:
384,184,205180,2,0,P|448:168|512:112,1,119.999996337891,2|0,0:0|0:0,0:0:0:0:
208,184,205448,1,8,0:0:0:0:
272,312,205582,1,0,0:0:0:0:
272,312,205649,1,2,0:0:0:0:
272,312,205716,6,0,P|208:296|144:240,1,119.999996337891,4|0,0:0|0:0,0:0:0:0:
96,160,205984,1,8,0:0:0:0:
336,372,206118,2,0,P|400:356|464:300,1,119.999996337891,0|2,0:0|0:0,0:0:0:0:
508,216,206386,1,0,0:0:0:0:
316,128,206520,2,0,P|300:188|336:264,1,119.999996337891,8|0,0:0|0:0,0:0:0:0:
416,76,206787,5,4,0:0:0:0:
220,96,206921,1,0,0:0:0:0:
196,96,206988,1,2,0:0:0:0:
172,96,207055,2,0,L|48:80,1,119.999996337891,8|0,0:0|0:0,0:0:0:0:
0,192,207323,1,10,0:0:0:0:
208,184,207457,1,0,0:0:0:0:
52,80,207591,1,8,0:0:0:0:
112,264,207725,1,0,0:0:0:0:
172,96,207859,6,0,P|232:80|304:104,1,119.999996337891,4|0,0:0|0:0,0:0:0:0:
328,208,208127,1,8,0:0:0:0:
328,8,208261,1,0,0:0:0:0:
480,96,208395,2,0,P|420:80|348:104,1,119.999996337891,2|0,0:0|0:0,0:0:0:0:
172,284,208662,6,0,P|232:300|304:276,1,119.999996337891,8|0,0:0|0:0,0:0:0:0:
328,172,208930,1,4,0:0:0:0:
328,372,209064,1,0,0:0:0:0:
480,284,209198,2,0,P|420:300|348:276,1,119.999996337891,8|0,0:0|0:0,0:0:0:0:
328,172,209466,6,0,P|268:156|196:180,1,119.999996337891,2|0,0:0|0:0,0:0:0:0:
80,264,209734,1,8,0:0:0:0:
268,264,209868,1,0,0:0:0:0:
20,172,210002,2,0,P|80:156|152:180,1,119.999996337891,4|0,0:0|0:0,0:0:0:0:
328,356,210270,6,0,P|268:372|196:348,1,119.999996337891,8|0,0:0|0:0,0:0:0:0:
80,264,210537,1,2,0:0:0:0:
268,264,210671,1,0,0:0:0:0:
20,356,210805,2,0,P|80:372|152:348,1,119.999996337891,8|0,0:0|0:0,0:0:0:0:
272,72,211073,6,0,P|359:45|480:136,2,239.999992675781,4|8|2,0:0|0:0|0:0,0:0:0:0:
128,156,211743,1,0,0:0:0:0:
344,264,211877,2,0,P|360:192|356:128,1,119.999996337891,8|0,0:0|0:0,0:0:0:0:
112,244,212145,6,0,P|112:303|126:361,1,119.999996337891,4|0,0:0|0:0,0:0:0:0:
348,380,212412,2,0,P|412:348|456:296,1,119.999996337891,8|0,0:0|0:0,0:0:0:0:
212,224,212680,2,0,P|212:283|226:341,1,119.999996337891,2|0,0:0|0:0,0:0:0:0:
428,176,212948,1,8,0:0:0:0:
292,196,213082,1,0,0:0:0:0:
292,196,213149,1,2,0:0:0:0:
292,196,213216,6,0,P|284:128|292:72,1,119.999996337891,4|0,0:0|0:0,0:0:0:0:
428,176,213484,2,0,P|434:235|426:294,1,119.999996337891,8|0,0:0|0:0,0:0:0:0:
226,342,213752,2,0,L|90:330,1,119.999996337891,6|0,0:0|0:0,0:0:0:0:
8,180,214020,2,0,L|144:168,1,119.999996337891,8|0,0:0|0:0,0:0:0:0:
292,196,214287,5,4,0:0:0:0:
152,76,214421,1,0,0:0:0:0:
212,224,214555,1,8,0:0:0:0:
220,24,214689,1,0,0:0:0:0:
220,24,214756,1,0,0:0:0:0:
220,24,214823,2,0,L|344:28,1,119.999996337891,2|0,0:0|0:0,0:0:0:0:
512,144,215091,2,0,L|388:140,1,119.999996337891,8|0,0:0|0:0,0:0:0:0:
92,224,215359,6,0,P|88:280|96:320,1,87.5,4|0,0:0|0:0,0:0:0:0:
104,320,215627,2,0,P|156:328|196:312,1,87.5,2|0,0:0|0:0,0:0:0:0:
196,304,215895,2,0,P|200:248|192:208,1,87.5,6|0,0:0|0:0,0:0:0:0:
188,204,216162,2,0,P|136:196|100:216,1,87.5,2|0,0:0|0:0,0:0:0:0:
92,224,216430,6,0,L|88:72,1,119.999996337891,4|0,0:0|0:0,0:0:0:0:
344,104,216698,2,0,L|348:256,1,119.999996337891,8|0,0:0|0:0,0:0:0:0:
348,376,216966,1,2,0:0:0:0:
460,212,217100,1,0,0:0:0:0:
313,301,217234,2,0,P|249:313|181:297,1,119.999996337891,8|0,0:0|0:0,0:0:0:0:
92,224,217502,5,4,0:0:0:0:
56,356,217636,1,0,0:0:0:0:
0,176,217770,2,0,P|-8:108|12:44,1,119.999996337891,8|0,0:0|0:0,0:0:0:0:
220,76,218037,2,0,P|229:134|216:193,1,119.999996337891,2|0,0:0|0:0,0:0:0:0:
96,28,218305,1,8,0:0:0:0:
320,80,218439,1,0,0:0:0:0:
320,80,218506,1,2,0:0:0:0:
320,80,218573,6,0,L|456:64,1,119.999996337891,4|0,0:0|0:0,0:0:0:0:
335,179,218841,2,0,L|215:193,1,119.999996337891,8|0,0:0|0:0,0:0:0:0:
168,304,219109,1,2,0:0:0:0:
168,304,219243,1,0,0:0:0:0:
440,272,219377,2,0,L|420:136,1,119.999996337891,8|0,0:0|0:0,0:0:0:0:
150,185,219645,6,0,L|167:303,1,119.999996337891,4|0,0:0|0:0,0:0:0:0:
335,179,219912,1,12,0:0:0:0:
80,224,220046,1,0,0:0:0:0:
244,204,220180,2,0,L|227:86,1,119.999996337891,8|0,0:0|0:0,0:0:0:0:
0,208,220448,2,0,L|17:326,1,119.999996337891,8|0,0:0|0:0,0:0:0:0:
17,326,220649,1,2,0:0:0:0:
17,326,220716,5,4,0:0:0:0:
150,185,220850,1,0,0:0:0:0:
256,284,220984,2,0,P|320:292|380:272,1,119.999996337891,8|0,0:0|0:0,0:0:0:0:
400,108,221252,2,0,P|342:91|283:100,1,119.999996337891,2|0,0:0|0:0,0:0:0:0:
150,185,221520,1,8,0:0:0:0:
28,128,221653,1,0,0:0:0:0:
28,128,221720,1,2,0:0:0:0:
28,128,221787,6,0,L|32:-12,1,119.999996337891,4|0,0:0|0:0,0:0:0:0:
68,228,222055,1,8,0:0:0:0:
0,24,222189,1,0,0:0:0:0:
150,185,222323,2,0,L|292:180,1,119.999996337891,4|0,0:0|0:0,0:0:0:0:
412,184,222591,1,8,0:0:0:0:
324,64,222725,1,0,0:0:0:0:
336,232,222859,6,0,P|340:300|324:372,1,119.999996337891,4|0,0:0|0:0,0:0:0:0:
150,185,223127,2,0,P|140:125|145:66,1,119.999996337891,8|0,0:0|0:0,0:0:0:0:
416,65,223395,2,0,P|420:124|411:183,1,119.999996337891,2|0,0:0|0:0,0:0:0:0:
256,208,223662,1,8,0:0:0:0:
440,304,223796,1,0,0:0:0:0:
330,350,223930,6,0,L|198:342,1,119.999996337891,4|0,0:0|0:0,0:0:0:0:
256,208,224198,1,8,0:0:0:0:
92,276,224332,1,0,0:0:0:0:
92,276,224399,1,2,3:0:0:0:
92,276,224466,1,2,0:0:0:0:
192,148,224600,1,0,0:0:0:0:
0,124,224734,1,8,0:0:0:0:
196,36,224868,1,0,0:0:0:0:
76,48,225002,6,0,L|84:188,1,119.999996337891,4|0,0:0|0:0,0:0:0:0:
92,276,225270,1,8,0:0:0:0:
0,124,225403,1,0,0:0:0:0:
160,224,225537,2,0,P|236:212|280:164,1,119.999996337891,2|0,0:0|0:0,0:0:0:0:
436,44,225805,6,0,L|428:184,1,119.999996337891,8|0,0:0|0:0,0:0:0:0:
420,272,226073,1,4,0:0:0:0:
512,120,226207,1,0,0:0:0:0:
352,220,226341,2,0,P|276:208|232:160,1,119.999996337891,8|0,0:0|0:0,0:0:0:0:
76,48,226609,6,0,L|84:188,1,119.999996337891,2|0,0:0|0:0,0:0:0:0:
92,276,226877,1,8,0:0:0:0:
0,124,227011,1,0,0:0:0:0:
160,224,227145,2,0,P|236:212|280:164,1,119.999996337891,4|0,0:0|0:0,0:0:0:0:
436,44,227412,6,0,L|428:184,1,119.999996337891,8|0,0:0|0:0,0:0:0:0:
420,272,227680,1,2,0:0:0:0:
512,120,227814,1,0,0:0:0:0:
352,220,227948,2,0,P|276:208|232:160,1,119.999996337891,8|0,0:0|0:0,0:0:0:0:
244,61,228216,6,0,L|244:197,1,119.999996337891,4|0,0:0|0:0,0:0:0:0:
244,328,228484,1,8,0:0:0:0:
324,136,228618,1,0,0:0:0:0:
160,224,228752,1,2,0:0:0:0:
324,300,228886,1,0,0:0:0:0:
324,300,228953,1,2,3:0:0:0:
324,300,229020,2,0,P|388:304|472:260,1,119.999996337891,8|0,0:0|0:0,0:0:0:0:
160,224,229287,6,0,L|168:368,1,119.999996337891,4|0,0:0|0:0,0:0:0:0:
324,136,229555,2,0,L|316:-8,1,119.999996337891,8|0,0:0|0:0,0:0:0:0:
192,104,229823,1,2,0:0:0:0:
412,80,229957,1,0,0:0:0:0:
237,208,230091,2,0,L|245:352,1,119.999996337891,8|0,0:0|0:0,0:0:0:0:
324,136,230359,5,4,0:0:0:0:
108,160,230493,1,0,0:0:0:0:
320,224,230627,2,0,P|384:196|412:132,1,119.999996337891,8|0,0:0|0:0,0:0:0:0:
296,32,230895,1,2,0:0:0:0:
472,216,231028,1,0,0:0:0:0:
324,136,231162,1,8,0:0:0:0:
284,304,231296,1,0,0:0:0:0:
169,266,231430,6,0,P|146:211|147:152,1,119.999996337891,4|0,0:0|0:0,0:0:0:0:
340,164,231698,2,0,P|364:104|360:40,1,119.999996337891,8|0,0:0|0:0,0:0:0:0:
55,132,231966,2,0,P|54:191|77:246,1,119.999996337891,2|0,0:0|0:0,0:0:0:0:
240,140,232234,2,0,P|264:80|260:16,1,119.999996337891,8|0,0:0|0:0,0:0:0:0:
148,152,232502,6,0,P|216:228|304:216,1,187.5,2|0,0:0|0:0,0:0:0:0:
302,200,233573,6,0,P|354:192|422:200,1,100,4|0,0:0|0:0,0:0:0:0:
210,292,233841,2,0,P|160:295|110:287,1,100,8|0,0:0|0:0,0:0:0:0:
28,164,234109,1,2,0:0:0:0:
206,100,234243,1,0,0:0:0:0:
206,100,234310,1,2,0:0:0:0:
206,100,234377,2,0,L|210:220,1,100,8|0,0:0|0:0,0:0:0:0:
406,236,234645,5,4,0:0:0:0:
316,300,234778,1,0,0:0:0:0:
316,300,234845,1,2,0:0:0:0:
316,300,234912,2,0,L|312:180,1,100,8|0,0:0|0:0,0:0:0:0:
312,72,235180,1,2,0:0:0:0:
443,139,235314,1,0,0:0:0:0:
239,191,235448,1,8,0:0:0:0:
492,296,235582,1,0,0:0:0:0:
400,336,235716,6,0,L|408:216,1,100,4|0,0:0|0:0,0:0:0:0:
246,291,235984,2,0,L|240:192,1,100,8|0,0:0|0:0,0:0:0:0:
344,144,236252,2,0,L|443:140,1,100,2|0,0:0|0:0,0:0:0:0:
300,48,236520,2,0,L|196:44,1,100,8|0,0:0|0:0,0:0:0:0:
64,40,236787,5,12,0:0:0:0:
60,236,236921,1,0,0:0:0:0:
243,167,237055,1,8,0:0:0:0:
60,64,237189,5,0,0:0:0:0:
56,260,237323,1,12,0:0:0:0:
239,191,237457,1,0,0:0:0:0:
80,144,237591,5,8,0:0:0:0:
180,312,237725,1,0,0:0:0:0:
395,191,237859,6,0,P|451:163|491:127,1,100,4|0,0:0|0:0,0:0:0:0:
407,47,238127,1,8,0:0:0:0:
511,211,238261,1,0,0:0:0:0:
327,115,238395,2,0,P|276:139|231:179,1,100,2|0,0:0|0:0,0:0:0:0:
314,255,238662,1,8,0:0:0:0:
203,95,238796,1,0,0:0:0:0:
144,212,238930,6,0,P|140:260|164:324,1,100,4|0,0:0|0:0,0:0:0:0:
356,288,239198,2,0,P|370:240|366:190,1,100,8|0,0:0|0:0,0:0:0:0:
300,92,239466,1,2,0:0:0:0:
468,196,239600,1,0,0:0:0:0:
468,196,239734,1,8,0:0:0:0:
264,192,239868,1,0,0:0:0:0:
412,120,240002,6,0,L|509:99,1,100,4|0,0:0|0:0,0:0:0:0:
300,92,240270,2,0,L|202:112,1,100,8|0,0:0|0:0,0:0:0:0:
88,140,240537,1,2,0:0:0:0:
264,192,240671,1,0,0:0:0:0:
148,220,240805,2,0,P|144:280|160:340,1,100,8|0,0:0|0:0,0:0:0:0:
368,312,241073,6,0,P|372:252|356:192,1,100,4|0,0:0|0:0,0:0:0:0:
300,92,241341,1,8,0:0:0:0:
364,213,241475,1,0,0:0:0:0:
380,24,241609,1,10,0:0:0:0:
264,192,241743,1,0,0:0:0:0:
412,120,241877,1,8,0:0:0:0:
232,24,242011,1,0,0:0:0:0:
132,121,242145,6,0,L|152:249,1,100,4|0,0:0|0:0,0:0:0:0:
168,324,242412,1,8,0:0:0:0:
168,324,242546,1,0,0:0:0:0:
412,120,242680,6,0,L|392:248,1,100,2|0,0:0|0:0,0:0:0:0:
380,324,242948,1,8,0:0:0:0:
380,324,243082,1,0,0:0:0:0:
152,44,243216,6,0,L|172:172,1,100,4|0,0:0|0:0,0:0:0:0:
188,247,243484,1,8,0:0:0:0:
188,247,243618,1,0,0:0:0:0:
388,28,243752,6,0,L|368:156,1,100,2|0,0:0|0:0,0:0:0:0:
356,232,244020,1,8,0:0:0:0:
356,232,244153,1,0,0:0:0:0:
152,44,244287,6,0,L|268:52,1,100,4|0,0:0|0:0,0:0:0:0:
276,164,244555,1,8,0:0:0:0:
276,164,244689,1,0,0:0:0:0:
152,160,244823,6,0,L|36:152,1,100,2|0,0:0|0:0,0:0:0:0:
28,40,245091,1,8,0:0:0:0:
28,40,245225,1,0,0:0:0:0:
279,64,245359,6,0,L|275:188,1,100,4|0,0:0|0:0,0:0:0:0:
276,324,245627,1,8,0:0:0:0:
412,236,245761,1,0,0:0:0:0:
304,64,245895,6,0,L|300:188,1,100,6|0,0:0|0:0,0:0:0:0:
297,320,246162,1,8,0:0:0:0:
159,215,246296,1,8,0:0:0:0:
488,188,246430,6,0,P|496:260|480:308,1,100,4|0,0:0|0:0,0:0:0:0:
158,313,246698,2,0,P|150:264|159:216,1,100,8|0,0:0|0:0,0:0:0:0:
336,216,246966,2,0,P|344:288|328:336,1,100,2|0,0:0|0:0,0:0:0:0:
24,252,247234,2,0,P|16:203|25:155,1,100,8|0,0:0|0:0,0:0:0:0:
235,59,247502,6,0,L|343:63,1,100,4|0,0:0|0:0,0:0:0:0:
132,108,247770,2,0,L|24:104,1,100,8|0,0:0|0:0,0:0:0:0:
223,256,248037,2,0,L|235:140,1,100,2|0,0:0|0:0,0:0:0:0:
136,192,248305,1,8,0:0:0:0:
316,212,248439,1,0,0:0:0:0:
432,128,248573,6,0,L|420:12,1,100,4|0,0:0|0:0,0:0:0:0:
316,212,248841,2,0,L|328:96,1,100,8|0,0:0|0:0,0:0:0:0:
223,256,249109,1,2,0:0:0:0:
112,212,249243,1,0,0:0:0:0:
112,212,249310,1,2,0:0:0:0:
112,212,249377,5,8,0:0:0:0:
116,384,249511,1,0,0:0:0:0:
72,308,249645,6,0,P|116:300|164:304,1,87.5,4|0,0:0|0:0,0:0:0:0:
169,309,249912,2,0,P|210:312|257:301,1,87.5,2|0,0:0|0:0,0:0:0:0:
267,299,250180,2,0,P|311:291|359:299,1,87.5,4|0,0:0|0:0,0:0:0:0:
364,303,250448,2,0,P|405:306|456:295,1,87.5,2|0,0:0|0:0,0:0:0:0:
461,286,250716,6,0,P|469:222|453:150,1,131.25000500679,4|0,0:0|0:0,0:0:0:0:
452,142,250984,2,0,P|444:78|460:2,1,131.25000500679,4|0,0:0|0:0,0:0:0:0:
424,20,251252,6,0,L|372:32,3,37.5000014305115,12|0|0|0,0:0|0:0|0:0|0:0,0:0:0:0:
336,100,251520,2,0,L|284:112,1,37.5000014305115,8|0,0:0|0:0,0:0:0:0:
248,184,251653,2,0,L|196:196,1,37.5000014305115,2|0,0:0|0:0,0:0:0:0:
196,284,251787,6,0,P|296:272|352:204,1,175,12|0,0:0|2:0,0:0:0:0:
372,224,252055,2,0,P|358:124|284:68,1,175,8|0,0:0|2:0,0:0:0:0:
308,48,252323,2,0,P|207:59|148:128,1,175,12|0,0:0|2:0,0:0:0:0:
132,108,252591,2,0,P|126:208|188:268,1,175,8|0,0:0|2:0,0:0:0:0:
196,284,252859,6,0,P|296:272|356:184,1,209.999993591309,12|0,0:0|2:0,0:0:0:0:
372,224,253127,2,0,P|358:124|272:64,1,209.999993591309,8|0,0:0|2:0,0:0:0:0:
308,48,253395,2,0,P|207:59|148:148,1,209.999993591309,12|0,0:0|2:0,0:0:0:0:
132,108,253662,2,0,P|126:208|204:288,1,209.999993591309,8|0,0:0|2:0,0:0:0:0:
236,264,253930,5,12,3:0:0:0:
