osu file format v14

[General]
AudioFilename: Omoi - Snow Drive.mp3
AudioLeadIn: 0
PreviewTime: 11787
Countdown: 0
SampleSet: Normal
StackLeniency: 0.7
Mode: 0
LetterboxInBreaks: 0
WidescreenStoryboard: 1

[Editor]
Bookmarks: 11785,13930,28928,33214,41785,50357,54643,71785,76073,84643,88928,97502,106071,111428,120000,128571,132857,147857,156430,163930,165000,182143,190714,195000,199285,207858,215357,216428,225001,233571,242143,246429,249645,251785,253930
DistanceSpacing: 0.8
BeatDivisor: 4
GridSize: 4
TimelineZoom: 1.5

[Metadata]
Title:Snow Drive
TitleUnicode:スノウドライヴ
Artist:Omoi
ArtistUnicode:Omoi
Creator:Yales
Version:Extra
Source:
Tags:snowdrive alyssa sakurai hatsune miku vocaloid Synthesizer Rock
BeatmapID:790249
BeatmapSetID:323522

[Difficulty]
HPDrainRate:7.5
CircleSize:4
OverallDifficulty:8
ApproachRate:9
SliderMultiplier:1.7
SliderTickRate:1

[Events]
//Background and Video events
0,0,"BGsnow.jpg",0,0
//Break Periods
2,128773,131321
2,182345,189714
//Storyboard Layer 0 (Background)
//Storyboard Layer 1 (Fail)
//Storyboard Layer 2 (Pass)
//Storyboard Layer 3 (Foreground)
//Storyboard Sound Samples

[TimingPoints]
3216,267.857142857143,4,2,1,20,1,0
3216,-133.333333333333,4,2,1,20,0,0
10716,-100,4,2,1,50,0,0
11787,-100,4,1,1,70,0,1
11854,-100,4,1,1,70,0,0
20358,-100,4,1,1,70,0,1
20425,-100,4,1,1,70,0,0
28930,-100,4,2,1,50,0,0
32680,-100,4,3,1,40,0,0
33216,-100,4,2,1,40,0,0
41386,-100,4,3,1,50,0,0
41787,-100,4,2,1,40,0,0
49287,-100,4,2,1,50,0,0
50358,-100,4,1,1,60,0,1
50425,-100,4,1,1,60,0,0
53975,-200,4,2,1,50,0,0
54645,-100,4,1,1,60,0,0
60002,-100,4,1,1,70,0,0
60069,-100,4,1,1,60,0,0
62546,-100,4,3,1,60,0,0
62948,-100,4,2,1,70,0,0
63216,-100,4,1,1,60,0,0
71787,-100,4,1,1,50,0,0
76073,-100,4,1,1,60,0,1
76140,-100,4,1,1,60,0,0
84912,-100,4,3,1,40,0,0
85716,-100,4,3,1,50,0,0
86787,-100,4,3,1,60,0,0
87859,-100,4,3,1,70,0,0
88528,-200,4,3,1,40,0,0
88930,-100,4,1,1,70,0,1
97434,-100,4,1,1,70,0,0
97501,-100,4,1,1,70,0,1
106073,-100,4,1,1,70,0,0
106609,-100,4,3,1,30,0,0
107145,-100,4,1,1,70,0,0
107680,-100,4,3,1,30,0,0
108216,-100,4,1,1,70,0,0
108752,-100,4,3,1,30,0,0
111028,-100,4,1,1,30,0,0
111430,-100,4,1,1,40,0,0
118216,-100,4,3,1,40,0,0
118930,-100,4,1,1,70,0,1
118997,-100,4,1,1,70,0,0
120002,-100,4,1,1,60,0,0
128573,-100,4,1,1,40,0,0
132591,-100,4,3,1,40,0,0
132858,-100,4,1,1,60,0,1
132925,-100,4,1,1,60,0,0
141430,-100,4,3,1,60,0,0
147457,-200,4,3,1,40,0,0
147858,-100,4,1,1,70,0,1
156363,-100,4,1,1,70,0,0
156430,-100,4,1,1,70,0,1
163930,-100,4,2,1,50,0,0
165001,-100,4,1,1,70,0,1
165068,-100,4,1,1,70,0,0
182145,-100,4,2,1,50,0,0
190314,-100,4,1,1,50,0,0
190582,-100,4,3,1,50,0,0
190716,-100,4,3,1,50,0,1
190782,-100,4,3,1,50,0,0
195002,-100,4,1,1,60,0,0
197145,-100,4,2,1,60,0,0
197412,-100,4,3,1,60,0,0
198617,-100,4,2,1,20,0,0
199287,-100,4,1,1,70,0,1
207791,-100,4,1,1,70,0,0
207858,-100,4,1,1,70,0,1
215358,-100,4,2,1,50,0,0
216430,-100,4,1,1,70,0,1
224934,-100,4,1,1,70,0,0
225001,-100,4,1,1,70,0,1
232501,-100,4,2,1,40,0,0
232701,-100,4,2,1,20,0,0
233573,-100,4,1,1,70,0,1
233640,-100,4,1,1,70,0,0
242144,-100,4,1,1,70,0,1
242211,-100,4,1,1,70,0,0
249644,-100,4,2,1,40,0,0
250715,-100,4,2,1,50,0,0
251251,-100,4,1,1,50,0,0
251519,-100,4,3,1,50,0,0
251787,-100,4,1,1,70,0,1
251854,-100,4,1,1,70,0,0
253930,-100,4,1,1,70,0,1
253997,-100,4,1,1,70,0,0

[Colours]
Combo1 : 155,205,255
Combo2 : 255,193,235
Combo3 : 183,232,255
Combo4 : 224,193,255

[HitObjects]
72,104,3216,5,0,0:0:0:0:
136,40,3484,1,0,0:0:0:0:
224,40,3752,1,0,0:0:0:0:
296,96,4020,1,0,0:0:0:0:
296,184,4287,6,0,L|276:324,1,127.500004863739,0|0,3:0|0:0,0:0:0:0:
352,332,4689,1,0,0:0:0:0:
196,224,4823,2,0,P|120:216|48:232,1,127.500004863739,0|0,3:0|0:0,0:0:0:0:
64,304,5225,1,0,0:0:0:0:
56,152,5359,5,0,0:0:0:0:
212,328,5627,1,0,0:0:0:0:
224,96,5895,1,0,0:0:0:0:
64,304,6162,1,0,0:0:0:0:
316,236,6430,1,0,3:0:0:0:
64,304,6698,1,0,0:0:0:0:
316,236,6966,1,0,3:0:0:0:
64,304,7234,1,0,0:0:0:0:
316,236,7502,6,0,P|396:228|448:252,1,127.500004863739,2|2,0:0|0:0,0:0:0:0:
460,324,7903,1,0,0:0:0:0:
288,152,8037,2,0,L|296:12,1,127.500004863739,2|2,0:0|0:0,0:0:0:0:
295,24,8439,1,0,0:0:0:0:
204,88,8573,5,0,3:0:0:0:
484,100,8841,1,0,0:0:0:0:
204,88,9109,1,0,3:0:0:0:
372,144,9377,5,0,0:0:0:0:
400,224,9511,1,0,0:0:0:0:
388,308,9645,1,2,3:0:0:0:
408,64,9912,5,2,0:0:0:0:
328,352,10180,1,2,0:0:0:0:
372,144,10448,1,2,0:0:0:0:
116,320,10716,5,4,1:0:0:0:
400,224,10984,1,2,1:0:0:0:
116,320,11252,5,4,1:0:0:0:
240,352,11386,1,8,1:0:0:0:
116,320,11520,6,0,L|124:264,3,42.5,8|0|0|0,1:0|0:0|0:0|0:0,0:0:0:0:
132,236,11787,5,4,0:2:0:0:
12,160,11921,1,0,0:0:0:0:
132,236,12055,2,0,P|180:248|240:240,1,85,8|0,0:0|0:0,0:0:0:0:
360,164,12323,2,0,P|316:160|275:171,1,85,2|0,0:0|0:0,0:0:0:0:
208,328,12591,1,8,0:0:0:0:
192,168,12725,1,0,0:0:0:0:
192,168,12792,1,2,0:0:0:0:
192,168,12859,6,0,L|184:80,1,85,12|0,0:0|0:0,0:0:0:0:
332,72,13127,1,8,0:0:0:0:
328,244,13261,1,0,0:0:0:0:
328,244,13328,1,2,0:0:0:0:
328,244,13395,2,0,L|320:332,1,85,6|0,0:0|0:0,0:0:0:0:
208,328,13662,1,8,0:0:0:0:
400,352,13796,1,0,0:0:0:0:
132,236,13930,5,4,0:0:0:0:
132,236,14198,2,0,P|80:240|44:228,1,85,8|0,0:0|0:0,0:0:0:0:
197,85,14466,2,0,P|201:137|189:173,1,85,2|0,0:0|0:0,0:0:0:0:
56,20,14734,2,0,P|108:16|144:28,1,85,8|0,0:0|0:0,0:0:0:0:
197,85,15002,5,8,0:0:0:0:
280,104,15136,1,2,0:0:0:0:
352,60,15270,1,8,0:0:0:0:
436,52,15403,1,2,0:0:0:0:
500,108,15537,5,8,0:0:0:0:
500,192,15671,1,2,0:0:0:0:
436,248,15805,1,8,0:0:0:0:
352,232,15939,1,2,0:0:0:0:
273,188,16073,6,0,L|281:84,1,85,4|0,0:0|0:0,0:0:0:0:
352,60,16341,1,8,0:0:0:0:
352,60,16475,1,0,0:0:0:0:
184,184,16609,2,0,L|176:80,1,85,2|0,0:0|0:0,0:0:0:0:
105,56,16877,1,8,0:0:0:0:
104,220,17011,1,0,0:0:0:0:
284,280,17145,6,0,P|324:259|353:229,1,85,4|0,0:0|0:0,0:0:0:0:
268,92,17412,2,0,P|297:121|335:140,1,85,8|0,0:0|0:0,0:0:0:0:
488,80,17680,2,0,P|447:100|418:130,1,85,2|0,0:0|0:0,0:0:0:0:
504,268,17948,2,0,P|474:238|436:219,1,85,8|0,0:0|0:0,0:0:0:0:
300,360,18216,5,6,0:0:0:0:
300,360,18484,2,0,L|196:352,1,85,8|0,0:0|0:0,0:0:0:0:
80,256,18752,2,0,L|184:248,1,85,2|0,0:0|0:0,0:0:0:0:
278,176,19020,2,0,L|266:76,1,85,8|0,0:0|0:0,0:0:0:0:
351,231,19287,6,0,L|443:215,1,85,4|0,0:0|0:0,0:0:0:0:
434,216,19488,1,2,0:0:0:0:
434,216,19555,1,8,0:0:0:0:
476,140,19689,1,2,0:0:0:0:
424,72,19823,1,8,0:0:0:0:
340,60,19957,1,2,0:0:0:0:
268,104,20091,1,8,0:0:0:0:
188,136,20225,1,2,0:0:0:0:
104,144,20359,6,0,P|56:140|12:120,1,85,4|0,0:0|0:0,0:0:0:0:
80,48,20627,1,8,0:0:0:0:
80,48,20761,1,0,0:0:0:0:
168,236,20895,6,0,P|216:232|260:212,1,85,2|0,0:0|0:0,0:0:0:0:
192,140,21162,1,8,0:0:0:0:
192,140,21296,1,0,0:0:0:0:
232,312,21430,5,4,0:0:0:0:
336,196,21564,1,0,0:0:0:0:
336,196,21631,1,2,0:0:0:0:
336,196,21698,2,0,P|396:200|440:216,1,85,8|0,0:0|0:0,0:0:0:0:
315,300,21966,2,0,P|273:310|231:311,1,85,8|0,0:0|0:0,0:0:0:0:
56,228,22234,1,2,0:0:0:0:
192,140,22368,1,0,0:0:0:0:
80,48,22502,6,0,L|68:148,1,85,4|0,0:0|0:0,0:0:0:0:
152,312,22770,2,0,L|140:212,1,85,8|0,0:0|0:0,0:0:0:0:
192,140,23037,2,0,L|280:132,1,85,2|0,0:0|0:0,0:0:0:0:
336,196,23305,2,0,L|420:203,1,85,8|0,0:0|0:0,0:0:0:0:
488,48,23573,5,4,0:0:0:0:
412,84,23707,1,0,0:0:0:0:
328,72,23841,1,8,0:0:0:0:
248,40,23975,1,2,0:0:0:0:
164,48,24109,5,8,0:0:0:0:
96,100,24243,1,2,0:0:0:0:
76,184,24377,1,8,0:0:0:0:
116,260,24511,1,2,0:0:0:0:
196,288,24645,6,0,P|252:272|292:244,1,85,4|0,0:0|0:0,0:0:0:0:
324,160,24912,1,8,0:0:0:0:
324,160,25046,1,0,0:0:0:0:
452,288,25180,6,0,P|396:272|356:244,1,85,4|0,0:0|0:0,0:0:0:0:
324,160,25448,1,8,0:0:0:0:
324,160,25582,1,0,0:0:0:0:
452,108,25716,6,0,L|448:204,1,85,4|0,0:0|0:0,0:0:0:0:
212,204,25984,2,0,L|215:119,1,85,8|0,0:0|0:0,0:0:0:0:
416,60,26252,2,0,L|412:156,1,85,6|0,0:0|0:0,0:0:0:0:
404,352,26520,1,8,0:0:0:0:
404,352,26653,1,0,0:0:0:0:
324,320,26787,6,0,P|264:324|220:348,1,85,4|0,0:0|0:0,0:0:0:0:
72,336,27055,2,0,P|112:349|154:349,1,85,8|0,0:0|0:0,0:0:0:0:
212,204,27323,2,0,L|204:112,1,85,2|0,0:0|0:0,0:0:0:0:
88,32,27591,2,0,L|80:124,1,85,8|0,0:0|0:0,0:0:0:0:
128,248,27859,5,4,0:0:0:0:
248,280,27993,1,0,0:0:0:0:
268,272,28060,1,2,0:0:0:0:
284,260,28127,2,0,P|300:212|296:164,1,85,8|0,0:0|0:0,0:0:0:0:
308,92,28395,1,8,0:0:0:0:
384,132,28528,1,0,0:0:0:0:
396,216,28662,1,8,0:0:0:0:
364,296,28796,1,0,0:0:0:0:
296,352,28930,6,0,P|256:364|196:352,1,85,4|0,0:0|0:0,0:0:0:0:
108,328,29198,2,0,P|80:308|48:248,1,85,8|0,3:0|0:0,0:0:0:0:
40,156,29466,1,2,0:0:0:0:
40,156,29600,2,0,P|40:104|56:56,1,85,8|0,3:0|0:0,0:0:0:0:
152,32,29868,1,2,0:0:0:0:
152,32,30002,6,0,P|196:32|252:44,1,85,8|0,3:0|0:0,0:0:0:0:
316,116,30270,1,2,0:0:0:0:
316,116,30403,2,0,P|360:116|416:104,1,85,8|0,3:0|0:0,0:0:0:0:
500,64,30671,1,2,0:0:0:0:
364,188,30805,6,0,L|368:300,1,85,8|0,3:0|0:0,0:0:0:0:
344,192,31073,6,0,L|360:308,1,85,8|0,0:0|0:0,0:0:0:0:
324,200,31341,6,0,L|352:292,1,85,8|0,3:0|0:0,0:0:0:0:
292,372,31609,1,2,0:0:0:0:
184,308,31743,6,0,P|224:296|267:296,1,85,8|0,3:0|0:0,0:0:0:0:
380,372,32011,1,2,0:0:0:0:
512,320,32145,6,0,P|471:308|428:308,1,85,8|0,3:0|0:0,0:0:0:0:
292,372,32412,1,8,3:0:0:0:
348,281,32546,1,0,0:0:0:0:
268,208,32680,1,8,0:0:0:0:
240,196,32747,1,0,0:0:0:0:
212,192,32814,1,2,0:0:0:0:
184,196,32881,1,0,0:0:0:0:
156,208,32948,1,8,0:0:0:0:
128,220,33015,1,0,0:0:0:0:
100,228,33082,1,2,0:0:0:0:
72,220,33149,1,0,0:0:0:0:
60,192,33216,6,0,L|68:100,2,85,4|0|8,0:0|0:0|0:0,0:0:0:0:
60,192,33752,1,2,0:0:0:0:
176,96,34020,1,8,0:0:0:0:
176,96,34287,6,0,L|184:4,2,85,4|0|8,0:0|0:0|0:0,0:0:0:0:
176,96,34823,1,2,0:0:0:0:
268,208,35091,1,8,0:0:0:0:
268,208,35359,6,0,L|276:116,2,85,4|0|8,0:0|0:0|0:0,0:0:0:0:
268,208,35895,1,2,0:0:0:0:
384,120,36162,1,8,0:0:0:0:
384,120,36430,6,0,L|392:28,2,85,4|0|8,0:0|0:0|0:0,0:0:0:0:
384,120,36966,1,2,0:0:0:0:
376,256,37234,1,8,0:0:0:0:
376,256,37502,6,0,L|468:260,2,85,4|0|8,0:0|0:0|0:0,0:0:0:0:
376,256,38037,1,2,0:0:0:0:
244,136,38305,1,8,0:0:0:0:
244,136,38573,6,0,L|152:140,2,85,4|0|8,0:0|0:0|0:0,0:0:0:0:
244,136,39109,1,2,0:0:0:0:
384,264,39377,1,8,0:0:0:0:
384,264,39645,6,0,L|380:360,2,85,4|0|8,0:0|0:0|0:0,0:0:0:0:
384,264,40180,1,2,0:0:0:0:
400,56,40448,1,8,0:0:0:0:
224,152,40716,5,4,0:0:0:0:
264,232,40984,1,2,0:0:0:0:
208,296,41252,1,0,0:0:0:0:
232,152,41386,5,6,0:0:0:0:
272,232,41520,5,10,0:0:0:0:
216,296,41653,5,2,0:0:0:0:
132,228,41787,6,0,L|44:232,1,85,4|0,0:0|0:0,0:0:0:0:
47,231,42055,1,8,0:0:0:0:
232,152,42323,2,0,L|320:156,1,85,0|0,3:0|0:0,0:0:0:0:
317,155,42591,1,8,0:0:0:0:
376,320,42859,2,0,L|288:324,1,85,4|0,0:0|0:0,0:0:0:0:
291,323,43127,1,8,0:0:0:0:
400,200,43395,2,0,L|488:204,1,85,0|0,3:0|0:0,0:0:0:0:
485,203,43662,1,8,0:0:0:0:
224,236,43930,6,0,L|232:140,1,85,4|0,0:0|0:0,0:0:0:0:
231,151,44198,1,8,0:0:0:0:
112,48,44466,2,0,L|120:144,1,85,0|0,3:0|0:0,0:0:0:0:
119,132,44734,1,8,0:0:0:0:
48,304,45002,2,0,L|56:208,1,85,4|0,0:0|0:0,0:0:0:0:
55,220,45270,1,8,0:0:0:0:
0,40,45537,2,0,L|8:136,1,85,0|0,3:0|0:0,0:0:0:0:
7,124,45805,1,8,0:0:0:0:
207,297,46073,6,0,L|311:285,1,85,4|0,0:0|0:0,0:0:0:0:
355,229,46341,1,8,0:0:0:0:
224,152,46609,2,0,L|120:140,1,85,0|0,3:0|0:0,0:0:0:0:
76,84,46877,1,8,0:0:0:0:
300,120,47145,6,0,L|296:220,1,85,4|0,0:0|0:0,0:0:0:0:
292,288,47412,1,8,0:0:0:0:
452,192,47680,2,0,L|448:92,1,85,0|0,3:0|0:0,0:0:0:0:
444,24,47948,1,8,0:0:0:0:
300,120,48216,6,0,P|256:116|212:80,1,85,4|0,0:0|0:0,0:0:0:0:
164,36,48484,1,8,0:0:0:0:
0,200,48752,2,0,P|48:192|88:160,1,85,0|0,3:0|0:0,0:0:0:0:
136,116,49020,1,8,0:0:0:0:
16,116,49153,1,0,3:0:0:0:
151,286,49287,6,0,P|167:234|163:182,1,85,4|0,0:0|0:0,0:0:0:0:
275,258,49555,2,0,P|262:204|233:161,1,85,8|0,0:0|0:0,0:0:0:0:
363,174,49823,2,0,P|325:134|278:111,1,85,0|0,3:0|0:0,0:0:0:0:
375,54,50091,2,0,P|323:37|271:41,1,85,8|0,3:0|0:0,0:0:0:0:
255,115,50359,5,4,0:0:0:0:
189,169,50493,1,0,0:0:0:0:
105,182,50627,1,8,0:0:0:0:
60,109,50761,1,0,0:0:0:0:
107,38,50895,5,2,0:0:0:0:
189,57,51028,1,0,0:0:0:0:
255,115,51162,1,8,0:0:0:0:
338,132,51296,1,0,0:0:0:0:
422,127,51430,6,0,P|460:118|509:78,1,85,4|0,0:0|0:0,0:0:0:0:
490,6,51698,1,8,0:0:0:0:
375,54,51832,2,0,L|399:238,1,170,0|0,0:0|0:0,0:0:0:0:
326,332,52234,2,0,P|223:323|179:288,1,127.5,8|0,0:0|2:0,0:0:0:0:
186,282,52502,6,0,L|200:185,1,85,4|0,0:0|0:0,0:0:0:0:
255,115,52770,1,8,0:0:0:0:
329,154,52903,1,0,0:0:0:0:
337,238,53037,6,0,L|329:258,4,21.2500004053116,0|0|0|0|0,0:0|0:0|0:0|0:0|0:0,0:0:0:0:
255,115,53305,2,0,L|263:91,4,21.2500004053116,0|0|0|0|0,0:0|0:0|0:0|0:0|0:0,0:0:0:0:
185,164,53573,5,0,0:0:0:0:
100,150,53707,1,0,0:0:0:0:
73,69,53841,1,0,0:0:0:0:
242,22,53975,6,0,P|280:24|324:44,1,85,4|2,3:0|0:0,0:0:0:0:
329,154,54377,1,2,0:0:0:0:
329,154,54645,6,0,L|304:302,1,127.5,4|0,0:0|2:0,0:0:0:0:
305,304,54912,2,0,L|403:323,1,85,8|0,0:0|0:0,0:0:0:0:
388,320,55113,1,0,0:0:0:0:
388,320,55180,1,2,0:0:0:0:
227,221,55314,1,0,0:0:0:0:
415,153,55448,1,8,0:0:0:0:
415,153,55716,6,0,P|421:83|414:38,1,85,4|0,0:0|0:0,0:0:0:0:
222,136,55984,2,0,P|220:178|226:220,1,85,8|0,0:0|0:0,0:0:0:0:
305,304,56252,1,2,0:0:0:0:
305,304,56520,6,0,P|236:336|126:288,1,170,8|4,0:0|0:0,0:0:0:0:
128,168,56921,1,0,0:0:0:0:
128,168,56988,1,2,0:0:0:0:
128,168,57055,2,0,L|136:68,1,85,8|0,0:0|0:0,0:0:0:0:
222,136,57323,1,2,0:0:0:0:
40,116,57457,1,0,0:0:0:0:
180,224,57591,2,0,P|236:232|272:220,1,85,8|0,0:0|0:0,0:0:0:0:
300,192,57792,1,2,0:0:0:0:
300,192,57859,6,0,P|376:184|424:200,1,127.5,4|0,0:0|2:0,0:0:0:0:
448,216,58127,2,0,B|444:272|444:272|452:296|452:296|452:368,1,127.5,8|0,0:0|2:0,0:0:0:0:
420,368,58395,5,2,0:0:0:0:
344,332,58528,1,0,0:0:0:0:
204,348,58662,5,8,0:0:0:0:
128,312,58796,1,0,0:0:0:0:
24,228,58930,6,0,L|36:128,1,85,4|0,0:0|0:0,0:0:0:0:
190,139,59198,2,0,L|178:231,1,85,8|0,0:0|0:0,0:0:0:0:
4,168,59466,2,0,L|16:68,1,85,2|0,0:0|0:0,0:0:0:0:
230,99,59734,2,0,L|219:183,1,85,8|0,0:0|0:0,0:0:0:0:
312,268,60002,6,0,P|404:268|464:208,1,170,4|8,0:0|0:0,0:0:0:0:
452,24,60403,1,0,0:0:0:0:
376,60,60537,2,0,L|368:160,1,85,2|0,0:0|0:0,0:0:0:0:
312,268,60805,2,0,L|304:168,1,85,8|0,0:0|0:0,0:0:0:0:
230,99,61073,6,0,P|182:79|94:103,1,127.5,4|0,0:0|2:0,0:0:0:0:
88,128,61341,2,0,L|96:248,1,85,8|0,0:0|0:0,0:0:0:0:
160,336,61609,2,0,L|168:216,1,85,2|0,0:0|0:0,0:0:0:0:
48,292,61877,1,8,0:0:0:0:
392,356,62145,5,4,0:0:0:0:
412,272,62278,1,8,0:0:0:0:
408,256,62345,1,2,2:0:0:0:
404,240,62412,1,2,0:0:0:0:
460,176,62546,1,0,0:0:0:0:
356,124,62680,2,0,L|368:28,1,85,8|0,0:0|2:3,0:0:0:0:
366,39,62948,6,0,P|280:48|232:28,1,127.5,4|0,0:0|0:0,0:0:0:0:
224,28,63216,5,12,0:0:0:0:
132,40,63350,1,0,0:0:0:0:
64,104,63484,2,0,P|56:168|60:224,1,85,8|0,0:0|0:0,0:0:0:0:
128,232,63752,2,0,B|276:228,1,127.5,10|0,0:0|2:0,0:0:0:0:
280,228,64020,1,8,0:0:0:0:
280,228,64287,6,0,L|284:328,1,85,4|0,0:0|0:0,0:0:0:0:
456,304,64555,2,0,L|452:204,1,85,8|0,0:0|0:0,0:0:0:0:
360,176,64823,2,0,L|368:352,1,170,2|8,0:0|0:0,0:0:0:0:
367,345,65225,1,0,0:0:0:0:
276,224,65359,6,0,P|224:220|176:236,1,85,12|0,0:0|0:0,0:0:0:0:
148,304,65627,2,0,P|200:308|248:292,1,85,8|0,0:0|0:0,0:0:0:0:
112,232,65895,1,10,0:0:0:0:
92,364,66028,1,0,0:0:0:0:
112,232,66162,2,0,L|104:124,1,85,8|0,0:0|0:0,0:0:0:0:
216,16,66430,6,0,L|200:204,1,170,4|8,0:0|0:0,0:0:0:0:
100,72,66832,1,0,0:0:0:0:
288,108,66966,2,0,L|376:96,2,85,2|0|12,0:0|0:0|0:0,0:0:0:0:
100,72,67368,1,0,0:0:0:0:
112,232,67502,6,0,L|124:328,1,85,12|0,0:0|0:0,0:0:0:0:
216,336,67770,1,8,0:0:0:0:
216,336,67903,1,0,0:0:0:0:
200,192,68037,1,10,0:0:0:0:
200,192,68171,1,0,0:0:0:0:
320,312,68305,1,8,0:0:0:0:
320,312,68573,6,0,P|388:296|496:336,1,170,4|8,0:0|0:0,0:0:0:0:
384,188,68975,1,0,0:0:0:0:
352,108,69109,2,0,P|348:60|360:8,1,85,2|0,0:0|0:0,0:0:0:0:
484,152,69377,2,0,P|490:193|486:236,1,85,8|0,0:0|0:0,0:0:0:0:
320,312,69645,6,0,P|228:308|172:236,1,170,12|8,0:0|0:0,0:0:0:0:
188,152,70046,1,0,0:0:0:0:
288,120,70180,2,0,P|284:196|268:220,1,85,14|0,0:0|0:0,0:0:0:0:
144,352,70448,1,8,0:0:0:0:
144,352,70716,6,0,P|88:344|48:348,1,85,6|0,0:0|0:0,0:0:0:0:
238,294,70984,1,8,0:0:0:0:
320,312,71118,2,0,P|362:313|404:305,1,85,0|2,0:0|0:0,0:0:0:0:
468,248,71386,1,8,0:0:0:0:
484,164,71520,1,8,0:0:0:0:
444,92,71653,1,8,0:0:0:0:
364,68,71787,6,0,P|312:68|264:84,1,85,4|0,0:0|0:0,0:0:0:0:
212,188,72055,2,0,P|160:188|112:172,1,85,8|0,0:0|0:0,0:0:0:0:
84,108,72323,1,2,0:0:0:0:
120,32,72457,1,0,0:0:0:0:
300,164,72591,6,0,P|296:228|272:260,1,85,8|0,0:0|0:0,0:0:0:0:
208,280,72859,1,4,0:0:0:0:
128,256,72993,1,0,0:0:0:0:
268,88,73127,6,0,P|320:88|368:104,1,85,8|0,0:0|0:0,0:0:0:0:
396,168,73395,1,2,0:0:0:0:
360,244,73528,1,0,0:0:0:0:
188,116,73662,6,0,P|192:52|216:20,1,85,8|0,0:0|0:0,0:0:0:0:
280,4,73930,1,4,0:0:0:0:
360,24,74064,1,0,0:0:0:0:
396,168,74198,6,0,P|344:172|296:148,1,85,8|0,0:0|0:0,0:0:0:0:
268,88,74466,1,2,0:0:0:0:
268,88,74600,1,0,0:0:0:0:
360,24,74734,6,0,P|412:20|460:44,1,85,8|0,0:0|0:0,0:0:0:0:
488,104,75002,1,4,0:0:0:0:
488,104,75136,1,0,0:0:0:0:
388,252,75270,6,0,L|396:156,1,85,8|0,0:0|0:0,0:0:0:0:
496,188,75537,1,2,0:0:0:0:
496,188,75671,1,0,0:0:0:0:
296,256,75805,2,0,L|304:352,1,85,8|0,0:0|0:0,0:0:0:0:
180,212,76073,5,12,0:0:0:0:
196,128,76207,1,0,0:0:0:0:
96,320,76341,5,8,0:0:0:0:
80,236,76475,1,0,0:0:0:0:
260,180,76609,6,0,P|304:180|368:152,1,85,10|0,0:0|0:0,0:0:0:0:
196,128,76877,2,0,P|155:115|113:115,1,85,8|0,0:0|0:0,0:0:0:0:
236,240,77145,2,0,L|228:48,1,170,12|8,0:0|0:0,0:0:0:0:
308,40,77546,1,0,0:0:0:0:
324,252,77680,2,0,L|312:340,1,85,12|0,0:0|0:0,0:0:0:0:
228,328,77948,1,8,0:0:0:0:
404,308,78082,1,0,0:0:0:0:
448,212,78216,6,0,P|446:169|436:116,1,85,4|0,0:0|0:0,0:0:0:0:
245,155,78484,2,0,P|237:196|235:239,1,85,8|0,0:0|0:0,0:0:0:0:
340,140,78752,2,0,P|296:72|192:72,1,170,2|8,0:0|0:0,0:0:0:0:
40,176,79153,1,0,0:0:0:0:
144,124,79287,6,0,P|151:165|153:208,1,85,4|0,0:0|0:0,0:0:0:0:
64,348,79555,2,0,P|65:305|73:263,1,85,12|0,0:0|0:0,0:0:0:0:
228,224,79823,2,0,P|320:216|396:272,1,170,10|12,0:0|0:0,0:0:0:0:
368,332,80225,1,0,0:0:0:0:
340,140,80359,6,0,P|348:96|372:56,1,85,12|0,0:0|0:0,0:0:0:0:
484,192,80627,2,0,P|504:229|511:270,1,85,12|0,0:0|0:0,0:0:0:0:
276,292,80895,2,0,P|316:252|436:256,1,170,2|12,0:0|0:0,0:0:0:0:
228,224,81296,2,0,L|240:40,1,170,0|2,0:0|0:0,0:0:0:0:
124,192,81698,2,0,L|148:376,2,170,12|2|12,0:0|0:0|0:0,0:0:0:0:
108,108,82368,1,0,0:0:0:0:
164,36,82502,6,0,P|224:40|272:72,1,85,12|0,0:0|0:0,0:0:0:0:
368,199,82770,2,0,P|428:195|476:163,1,85,12|0,0:0|0:0,0:0:0:0:
364,36,83037,6,0,P|348:132|376:212,1,170,2|12,0:0|0:0,0:0:0:0:
232,356,83439,2,0,P|256:288|236:176,1,170,0|2,0:0|0:0,0:0:0:0:
168,252,83841,2,0,P|260:284|348:264,1,170,12|2,0:0|0:0,0:0:0:0:
468,172,84243,1,2,0:0:0:0:
404,264,84377,2,0,P|412:328|424:368,1,85,12|0,0:0|0:0,0:0:0:0:
348,164,84645,5,4,0:0:0:0:
348,164,84912,6,0,L|344:100,3,42.5,8|0|0|0,0:0|0:0|0:0|0:0,0:0:0:0:
276,208,85180,2,0,L|272:272,3,42.5,8|0|0|0,0:0|0:0|0:0|0:0,0:0:0:0:
216,148,85448,2,0,L|212:84,3,42.5,8|0|0|0,0:0|0:0|0:0|0:0,0:0:0:0:
144,208,85716,2,0,L|140:272,3,42.5,12|0|0|0,0:0|0:0|0:0|0:0,0:0:0:0:
84,148,85984,6,0,L|80:84,3,42.5,12|0|0|0,0:0|0:0|0:0|0:0,0:0:0:0:
156,64,86252,2,0,L|152:0,3,42.5,8|0|0|0,0:0|0:0|0:0|0:0,0:0:0:0:
256,60,86520,2,0,L|252:-4,3,42.5,8|0|0|0,0:0|0:0|0:0|0:0,0:0:0:0:
352,104,86787,5,12,0:0:0:0:
352,88,86854,1,0,0:0:0:0:
352,72,86921,1,0,0:0:0:0:
352,56,86988,1,0,0:0:0:0:
360,24,87055,5,8,0:0:0:0:
392,16,87122,1,0,0:0:0:0:
424,20,87189,1,0,0:0:0:0:
452,40,87256,1,0,0:0:0:0:
464,72,87323,1,8,0:0:0:0:
468,104,87390,1,0,0:0:0:0:
464,136,87457,1,0,0:0:0:0:
448,164,87524,1,0,0:0:0:0:
436,196,87591,2,0,L|448:268,1,42.5,8|0,0:0|0:0,0:0:0:0:
324,244,87725,2,0,L|316:320,1,42.5
384,344,87859,5,12,0:0:0:0:
384,344,88528,5,0,0:0:0:0:
296,140,88662,6,0,L|304:68,1,63.75,8|0,0:0|2:0,0:0:0:0:
284,60,88930,6,0,L|272:168,1,85,4|0,0:0|0:0,0:0:0:0:
268,244,89198,1,8,0:0:0:0:
184,172,89332,1,0,0:0:0:0:
348,204,89466,2,0,L|440:188,1,85,2|0,0:0|0:0,0:0:0:0:
496,136,89734,1,8,0:0:0:0:
496,136,89868,1,0,0:0:0:0:
284,60,90002,6,0,L|108:88,1,170,4|8,0:0|0:0,0:0:0:0:
32,104,90403,1,0,0:0:0:0:
32,104,90537,1,2,0:0:0:0:
268,244,90805,1,8,0:0:0:0:
48,352,91073,6,0,B|40:288|40:288|60:248|60:248|52:180,1,170,4|8,0:0|0:0,0:0:0:0:
32,104,91475,1,0,0:0:0:0:
116,304,91609,2,0,P|176:296|224:268,1,85,2|0,0:0|0:0,0:0:0:0:
268,244,91877,1,8,0:0:0:0:
352,216,92011,1,0,0:0:0:0:
352,216,92078,1,2,0:0:0:0:
352,216,92145,6,0,P|412:224|460:252,1,85,4|0,0:0|0:0,0:0:0:0:
472,324,92412,1,8,0:0:0:0:
392,348,92546,1,0,0:0:0:0:
316,312,92680,1,10,0:0:0:0:
268,244,92814,5,0,0:0:0:0:
184,248,92948,1,8,0:0:0:0:
116,304,93082,1,0,0:0:0:0:
224,344,93216,6,0,L|212:172,1,170,4|8,0:0|0:0,0:0:0:0:
124,16,93618,1,0,0:0:0:0:
56,68,93752,2,0,L|44:240,1,170,2|8,0:0|0:0,0:0:0:0:
40,324,94153,1,0,0:0:0:0:
136,160,94287,6,0,P|180:164|240:184,2,85,4|0|8,0:0|0:0|0:0,0:0:0:0:
44,237,94689,1,0,0:0:0:0:
200,264,94823,2,0,P|244:260|304:240,1,85,6|0,0:0|0:0,0:0:0:0:
376,124,95091,1,8,0:0:0:0:
292,88,95225,1,0,0:0:0:0:
292,88,95292,1,2,0:0:0:0:
292,88,95359,6,0,L|296:196,1,85,4|0,0:0|0:0,0:0:0:0:
368,328,95627,2,0,L|372:220,1,85,8|0,0:0|0:0,0:0:0:0:
376,124,95895,2,0,L|476:116,1,85,2|0,0:0|0:0,0:0:0:0:
284,271,96162,2,0,L|192:263,1,85,8|0,0:0|0:0,0:0:0:0:
80,188,96430,5,4,0:0:0:0:
128,348,96564,1,0,0:0:0:0:
140,328,96631,1,2,0:0:0:0:
148,308,96698,2,0,P|156:264|144:204,1,85,8|0,0:0|0:0,0:0:0:0:
148,140,96966,1,14,0:0:0:0:
67,113,97100,1,0,0:0:0:0:
67,28,97234,1,8,0:0:0:0:
148,2,97368,1,0,0:0:0:0:
240,124,97502,6,0,P|296:124|340:96,1,85,4|0,0:0|0:0,0:0:0:0:
412,44,97770,1,8,0:0:0:0:
268,44,97903,1,0,0:0:0:0:
440,128,98037,2,0,P|384:128|340:100,1,85,2|0,0:0|0:0,0:0:0:0:
240,216,98305,6,0,P|296:216|340:244,1,85,8|0,0:0|0:0,0:0:0:0:
412,296,98573,1,4,0:0:0:0:
268,296,98707,1,0,0:0:0:0:
440,212,98841,2,0,P|384:212|340:236,1,85,8|0,0:0|0:0,0:0:0:0:
268,296,99109,6,0,P|212:296|168:268,1,85,2|0,0:0|0:0,0:0:0:0:
96,216,99377,1,8,0:0:0:0:
240,216,99511,1,0,0:0:0:0:
68,300,99645,2,0,P|124:300|168:272,1,85,4|0,0:0|0:0,0:0:0:0:
268,136,99912,6,0,P|212:136|168:164,1,85,8|0,0:0|0:0,0:0:0:0:
96,216,100180,1,2,0:0:0:0:
240,216,100314,1,0,0:0:0:0:
68,132,100448,2,0,P|124:132|168:164,1,85,8|0,0:0|0:0,0:0:0:0:
240,216,100716,6,0,L|252:40,2,170,4|8|2,0:0|0:0|0:0,0:0:0:0:
392,232,101386,1,0,0:0:0:0:
268,304,101520,2,0,P|208:304|168:276,1,85,12|0,0:0|0:0,0:0:0:0:
40,196,101787,6,0,P|81:191|121:206,1,85,4|0,0:0|0:0,0:0:0:0:
68,280,102055,1,8,0:0:0:0:
96,116,102189,1,0,0:0:0:0:
216,180,102323,2,0,P|257:185|297:170,1,85,2|0,0:0|0:0,0:0:0:0:
344,64,102591,1,8,0:0:0:0:
184,96,102725,1,0,0:0:0:0:
184,96,102792,1,0,0:0:0:0:
184,96,102859,6,0,L|196:272,2,170,4|8|6,0:0|0:0|0:0,0:0:0:0:
96,116,103528,1,0,0:0:0:0:
280,236,103662,2,0,P|320:216|344:164,1,85,8|0,0:0|0:0,0:0:0:0:
232,344,103930,6,0,P|296:352|392:288,1,170,4|8,0:0|0:0,0:0:0:0:
420,220,104332,1,0,0:0:0:0:
256,160,104466,2,0,P|188:168|156:180,1,85,2|0,0:0|0:0,0:0:0:0:
104,228,104734,2,0,P|36:220|4:208,1,85,8|0,0:0|0:0,0:0:0:0:
140,116,105002,6,0,L|128:324,1,170,4|8,0:0|0:0,0:0:0:0:
184,352,105403,1,0,0:0:0:0:
268,356,105537,1,10,0:0:0:0:
344,320,105671,1,0,0:0:0:0:
376,240,105805,1,8,0:0:0:0:
372,156,105939,1,0,0:0:0:0:
312,96,106073,5,4,0:0:0:0:
44,304,106609,1,2,0:0:0:0:
256,36,107145,5,4,0:0:0:0:
116,344,107680,1,2,0:0:0:0:
176,8,108216,5,4,0:0:0:0:
204,348,108752,1,2,0:0:0:0:
44,128,109287,6,0,P|84:136|132:124,1,85,4|0,0:0|0:0,0:0:0:0:
196,76,109555,1,2,0:0:0:0:
276,104,109689,1,0,0:0:0:0:
276,104,109957,1,0,0:0:0:0:
276,104,111028,6,0,L|280:52,2,42.5,0|0|12,0:0|0:0|0:0,0:0:0:0:
276,104,111430,6,0,P|372:96|432:164,1,170,4|8,0:0|0:0,0:0:0:0:
332,332,111832,1,8,0:0:0:0:
316,256,111966,2,0,P|324:204|336:168,2,85,2|0|8,0:0|0:0|0:0,0:0:0:0:
316,256,112502,6,0,P|260:240|220:240,1,85,4|0,0:0|0:0,0:0:0:0:
156,296,112770,2,0,P|100:312|60:312,1,85,8|8,0:0|0:0,0:0:0:0:
16,252,113037,1,2,0:0:0:0:
12,168,113171,1,0,0:0:0:0:
60,100,113305,1,8,0:0:0:0:
60,100,113573,6,0,L|152:112,2,85,4|0|8,0:0|0:0|0:0,0:0:0:0:
4,36,113975,1,8,0:0:0:0:
120,200,114109,2,0,P|164:200|224:168,1,85,2|0,0:0|0:0,0:0:0:0:
236,96,114377,6,0,L|248:288,1,170,8|4,0:0|0:0,0:0:0:0:
252,352,114778,1,0,0:0:0:0:
144,300,114912,1,8,0:0:0:0:
320,312,115046,1,8,0:0:0:0:
356,240,115180,6,0,P|360:196|352:140,1,85,2|0,0:0|0:0,0:0:0:0:
352,44,115448,1,8,0:0:0:0:
328,140,115582,1,0,0:0:0:0:
408,104,115716,6,0,L|500:100,1,85,4|0,0:0|0:0,0:0:0:0:
512,180,115984,1,8,0:0:0:0:
512,180,116118,1,8,0:0:0:0:
439,253,116252,6,0,L|349:239,1,85,2|0,0:0|0:0,0:0:0:0:
254,250,116520,1,8,0:0:0:0:
254,250,116787,6,0,L|160:240,1,85,4|0,0:0|0:0,0:0:0:0:
36,336,117055,2,0,L|132:324,1,85,8|8,0:0|0:0,0:0:0:0:
204,324,117323,1,2,0:0:0:0:
204,324,117457,1,0,0:0:0:0:
224,168,117591,1,8,0:0:0:0:
224,168,117859,6,0,P|228:112|220:60,1,85,4|0,0:0|0:0,0:0:0:0:
152,40,118127,1,8,0:0:0:0:
152,40,118216,6,0,L|84:28,2,56.6666666666667,8|0|2,0:0|0:0|0:0,0:0:0:0:
152,40,118930,5,4,0:0:0:0:
232,32,119098,5,8,0:0:0:0:
312,24,119299,5,4,0:0:0:0:
464,92,119466,5,4,0:0:0:0:
384,100,119633,5,4,0:0:0:0:
304,108,119834,5,4,0:0:0:0:
216,304,120002,6,0,P|244:196|212:128,1,170,14|8,0:0|0:0,0:0:0:0:
312,300,120403,1,0,0:0:0:0:
152,224,120537,2,0,P|108:216|44:240,1,85,12|0,0:0|0:0,0:0:0:0:
176,376,120805,2,0,P|220:384|284:360,1,85,8|0,0:0|0:0,0:0:0:0:
320,188,121073,6,0,P|416:180|484:228,1,170,12|8,0:0|0:0,0:0:0:0:
464,304,121475,1,0,0:0:0:0:
344,96,121609,2,0,P|344:48|356:8,1,85,12|0,0:0|0:0,0:0:0:0:
512,60,121877,2,0,P|510:109|500:144,1,85,8|0,0:0|0:0,0:0:0:0:
380,264,122145,6,0,P|284:272|224:212,1,170,12|8,0:0|0:0,0:0:0:0:
224,144,122546,1,0,0:0:0:0:
224,144,122680,1,12,0:0:0:0:
480,192,122948,1,8,0:0:0:0:
231,227,123216,1,12,0:0:0:0:
440,104,123484,1,8,0:0:0:0:
440,104,123752,5,10,0:0:0:0:
296,116,123886,1,2,0:2:0:0:
476,16,124020,1,8,0:0:0:0:
288,128,124153,1,0,0:0:0:0:
280,144,124220,1,2,2:0:0:0:
272,160,124287,2,0,L|296:336,1,170,12|8,0:0|0:0,0:0:0:0:
208,336,124689,1,0,0:0:0:0:
408,215,124823,2,0,P|480:219|512:235,1,85,12|0,0:0|0:0,0:0:0:0:
378,320,125091,2,0,P|338:330|295:328,1,85,8|0,0:0|0:0,0:0:0:0:
192,228,125359,6,0,L|176:32,1,170,12|8,0:0|0:0,0:0:0:0:
178,58,125694,1,2,2:0:0:0:
178,58,125761,1,2,2:0:0:0:
178,58,125828,1,2,2:0:0:0:
178,58,125895,5,14,0:0:0:0:
457,102,126162,2,0,P|409:102|365:122,1,85,8|0,0:0|0:0,0:0:0:0:
304,220,126430,2,0,L|290:50,1,170,12|8,0:0|0:0,0:0:0:0:
48,180,126832,1,0,0:0:0:0:
110,241,126966,2,0,P|158:241|202:221,1,85,12|0,0:0|0:0,0:0:0:0:
385,233,127234,2,0,P|345:218|303:219,1,85,8|0,0:0|0:0,0:0:0:0:
328,300,127502,5,12,0:0:0:0:
336,140,127636,2,0,P|340:116|348:88,2,42.5,0|2|8,0:0|0:0|0:0,0:0:0:0:
328,300,127903,1,0,0:0:0:0:
228,208,128037,2,0,P|212:144|216:92,1,85,2|0,0:0|0:0,0:0:0:0:
178,290,128305,2,0,P|141:269|109:240,1,85,8|0,0:0|0:0,0:0:0:0:
112,100,128573,5,4,0:0:0:0:
320,248,131921,5,8,0:0:0:0:
340,164,132055,1,8,0:0:0:0:
120,352,132323,5,8,0:0:0:0:
100,268,132457,1,8,0:0:0:0:
184,160,132591,2,0,L|188:104,3,42.5,8|0|0|0,0:0|0:0|0:0|0:0,0:0:0:0:
172,180,132859,6,0,P|118:183|54:163,1,85,12|0,0:0|0:0,0:0:0:0:
88,32,133127,2,0,P|142:29|206:49,1,85,8|0,0:0|0:0,0:0:0:0:
288,188,133395,2,0,P|342:191|406:171,1,85,10|0,0:0|0:0,0:0:0:0:
372,40,133662,2,0,P|318:37|254:57,1,85,8|0,0:0|0:0,0:0:0:0:
211,139,133930,6,0,L|203:331,1,170,12|8,0:0|0:0,0:0:0:0:
283,339,134332,1,0,0:0:0:0:
299,127,134466,2,0,L|288:40,1,85,10|0,0:0|0:0,0:0:0:0:
203,51,134734,1,8,0:0:0:0:
372,40,134868,1,0,0:0:0:0:
423,167,135002,6,0,P|421:210|411:263,1,85,4|0,0:0|0:0,0:0:0:0:
216,220,135270,2,0,P|208:179|206:136,1,85,8|0,0:0|0:0,0:0:0:0:
315,239,135537,2,0,P|271:307|171:311,1,170,2|8,0:0|0:0,0:0:0:0:
15,203,135939,1,0,0:0:0:0:
119,255,136073,6,0,P|126:214|128:171,1,85,4|0,0:0|0:0,0:0:0:0:
39,31,136341,2,0,P|40:74|48:116,1,85,8|0,0:0|0:0,0:0:0:0:
203,155,136609,2,0,P|295:163|371:107,1,170,2|8,0:0|0:0,0:0:0:0:
343,47,137011,1,0,0:0:0:0:
315,239,137145,6,0,P|323:283|347:323,1,85,12|0,0:0|0:0,0:0:0:0:
459,187,137412,2,0,P|479:150|486:109,1,85,12|0,0:0|0:0,0:0:0:0:
251,87,137680,2,0,P|291:127|411:123,1,170,2|12,0:0|0:0,0:0:0:0:
203,155,138082,2,0,L|215:339,1,170,0|2,0:0|0:0,0:0:0:0:
99,187,138484,2,0,L|123:3,2,170,12|2|12,0:0|0:0|0:0,0:0:0:0:
76,280,139153,1,0,0:0:0:0:
156,320,139287,6,0,P|204:312|248:288,1,85,12|0,0:0|0:0,0:0:0:0:
311,186,139555,2,0,P|359:194|403:218,1,85,12|0,0:0|0:0,0:0:0:0:
304,356,139823,6,0,L|312:164,1,170,2|12,0:0|0:0,0:0:0:0:
224,32,140225,2,0,L|232:224,1,170,0|2,0:0|0:0,0:0:0:0:
147,269,140627,2,0,P|239:241|328:278,1,170,12|2,0:0|0:0,0:0:0:0:
304,356,141028,1,2,0:0:0:0:
356,188,141162,2,0,P|365:140|389:84,1,85,12|0,0:0|0:0,0:0:0:0:
379,107,141363,1,2,0:0:0:0:
379,107,141430,5,4,0:0:0:0:
472,88,141564,1,0,0:0:0:0:
272,124,141698,2,0,P|220:116|188:96,1,85,0|0,0:0|0:0,0:0:0:0:
176,72,141899,1,0,0:0:0:0:
176,72,141966,2,0,L|180:16,3,42.5,0|0|0|0,0:0|0:0|0:0|0:0,0:0:0:0:
96,128,142234,2,0,L|100:184,3,42.5,0|0|0|0,0:0|0:0|0:0|0:0,0:0:0:0:
120,256,142502,5,4,0:0:0:0:
152,268,142569,1,0,0:0:0:0:
184,268,142636,1,0,0:0:0:0:
216,260,142703,1,0,0:0:0:0:
244,240,142770,2,0,L|252:184,3,42.5,0|0|0|0,0:0|0:0|0:0|0:0,0:0:0:0:
320,272,143037,2,0,L|314:315,3,42.5,0|0|0|0,0:0|0:0|0:0|0:0,0:0:0:0:
392,212,143305,2,0,L|398:169,3,42.5,8|0|0|0,0:0|0:0|0:0|0:0,0:0:0:0:
420,88,143573,5,12,0:0:0:0:
392,68,143640,1,0,0:0:0:0:
360,64,143707,1,0,0:0:0:0:
328,64,143774,1,0,0:0:0:0:
296,76,143841,1,8,0:0:0:0:
268,96,143908,1,0,0:0:0:0:
236,112,143975,1,0,0:0:0:0:
200,112,144042,1,0,0:0:0:0:
172,92,144109,2,0,L|156:32,3,42.5,8|0|0|0,0:0|0:0|0:0|0:0,0:0:0:0:
64,116,144377,2,0,L|80:176,3,42.5,8|0|0|0,0:0|0:0|0:0|0:0,0:0:0:0:
100,236,144645,5,12,0:0:0:0:
128,216,144711,1,0,0:0:0:0:
160,204,144778,1,0,0:0:0:0:
192,204,144845,1,0,0:0:0:0:
224,212,144912,1,8,0:0:0:0:
252,228,144979,1,0,0:0:0:0:
280,248,145046,1,0,0:0:0:0:
312,260,145113,1,0,0:0:0:0:
344,264,145180,2,0,L|356:204,3,42.5,2|0|0|0,0:0|0:0|0:0|0:0,0:0:0:0:
424,288,145448,2,0,L|436:348,3,42.5,2|0|0|0,0:0|0:0|0:0|0:0,0:0:0:0:
424,196,145716,5,12,0:0:0:0:
428,172,145783,1,0,0:0:0:0:
433,148,145850,1,0,0:0:0:0:
437,125,145917,1,0,0:0:0:0:
440,100,145984,2,0,L|436:48,3,42.5,0|0|0|0,0:0|0:0|0:0|0:0,0:0:0:0:
352,64,146252,2,0,L|348:12,3,42.5,8|0|0|0,0:0|0:0|0:0|0:0,0:0:0:0:
272,112,146520,2,0,L|268:60,3,42.5,2|0|0|0,0:0|0:0|0:0|0:0,0:0:0:0:
200,36,146787,5,12,0:0:0:0:
200,36,147457,5,0,0:0:0:0:
88,120,147591,6,0,L|96:200,1,63.75,8|0,0:0|2:0,0:0:0:0:
100,200,147859,6,0,P|141:191|184:189,1,85,4|0,0:0|0:0,0:0:0:0:
280,288,148127,2,0,P|237:285|195:277,1,85,8|0,0:0|0:0,0:0:0:0:
304,160,148395,2,0,P|345:151|388:149,1,85,2|0,0:0|0:0,0:0:0:0:
460,320,148662,2,0,P|417:317|375:309,1,85,8|0,0:0|0:0,0:0:0:0:
432,68,148930,6,0,L|424:256,1,170,4|8,0:0|0:0,0:0:0:0:
340,236,149332,1,0,0:0:0:0:
340,236,149466,1,2,0:0:0:0:
504,24,149734,1,8,0:0:0:0:
256,168,150002,6,0,P|192:176|72:136,1,170,4|8,0:0|0:0,0:0:0:0:
72,64,150403,1,0,0:0:0:0:
72,224,150537,2,0,P|60:284|48:320,1,85,2|0,0:0|0:0,0:0:0:0:
16,164,150805,1,8,0:0:0:0:
172,260,150939,1,0,0:0:0:0:
172,260,151006,1,2,0:0:0:0:
172,260,151073,6,0,P|220:256|272:240,1,85,4|0,0:0|0:0,0:0:0:0:
416,208,151341,2,0,P|374:197|332:194,1,85,8|0,0:0|0:0,0:0:0:0:
202,319,151609,6,0,P|241:290|278:250,1,85,10|0,0:0|0:0,0:0:0:0:
385,148,151877,2,0,P|344:161|306:180,1,85,8|0,0:0|0:0,0:0:0:0:
328,312,152145,6,0,P|296:220|212:164,1,170,4|8,0:0|0:0,0:0:0:0:
60,192,152546,1,0,0:0:0:0:
168,144,152680,2,0,P|160:60|148:28,1,85,2|0,0:0|0:0,0:0:0:0:
40,44,152948,1,8,0:0:0:0:
40,44,153082,1,0,0:0:0:0:
132,224,153216,6,0,P|224:208|252:128,2,170,4|8|6,0:0|0:0|0:0,0:0:0:0:
236,56,153886,1,0,0:0:0:0:
236,56,153953,1,0,0:0:0:0:
236,56,154020,2,0,P|280:56|332:84,1,85,8|0,0:0|0:0,0:0:0:0:
428,40,154287,6,0,P|340:120|324:188,1,170,4|8,0:0|0:0,0:0:0:0:
216,244,154689,1,0,0:0:0:0:
252,168,154823,2,0,P|292:208|296:260,1,85,2|0,0:0|0:0,0:0:0:0:
392,370,155091,2,0,P|392:314|408:278,1,85,8|0,0:0|0:0,0:0:0:0:
460,184,155359,5,4,0:0:0:0:
412,24,155493,1,0,0:0:0:0:
400,44,155560,1,2,0:0:0:0:
392,64,155627,2,0,P|384:108|396:168,1,85,8|0,0:0|0:0,0:0:0:0:
392,232,155895,5,10,0:0:0:0:
473,259,156028,1,0,0:0:0:0:
473,344,156162,1,8,0:0:0:0:
392,370,156296,1,0,0:0:0:0:
304,256,156430,6,0,P|256:248|212:256,1,85,4|0,0:0|0:0,0:0:0:0:
128,288,156698,1,8,0:0:0:0:
208,288,156832,1,0,0:0:0:0:
36,256,156966,2,0,P|84:248|128:256,1,85,2|0,0:0|0:0,0:0:0:0:
304,144,157234,6,0,P|256:136|212:144,1,85,8|0,0:0|0:0,0:0:0:0:
128,176,157502,1,4,0:0:0:0:
208,176,157636,1,0,0:0:0:0:
36,144,157770,2,0,P|84:136|128:144,1,85,8|0,0:0|0:0,0:0:0:0:
208,288,158037,6,0,P|256:296|300:288,1,85,2|0,0:0|0:0,0:0:0:0:
384,256,158305,1,8,0:0:0:0:
304,256,158439,1,0,0:0:0:0:
476,288,158573,2,0,P|428:296|384:288,1,85,4|0,0:0|0:0,0:0:0:0:
241,151,158841,6,0,P|289:143|333:151,1,85,8|0,0:0|0:0,0:0:0:0:
420,184,159109,1,2,0:0:0:0:
337,183,159243,1,0,0:0:0:0:
509,151,159377,2,0,P|461:143|417:151,1,85,8|0,0:0|0:0,0:0:0:0:
236,200,159645,6,0,L|224:376,2,170,4|8|2,0:0|0:0|0:0,0:0:0:0:
144,100,160314,1,0,0:0:0:0:
281,79,160448,2,0,P|341:79|381:107,1,85,8|0,0:0|0:0,0:0:0:0:
436,192,160716,6,0,L|447:22,2,170,4|8|2,0:0|0:0|0:0,0:0:0:0:
432,276,161386,1,0,0:0:0:0:
352,172,161520,2,0,P|296:172|256:184,1,85,8|0,0:0|0:0,0:0:0:0:
108,244,161787,6,0,P|149:253|192:252,1,85,4|0,0:0|0:0,0:0:0:0:
200,132,162055,2,0,L|192:40,1,85,8|0,0:0|0:0,0:0:0:0:
272,256,162323,2,0,L|264:348,1,85,2|0,0:0|0:0,0:0:0:0:
180,352,162591,1,8,0:0:0:0:
356,372,162725,1,0,0:0:0:0:
356,372,162792,1,0,0:0:0:0:
356,372,162859,6,0,L|372:188,1,170,4|8,0:0|0:0,0:0:0:0:
384,112,163261,1,0,0:0:0:0:
384,112,163395,1,2,0:0:0:0:
100,64,163662,1,8,0:0:0:0:
224,332,163930,5,4,0:0:0:0:
256,260,164198,5,2,0:0:0:0:
248,176,164466,5,2,0:0:0:0:
244,168,164734,2,0,P|188:168|140:184,1,85,2|2,0:0|0:0,0:0:0:0:
256,260,165002,6,0,P|328:256|404:184,1,170,4|8,0:0|0:0,0:0:0:0:
404,108,165403,1,0,0:0:0:0:
296,352,165537,2,0,P|224:348|148:276,1,170,4|8,0:0|0:0,0:0:0:0:
148,200,165939,1,0,0:0:0:0:
270,90,166073,6,0,L|253:282,1,170,4|8,0:0|0:0,0:0:0:0:
396,360,166475,2,0,L|379:168,1,170,6|2,2:0|0:0,0:0:0:0:
488,116,166877,1,8,3:0:0:0:
488,116,167145,6,0,P|397:156|309:105,1,170,4|8,0:0|0:0,0:0:0:0:
108,108,167546,2,0,P|199:68|287:119,1,170,2|2,2:0|0:0,0:0:0:0:
224,252,167948,2,0,P|196:192|196:144,1,85,8|0,0:0|0:0,0:0:0:0:
344,236,168216,6,0,P|335:277|313:313,1,85,12|0,0:0|0:0,0:0:0:0:
152,344,168484,2,0,P|91:316|52:280,1,85,8|0,0:0|0:0,0:0:0:0:
413,356,168752,2,0,P|452:339|484:312,1,85,12|0,0:0|0:0,0:0:0:0:
192,272,169020,1,8,0:0:0:0:
396,244,169153,1,0,0:0:0:0:
396,244,169287,6,0,P|408:152|356:64,1,170,4|8,0:0|0:0,0:0:0:0:
177,102,169689,2,0,L|193:290,1,170,2|0,2:0|0:0,0:0:0:0:
96,312,170091,1,8,0:0:0:0:
96,312,170225,1,0,0:0:0:0:
312,320,170359,6,0,P|389:306|444:220,1,170,4|8,0:0|0:0,0:0:0:0:
212,196,170761,2,0,P|135:182|80:96,1,170,2|2,2:0|0:0,0:0:0:0:
312,72,171162,1,8,3:0:0:0:
312,72,171430,6,0,L|292:252,2,170,4|8|2,0:0|0:0|0:0,0:0:0:0:
384,208,172100,1,0,0:0:0:0:
224,92,172234,2,0,P|180:92|104:120,1,85,8|0,0:0|0:0,0:0:0:0:
112,200,172502,6,0,L|92:16,2,170,4|8|10,0:0|0:0|0:0,0:0:0:0:
120,288,173171,1,0,0:0:0:0:
220,260,173305,2,0,L|208:164,1,85,8|0,0:0|0:0,0:0:0:0:
288,148,173573,5,4,0:0:0:0:
312,280,173707,2,0,P|420:256|456:188,1,170,0|0,0:0|0:0,0:0:0:0:
436,128,174109,1,2,0:0:0:0:
384,60,174243,1,0,0:0:0:0:
300,52,174377,1,8,0:0:0:0:
220,90,174511,6,0,L|224:296,1,170
224,344,174912,1,8,0:0:0:0:
224,344,175046,1,0,0:0:0:0:
120,288,175180,2,0,P|68:292|20:312,1,85,2|0,0:0|0:0,0:0:0:0:
224,344,175448,2,0,P|266:342|396:280,1,170,8|4,0:0|0:0,0:0:0:0:
367,122,175850,6,0,L|383:310,1,170,2|0,2:0|0:0,0:0:0:0:
472,192,176252,2,0,L|488:4,1,170,2|8,0:0|0:0,0:0:0:0:
367,122,176653,2,0,P|271:130|187:82,1,170,0|0,0:0|0:0,0:0:0:0:
140,44,177055,1,8,0:0:0:0:
88,184,177189,1,0,0:0:0:0:
0,72,177323,5,2,0:0:0:0:
264,212,177591,1,12,0:0:0:0:
264,212,177859,5,4,0:0:0:0:
276,296,177993,1,0,0:0:0:0:
356,328,178127,1,8,0:0:0:0:
432,288,178261,1,0,0:0:0:0:
440,204,178395,1,2,0:0:0:0:
345,158,178528,6,0,L|357:358,1,170,0|0,0:0|0:0,0:0:0:0:
280,368,178930,1,4,0:0:0:0:
196,380,179064,1,0,0:0:0:0:
124,336,179198,1,8,0:0:0:0:
104,252,179332,1,0,0:0:0:0:
200,120,179466,6,0,P|220:184|192:300,1,170,2|8,0:0|0:0,0:0:0:0:
124,336,179868,1,0,0:0:0:0:
312,260,180002,2,0,P|412:264|492:324,1,170,4|8,0:0|0:0,0:0:0:0:
424,372,180403,1,0,0:0:0:0:
376,212,180537,2,0,L|396:24,1,170,6|8,0:0|0:0,0:0:0:0:
476,64,180939,1,0,0:0:0:0:
200,120,181073,6,0,L|220:308,1,170,4|8,0:0|0:0,0:0:0:0:
164,352,181475,1,0,0:0:0:0:
80,348,181609,1,14,0:0:0:0:
24,284,181743,1,0,0:0:0:0:
32,200,181877,1,8,0:0:0:0:
32,200,182145,5,6,0:0:0:0:
336,56,190314,5,12,0:0:0:0:
268,104,190448,1,8,0:0:0:0:
276,188,190582,1,2,0:0:0:0:
276,188,190649,1,2,0:0:0:0:
276,188,190716,6,0,L|284:252,3,42.5,4|0|0|0,0:0|0:0|0:0|0:0,0:0:0:0:
344,268,190984,2,0,L|336:332,3,42.5,8|0|0|0,0:0|0:0|0:0|0:0,0:0:0:0:
272,356,191252,2,0,P|224:352|168:328,1,85,2|0,0:0|0:0,0:0:0:0:
189,340,191453,1,0,0:0:0:0:
189,340,191520,1,8,0:0:0:0:
116,300,191653,1,2,0:0:0:0:
92,220,191787,6,0,L|100:112,1,85,4|0,0:0|0:0,0:0:0:0:
176,100,192055,1,8,0:0:0:0:
196,184,192189,1,0,0:0:0:0:
196,184,192256,1,0,0:0:0:0:
196,184,192323,2,0,L|188:252,3,42.5,2|0|0|0,0:0|0:0|0:0|0:0,0:0:0:0:
272,146,192591,2,0,L|264:78,3,42.5,8|0|0|0,0:0|0:0|0:0|0:0,0:0:0:0:
296,224,192859,6,0,P|344:224|388:204,1,85,12|0,0:0|0:0,0:0:0:0:
377,210,193060,1,0,0:0:0:0:
377,210,193127,1,8,0:0:0:0:
248,304,193261,1,0,0:0:0:0:
248,304,193328,1,0,0:0:0:0:
248,304,193395,2,0,P|208:289|166:290,1,85,2|0,0:0|0:0,0:0:0:0:
92,332,193662,1,8,0:0:0:0:
116,228,193796,1,0,0:0:0:0:
116,228,193863,1,0,0:0:0:0:
116,228,193930,6,0,L|108:124,1,85,4|0,0:0|0:0,0:0:0:0:
148,68,194198,1,8,0:0:0:0:
232,64,194332,1,0,0:0:0:0:
296,120,194466,1,2,0:0:0:0:
304,204,194600,1,0,0:0:0:0:
300,220,194667,1,2,0:0:0:0:
296,236,194734,2,0,L|312:296,3,42.5,8|2|2|2,0:0|0:0|0:0|0:0,0:0:0:0:
292,316,195002,5,12,0:0:0:0:
256,192,195069,12,4,197145,0:0:0:0:
108,68,197412,5,8,0:0:0:0:
196,100,197546,1,0,0:0:0:0:
200,116,197613,1,0,0:0:0:0:
204,132,197680,2,0,L|192:208,3,42.5,2|0|8|0,0:0|0:0|0:0|0:0,0:0:0:0:
276,144,197948,2,0,L|264:220,1,42.5,2|0,0:0|0:0,0:0:0:0:
152,300,198082,6,0,L|145:258,3,42.5,0|0|12|0,0:0|0:0|0:0|0:0,0:0:0:0:
80,312,198350,2,0,L|73:270,1,42.5,2|0,0:0|0:0,0:0:0:0:
56,192,198484,5,4,0:0:0:0:
332,320,199287,6,0,P|384:312|428:272,1,85,4|0,0:0|0:0,0:0:0:0:
460,204,199555,1,8,0:0:0:0:
460,204,199689,1,0,0:0:0:0:
328,132,199823,2,0,L|336:240,1,85,2|0,0:0|0:0,0:0:0:0:
228,316,200091,2,0,L|236:208,1,85,8|0,0:0|0:0,0:0:0:0:
248,72,200359,6,0,P|164:60|72:100,1,170,4|8,0:0|0:0,0:0:0:0:
8,184,200761,1,0,0:0:0:0:
112,320,200895,2,0,L|104:216,1,85,2|0,0:0|0:0,0:0:0:0:
248,152,201162,2,0,L|240:256,1,85,8|0,0:0|0:0,0:0:0:0:
344,344,201430,6,0,P|440:316|480:232,1,170,4|8,0:0|0:0,0:0:0:0:
368,84,201832,2,0,L|376:256,1,170,0|0,0:0|0:0,0:0:0:0:
452,128,202234,1,8,0:0:0:0:
300,272,202368,1,0,0:0:0:0:
300,272,202435,1,2,0:0:0:0:
300,272,202502,6,0,P|232:272|200:256,1,85,4|0,0:0|0:0,0:0:0:0:
60,184,202770,2,0,P|100:173|142:178,1,85,8|0,0:0|0:0,0:0:0:0:
108,256,203037,5,10,0:0:0:0:
100,96,203171,1,0,0:0:0:0:
180,188,203305,5,8,0:0:0:0:
24,180,203439,1,0,0:0:0:0:
180,188,203573,6,0,P|256:204|356:152,1,170,4|8,0:0|0:0,0:0:0:0:
288,100,203975,1,0,0:0:0:0:
216,272,204109,2,0,L|220:360,1,85,2|0,0:0|0:0,0:0:0:0:
288,100,204377,2,0,L|284:12,1,85,8|0,0:0|0:0,0:0:0:0:
404,32,204645,6,0,L|396:216,1,170,4|8,0:0|0:0,0:0:0:0:
340,288,205046,1,0,0:0:0:0:
340,288,205180,2,0,P|296:284|236:264,1,85,2|0,0:0|0:0,0:0:0:0:
164,148,205448,1,8,0:0:0:0:
248,112,205582,1,0,0:0:0:0:
248,112,205649,1,2,0:0:0:0:
248,112,205716,6,0,L|244:220,1,85,4|0,0:0|0:0,0:0:0:0:
172,352,205984,2,0,L|168:244,1,85,8|0,0:0|0:0,0:0:0:0:
164,148,206252,2,0,L|64:140,1,85,2|0,0:0|0:0,0:0:0:0:
256,295,206520,2,0,L|348:287,1,85,8|0,0:0|0:0,0:0:0:0:
460,212,206787,5,4,0:0:0:0:
412,372,206921,1,0,0:0:0:0:
400,352,206988,1,2,0:0:0:0:
392,332,207055,2,0,P|384:288|396:228,1,85,8|0,0:0|0:0,0:0:0:0:
392,164,207323,1,10,0:0:0:0:
473,137,207457,1,0,0:0:0:0:
473,52,207591,1,8,0:0:0:0:
392,26,207725,1,0,0:0:0:0:
304,128,207859,6,0,P|256:136|212:128,1,85
128,96,208127,1,0,0:0:0:0:
208,96,208261,1,0,0:0:0:0:
36,128,208395,2,0,P|84:136|128:128,1,85
308,228,208662,6,0,P|260:220|216:228,1,85
132,260,208930,1,0,0:0:0:0:
212,260,209064,1,0,0:0:0:0:
40,228,209198,2,0,P|88:220|132:228,1,85
216,336,209466,6,0,P|264:344|308:336,1,85
352,224,209734,1,0,0:0:0:0:
352,356,209868,1,0,0:0:0:0:
484,336,210002,2,0,P|436:344|392:336,1,85
216,112,210270,6,0,P|264:104|308:112,1,85
352,224,210537,1,0,0:0:0:0:
352,92,210671,1,0,0:0:0:0:
484,112,210805,2,0,P|436:104|392:112,1,85
260,208,211073,6,0,L|248:32,2,170,4|8|2,0:0|0:0|0:0,0:0:0:0:
148,256,211743,1,0,0:0:0:0:
292,312,211877,2,0,P|352:312|392:284,1,85,8|0,0:0|0:0,0:0:0:0:
184,176,212145,6,0,P|104:184|60:264,2,170,4|8|2,0:0|0:0|0:0,0:0:0:0:
148,256,212814,1,0,0:0:0:0:
48,128,212948,2,0,L|56:40,1,85,8|0,0:0|0:0,0:0:0:0:
184,176,213216,6,0,P|256:172|348:96,1,170,4|8,0:0|0:0,0:0:0:0:
356,36,213618,1,0,0:0:0:0:
400,168,213752,2,0,P|412:228|428:260,1,85,6|0,0:0|0:0,0:0:0:0:
480,312,214020,1,8,0:0:0:0:
512,188,214153,1,0,0:0:0:0:
352,304,214287,6,0,L|248:300,1,85,4|0,0:0|0:0,0:0:0:0:
108,248,214555,2,0,L|212:244,1,85,8|0,0:0|0:0,0:0:0:0:
400,168,214823,2,0,L|296:164,1,85,2|0,0:0|0:0,0:0:0:0:
88,80,215091,2,0,L|192:76,1,85,8|0,0:0|0:0,0:0:0:0:
416,0,215359,5,4,0:0:0:0:
408,84,215627,1,2,0:0:0:0:
400,168,215895,1,6,0:0:0:0:
392,252,216162,1,2,0:0:0:0:
396,245,216430,6,0,P|340:233|212:257,1,170,4|8,0:0|0:0,0:0:0:0:
104,336,216832,1,0,0:0:0:0:
148,268,216966,2,0,P|152:208|144:152,1,85,2|0,0:0|0:0,0:0:0:0:
88,124,217234,1,8,0:0:0:0:
240,152,217368,1,0,0:0:0:0:
240,152,217435,1,0,0:0:0:0:
240,152,217502,6,0,L|332:140,1,85,4|0,0:0|0:0,0:0:0:0:
368,68,217770,1,8,0:0:0:0:
368,68,217903,1,0,0:0:0:0:
456,228,218037,6,0,L|364:216,1,85,2|0,0:0|0:0,0:0:0:0:
328,144,218305,1,8,0:0:0:0:
328,144,218439,1,0,0:0:0:0:
188,232,218573,6,0,L|204:36,2,170,4|8|2,0:0|0:0|0:0,0:0:0:0:
180,336,219243,1,0,0:0:0:0:
304,288,219377,1,8,0:0:0:0:
104,200,219511,1,0,0:0:0:0:
104,200,219578,1,0,0:0:0:0:
104,200,219645,6,0,P|52:196|0:216,1,85,4|0,0:0|0:0,0:0:0:0:
16,344,219912,2,0,P|58:348|99:339,1,85,12|0,0:0|0:0,0:0:0:0:
188,232,220180,2,0,P|188:172|172:128,1,85,8|0,0:0|0:0,0:0:0:0:
310,204,220448,2,0,P|300:245|303:287,1,85,8|0,0:0|0:0,0:0:0:0:
404,104,220716,6,0,P|324:68|232:100,1,170,4|8,0:0|0:0,0:0:0:0:
428,192,221118,2,0,L|452:-12,1,170,0|0,0:0|0:0,0:0:0:0:
310,204,221520,2,0,L|326:304,1,85,8|0,0:0|0:0,0:0:0:0:
323,287,221720,1,2,0:0:0:0:
323,287,221787,5,4,0:0:0:0:
432,304,221921,1,0,0:0:0:0:
224,260,222055,2,0,P|172:260|124:272,1,85,8|0,0:0|0:0,0:0:0:0:
20,340,222323,1,4,0:0:0:0:
184,344,222457,1,0,0:0:0:0:
64,236,222591,2,0,L|68:140,1,85,8|0,0:0|0:0,0:0:0:0:
148,36,222859,6,0,L|164:232,1,170,4|8,0:0|0:0,0:0:0:0:
240,96,223261,2,0,P|336:80|408:140,1,170,0|0,0:0|0:0,0:0:0:0:
420,216,223662,1,8,0:0:0:0:
304,304,223796,1,0,0:0:0:0:
300,288,223863,1,0,0:0:0:0:
296,272,223930,6,0,L|304:172,1,85,4|0,0:0|0:0,0:0:0:0:
392,328,224198,1,8,0:0:0:0:
324,376,224332,1,0,0:0:0:0:
244,348,224466,1,2,0:0:0:0:
208,272,224600,1,0,0:0:0:0:
136,228,224734,1,8,0:0:0:0:
60,264,224868,1,0,0:0:0:0:
60,264,224935,1,0,0:0:0:0:
60,264,225002,6,0,L|72:372,2,85,4|0|8,0:0|0:0|0:0,0:0:0:0:
136,228,225403,2,0,L|148:120,1,85,0|2,0:0|0:0,0:0:0:0:
234,263,225671,1,0,0:0:0:0:
234,263,225805,6,0,L|246:371,1,85,8|0,0:0|0:0,0:0:0:0:
310,227,226073,2,0,L|322:119,2,85,4|0|8,0:0|0:0|0:0,0:0:0:0:
418,347,226475,1,0,0:0:0:0:
418,347,226609,6,0,P|373:354|324:356,1,85,2|0,0:0|0:0,0:0:0:0:
424,240,226877,2,0,P|469:240|508:248,2,85,8|0|4,0:0|0:0|0:0,0:0:0:0:
260,340,227278,1,0,0:0:0:0:
260,340,227412,6,0,P|218:347|175:347,1,85,8|0,0:0|0:0,0:0:0:0:
76,240,227680,2,0,P|118:239|160:247,2,85,2|0|8,0:0|0:0|0:0,0:0:0:0:
32,336,228082,1,0,0:0:0:0:
192,164,228216,6,0,L|184:72,1,85,4|0,0:0|0:0,0:0:0:0:
96,24,228484,2,0,L|88:116,1,85,8|0,0:0|0:0,0:0:0:0:
275,158,228752,2,0,P|363:142|431:62,1,170,2|8,0:0|0:0,0:0:0:0:
432,12,229153,1,0,0:0:0:0:
484,152,229287,6,0,L|464:351,2,170,4|8|2,0:0|0:0|0:0,0:0:0:0:
312,72,229957,1,0,0:0:0:0:
275,158,230091,2,0,L|265:271,1,85,8|0,0:0|0:0,0:0:0:0:
360,324,230359,6,0,P|416:328|476:316,1,85,4|0,0:0|0:0,0:0:0:0:
352,244,230627,2,0,P|296:240|236:252,1,85,8|0,0:0|0:0,0:0:0:0:
208,316,230895,1,2,0:0:0:0:
124,332,231028,1,0,0:0:0:0:
40,312,231162,1,8,0:0:0:0:
0,236,231296,1,0,0:0:0:0:
116,116,231430,6,0,L|108:220,1,85,4|0,0:0|0:0,0:0:0:0:
208,316,231698,2,0,L|200:212,1,85,8|0,0:0|0:0,0:0:0:0:
260,72,231966,2,0,L|252:176,1,85,2|0,0:0|0:0,0:0:0:0:
332,352,232234,2,0,L|324:248,1,85,8|0,0:0|0:0,0:0:0:0:
376,144,232502,5,2,0:0:0:0:
380,148,233573,5,4,0:0:0:0:
500,224,233707,1,0,0:0:0:0:
380,148,233841,2,0,P|332:136|272:144,1,85,8|0,0:0|0:0,0:0:0:0:
152,220,234109,2,0,P|196:224|237:213,1,85,2|0,0:0|0:0,0:0:0:0:
304,56,234377,1,8,0:0:0:0:
320,216,234511,1,0,0:0:0:0:
320,216,234578,1,0,0:0:0:0:
320,216,234645,6,0,L|328:304,1,85,4|0,0:0|0:0,0:0:0:0:
180,312,234912,1,8,0:0:0:0:
184,140,235046,1,0,0:0:0:0:
184,140,235113,1,0,0:0:0:0:
184,140,235180,2,0,L|192:52,1,85,2|0,0:0|0:0,0:0:0:0:
304,56,235448,1,8,0:0:0:0:
112,32,235582,1,0,0:0:0:0:
380,148,235716,5,4,0:0:0:0:
380,148,235984,2,0,P|432:144|468:156,1,85,8|0,0:0|0:0,0:0:0:0:
315,299,236252,2,0,P|311:247|323:211,1,85,2|0,0:0|0:0,0:0:0:0:
456,364,236520,2,0,P|404:368|368:356,1,85,8|0,0:0|0:0,0:0:0:0:
315,299,236787,5,12,0:0:0:0:
232,280,236921,1,0,0:0:0:0:
160,324,237055,1,8,0:0:0:0:
76,332,237189,1,0,0:0:0:0:
12,276,237323,5,12,0:0:0:0:
12,192,237457,1,0,0:0:0:0:
76,136,237591,1,8,0:0:0:0:
160,152,237725,1,0,0:0:0:0:
239,196,237859,6,0,L|231:300,1,85,4|0,0:0|0:0,0:0:0:0:
160,324,238127,1,8,0:0:0:0:
160,324,238261,1,0,0:0:0:0:
328,200,238395,2,0,L|336:304,1,85,2|0,0:0|0:0,0:0:0:0:
407,328,238662,1,8,0:0:0:0:
408,164,238796,1,0,0:0:0:0:
228,104,238930,6,0,P|188:125|159:155,1,85,4|0,0:0|0:0,0:0:0:0:
244,292,239198,2,0,P|215:263|177:244,1,85,8|0,0:0|0:0,0:0:0:0:
24,304,239466,2,0,P|65:284|94:254,1,85,2|0,0:0|0:0,0:0:0:0:
8,116,239734,2,0,P|38:146|76:165,1,85,8|0,0:0|0:0,0:0:0:0:
212,24,240002,5,4,0:0:0:0:
212,24,240270,2,0,L|316:32,1,85,8|0,0:0|0:0,0:0:0:0:
432,128,240537,2,0,L|328:136,1,85,2|0,0:0|0:0,0:0:0:0:
234,208,240805,2,0,L|246:308,1,85,8|0,0:0|0:0,0:0:0:0:
161,153,241073,6,0,L|69:169,1,85,4|0,0:0|0:0,0:0:0:0:
78,168,241274,1,0,0:0:0:0:
78,168,241341,1,8,0:0:0:0:
36,244,241475,1,0,0:0:0:0:
88,312,241609,1,10,0:0:0:0:
172,324,241743,1,0,0:0:0:0:
244,280,241877,1,8,0:0:0:0:
324,248,242011,1,0,0:0:0:0:
408,240,242145,6,0,P|456:244|500:264,1,85,4|0,0:0|0:0,0:0:0:0:
432,336,242412,1,8,0:0:0:0:
432,336,242546,1,0,0:0:0:0:
344,148,242680,6,0,P|296:152|252:172,1,85,2|0,0:0|0:0,0:0:0:0:
320,244,242948,1,8,0:0:0:0:
320,244,243082,1,0,0:0:0:0:
280,72,243216,5,4,0:0:0:0:
176,188,243350,1,0,0:0:0:0:
176,188,243417,1,0,0:0:0:0:
176,188,243484,2,0,P|116:184|72:168,1,85,8|0,0:0|0:0,0:0:0:0:
197,84,243752,2,0,P|239:74|281:73,1,85,2|0,0:0|0:0,0:0:0:0:
456,156,244020,1,8,0:0:0:0:
320,244,244153,1,0,0:0:0:0:
432,336,244287,6,0,L|444:236,1,85,4|0,0:0|0:0,0:0:0:0:
368,120,244555,1,8,0:0:0:0:
368,120,244689,1,0,0:0:0:0:
320,244,244823,2,0,L|232:252,1,85,2|0,0:0|0:0,0:0:0:0:
128,176,245091,1,8,0:0:0:0:
128,176,245225,1,0,0:0:0:0:
8,284,245359,6,0,P|56:280|92:288,1,85,4|0,0:0|0:0,0:0:0:0:
160,352,245627,1,8,0:0:0:0:
160,352,245761,1,0,0:0:0:0:
403,240,245895,6,0,P|355:236|319:244,1,85,6|0,0:0|0:0,0:0:0:0:
235,292,246162,1,8,0:0:0:0:
235,292,246296,1,8,0:0:0:0:
316,96,246430,6,0,P|260:112|220:140,2,85,4|0|8,0:0|0:0|0:0,0:0:0:0:
188,224,246832,1,0,0:0:0:0:
60,96,246966,6,0,P|116:112|156:140,2,85,2|0|8,0:0|0:0|0:0,0:0:0:0:
188,224,247368,1,0,0:0:0:0:
60,276,247502,6,0,L|64:180,1,85,4|0,0:0|0:0,0:0:0:0:
300,180,247770,2,0,L|297:265,1,85,8|0,0:0|0:0,0:0:0:0:
96,324,248037,2,0,L|100:228,1,85,2|0,0:0|0:0,0:0:0:0:
108,32,248305,1,8,0:0:0:0:
108,32,248439,1,0,0:0:0:0:
188,64,248573,6,0,P|248:60|292:36,1,85,4|0,0:0|0:0,0:0:0:0:
440,48,248841,2,0,P|400:35|358:35,1,85,8|0,0:0|0:0,0:0:0:0:
300,180,249109,6,0,L|308:272,1,85,2|0,0:0|0:0,0:0:0:0:
424,352,249377,2,0,L|432:260,1,85,8|0,0:0|0:0,0:0:0:0:
384,136,249645,5,4,0:0:0:0:
312,92,249912,1,2,0:0:0:0:
232,116,250180,1,4,0:0:0:0:
212,200,250448,1,2,0:0:0:0:
252,276,250716,5,4,0:0:0:0:
212,352,250984,1,4,0:0:0:0:
128,348,251252,1,12,0:0:0:0:
108,340,251319,1,0,0:0:0:0:
92,324,251386,1,0,0:0:0:0:
80,304,251453,1,0,0:0:0:0:
76,284,251520,2,0,L|84:224,3,42.5,8|0|2|0,0:0|0:0|0:0|0:0,0:0:0:0:
72,208,251787,5,12,0:0:0:0:
464,304,252055,1,8,0:0:0:0:
72,208,252323,5,12,0:0:0:0:
464,112,252591,1,8,0:0:0:0:
72,108,252859,5,12,0:0:0:0:
464,204,253127,1,8,0:0:0:0:
72,108,253395,5,12,0:0:0:0:
464,12,253662,1,8,0:0:0:0:
256,364,253930,5,12,3:0:0:0:
