osu file format v14

[General]
AudioFilename: Omoi - Snow Drive.mp3
AudioLeadIn: 0
PreviewTime: 11787
Countdown: 0
SampleSet: Normal
StackLeniency: 0.7
Mode: 0
LetterboxInBreaks: 0
WidescreenStoryboard: 0

[Editor]
Bookmarks: 11785,13930,28928,33214,41785,50357,54643,71785,76073,84643,88928,97502,106071,111428,120000,128571,132857,147857,156430,163930,165000,182143,190714,195000,199285,207858,215357,216428,225001,233571,242143,246429,249645,251785,253930
DistanceSpacing: 1
BeatDivisor: 4
GridSize: 4
TimelineZoom: 1.5

[Metadata]
Title:Snow Drive
TitleUnicode:スノウドライヴ
Artist:Omoi
ArtistUnicode:Omoi
Creator:Yales
Version:Easy
Source:
Tags:snowdrive alyssa sakurai hatsune miku vocaloid Synthesizer Rock
BeatmapID:724319
BeatmapSetID:323522

[Difficulty]
HPDrainRate:3
CircleSize:3
OverallDifficulty:3
ApproachRate:3
SliderMultiplier:0.599999999999999
SliderTickRate:1

[Events]
//Background and Video events
0,0,"BGsnow.jpg",0,0
//Break Periods
2,128773,131419
2,182345,189276
//Storyboard Layer 0 (Background)
//Storyboard Layer 1 (Fail)
//Storyboard Layer 2 (Pass)
//Storyboard Layer 3 (Foreground)
//Storyboard Sound Samples

[TimingPoints]
3216,267.857142857143,4,2,1,20,1,0
10716,-100,4,2,1,50,0,0
11787,-100,4,1,1,70,0,1
11854,-100,4,1,1,70,0,0
20358,-100,4,1,1,70,0,1
20425,-100,4,1,1,70,0,0
28930,-100,4,2,1,50,0,0
32680,-100,4,3,1,40,0,0
33216,-100,4,2,1,40,0,0
41386,-100,4,3,1,50,0,0
41787,-100,4,2,1,40,0,0
49287,-100,4,2,1,50,0,0
50358,-100,4,1,1,60,0,1
50425,-100,4,1,1,60,0,0
53975,-100,4,2,1,50,0,0
54645,-100,4,1,1,60,0,0
60002,-100,4,1,1,70,0,0
60069,-100,4,1,1,60,0,0
62546,-100,4,3,1,60,0,0
62948,-100,4,2,1,70,0,0
63216,-100,4,1,1,60,0,0
71787,-100,4,1,1,50,0,0
76073,-100,4,1,1,60,0,1
76140,-100,4,1,1,60,0,0
84912,-100,4,3,1,40,0,0
85716,-100,4,3,1,50,0,0
86787,-100,4,3,1,60,0,0
87859,-100,4,3,1,70,0,0
88528,-100,4,3,1,40,0,0
88930,-100,4,1,1,70,0,1
97434,-100,4,1,1,70,0,0
97501,-100,4,1,1,70,0,1
106073,-100,4,1,1,70,0,0
106609,-100,4,3,1,30,0,0
107145,-100,4,1,1,70,0,0
107680,-100,4,3,1,30,0,0
108216,-100,4,1,1,70,0,0
108752,-100,4,3,1,30,0,0
111028,-100,4,1,1,30,0,0
111430,-100,4,1,1,40,0,0
118216,-100,4,3,1,40,0,0
118930,-100,4,1,1,70,0,1
118997,-100,4,1,1,70,0,0
120002,-100,4,1,1,60,0,0
128573,-100,4,1,1,40,0,0
132591,-100,4,3,1,40,0,0
132858,-100,4,1,1,60,0,1
132925,-100,4,1,1,60,0,0
141430,-100,4,3,1,60,0,0
147457,-100,4,3,1,40,0,0
147858,-100,4,1,1,70,0,1
156363,-100,4,1,1,70,0,0
156430,-100,4,1,1,70,0,1
163930,-100,4,2,1,50,0,0
165001,-100,4,1,1,70,0,1
165068,-100,4,1,1,70,0,0
182145,-100,4,2,1,50,0,0
190314,-100,4,1,1,50,0,0
190582,-100,4,3,1,50,0,0
190716,-100,4,3,1,50,0,1
190782,-100,4,3,1,50,0,0
195002,-100,4,1,1,60,0,0
197145,-100,4,2,1,60,0,0
197412,-100,4,3,1,60,0,0
198617,-100,4,2,1,20,0,0
199287,-100,4,1,1,70,0,1
207791,-100,4,1,1,70,0,0
207858,-100,4,1,1,70,0,1
215358,-100,4,2,1,50,0,0
216430,-100,4,1,1,70,0,1
224934,-100,4,1,1,70,0,0
225001,-100,4,1,1,70,0,1
232501,-100,4,2,1,40,0,0
233573,-100,4,1,1,70,0,1
233640,-100,4,1,1,70,0,0
242144,-100,4,1,1,70,0,1
242211,-100,4,1,1,70,0,0
249644,-100,4,2,1,40,0,0
250715,-100,4,2,1,50,0,0
251251,-100,4,1,1,50,0,0
251519,-100,4,3,1,50,0,0
251787,-100,4,1,1,70,0,1
251854,-100,4,1,1,70,0,0
253930,-100,4,1,1,70,0,1
253997,-100,4,1,1,70,0,0

[Colours]
Combo1 : 155,205,255
Combo2 : 255,193,235
Combo3 : 183,232,255
Combo4 : 224,193,255

[HitObjects]
196,156,3216,6,0,P|208:96|196:40,1,120,0|0,0:0|0:0,0:0:0:0:
92,96,4287,2,0,P|79:154|91:212,1,120,0|0,3:0|3:0,0:0:0:0:
172,300,5359,1,0,0:0:0:0:
276,244,5895,1,0,0:0:0:0:
312,128,6430,6,0,P|324:69|312:11,1,120,0|0,3:0|3:0,0:0:0:0:
208,68,7502,1,2,0:0:0:0:
196,188,8037,1,2,0:0:0:0:
300,248,8573,2,0,P|368:244|428:200,1,120,0|0,3:0|3:0,0:0:0:0:
464,108,9645,5,2,3:0:0:0:
372,28,10180,1,2,0:0:0:0:
276,100,10716,2,0,L|280:180,2,59.9999999999999,4|2|4,1:0|1:0|1:0,0:0:0:0:
180,28,11787,5,4,0:2:0:0:
96,112,12323,1,2,0:0:0:0:
136,224,12859,2,0,P|196:236|268:208,1,120,12|2,0:0|0:0,0:0:0:0:
348,144,13930,2,0,P|405:127|463:139,1,120,4|2,0:0|0:0,0:0:0:0:
412,248,15002,5,8,0:0:0:0:
296,224,15537,2,0,P|256:160|268:100,1,120,8|4,0:0|0:0,0:0:0:0:
344,32,16609,2,0,P|379:78|380:137,1,120,2|4,0:0|0:0,0:0:0:0:
296,224,17680,6,0,B|236:208|176:232|176:232|120:252|52:220,1,240,2|2,0:0|0:0,0:0:0:0:
72,104,19287,2,0,L|80:24,2,59.9999999999999,4|8|8,0:0|0:0|0:0,0:0:0:0:
62,223,20359,5,4,0:0:0:0:
168,172,20895,1,2,0:0:0:0:
264,244,21430,2,0,L|396:232,1,120,4|8,0:0|0:0,0:0:0:0:
460,140,22502,2,0,L|328:152,1,120,4|2,0:0|0:0,0:0:0:0:
240,84,23573,5,4,0:0:0:0:
344,28,24109,1,8,0:0:0:0:
340,150,24645,2,0,L|332:304,2,120,4|4|4,0:0|0:0|0:0,0:0:0:0:
448,96,26252,1,2,0:0:0:0:
344,28,26787,6,0,P|284:20|216:32,1,120,4|2,0:0|0:0,0:0:0:0:
128,96,27859,1,4,0:0:0:0:
228,160,28395,1,0,0:0:0:0:
120,212,28930,6,0,P|228:280|324:228,2,240,4|8|8,0:0|3:0|0:0,0:0:0:0:
80,168,31341,2,0,B|60:104|68:52|68:52|112:32|148:52,1,180,8|8,3:0|3:0,0:0:0:0:
248,68,32680,2,0,L|320:48,1,59.9999999999999,8|8,0:0|0:0,0:0:0:0:
364,36,33216,5,4,0:0:0:0:
384,276,34287,2,0,L|388:344,1,59.9999999999999,4|8,0:0|0:0,0:0:0:0:
224,260,35359,2,0,L|228:192,1,59.9999999999999,4|8,0:0|0:0,0:0:0:0:
68,288,36430,2,0,L|72:356,1,59.9999999999999,4|8,0:0|0:0,0:0:0:0:
144,184,37502,6,0,L|148:116,1,59.9999999999999,4|8,0:0|0:0,0:0:0:0:
280,248,38573,2,0,L|284:316,1,59.9999999999999,4|8,0:0|0:0,0:0:0:0:
404,172,39645,2,0,L|408:104,1,59.9999999999999,4|8,0:0|0:0,0:0:0:0:
236,56,40716,1,4,0:0:0:0:
116,264,41787,6,0,P|72:268|36:260,2,59.9999999999999,4|8|0,0:0|0:0|3:0,0:0:0:0:
224,216,42859,2,0,P|268:212|304:220,2,59.9999999999999,4|8|0,0:0|0:0|3:0,0:0:0:0:
124,152,43930,6,0,L|120:72,2,59.9999999999999,4|8|0,0:0|0:0|3:0,0:0:0:0:
224,216,45002,2,0,L|228:296,2,59.9999999999999,4|8|0,0:0|0:0|3:0,0:0:0:0:
324,148,46073,2,0,L|328:68,2,59.9999999999999,4|8|0,0:0|0:0|3:0,0:0:0:0:
428,208,47145,2,0,L|432:288,2,59.9999999999999,4|8|0,0:0|0:0|3:0,0:0:0:0:
412,88,48216,6,0,P|356:80|284:92,1,120,4|0,0:0|3:0,0:0:0:0:
280,208,49287,2,0,P|224:216|152:204,1,120,4|0,0:0|3:0,0:0:0:0:
80,120,50359,5,4,0:0:0:0:
124,8,50895,1,2,0:0:0:0:
236,48,51430,1,4,0:0:0:0:
188,160,51966,1,2,0:0:0:0:
288,228,52502,6,0,P|356:228|416:204,1,120,4|0,0:0|0:0,0:0:0:0:
476,112,53573,2,0,L|492:8,1,89.9999999999999
344,56,54645,6,0,P|287:37|227:38,1,120,4|2,0:0|0:0,0:0:0:0:
148,128,55716,1,4,0:0:0:0:
48,56,56252,1,2,0:0:0:0:
16,172,56787,2,0,L|20:304,1,120,4|2,0:0|0:0,0:0:0:0:
132,252,57859,6,0,B|192:232|248:256|248:256|308:276|368:244,1,240,4|4,0:0|0:0,0:0:0:0:
444,156,59466,1,2,0:0:0:0:
324,160,60002,2,0,P|312:96|336:20,1,120,4|2,0:0|0:0,0:0:0:0:
444,39,61073,2,0,P|455:97|443:155,1,120,4|2,0:0|0:0,0:0:0:0:
368,252,62145,6,0,P|300:256|236:208,1,120,4|8,0:0|0:0,0:0:0:0:
224,180,62948,1,4,0:0:0:0:
224,180,63216,2,0,P|156:172|84:196,1,120,12|10,0:0|0:0,0:0:0:0:
84,304,64287,6,0,L|64:44,1,240,12|12,0:0|0:0,0:0:0:0:
184,60,65895,1,10,0:0:0:0:
196,180,66430,2,0,L|208:328,1,120,12|10,0:0|0:0,0:0:0:0:
312,356,67502,6,0,P|376:352|440:312,1,120,12|10,0:0|0:0,0:0:0:0:
460,212,68573,1,4,0:0:0:0:
388,116,69109,1,10,0:0:0:0:
328,220,69645,6,0,P|264:216|200:176,1,120,12|10,0:0|0:0,0:0:0:0:
156,84,70716,1,10,0:0:0:0:
244,0,71252,1,0,0:0:0:0:
256,120,71787,6,0,B|280:176|264:236|264:236|236:296|256:356,1,240,4|4,0:0|0:0,0:0:0:0:
360,292,73395,1,2,0:0:0:0:
380,172,73930,2,0,P|260:140|144:168,1,240,4|4,0:0|0:0,0:0:0:0:
80,264,75537,1,2,0:0:0:0:
56,148,76073,6,0,L|40:0,1,120,12|10,0:0|0:0,0:0:0:0:
162,45,77145,2,0,L|146:193,1,120,12|12,0:0|0:0,0:0:0:0:
232,252,78216,2,0,P|364:240|436:132,1,240,4|4,0:0|0:0,0:0:0:0:
408,44,79823,1,10,0:0:0:0:
320,124,80359,6,0,L|340:400,1,240,12|0,0:0|0:0,0:0:0:0:
216,364,81966,1,2,0:0:0:0:
212,244,82502,2,0,L|244:-12,1,240,12|0,0:0|0:0,0:0:0:0:
360,20,84109,1,2,0:0:0:0:
432,116,84645,6,0,P|356:140|304:124,1,120,4|8,0:0|0:0,0:0:0:0:
208,84,85716,2,0,P|149:76|94:99,1,120,12|8,0:0|0:0,0:0:0:0:
84,220,86787,2,0,L|104:376,2,120,12|8|12,0:0|0:0|0:0,0:0:0:0:
324,224,88930,6,0,P|416:212|460:176,1,120,4|2,0:0|0:0,0:0:0:0:
464,80,90002,1,4,0:0:0:0:
364,12,90537,1,2,0:0:0:0:
280,100,91073,6,0,B|280:184|280:184|308:260|308:260|308:348,1,240,4|4,0:0|0:0,0:0:0:0:
196,372,92680,1,10,0:0:0:0:
188,252,93216,2,0,B|188:168|188:168|160:96|160:96|160:4,1,240,4|4,0:0|0:0,0:0:0:0:
280,24,94823,1,6,0:0:0:0:
280,144,95359,6,0,L|276:284,1,120,4|2,0:0|0:0,0:0:0:0:
372,340,96430,1,4,0:0:0:0:
468,268,96966,1,14,0:0:0:0:
472,148,97502,6,0,L|464:24,2,120,4|2|4,0:0|0:0|0:0,0:0:0:0:
379,220,99109,2,0,L|371:344,2,120,2|4|2,0:0|0:0|0:0,0:0:0:0:
336,108,100716,2,0,L|92:84,1,240,4|4,0:0|0:0,0:0:0:0:
48,196,102323,1,2,0:0:0:0:
184,208,102859,6,0,L|328:192,1,120,4|6,0:0|0:0,0:0:0:0:
360,300,103930,1,4,0:0:0:0:
240,316,104466,2,0,L|96:300,1,120,2|4,0:0|0:0,0:0:0:0:
60,200,105537,1,10,0:0:0:0:
184,208,106073,6,0,P|252:216|312:180,1,120,4|2,0:0|0:0,0:0:0:0:
372,100,107145,2,0,P|316:76|255:84,1,120,4|2,0:0|0:0,0:0:0:0:
156,144,108216,2,0,P|88:152|32:120,1,120,4|2,0:0|0:0,0:0:0:0:
116,32,109287,2,0,P|204:36|260:80,1,150,4|0,0:0|0:0,0:0:0:0:
456,320,111430,6,0,P|388:340|300:304,1,120,4|2,0:0|0:0,0:0:0:0:
252,252,112502,2,0,P|184:232|96:268,1,120,4|2,0:0|0:0,0:0:0:0:
44,316,113573,1,4,0:0:0:0:
44,316,114109,2,0,L|32:172,1,120,2|4,0:0|0:0,0:0:0:0:
20,76,115180,1,2,0:0:0:0:
128,124,115716,6,0,P|204:128|264:92,1,120,4|2,0:0|0:0,0:0:0:0:
344,44,116787,1,4,0:0:0:0:
344,44,117323,2,0,P|420:40|480:76,1,120,2|4,0:0|0:0,0:0:0:0:
456,176,118395,1,2,0:0:0:0:
456,176,118930,6,0,L|428:320,1,120,4|4,0:0|0:0,0:0:0:0:
324,348,120002,6,0,P|244:344|196:308,1,120,12|12,0:0|0:0,0:0:0:0:
132,232,121073,2,0,P|72:229|19:255,1,120,12|12,0:0|0:0,0:0:0:0:
96,348,122145,1,12,0:0:0:0:
211,323,122680,1,12,0:0:0:0:
236,204,123216,1,12,0:0:0:0:
136,136,123752,1,12,0:0:0:0:
136,256,124287,6,0,P|260:304|344:216,1,240,12|12,0:0|0:0,0:0:0:0:
360,128,125895,1,12,0:0:0:0:
252,72,126430,2,0,P|240:136|260:196,1,120,12|12,0:0|0:0,0:0:0:0:
368,228,127502,6,0,P|264:212|152:316,1,240,12|4,0:0|0:0,0:0:0:0:
72,252,132859,6,0,L|60:124,1,120,12|10,0:0|0:0,0:0:0:0:
180,160,133930,2,0,L|192:32,1,120,12|10,0:0|0:0,0:0:0:0:
280,120,135002,2,0,P|364:132|424:104,2,120,4|2|4,0:0|0:0|0:0,0:0:0:0:
340,16,136609,1,2,0:0:0:0:
460,28,137145,6,0,L|448:272,1,240,12|0,0:0|0:0,0:0:0:0:
372,360,138752,1,2,0:0:0:0:
364,240,139287,2,0,L|352:-4,1,240,12|0,0:0|0:0,0:0:0:0:
232,20,140895,1,2,0:0:0:0:
244,140,141430,6,0,L|252:284,1,120,4|0,0:0|0:0,0:0:0:0:
144,312,142502,2,0,L|137:192,1,120,4|0,0:0|0:0,0:0:0:0:
128,72,143573,1,12,0:0:0:0:
8,92,144109,1,8,0:0:0:0:
8,212,144645,6,0,B|64:236|128:216|128:216|184:188|252:224,1,240,12|12,0:0|0:0,0:0:0:0:
336,300,146252,1,8,0:0:0:0:
444,252,146787,1,12,0:0:0:0:
260,100,147859,6,0,P|248:156|268:244,1,120,4|2,0:0|0:0,0:0:0:0:
376,220,148930,2,0,P|388:164|368:76,1,120,4|2,0:0|0:0,0:0:0:0:
260,100,150002,2,0,B|200:120|140:104|140:104|80:80|24:112,1,240,4|4,0:0|0:0,0:0:0:0:
20,232,151609,1,10,0:0:0:0:
140,248,152145,6,0,L|124:8,1,240,4|4,0:0|0:0,0:0:0:0:
244,8,153752,1,6,0:0:0:0:
248,128,154287,2,0,L|232:256,1,120,4|2,0:0|0:0,0:0:0:0:
304,344,155359,1,4,0:0:0:0:
420,308,155895,1,10,0:0:0:0:
440,188,156430,6,0,P|444:124|432:64,2,120,4|2|4,0:0|0:0|0:0,0:0:0:0:
320,204,158037,2,0,P|316:268|328:328,2,120,2|4|2,0:0|0:0|0:0,0:0:0:0:
416,132,159645,2,0,P|272:160|168:84,1,240,4|4,0:0|0:0,0:0:0:0:
120,24,161252,1,2,0:0:0:0:
84,140,161787,6,0,P|68:200|76:276,1,120,4|2,0:0|0:0,0:0:0:0:
120,368,162859,2,0,P|204:372|264:340,1,120,4|2,0:0|0:0,0:0:0:0:
172,256,163930,2,0,P|164:212|168:184,2,59.9999999999999
268,180,165002,6,0,P|420:216|480:136,1,240,4|4,0:0|0:0,0:0:0:0:
472,48,166609,1,0,0:0:0:0:
364,112,167145,2,0,L|372:352,2,240,4|12|4,0:0|0:0|0:0,0:0:0:0:
260,52,169823,1,0,0:0:0:0:
232,168,170359,6,0,P|104:212|0:136,1,240,4|4,0:0|0:0,0:0:0:0:
32,44,171966,1,2,0:0:0:0:
144,4,172502,2,0,P|148:72|116:132,1,120,4|10,0:0|0:0,0:0:0:0:
19,164,173573,6,0,P|13:223|35:278,2,120,4|2|4,0:0|0:0|0:0,0:0:0:0:
132,204,175180,1,2,0:0:0:0:
220,284,175716,2,0,P|336:312|440:216,1,240,4|4,0:0|0:0,0:0:0:0:
416,124,177323,1,2,0:0:0:0:
304,160,177859,6,0,L|320:256,2,59.9999999999999,4|8|2,0:0|0:0|0:0,0:0:0:0:
220,72,178930,2,0,L|236:-24,2,59.9999999999999,4|8|2,0:0|0:0|0:0,0:0:0:0:
204,192,180002,2,0,P|88:204|-8:104,1,240,4|4,0:0|0:0,0:0:0:0:
36,12,181609,1,14,0:0:0:0:
124,92,182145,5,6,0:0:0:0:
316,64,190716,6,0,P|248:52|180:72,1,120,4|2,0:0|0:0,0:0:0:0:
100,132,191787,2,0,P|92:192|104:256,1,120,4|2,0:0|0:0,0:0:0:0:
196,324,192859,2,0,P|264:336|332:316,1,120,12|2,0:0|0:0,0:0:0:0:
408,252,193930,2,0,P|416:192|404:128,1,120,4|2,0:0|0:0,0:0:0:0:
256,192,195002,12,4,197145,0:0:0:0:
178,228,198216,6,0,L|184:288,1,59.9999999999999,12|4,0:0|0:0,0:0:0:0:
364,308,199287,5,4,0:0:0:0:
360,188,199823,1,2,0:0:0:0:
252,132,200359,2,0,P|244:204|264:264,1,120,4|2,0:0|0:0,0:0:0:0:
360,188,201430,6,0,P|368:116|348:56,1,120,4|2,0:0|0:0,0:0:0:0:
240,36,202502,1,4,0:0:0:0:
144,108,203037,1,10,0:0:0:0:
220,204,203573,6,0,B|280:224|340:192|340:192|396:176|456:204,1,240,4|4,0:0|0:0,0:0:0:0:
384,300,205180,1,2,0:0:0:0:
272,340,205716,2,0,P|192:324|144:288,1,120,4|2,0:0|0:0,0:0:0:0:
60,240,206787,2,0,P|119:232|171:203,1,120,4|10,0:0|0:0,0:0:0:0:
260,120,207859,6,0,L|252:-16,2,120,4|2|4,0:0|0:0|0:0,0:0:0:0:
352,196,209466,2,0,L|344:332,2,120,2|4|2,0:0|0:0|0:0,0:0:0:0:
244,248,211073,2,0,P|124:252|12:172,1,240,4|4,0:0|0:0,0:0:0:0:
12,72,212680,1,2,0:0:0:0:
120,124,213216,6,0,P|184:152|256:124,1,120,4|6,0:0|0:0,0:0:0:0:
340,96,214287,2,0,P|398:87|450:113,1,120,4|2,0:0|0:0,0:0:0:0:
452,236,215359,5,4,0:0:0:0:
344,292,215895,1,6,0:0:0:0:
224,272,216430,6,0,P|200:152|224:16,1,240,4|4,0:0|0:0,0:0:0:0:
336,56,218037,1,2,0:0:0:0:
320,176,218573,2,0,P|192:208|80:160,1,240,4|4,0:0|0:0,0:0:0:0:
44,64,220180,1,8,0:0:0:0:
94,171,220716,6,0,L|82:327,2,120,4|2|4,0:0|0:0|0:0,0:0:0:0:
144,60,222323,1,4,0:0:0:0:
236,136,222859,2,0,P|316:144|364:120,1,120,4|2,0:0|0:0,0:0:0:0:
344,8,223930,2,0,P|264:0|216:24,1,120,4|2,0:0|0:0,0:0:0:0:
124,72,225002,6,0,L|136:224,2,120,4|2|4,0:0|0:0|0:0,0:0:0:0:
28,144,226609,2,0,L|16:296,2,120,2|4|2,0:0|0:0|0:0,0:0:0:0:
133,191,228216,2,0,P|273:203|381:139,1,240,4|4,0:0|0:0,0:0:0:0:
412,52,229823,1,2,0:0:0:0:
444,168,230359,6,0,P|456:228|480:288,1,120,4|2,0:0|0:0,0:0:0:0:
360,260,231430,1,4,0:0:0:0:
244,228,231966,1,2,0:0:0:0:
124,248,232502,5,2,0:0:0:0:
360,260,233573,6,0,P|380:124|356:8,1,240,4|4,0:0|0:0,0:0:0:0:
244,48,235180,1,2,0:0:0:0:
188,152,235716,2,0,P|184:220|192:280,1,120,4|2,0:0|0:0,0:0:0:0:
300,316,236787,5,12,0:0:0:0:
416,292,237323,1,12,0:0:0:0:
476,188,237859,2,0,P|492:92|476:40,1,120,4|2,0:0|0:0,0:0:0:0:
368,60,238930,2,0,P|351:117|356:176,1,120,4|2,0:0|0:0,0:0:0:0:
284,272,240002,6,0,P|224:280|156:264,1,120,4|2,0:0|0:0,0:0:0:0:
108,164,241073,2,0,L|76:88,2,59.9999999999999,4|8|10,0:0|0:0|0:0,0:0:0:0:
224,192,242145,6,0,P|280:168|320:120,1,120,4|2,0:0|0:0,0:0:0:0:
364,12,243216,1,4,0:0:0:0:
244,32,243752,1,2,0:0:0:0:
317,124,244287,2,0,P|393:164|449:152,1,120,4|2,0:0|0:0,0:0:0:0:
492,60,245359,5,4,0:0:0:0:
508,180,245895,1,10,0:0:0:0:
424,264,246430,2,0,P|364:292|296:280,2,120,4|2|4,0:0|0:0|0:0,0:0:0:0:
348,172,248037,1,2,0:0:0:0:
240,224,248573,2,0,P|224:292|248:364,1,120,4|2,0:0|0:0,0:0:0:0:
356,348,249645,5,4,0:0:0:0:
452,276,250180,1,4,0:0:0:0:
376,184,250716,1,4,0:0:0:0:
284,260,251252,1,12,0:0:0:0:
256,192,251787,12,12,253930,3:0:0:0:
