osu file format v14

[General]
AudioFilename: audio.mp3
AudioLeadIn: 0
PreviewTime: 94155
Countdown: 0
SampleSet: Normal
StackLeniency: 0.7
Mode: 1
LetterboxInBreaks: 0
WidescreenStoryboard: 1

[Editor]
DistanceSpacing: 0.8
BeatDivisor: 4
GridSize: 32
TimelineZoom: 2.899999

[Metadata]
Title:Snow Drive (01.23)
TitleUnicode:スノウドライヴ (01.23)
Artist:Omoi
ArtistUnicode:Omoi
Creator:duski
Version:Kantan
Source:
Tags:hatsune miku vocaloid synth rock the first waltz japanese electronic featured artist fa osu! mg mpg mappers' guild capu zedther
BeatmapID:2762278
BeatmapSetID:1274884

[Difficulty]
HPDrainRate:7
CircleSize:6
OverallDifficulty:3
ApproachRate:6
SliderMultiplier:1.4
SliderTickRate:1

[Events]
//Background and Video events
0,0,"snowdrive.jpg",0,40
//Break Periods
2,189980,195159
//Storyboard Layer 0 (Background)
//Storyboard Layer 1 (Fail)
//Storyboard Layer 2 (Pass)
//Storyboard Layer 3 (Foreground)
//Storyboard Layer 4 (Overlay)
//Storyboard Sound Samples

[TimingPoints]
138,267.857142857143,4,1,0,80,1,0
138,-111.111111111111,4,1,0,80,0,0
16209,-111.111111111111,4,1,0,90,0,0
17280,-111.111111111111,4,1,0,100,0,0
94423,-111.111111111111,4,1,0,100,0,1
111566,-111.111111111111,4,1,0,100,0,0
153352,-111.111111111111,4,1,0,100,0,1
169423,-111.111111111111,4,1,0,100,0,0
204780,-111.111111111111,4,1,0,100,0,1
220852,-111.111111111111,4,1,0,100,0,0
221923,-111.111111111111,4,1,0,100,0,1
237995,-111.111111111111,4,1,0,100,0,0

[HitObjects]
256,192,138,5,0,0:0:0:0:
256,192,1209,1,8,0:0:0:0:
256,192,1745,1,0,0:0:0:0:
256,192,2280,1,8,0:0:0:0:
256,192,3084,1,8,0:0:0:0:
256,192,3352,1,8,0:0:0:0:
256,192,3888,1,0,0:0:0:0:
256,192,4423,1,8,0:0:0:0:
256,192,5495,1,8,0:0:0:0:
256,192,6566,1,8,0:0:0:0:
256,192,6968,1,8,0:0:0:0:
256,192,7370,1,8,0:0:0:0:
256,192,7638,1,8,0:0:0:0:
256,192,8709,1,8,0:0:0:0:
256,192,9513,1,8,0:0:0:0:
256,192,10316,1,8,0:0:0:0:
256,192,11120,1,8,0:0:0:0:
256,192,11923,1,8,0:0:0:0:
256,192,12459,1,8,0:0:0:0:
256,192,12995,1,0,0:0:0:0:
256,192,13530,1,0,0:0:0:0:
256,192,14066,1,8,0:0:0:0:
256,192,14602,1,0,0:0:0:0:
256,192,14870,1,8,0:0:0:0:
256,192,15673,1,8,0:0:0:0:
256,192,16209,1,8,0:0:0:0:
256,192,16477,1,8,0:0:0:0:
256,192,16745,1,8,0:0:0:0:
256,192,17280,1,12,0:0:0:0:
256,192,17816,1,8,0:0:0:0:
256,192,18084,1,0,0:0:0:0:
256,192,18352,1,8,0:0:0:0:
256,192,18888,1,8,0:0:0:0:
256,192,19155,1,8,0:0:0:0:
256,192,19423,1,0,0:0:0:0:
256,192,19959,1,0,0:0:0:0:
256,192,20227,1,0,0:0:0:0:
256,192,20495,1,8,0:0:0:0:
256,192,21566,1,4,0:0:0:0:
256,192,22102,1,0,0:0:0:0:
256,192,22370,1,0,0:0:0:0:
256,192,22638,1,8,0:0:0:0:
256,192,23173,1,0,0:0:0:0:
256,192,23441,1,8,0:0:0:0:
256,192,23709,1,0,0:0:0:0:
256,192,24245,1,0,0:0:0:0:
256,192,24513,1,0,0:0:0:0:
256,192,24780,1,8,0:0:0:0:
256,192,25852,1,4,0:0:0:0:
256,192,26388,1,8,0:0:0:0:
256,192,26923,1,8,0:0:0:0:
256,192,27459,1,8,0:0:0:0:
256,192,27995,1,0,0:0:0:0:
256,192,28530,1,8,0:0:0:0:
256,192,29066,1,8,0:0:0:0:
256,192,29602,1,8,0:0:0:0:
256,192,29870,1,8,0:0:0:0:
256,192,30138,1,4,0:0:0:0:
256,192,30673,1,0,0:0:0:0:
256,192,30941,1,0,0:0:0:0:
256,192,31209,1,8,0:0:0:0:
256,192,31745,1,0,0:0:0:0:
256,192,32013,1,8,0:0:0:0:
256,192,32280,1,0,0:0:0:0:
256,192,32816,1,0,0:0:0:0:
256,192,33352,1,0,0:0:0:0:
256,192,33620,1,12,0:0:0:0:
256,192,33888,1,12,0:0:0:0:
256,192,34691,1,8,0:0:0:0:
256,192,35093,1,8,0:0:0:0:
256,192,35495,1,0,0:0:0:0:
256,192,35896,1,8,0:0:0:0:
256,192,36298,1,8,0:0:0:0:
256,192,36834,1,0,0:0:0:0:
256,192,37236,1,8,0:0:0:0:
256,192,37638,1,8,0:0:0:0:
256,192,38709,1,12,0:0:0:0:
256,192,39780,1,4,0:0:0:0:
256,192,40852,1,4,0:0:0:0:
256,192,41923,1,12,0:0:0:0:
256,192,42995,1,12,0:0:0:0:
256,192,44066,1,4,0:0:0:0:
256,192,45138,1,4,0:0:0:0:
256,192,46209,1,8,0:0:0:0:
256,192,46611,1,8,0:0:0:0:
256,192,47280,1,4,0:0:0:0:
256,192,47816,1,8,0:0:0:0:
256,192,48352,1,12,0:0:0:0:
256,192,48888,1,0,0:0:0:0:
256,192,49423,1,12,0:0:0:0:
256,192,49959,1,0,0:0:0:0:
256,192,50495,1,12,0:0:0:0:
256,192,51566,1,4,0:0:0:0:
256,192,52102,1,0,0:0:0:0:
256,192,52638,1,12,0:0:0:0:
256,192,53173,1,0,0:0:0:0:
256,192,53709,1,4,0:0:0:0:
256,192,54245,1,0,0:0:0:0:
256,192,54780,1,12,0:0:0:0:
256,192,55584,1,0,0:0:0:0:
256,192,55852,1,8,0:0:0:0:
256,192,56388,1,8,0:0:0:0:
256,192,56655,1,8,0:0:0:0:
256,192,56923,1,0,0:0:0:0:
256,192,57459,1,8,0:0:0:0:
256,192,57727,1,8,0:0:0:0:
256,192,57995,1,0,0:0:0:0:
256,192,58530,1,0,0:0:0:0:
256,192,58798,1,8,0:0:0:0:
256,192,59066,1,8,0:0:0:0:
256,192,60138,1,4,0:0:0:0:
256,192,60673,1,8,0:0:0:0:
256,192,60941,1,8,0:0:0:0:
256,192,61209,1,12,0:0:0:0:
256,192,61745,1,0,0:0:0:0:
256,192,62013,1,8,0:0:0:0:
256,192,62280,1,12,0:0:0:0:
256,192,62816,1,8,0:0:0:0:
256,192,63084,1,0,0:0:0:0:
256,192,63352,1,12,0:0:0:0:
256,192,64423,1,4,0:0:0:0:
256,192,64959,1,0,0:0:0:0:
256,192,65227,1,0,0:0:0:0:
256,192,65495,1,12,0:0:0:0:
256,192,66030,1,0,0:0:0:0:
256,192,66298,1,0,0:0:0:0:
256,192,66566,1,12,0:0:0:0:
256,192,67102,1,8,0:0:0:0:
256,192,67370,1,8,0:0:0:0:
256,192,67638,1,4,0:0:0:0:
256,192,68441,1,12,0:0:0:0:
256,192,68709,1,4,0:0:0:0:
256,192,69245,1,0,0:0:0:0:
256,192,69513,1,0,0:0:0:0:
256,192,69780,1,12,0:0:0:0:
256,192,70316,1,0,0:0:0:0:
256,192,70584,1,0,0:0:0:0:
256,192,70852,1,12,0:0:0:0:
256,192,71388,1,8,0:0:0:0:
256,192,71655,1,8,0:0:0:0:
256,192,71923,1,4,0:0:0:0:
256,192,72995,1,12,0:0:0:0:
256,192,73530,1,8,0:0:0:0:
256,192,73798,1,8,0:0:0:0:
256,192,74066,1,4,0:0:0:0:
256,192,74602,1,0,0:0:0:0:
256,192,74870,1,0,0:0:0:0:
256,192,75138,1,12,0:0:0:0:
256,192,75673,1,0,0:0:0:0:
256,192,75941,1,8,0:0:0:0:
256,192,76209,1,12,0:0:0:0:
256,192,76611,1,8,0:0:0:0:
256,192,77280,1,4,0:0:0:0:
256,192,78084,1,8,0:0:0:0:
256,192,78620,1,0,0:0:0:0:
256,192,78888,1,8,0:0:0:0:
256,192,79155,1,0,0:0:0:0:
256,192,79423,1,8,0:0:0:0:
256,192,80227,1,8,0:0:0:0:
256,192,81566,1,0,0:0:0:0:
256,192,81834,1,8,0:0:0:0:
256,192,82102,1,8,0:0:0:0:
256,192,82370,1,0,0:0:0:0:
256,192,82638,1,8,0:0:0:0:
256,192,83039,1,8,0:0:0:0:
256,192,83709,1,0,0:0:0:0:
256,192,83977,1,8,0:0:0:0:
256,192,84245,1,8,0:0:0:0:
256,192,84513,1,0,0:0:0:0:
256,192,85048,1,8,0:0:0:0:
256,192,85316,1,0,0:0:0:0:
256,192,85852,1,0,0:0:0:0:
256,192,86120,1,8,0:0:0:0:
256,192,86388,1,8,0:0:0:0:
256,192,86789,1,8,0:0:0:0:
256,192,87191,1,8,0:0:0:0:
256,192,87459,1,8,0:0:0:0:
256,192,87995,1,0,0:0:0:0:
256,192,88263,1,8,0:0:0:0:
256,192,88530,1,8,0:0:0:0:
256,192,88932,1,8,0:0:0:0:
256,192,89334,1,8,0:0:0:0:
256,192,89602,1,0,0:0:0:0:
256,192,90138,12,0,92013,0:0:0:0:
256,192,92280,12,0,93352,0:0:0:0:
256,192,94155,5,0,0:0:0:0:
256,192,94423,1,12,0:0:0:0:
256,192,95227,1,0,0:0:0:0:
256,192,95495,1,8,0:0:0:0:
256,192,96030,1,0,0:0:0:0:
256,192,96298,1,8,0:0:0:0:
256,192,96566,1,8,0:0:0:0:
256,192,96968,1,0,0:0:0:0:
256,192,97370,1,8,0:0:0:0:
256,192,97638,1,0,0:0:0:0:
256,192,98173,1,8,0:0:0:0:
256,192,98441,1,8,0:0:0:0:
256,192,98709,1,0,0:0:0:0:
256,192,99780,1,0,0:0:0:0:
256,192,100584,1,0,0:0:0:0:
256,192,100852,1,8,0:0:0:0:
256,192,101254,1,8,0:0:0:0:
256,192,101655,1,0,0:0:0:0:
256,192,101923,1,8,0:0:0:0:
256,192,102995,1,8,0:0:0:0:
256,192,103396,1,8,0:0:0:0:
256,192,103798,1,8,0:0:0:0:
256,192,104200,1,8,0:0:0:0:
256,192,104602,1,8,0:0:0:0:
256,192,105004,1,8,0:0:0:0:
256,192,105405,1,8,0:0:0:0:
256,192,105807,1,8,0:0:0:0:
256,192,106209,1,8,0:0:0:0:
256,192,107013,1,8,0:0:0:0:
256,192,107280,1,0,0:0:0:0:
256,192,107548,1,8,0:0:0:0:
256,192,107816,1,8,0:0:0:0:
256,192,108084,1,0,0:0:0:0:
256,192,108352,1,8,0:0:0:0:
256,192,108620,1,8,0:0:0:0:
256,192,109155,1,0,0:0:0:0:
256,192,109423,1,8,0:0:0:0:
256,192,109691,1,0,0:0:0:0:
256,192,109959,1,8,0:0:0:0:
256,192,110495,1,8,0:0:0:0:
256,192,111566,1,12,0:0:0:0:
256,192,112102,1,4,0:0:0:0:
256,192,112638,1,12,0:0:0:0:
256,192,113173,1,4,0:0:0:0:
256,192,113709,1,12,0:0:0:0:
256,192,114245,1,4,0:0:0:0:
256,192,114780,1,12,0:0:0:0:
256,192,115182,1,12,0:0:0:0:
256,192,115450,1,12,0:0:0:0:
256,192,116655,1,0,0:0:0:0:
256,192,116923,1,8,0:0:0:0:
256,192,117459,1,8,0:0:0:0:
256,192,117995,1,0,0:0:0:0:
256,192,118530,1,0,0:0:0:0:
256,192,119066,1,8,0:0:0:0:
256,192,119602,1,0,0:0:0:0:
256,192,120138,1,8,0:0:0:0:
256,192,120673,1,8,0:0:0:0:
256,192,120941,1,8,0:0:0:0:
256,192,121209,1,0,0:0:0:0:
256,192,121745,1,0,0:0:0:0:
256,192,122280,1,8,0:0:0:0:
256,192,122816,1,0,0:0:0:0:
256,192,123352,1,8,0:0:0:0:
256,192,124423,1,4,0:0:0:0:
256,192,124959,1,12,0:0:0:0:
256,192,125495,1,4,0:0:0:0:
256,192,125763,1,8,0:0:0:0:
256,192,126030,1,0,0:0:0:0:
256,192,126298,1,8,0:0:0:0:
256,192,126566,1,0,0:0:0:0:
256,192,127102,1,8,0:0:0:0:
256,192,127638,1,0,0:0:0:0:
256,192,127905,1,8,0:0:0:0:
256,192,128173,1,8,0:0:0:0:
256,192,128441,1,0,0:0:0:0:
256,192,128709,1,8,0:0:0:0:
256,192,129780,1,8,0:0:0:0:
256,192,130048,1,8,0:0:0:0:
256,192,130316,1,0,0:0:0:0:
256,192,130584,1,8,0:0:0:0:
256,192,130852,1,8,0:0:0:0:
256,192,131388,1,8,0:0:0:0:
256,192,131923,1,0,0:0:0:0:
256,192,132325,1,8,0:0:0:0:
256,192,132727,1,8,0:0:0:0:
256,192,132995,1,0,0:0:0:0:
256,192,133396,1,8,0:0:0:0:
256,192,134066,1,4,0:0:0:0:
256,192,134468,1,4,0:0:0:0:
256,192,136209,1,4,0:0:0:0:
256,192,136611,1,4,0:0:0:0:
256,192,137013,1,8,0:0:0:0:
256,192,137548,1,8,0:0:0:0:
256,192,138352,1,0,0:0:0:0:
256,192,138620,1,0,0:0:0:0:
256,192,138888,1,8,0:0:0:0:
256,192,139155,1,0,0:0:0:0:
256,192,139423,1,8,0:0:0:0:
256,192,139825,1,8,0:0:0:0:
256,192,140495,1,0,0:0:0:0:
256,192,140763,1,0,0:0:0:0:
256,192,141030,1,8,0:0:0:0:
256,192,141298,1,8,0:0:0:0:
256,192,141834,1,0,0:0:0:0:
256,192,142102,1,8,0:0:0:0:
256,192,142638,1,0,0:0:0:0:
256,192,142905,1,0,0:0:0:0:
256,192,143173,1,8,0:0:0:0:
256,192,143575,1,0,0:0:0:0:
256,192,144245,1,8,0:0:0:0:
256,192,144780,1,8,0:0:0:0:
256,192,145048,1,0,0:0:0:0:
256,192,145316,1,8,0:0:0:0:
256,192,145718,1,0,0:0:0:0:
256,192,146120,1,8,0:0:0:0:
256,192,146388,1,0,0:0:0:0:
256,192,146923,1,12,0:0:0:0:
256,192,147459,1,8,0:0:0:0:
256,192,147995,1,8,0:0:0:0:
256,192,148530,1,8,0:0:0:0:
256,192,149066,12,0,150941,0:0:0:0:
256,192,151209,5,12,0:0:0:0:
256,192,152280,1,4,0:0:0:0:
256,192,153084,1,0,0:0:0:0:
256,192,153352,1,12,0:0:0:0:
256,192,154155,1,0,0:0:0:0:
256,192,154423,1,8,0:0:0:0:
256,192,154959,1,0,0:0:0:0:
256,192,155227,1,8,0:0:0:0:
256,192,155495,1,8,0:0:0:0:
256,192,155896,1,0,0:0:0:0:
256,192,156298,1,8,0:0:0:0:
256,192,156566,1,0,0:0:0:0:
256,192,157102,1,8,0:0:0:0:
256,192,157370,1,8,0:0:0:0:
256,192,157638,1,0,0:0:0:0:
256,192,158709,1,0,0:0:0:0:
256,192,159513,1,0,0:0:0:0:
256,192,159780,1,8,0:0:0:0:
256,192,160182,1,8,0:0:0:0:
256,192,160584,1,0,0:0:0:0:
256,192,160852,1,8,0:0:0:0:
256,192,161923,1,8,0:0:0:0:
256,192,162325,1,8,0:0:0:0:
256,192,162727,1,8,0:0:0:0:
256,192,163129,1,8,0:0:0:0:
256,192,163530,1,8,0:0:0:0:
256,192,163932,1,8,0:0:0:0:
256,192,164334,1,8,0:0:0:0:
256,192,164736,1,8,0:0:0:0:
256,192,165138,1,8,0:0:0:0:
256,192,165941,1,8,0:0:0:0:
256,192,166209,1,0,0:0:0:0:
256,192,166477,1,8,0:0:0:0:
256,192,166745,1,8,0:0:0:0:
256,192,167013,1,0,0:0:0:0:
256,192,167280,1,8,0:0:0:0:
256,192,167816,1,0,0:0:0:0:
256,192,168084,1,0,0:0:0:0:
256,192,168352,1,8,0:0:0:0:
256,192,168620,1,0,0:0:0:0:
256,192,168888,1,8,0:0:0:0:
256,192,169155,1,8,0:0:0:0:
256,192,169423,1,0,0:0:0:0:
256,192,170227,1,0,0:0:0:0:
256,192,170495,1,8,0:0:0:0:
256,192,171030,1,8,0:0:0:0:
256,192,171566,1,0,0:0:0:0:
256,192,172102,1,0,0:0:0:0:
256,192,172370,1,8,0:0:0:0:
256,192,172638,1,0,0:0:0:0:
256,192,173039,1,8,0:0:0:0:
256,192,173441,1,8,0:0:0:0:
256,192,173709,1,0,0:0:0:0:
256,192,174245,1,0,0:0:0:0:
256,192,174513,1,8,0:0:0:0:
256,192,174780,1,0,0:0:0:0:
256,192,175584,1,8,0:0:0:0:
256,192,175852,1,0,0:0:0:0:
256,192,176655,1,8,0:0:0:0:
256,192,176923,1,0,0:0:0:0:
256,192,177325,1,0,0:0:0:0:
256,192,177727,1,8,0:0:0:0:
256,192,177995,1,8,0:0:0:0:
256,192,178530,1,8,0:0:0:0:
256,192,178798,1,8,0:0:0:0:
256,192,179066,1,8,0:0:0:0:
256,192,179468,1,8,0:0:0:0:
256,192,179870,1,8,0:0:0:0:
256,192,180271,1,8,0:0:0:0:
256,192,180673,1,8,0:0:0:0:
256,192,181209,1,8,0:0:0:0:
256,192,181611,1,8,0:0:0:0:
256,192,182013,1,8,0:0:0:0:
256,192,182414,1,8,0:0:0:0:
256,192,182816,1,12,0:0:0:0:
256,192,183084,1,12,0:0:0:0:
256,192,183352,1,0,0:0:0:0:
256,192,184155,1,8,0:0:0:0:
256,192,184423,1,0,0:0:0:0:
256,192,184959,1,8,0:0:0:0:
256,192,185495,1,0,0:0:0:0:
256,192,186030,1,0,0:0:0:0:
256,192,186566,1,8,0:0:0:0:
256,192,187102,1,8,0:0:0:0:
256,192,187638,12,0,189780,0:0:0:0:
256,192,196209,5,4,0:0:0:0:
256,192,196745,1,8,0:0:0:0:
256,192,197146,1,0,0:0:0:0:
256,192,197548,1,8,0:0:0:0:
256,192,197816,1,8,0:0:0:0:
256,192,198352,1,4,0:0:0:0:
256,192,198620,1,8,0:0:0:0:
256,192,198888,1,0,0:0:0:0:
256,192,199289,1,8,0:0:0:0:
256,192,199691,1,0,0:0:0:0:
256,192,199959,1,8,0:0:0:0:
256,192,200495,12,0,202370,0:0:0:0:
256,192,202638,12,0,203709,0:0:0:0:
256,192,204780,5,12,0:0:0:0:
256,192,205584,1,0,0:0:0:0:
256,192,205852,1,8,0:0:0:0:
256,192,206388,1,0,0:0:0:0:
256,192,206655,1,8,0:0:0:0:
256,192,206923,1,8,0:0:0:0:
256,192,207325,1,0,0:0:0:0:
256,192,207727,1,8,0:0:0:0:
256,192,207995,1,0,0:0:0:0:
256,192,208530,1,8,0:0:0:0:
256,192,208798,1,8,0:0:0:0:
256,192,209066,1,0,0:0:0:0:
256,192,210138,1,0,0:0:0:0:
256,192,210941,1,8,0:0:0:0:
256,192,211209,1,8,0:0:0:0:
256,192,211611,1,0,0:0:0:0:
256,192,212013,1,8,0:0:0:0:
256,192,212280,1,8,0:0:0:0:
256,192,213352,1,8,0:0:0:0:
256,192,213754,1,8,0:0:0:0:
256,192,214155,1,8,0:0:0:0:
256,192,214557,1,8,0:0:0:0:
256,192,214959,1,8,0:0:0:0:
256,192,215361,1,8,0:0:0:0:
256,192,215763,1,8,0:0:0:0:
256,192,216164,1,8,0:0:0:0:
256,192,216566,1,8,0:0:0:0:
256,192,217370,1,8,0:0:0:0:
256,192,217638,1,0,0:0:0:0:
256,192,217905,1,8,0:0:0:0:
256,192,218173,1,8,0:0:0:0:
256,192,218441,1,0,0:0:0:0:
256,192,218709,1,8,0:0:0:0:
256,192,218977,1,8,0:0:0:0:
256,192,219513,1,0,0:0:0:0:
256,192,219780,1,8,0:0:0:0:
256,192,220048,1,0,0:0:0:0:
256,192,220316,1,8,0:0:0:0:
256,192,220584,1,8,0:0:0:0:
256,192,220852,1,0,0:0:0:0:
256,192,221923,1,12,0:0:0:0:
256,192,222727,1,0,0:0:0:0:
256,192,222995,1,8,0:0:0:0:
256,192,223530,1,0,0:0:0:0:
256,192,223798,1,8,0:0:0:0:
256,192,224066,1,8,0:0:0:0:
256,192,224468,1,0,0:0:0:0:
256,192,224870,1,8,0:0:0:0:
256,192,225138,1,0,0:0:0:0:
256,192,225673,1,8,0:0:0:0:
256,192,225941,1,8,0:0:0:0:
256,192,226209,1,0,0:0:0:0:
256,192,226611,1,0,0:0:0:0:
256,192,227013,1,0,0:0:0:0:
256,192,227280,1,8,0:0:0:0:
256,192,228084,1,8,0:0:0:0:
256,192,228352,1,0,0:0:0:0:
256,192,228754,1,8,0:0:0:0:
256,192,229155,1,0,0:0:0:0:
256,192,229423,1,8,0:0:0:0:
256,192,230495,1,8,0:0:0:0:
256,192,230763,1,8,0:0:0:0:
256,192,231298,1,8,0:0:0:0:
256,192,231566,1,8,0:0:0:0:
256,192,232102,1,8,0:0:0:0:
256,192,232370,1,8,0:0:0:0:
256,192,232905,1,8,0:0:0:0:
256,192,233173,1,8,0:0:0:0:
256,192,233709,1,8,0:0:0:0:
256,192,233977,1,8,0:0:0:0:
256,192,234513,1,8,0:0:0:0:
256,192,234780,1,0,0:0:0:0:
256,192,235048,1,8,0:0:0:0:
256,192,235316,1,8,0:0:0:0:
256,192,235584,1,0,0:0:0:0:
256,192,235852,1,8,0:0:0:0:
256,192,236120,1,8,0:0:0:0:
256,192,236655,1,0,0:0:0:0:
256,192,236923,1,8,0:0:0:0:
256,192,237191,1,0,0:0:0:0:
256,192,237459,1,8,0:0:0:0:
256,192,237727,1,8,0:0:0:0:
256,192,237995,1,0,0:0:0:0:
256,192,239066,1,8,0:0:0:0:
256,192,239602,1,8,0:0:0:0:
256,192,239870,1,0,0:0:0:0:
256,192,240138,1,8,0:0:0:0:
256,192,240673,1,8,0:0:0:0:
256,192,240941,1,8,0:0:0:0:
256,192,241209,1,0,0:0:0:0:
256,192,241745,1,0,0:0:0:0:
256,192,242013,1,0,0:0:0:0:
256,192,242280,1,8,0:0:0:0:
256,192,243352,1,4,0:0:0:0:
256,192,243888,1,0,0:0:0:0:
256,192,244155,1,0,0:0:0:0:
256,192,244423,1,8,0:0:0:0:
256,192,244959,1,0,0:0:0:0:
256,192,245227,1,8,0:0:0:0:
256,192,245495,1,0,0:0:0:0:
256,192,246030,1,0,0:0:0:0:
256,192,246298,1,0,0:0:0:0:
256,192,246566,1,0,0:0:0:0:
256,192,247638,1,4,0:0:0:0:
256,192,248173,1,8,0:0:0:0:
256,192,248709,1,8,0:0:0:0:
256,192,249245,1,8,0:0:0:0:
256,192,249780,1,0,0:0:0:0:
256,192,250316,1,8,0:0:0:0:
256,192,250852,1,8,0:0:0:0:
256,192,251388,1,8,0:0:0:0:
256,192,251655,1,8,0:0:0:0:
256,192,251923,1,4,0:0:0:0:
256,192,252459,1,0,0:0:0:0:
256,192,252727,1,0,0:0:0:0:
256,192,252995,1,8,0:0:0:0:
256,192,253530,1,0,0:0:0:0:
256,192,253798,1,8,0:0:0:0:
256,192,254066,1,0,0:0:0:0:
256,192,254602,1,0,0:0:0:0:
256,192,255138,1,0,0:0:0:0:
256,192,256209,1,4,0:0:0:0:
256,192,256745,1,8,0:0:0:0:
256,192,257013,1,8,0:0:0:0:
256,192,257280,1,4,0:0:0:0:
256,192,257816,1,12,0:0:0:0:
256,192,258352,1,12,0:0:0:0:
256,192,258888,1,4,0:0:0:0:
256,192,259423,1,12,0:0:0:0:
