osu file format v14

[General]
AudioFilename: audio.mp3
AudioLeadIn: 0
PreviewTime: 94155
Countdown: 0
SampleSet: Normal
StackLeniency: 0.7
Mode: 1
LetterboxInBreaks: 0
WidescreenStoryboard: 0

[Editor]
DistanceSpacing: 0.8
BeatDivisor: 4
GridSize: 32
TimelineZoom: 3.299999

[Metadata]
Title:Snow Drive (01.23)
TitleUnicode:スノウドライヴ (01.23)
Artist:Omoi
ArtistUnicode:Omoi
Creator:duski
Version:Inner Oni
Source:
Tags:hatsune miku vocaloid synth rock the first waltz japanese electronic featured artist fa osu! mg mpg mappers' guild capu zedther
BeatmapID:2648969
BeatmapSetID:1274884

[Difficulty]
HPDrainRate:6
CircleSize:6
OverallDifficulty:7
ApproachRate:6
SliderMultiplier:1.4
SliderTickRate:1

[Events]
//Background and Video events
0,0,"snowdrive.jpg",0,40
//Break Periods
2,189980,195025
//Storyboard Layer 0 (Background)
//Storyboard Layer 1 (Fail)
//Storyboard Layer 2 (Pass)
//Storyboard Layer 3 (Foreground)
//Storyboard Layer 4 (Overlay)
//Storyboard Sound Samples

[TimingPoints]
138,267.857142857143,4,1,0,80,1,0
16209,-100,4,1,0,90,0,0
17280,-100,4,1,0,100,0,0
94423,-100,4,1,0,100,0,1
111566,-100,4,1,0,100,0,0
153352,-100,4,1,0,100,0,1
169423,-100,4,1,0,100,0,0
204780,-100,4,1,0,100,0,1
220852,-100,4,1,0,100,0,0
221923,-95.2380952380952,4,1,0,100,0,1
237995,-95.2380952380952,4,1,0,100,0,0
238062,-100,4,1,0,100,0,0

[HitObjects]
256,192,138,5,0,0:0:0:0:
256,192,941,1,0,0:0:0:0:
256,192,1209,1,8,0:0:0:0:
256,192,1745,1,0,0:0:0:0:
256,192,2013,1,8,0:0:0:0:
256,192,2280,1,8,0:0:0:0:
256,192,2682,1,8,0:0:0:0:
256,192,3084,1,8,0:0:0:0:
256,192,3352,1,8,0:0:0:0:
256,192,3888,1,0,0:0:0:0:
256,192,4155,1,8,0:0:0:0:
256,192,4423,1,8,0:0:0:0:
256,192,5495,1,0,0:0:0:0:
256,192,6298,1,0,0:0:0:0:
256,192,6566,1,8,0:0:0:0:
256,192,6968,1,8,0:0:0:0:
256,192,7370,1,0,0:0:0:0:
256,192,7638,1,8,0:0:0:0:
256,192,8709,1,8,0:0:0:0:
256,192,8977,1,8,0:0:0:0:
256,192,9111,1,0,0:0:0:0:
256,192,9379,1,0,0:0:0:0:
256,192,9513,1,8,0:0:0:0:
256,192,9780,1,8,0:0:0:0:
256,192,9914,1,0,0:0:0:0:
256,192,10182,1,0,0:0:0:0:
256,192,10316,1,8,0:0:0:0:
256,192,10584,1,8,0:0:0:0:
256,192,10718,1,0,0:0:0:0:
256,192,10986,1,0,0:0:0:0:
256,192,11120,1,8,0:0:0:0:
256,192,11388,1,8,0:0:0:0:
256,192,11521,1,0,0:0:0:0:
256,192,11789,1,0,0:0:0:0:
256,192,11923,1,8,0:0:0:0:
256,192,12191,1,8,0:0:0:0:
256,192,12459,1,0,0:0:0:0:
256,192,12727,1,8,0:0:0:0:
256,192,12995,1,0,0:0:0:0:
256,192,13263,1,0,0:0:0:0:
256,192,13530,1,8,0:0:0:0:
256,192,13798,1,0,0:0:0:0:
256,192,14066,1,8,0:0:0:0:
256,192,14334,1,8,0:0:0:0:
256,192,14602,1,0,0:0:0:0:
256,192,14870,1,8,0:0:0:0:
256,192,15673,1,8,0:0:0:0:
256,192,16209,1,8,0:0:0:0:
256,192,16477,1,8,0:0:0:0:
256,192,16745,1,8,0:0:0:0:
256,192,16879,1,0,0:0:0:0:
256,192,17013,1,8,0:0:0:0:
256,192,17079,1,8,0:0:0:0:
256,192,17146,1,0,0:0:0:0:
256,192,17213,1,0,0:0:0:0:
256,192,17280,1,12,0:0:0:0:
256,192,17414,1,0,0:0:0:0:
256,192,17481,1,0,0:0:0:0:
256,192,17548,1,8,0:0:0:0:
256,192,17682,1,0,0:0:0:0:
256,192,17816,1,8,0:0:0:0:
256,192,17950,1,0,0:0:0:0:
256,192,18017,1,0,0:0:0:0:
256,192,18084,1,8,0:0:0:0:
256,192,18151,1,8,0:0:0:0:
256,192,18218,1,0,0:0:0:0:
256,192,18352,1,8,0:0:0:0:
256,192,18486,1,0,0:0:0:0:
256,192,18553,1,0,0:0:0:0:
256,192,18620,1,8,0:0:0:0:
256,192,18754,1,0,0:0:0:0:
256,192,18888,1,8,0:0:0:0:
256,192,19021,1,0,0:0:0:0:
256,192,19155,1,8,0:0:0:0:
256,192,19222,1,0,0:0:0:0:
256,192,19289,1,8,0:0:0:0:
256,192,19356,1,8,0:0:0:0:
256,192,19423,1,0,0:0:0:0:
256,192,19557,1,0,0:0:0:0:
256,192,19691,1,8,0:0:0:0:
256,192,19825,1,0,0:0:0:0:
256,192,19892,1,8,0:0:0:0:
256,192,19959,1,0,0:0:0:0:
256,192,20093,1,0,0:0:0:0:
256,192,20227,1,8,0:0:0:0:
256,192,20361,1,8,0:0:0:0:
256,192,20428,1,8,0:0:0:0:
256,192,20495,1,0,0:0:0:0:
256,192,20629,1,0,0:0:0:0:
256,192,20763,1,12,0:0:0:0:
256,192,20896,1,0,0:0:0:0:
256,192,21030,1,12,0:0:0:0:
256,192,21164,1,0,0:0:0:0:
256,192,21298,1,12,0:0:0:0:
256,192,21432,1,0,0:0:0:0:
256,192,21566,1,4,0:0:0:0:
256,192,21700,1,0,0:0:0:0:
256,192,21834,1,8,0:0:0:0:
256,192,21968,1,0,0:0:0:0:
256,192,22035,1,8,0:0:0:0:
256,192,22102,1,0,0:0:0:0:
256,192,22236,1,0,0:0:0:0:
256,192,22370,1,8,0:0:0:0:
256,192,22504,1,8,0:0:0:0:
256,192,22571,1,0,0:0:0:0:
256,192,22638,1,8,0:0:0:0:
256,192,22771,1,0,0:0:0:0:
256,192,22905,1,8,0:0:0:0:
256,192,23039,1,8,0:0:0:0:
256,192,23106,1,8,0:0:0:0:
256,192,23173,1,0,0:0:0:0:
256,192,23307,1,0,0:0:0:0:
256,192,23441,1,8,0:0:0:0:
256,192,23508,1,0,0:0:0:0:
256,192,23575,1,8,0:0:0:0:
256,192,23642,1,8,0:0:0:0:
256,192,23709,1,0,0:0:0:0:
256,192,23843,1,0,0:0:0:0:
256,192,23977,1,8,0:0:0:0:
256,192,24111,1,8,0:0:0:0:
256,192,24178,1,8,0:0:0:0:
256,192,24245,1,0,0:0:0:0:
256,192,24379,1,0,0:0:0:0:
256,192,24513,1,8,0:0:0:0:
256,192,24579,1,8,0:0:0:0:
256,192,24646,1,8,0:0:0:0:
256,192,24780,1,0,0:0:0:0:
256,192,24914,1,0,0:0:0:0:
256,192,24981,1,0,0:0:0:0:
256,192,25048,1,8,0:0:0:0:
256,192,25182,1,0,0:0:0:0:
256,192,25249,1,0,0:0:0:0:
256,192,25316,1,8,0:0:0:0:
256,192,25450,1,0,0:0:0:0:
256,192,25584,1,8,0:0:0:0:
256,192,25651,1,8,0:0:0:0:
256,192,25718,1,8,0:0:0:0:
256,192,25852,1,4,0:0:0:0:
256,192,25986,1,0,0:0:0:0:
256,192,26053,1,0,0:0:0:0:
256,192,26120,1,8,0:0:0:0:
256,192,26388,1,8,0:0:0:0:
256,192,26521,1,0,0:0:0:0:
256,192,26588,1,8,0:0:0:0:
256,192,26655,1,8,0:0:0:0:
256,192,26923,1,0,0:0:0:0:
256,192,27057,1,8,0:0:0:0:
256,192,27124,1,8,0:0:0:0:
256,192,27191,1,8,0:0:0:0:
256,192,27459,1,8,0:0:0:0:
256,192,27593,1,0,0:0:0:0:
256,192,27727,1,8,0:0:0:0:
256,192,27794,1,8,0:0:0:0:
256,192,27861,1,8,0:0:0:0:
256,192,27995,1,0,0:0:0:0:
256,192,28129,1,0,0:0:0:0:
256,192,28196,1,0,0:0:0:0:
256,192,28263,1,8,0:0:0:0:
256,192,28530,1,8,0:0:0:0:
256,192,28664,1,0,0:0:0:0:
256,192,28731,1,8,0:0:0:0:
256,192,28798,1,8,0:0:0:0:
256,192,29066,1,0,0:0:0:0:
256,192,29200,1,8,0:0:0:0:
256,192,29267,1,8,0:0:0:0:
256,192,29334,1,8,0:0:0:0:
256,192,29468,1,8,0:0:0:0:
256,192,29602,1,0,0:0:0:0:
256,192,29736,1,8,0:0:0:0:
256,192,29870,1,0,0:0:0:0:
256,192,30004,1,8,0:0:0:0:
256,192,30138,1,4,0:0:0:0:
256,192,30271,1,0,0:0:0:0:
256,192,30338,1,0,0:0:0:0:
256,192,30405,1,8,0:0:0:0:
256,192,30539,1,0,0:0:0:0:
256,192,30606,1,8,0:0:0:0:
256,192,30673,1,0,0:0:0:0:
256,192,30807,1,0,0:0:0:0:
256,192,30941,1,8,0:0:0:0:
256,192,31008,1,8,0:0:0:0:
256,192,31075,1,0,0:0:0:0:
256,192,31142,1,0,0:0:0:0:
256,192,31209,1,8,0:0:0:0:
256,192,31343,1,0,0:0:0:0:
256,192,31477,1,8,0:0:0:0:
256,192,31611,1,0,0:0:0:0:
256,192,31678,1,8,0:0:0:0:
256,192,31745,1,0,0:0:0:0:
256,192,31879,1,0,0:0:0:0:
256,192,32013,1,8,0:0:0:0:
256,192,32079,1,0,0:0:0:0:
256,192,32146,1,0,0:0:0:0:
256,192,32213,1,0,0:0:0:0:
256,192,32280,1,8,0:0:0:0:
256,192,32414,1,0,0:0:0:0:
256,192,32548,1,8,0:0:0:0:
256,192,32682,1,8,0:0:0:0:
256,192,32749,1,8,0:0:0:0:
256,192,32816,1,0,0:0:0:0:
256,192,32950,1,0,0:0:0:0:
256,192,33084,1,8,0:0:0:0:
256,192,33218,1,0,0:0:0:0:
256,192,33352,1,0,0:0:0:0:
256,192,33486,1,0,0:0:0:0:
256,192,33620,1,12,0:0:0:0:
256,192,33754,1,0,0:0:0:0:
256,192,33888,1,12,0:0:0:0:
256,192,34021,1,0,0:0:0:0:
256,192,34155,1,12,0:0:0:0:
256,192,34289,1,0,0:0:0:0:
256,192,34423,1,12,0:0:0:0:
256,192,34557,1,0,0:0:0:0:
256,192,34691,1,8,0:0:0:0:
256,192,34758,1,8,0:0:0:0:
256,192,34825,1,0,0:0:0:0:
256,192,34959,1,0,0:0:0:0:
256,192,35093,1,8,0:0:0:0:
256,192,35227,1,0,0:0:0:0:
256,192,35294,1,0,0:0:0:0:
256,192,35361,1,0,0:0:0:0:
256,192,35495,1,8,0:0:0:0:
256,192,35629,1,0,0:0:0:0:
256,192,35696,1,0,0:0:0:0:
256,192,35763,1,0,0:0:0:0:
256,192,35896,1,8,0:0:0:0:
256,192,36030,1,0,0:0:0:0:
256,192,36164,1,0,0:0:0:0:
256,192,36231,1,0,0:0:0:0:
256,192,36298,1,8,0:0:0:0:
256,192,36432,1,0,0:0:0:0:
256,192,36566,1,8,0:0:0:0:
256,192,36633,1,8,0:0:0:0:
256,192,36700,1,0,0:0:0:0:
256,192,36834,1,8,0:0:0:0:
256,192,36968,1,0,0:0:0:0:
256,192,37102,1,0,0:0:0:0:
256,192,37169,1,0,0:0:0:0:
256,192,37236,1,8,0:0:0:0:
256,192,37370,1,0,0:0:0:0:
256,192,37437,1,0,0:0:0:0:
256,192,37504,1,0,0:0:0:0:
256,192,37638,1,8,0:0:0:0:
256,192,37771,1,0,0:0:0:0:
256,192,37838,1,0,0:0:0:0:
256,192,37905,1,8,0:0:0:0:
256,192,38039,1,8,0:0:0:0:
256,192,38173,1,0,0:0:0:0:
256,192,38240,1,0,0:0:0:0:
256,192,38307,1,8,0:0:0:0:
256,192,38374,1,0,0:0:0:0:
256,192,38441,1,8,0:0:0:0:
256,192,38575,1,0,0:0:0:0:
256,192,38709,1,12,0:0:0:0:
256,192,38843,1,0,0:0:0:0:
256,192,38977,1,0,0:0:0:0:
256,192,39111,1,8,0:0:0:0:
256,192,39245,1,0,0:0:0:0:
256,192,39513,1,8,0:0:0:0:
256,192,39780,1,4,0:0:0:0:
256,192,39914,1,0,0:0:0:0:
256,192,40048,1,8,0:0:0:0:
256,192,40182,1,0,0:0:0:0:
256,192,40316,1,8,0:0:0:0:
256,192,40584,1,0,0:0:0:0:
256,192,40852,1,4,0:0:0:0:
256,192,40986,1,0,0:0:0:0:
256,192,41120,1,8,0:0:0:0:
256,192,41254,1,0,0:0:0:0:
256,192,41388,1,0,0:0:0:0:
256,192,41655,1,8,0:0:0:0:
256,192,41923,1,12,0:0:0:0:
256,192,42057,1,0,0:0:0:0:
256,192,42191,1,0,0:0:0:0:
256,192,42325,1,8,0:0:0:0:
256,192,42593,1,8,0:0:0:0:
256,192,42727,1,0,0:0:0:0:
256,192,42995,1,12,0:0:0:0:
256,192,43129,1,8,0:0:0:0:
256,192,43263,1,0,0:0:0:0:
256,192,43396,1,8,0:0:0:0:
256,192,43530,1,0,0:0:0:0:
256,192,43798,1,8,0:0:0:0:
256,192,44066,1,4,0:0:0:0:
256,192,44200,1,0,0:0:0:0:
256,192,44334,1,8,0:0:0:0:
256,192,44468,1,0,0:0:0:0:
256,192,44736,1,0,0:0:0:0:
256,192,44870,1,8,0:0:0:0:
256,192,45138,1,4,0:0:0:0:
256,192,45271,1,0,0:0:0:0:
256,192,45405,1,8,0:0:0:0:
256,192,45539,1,8,0:0:0:0:
256,192,45673,1,0,0:0:0:0:
256,192,45941,1,8,0:0:0:0:
256,192,46209,1,8,0:0:0:0:
256,192,46343,1,0,0:0:0:0:
256,192,46611,1,8,0:0:0:0:
256,192,46879,1,0,0:0:0:0:
256,192,47013,1,8,0:0:0:0:
256,192,47146,1,8,0:0:0:0:
256,192,47280,1,4,0:0:0:0:
256,192,47414,1,0,0:0:0:0:
256,192,47481,1,0,0:0:0:0:
256,192,47548,1,8,0:0:0:0:
256,192,47682,1,0,0:0:0:0:
256,192,47816,1,8,0:0:0:0:
256,192,47883,1,8,0:0:0:0:
256,192,47950,1,0,0:0:0:0:
256,192,48084,1,8,0:0:0:0:
256,192,48218,1,0,0:0:0:0:
256,192,48352,1,12,0:0:0:0:
256,192,48486,1,0,0:0:0:0:
256,192,48553,1,0,0:0:0:0:
256,192,48620,1,0,0:0:0:0:
256,192,48754,1,8,0:0:0:0:
256,192,48888,1,0,0:0:0:0:
256,192,49021,1,0,0:0:0:0:
256,192,49088,1,0,0:0:0:0:
256,192,49155,1,8,0:0:0:0:
256,192,49289,1,0,0:0:0:0:
256,192,49423,1,12,0:0:0:0:
256,192,49557,1,8,0:0:0:0:
256,192,49624,1,8,0:0:0:0:
256,192,49691,1,8,0:0:0:0:
256,192,49825,1,0,0:0:0:0:
256,192,49959,1,8,0:0:0:0:
256,192,50093,1,8,0:0:0:0:
256,192,50160,1,8,0:0:0:0:
256,192,50227,1,0,0:0:0:0:
256,192,50361,1,0,0:0:0:0:
256,192,50495,1,12,0:0:0:0:
256,192,50629,1,8,0:0:0:0:
256,192,50763,1,0,0:0:0:0:
256,192,51030,1,0,0:0:0:0:
256,192,51164,1,0,0:0:0:0:
256,192,51298,1,8,0:0:0:0:
256,192,51566,1,4,0:0:0:0:
256,192,51700,1,8,0:0:0:0:
256,192,51767,1,8,0:0:0:0:
256,192,51834,1,0,0:0:0:0:
256,192,51968,1,8,0:0:0:0:
256,192,52102,1,0,0:0:0:0:
256,192,52169,1,0,0:0:0:0:
256,192,52236,1,0,0:0:0:0:
256,192,52370,1,8,0:0:0:0:
256,192,52504,1,0,0:0:0:0:
256,192,52638,1,12,0:0:0:0:
256,192,52771,1,0,0:0:0:0:
256,192,52838,1,0,0:0:0:0:
256,192,52905,1,8,0:0:0:0:
256,192,53039,1,8,0:0:0:0:
256,192,53106,1,8,0:0:0:0:
256,192,53173,1,0,0:0:0:0:
256,192,53307,1,0,0:0:0:0:
256,192,53441,1,8,0:0:0:0:
256,192,53709,1,4,0:0:0:0:
256,192,53843,1,0,0:0:0:0:
256,192,53977,1,8,0:0:0:0:
256,192,54111,1,8,0:0:0:0:
256,192,54178,1,8,0:0:0:0:
256,192,54245,1,0,0:0:0:0:
256,192,54379,1,0,0:0:0:0:
256,192,54513,1,8,0:0:0:0:
256,192,54646,1,0,0:0:0:0:
256,192,54780,1,12,0:0:0:0:
256,192,54914,1,0,0:0:0:0:
256,192,55182,1,0,0:0:0:0:
256,192,55316,1,8,0:0:0:0:
256,192,55450,1,0,0:0:0:0:
256,192,55584,1,0,0:0:0:0:
256,192,55718,1,0,0:0:0:0:
256,192,55785,1,0,0:0:0:0:
256,192,55852,1,12,0:0:0:0:
256,192,55986,1,0,0:0:0:0:
256,192,56120,1,8,0:0:0:0:
256,192,56254,1,0,0:0:0:0:
256,192,56388,1,8,0:0:0:0:
256,192,56521,1,0,0:0:0:0:
256,192,56588,1,0,0:0:0:0:
256,192,56655,1,8,0:0:0:0:
256,192,56923,1,4,0:0:0:0:
256,192,57057,1,0,0:0:0:0:
256,192,57191,1,8,0:0:0:0:
256,192,57325,1,0,0:0:0:0:
256,192,57459,1,8,0:0:0:0:
256,192,57526,1,8,0:0:0:0:
256,192,57593,1,0,0:0:0:0:
256,192,57727,1,8,0:0:0:0:
256,192,57995,1,4,0:0:0:0:
256,192,58129,1,0,0:0:0:0:
256,192,58196,1,0,0:0:0:0:
256,192,58263,1,8,0:0:0:0:
256,192,58396,1,8,0:0:0:0:
256,192,58530,1,0,0:0:0:0:
256,192,58597,1,0,0:0:0:0:
256,192,58664,1,8,0:0:0:0:
256,192,58731,1,8,0:0:0:0:
256,192,58798,1,0,0:0:0:0:
256,192,58865,1,8,0:0:0:0:
256,192,58932,1,0,0:0:0:0:
256,192,58999,1,0,0:0:0:0:
256,192,59066,1,8,0:0:0:0:
256,192,59200,1,0,0:0:0:0:
256,192,59334,1,8,0:0:0:0:
256,192,59468,1,0,0:0:0:0:
256,192,60138,1,4,0:0:0:0:
256,192,60271,1,0,0:0:0:0:
256,192,60338,1,0,0:0:0:0:
256,192,60405,1,8,0:0:0:0:
256,192,60539,1,0,0:0:0:0:
256,192,60673,1,8,0:0:0:0:
256,192,60740,1,8,0:0:0:0:
256,192,60807,1,0,0:0:0:0:
256,192,60941,1,8,0:0:0:0:
256,192,61075,1,0,0:0:0:0:
256,192,61209,1,12,0:0:0:0:
256,192,61343,1,0,0:0:0:0:
256,192,61410,1,0,0:0:0:0:
256,192,61477,1,0,0:0:0:0:
256,192,61611,1,8,0:0:0:0:
256,192,61745,1,0,0:0:0:0:
256,192,61879,1,0,0:0:0:0:
256,192,61946,1,0,0:0:0:0:
256,192,62013,1,8,0:0:0:0:
256,192,62146,1,0,0:0:0:0:
256,192,62280,1,12,0:0:0:0:
256,192,62414,1,8,0:0:0:0:
256,192,62481,1,8,0:0:0:0:
256,192,62548,1,8,0:0:0:0:
256,192,62682,1,0,0:0:0:0:
256,192,62816,1,8,0:0:0:0:
256,192,62950,1,8,0:0:0:0:
256,192,63017,1,8,0:0:0:0:
256,192,63084,1,0,0:0:0:0:
256,192,63218,1,0,0:0:0:0:
256,192,63352,1,12,0:0:0:0:
256,192,63486,1,8,0:0:0:0:
256,192,63620,1,0,0:0:0:0:
256,192,63754,1,0,0:0:0:0:
256,192,63821,1,0,0:0:0:0:
256,192,63888,1,8,0:0:0:0:
256,192,64021,1,8,0:0:0:0:
256,192,64155,1,0,0:0:0:0:
256,192,64423,1,4,0:0:0:0:
256,192,64557,1,8,0:0:0:0:
256,192,64624,1,8,0:0:0:0:
256,192,64691,1,0,0:0:0:0:
256,192,64825,1,8,0:0:0:0:
256,192,64959,1,0,0:0:0:0:
256,192,65026,1,0,0:0:0:0:
256,192,65093,1,0,0:0:0:0:
256,192,65227,1,8,0:0:0:0:
256,192,65361,1,0,0:0:0:0:
256,192,65495,1,12,0:0:0:0:
256,192,65629,1,0,0:0:0:0:
256,192,65696,1,0,0:0:0:0:
256,192,65763,1,8,0:0:0:0:
256,192,65896,1,8,0:0:0:0:
256,192,65963,1,8,0:0:0:0:
256,192,66030,1,0,0:0:0:0:
256,192,66164,1,0,0:0:0:0:
256,192,66298,1,8,0:0:0:0:
256,192,66432,1,0,0:0:0:0:
256,192,66566,1,12,0:0:0:0:
256,192,66700,1,0,0:0:0:0:
256,192,66767,1,0,0:0:0:0:
256,192,66834,1,8,0:0:0:0:
256,192,66968,1,0,0:0:0:0:
256,192,67102,1,8,0:0:0:0:
256,192,67169,1,8,0:0:0:0:
256,192,67236,1,0,0:0:0:0:
256,192,67370,1,8,0:0:0:0:
256,192,67504,1,8,0:0:0:0:
256,192,67638,1,4,0:0:0:0:
256,192,67771,1,8,0:0:0:0:
256,192,67838,1,8,0:0:0:0:
256,192,67905,1,0,0:0:0:0:
256,192,68039,1,8,0:0:0:0:
256,192,68173,1,0,0:0:0:0:
256,192,68307,1,0,0:0:0:0:
256,192,68374,1,0,0:0:0:0:
256,192,68441,1,12,0:0:0:0:
256,192,68709,1,4,0:0:0:0:
256,192,68843,1,0,0:0:0:0:
256,192,68910,1,0,0:0:0:0:
256,192,68977,1,8,0:0:0:0:
256,192,69111,1,0,0:0:0:0:
256,192,69245,1,8,0:0:0:0:
256,192,69312,1,8,0:0:0:0:
256,192,69379,1,0,0:0:0:0:
256,192,69513,1,8,0:0:0:0:
256,192,69646,1,0,0:0:0:0:
256,192,69780,1,4,0:0:0:0:
256,192,69914,1,8,0:0:0:0:
256,192,69981,1,8,0:0:0:0:
256,192,70048,1,8,0:0:0:0:
256,192,70182,1,0,0:0:0:0:
256,192,70316,1,0,0:0:0:0:
256,192,70383,1,0,0:0:0:0:
256,192,70450,1,8,0:0:0:0:
256,192,70584,1,8,0:0:0:0:
256,192,70718,1,0,0:0:0:0:
256,192,70852,1,12,0:0:0:0:
256,192,71120,1,0,0:0:0:0:
256,192,71254,1,8,0:0:0:0:
256,192,71388,1,0,0:0:0:0:
256,192,71521,1,8,0:0:0:0:
256,192,71588,1,8,0:0:0:0:
256,192,71655,1,0,0:0:0:0:
256,192,71789,1,8,0:0:0:0:
256,192,71923,1,4,0:0:0:0:
256,192,72057,1,8,0:0:0:0:
256,192,72191,1,0,0:0:0:0:
256,192,72459,1,8,0:0:0:0:
256,192,72727,1,0,0:0:0:0:
256,192,72995,1,12,0:0:0:0:
256,192,73129,1,8,0:0:0:0:
256,192,73196,1,8,0:0:0:0:
256,192,73263,1,8,0:0:0:0:
256,192,73396,1,0,0:0:0:0:
256,192,73463,1,0,0:0:0:0:
256,192,73530,1,8,0:0:0:0:
256,192,73664,1,0,0:0:0:0:
256,192,73798,1,8,0:0:0:0:
256,192,73865,1,8,0:0:0:0:
256,192,73932,1,0,0:0:0:0:
256,192,74066,1,12,0:0:0:0:
256,192,74200,1,0,0:0:0:0:
256,192,74267,1,0,0:0:0:0:
256,192,74334,1,8,0:0:0:0:
256,192,74468,1,0,0:0:0:0:
256,192,74602,1,8,0:0:0:0:
256,192,74736,1,0,0:0:0:0:
256,192,74870,1,8,0:0:0:0:
256,192,74937,1,8,0:0:0:0:
256,192,75004,1,8,0:0:0:0:
256,192,75138,1,4,0:0:0:0:
256,192,75271,1,0,0:0:0:0:
256,192,75338,1,0,0:0:0:0:
256,192,75405,1,8,0:0:0:0:
256,192,75539,1,0,0:0:0:0:
256,192,75673,1,0,0:0:0:0:
256,192,75740,1,0,0:0:0:0:
256,192,75807,1,0,0:0:0:0:
256,192,75941,1,8,0:0:0:0:
256,192,76075,1,0,0:0:0:0:
256,192,76209,1,12,0:0:0:0:
256,192,76477,1,0,0:0:0:0:
256,192,76745,1,8,0:0:0:0:
256,192,76879,1,0,0:0:0:0:
256,192,77013,1,8,0:0:0:0:
256,192,77146,1,8,0:0:0:0:
256,192,77280,1,4,0:0:0:0:
256,192,77414,1,0,0:0:0:0:
256,192,77481,1,0,0:0:0:0:
256,192,77548,1,8,0:0:0:0:
256,192,77682,1,0,0:0:0:0:
256,192,77950,1,0,0:0:0:0:
256,192,78084,1,8,0:0:0:0:
256,192,78486,1,0,0:0:0:0:
256,192,78620,1,8,0:0:0:0:
256,192,78754,1,0,0:0:0:0:
256,192,79021,1,0,0:0:0:0:
256,192,79155,1,8,0:0:0:0:
256,192,79423,1,4,0:0:0:0:
256,192,79557,1,0,0:0:0:0:
256,192,79624,1,0,0:0:0:0:
256,192,79691,1,8,0:0:0:0:
256,192,79825,1,0,0:0:0:0:
256,192,80093,1,0,0:0:0:0:
256,192,80227,1,8,0:0:0:0:
256,192,80629,1,0,0:0:0:0:
256,192,80763,1,8,0:0:0:0:
256,192,81164,1,0,0:0:0:0:
256,192,81298,1,8,0:0:0:0:
256,192,81566,1,4,0:0:0:0:
256,192,81700,1,0,0:0:0:0:
256,192,81767,1,0,0:0:0:0:
256,192,81834,1,8,0:0:0:0:
256,192,81968,1,0,0:0:0:0:
256,192,82102,1,8,0:0:0:0:
256,192,82169,1,8,0:0:0:0:
256,192,82236,1,0,0:0:0:0:
256,192,82370,1,8,0:0:0:0:
256,192,82504,1,0,0:0:0:0:
256,192,82638,1,8,0:0:0:0:
256,192,82771,1,0,0:0:0:0:
256,192,82838,1,0,0:0:0:0:
256,192,82905,1,8,0:0:0:0:
256,192,83039,1,8,0:0:0:0:
256,192,83173,1,0,0:0:0:0:
256,192,83441,1,8,0:0:0:0:
256,192,83709,1,0,0:0:0:0:
256,192,83843,1,8,0:0:0:0:
256,192,83910,1,8,0:0:0:0:
256,192,83977,1,8,0:0:0:0:
256,192,84111,1,0,0:0:0:0:
256,192,84245,1,8,0:0:0:0:
256,192,84379,1,0,0:0:0:0:
256,192,84513,1,8,0:0:0:0:
256,192,84579,1,8,0:0:0:0:
256,192,84646,1,8,0:0:0:0:
256,192,84780,1,0,0:0:0:0:
256,192,84914,1,8,0:0:0:0:
256,192,84981,1,8,0:0:0:0:
256,192,85048,1,0,0:0:0:0:
256,192,85182,1,8,0:0:0:0:
256,192,85316,1,0,0:0:0:0:
256,192,85450,1,0,0:0:0:0:
256,192,85584,1,8,0:0:0:0:
256,192,85852,1,4,0:0:0:0:
256,192,85986,1,0,0:0:0:0:
256,192,86053,1,0,0:0:0:0:
256,192,86120,1,8,0:0:0:0:
256,192,86254,1,0,0:0:0:0:
256,192,86388,1,8,0:0:0:0:
256,192,86454,1,8,0:0:0:0:
256,192,86521,1,0,0:0:0:0:
256,192,86655,1,0,0:0:0:0:
256,192,86789,1,8,0:0:0:0:
256,192,87057,1,0,0:0:0:0:
256,192,87191,1,8,0:0:0:0:
256,192,87325,1,0,0:0:0:0:
256,192,87459,1,8,0:0:0:0:
256,192,87526,1,8,0:0:0:0:
256,192,87593,1,0,0:0:0:0:
256,192,87727,1,8,0:0:0:0:
256,192,87995,1,4,0:0:0:0:
256,192,88129,1,0,0:0:0:0:
256,192,88196,1,0,0:0:0:0:
256,192,88263,1,8,0:0:0:0:
256,192,88396,1,0,0:0:0:0:
256,192,88530,1,8,0:0:0:0:
256,192,88597,1,8,0:0:0:0:
256,192,88664,1,0,0:0:0:0:
256,192,88798,1,0,0:0:0:0:
256,192,88932,1,8,0:0:0:0:
256,192,89200,1,0,0:0:0:0:
256,192,89334,1,8,0:0:0:0:
256,192,89468,1,0,0:0:0:0:
256,192,89602,1,8,0:0:0:0:
256,192,89669,1,8,0:0:0:0:
256,192,89736,1,0,0:0:0:0:
256,192,89870,1,8,0:0:0:0:
256,192,90138,1,0,0:0:0:0:
256,192,90405,1,8,0:0:0:0:
256,192,90472,1,0,0:0:0:0:
256,192,90539,1,0,0:0:0:0:
256,192,90606,1,0,0:0:0:0:
256,192,90673,1,8,0:0:0:0:
256,192,90740,1,8,0:0:0:0:
256,192,90807,1,0,0:0:0:0:
256,192,90874,1,0,0:0:0:0:
256,192,90941,1,8,0:0:0:0:
256,192,91008,1,0,0:0:0:0:
256,192,91075,1,0,0:0:0:0:
256,192,91142,1,0,0:0:0:0:
256,192,91209,1,8,0:0:0:0:
256,192,91276,1,8,0:0:0:0:
256,192,91343,1,0,0:0:0:0:
256,192,91410,1,0,0:0:0:0:
256,192,91477,1,8,0:0:0:0:
256,192,91544,1,8,0:0:0:0:
256,192,91611,1,8,0:0:0:0:
256,192,91678,1,0,0:0:0:0:
256,192,91745,1,8,0:0:0:0:
256,192,91812,1,8,0:0:0:0:
256,192,91879,1,0,0:0:0:0:
256,192,91946,1,0,0:0:0:0:
256,192,92013,1,8,0:0:0:0:
256,192,92079,1,8,0:0:0:0:
256,192,92146,1,8,0:0:0:0:
256,192,92213,1,0,0:0:0:0:
256,192,92280,1,8,0:0:0:0:
256,192,92347,1,0,0:0:0:0:
256,192,92414,1,0,0:0:0:0:
256,192,92481,1,0,0:0:0:0:
256,192,92548,1,8,0:0:0:0:
256,192,92615,1,8,0:0:0:0:
256,192,92682,1,0,0:0:0:0:
256,192,92749,1,0,0:0:0:0:
256,192,92816,1,8,0:0:0:0:
256,192,92883,1,8,0:0:0:0:
256,192,92950,1,8,0:0:0:0:
256,192,93017,1,0,0:0:0:0:
256,192,93084,1,8,0:0:0:0:
256,192,93151,1,8,0:0:0:0:
256,192,93218,1,0,0:0:0:0:
256,192,93285,1,0,0:0:0:0:
256,192,93352,1,8,0:0:0:0:
256,192,94021,1,0,0:0:0:0:
256,192,94155,1,8,0:0:0:0:
256,192,94423,1,12,0:0:0:0:
256,192,94557,1,0,0:0:0:0:
256,192,94624,1,0,0:0:0:0:
256,192,94691,1,8,0:0:0:0:
256,192,94825,1,0,0:0:0:0:
256,192,94892,1,0,0:0:0:0:
256,192,94959,1,8,0:0:0:0:
256,192,95026,1,8,0:0:0:0:
256,192,95093,1,0,0:0:0:0:
256,192,95227,1,8,0:0:0:0:
256,192,95294,1,8,0:0:0:0:
256,192,95361,1,8,0:0:0:0:
256,192,95495,1,0,0:0:0:0:
256,192,95629,1,0,0:0:0:0:
256,192,95696,1,0,0:0:0:0:
256,192,95763,1,8,0:0:0:0:
256,192,95896,1,8,0:0:0:0:
256,192,95963,1,8,0:0:0:0:
256,192,96030,1,0,0:0:0:0:
256,192,96097,1,8,0:0:0:0:
256,192,96164,1,0,0:0:0:0:
256,192,96298,1,8,0:0:0:0:
256,192,96432,1,0,0:0:0:0:
256,192,96499,1,0,0:0:0:0:
256,192,96566,1,8,0:0:0:0:
256,192,96700,1,0,0:0:0:0:
256,192,96767,1,0,0:0:0:0:
256,192,96834,1,8,0:0:0:0:
256,192,96901,1,8,0:0:0:0:
256,192,96968,1,0,0:0:0:0:
256,192,97102,1,8,0:0:0:0:
256,192,97169,1,8,0:0:0:0:
256,192,97236,1,8,0:0:0:0:
256,192,97303,1,0,0:0:0:0:
256,192,97370,1,8,0:0:0:0:
256,192,97504,1,0,0:0:0:0:
256,192,97638,1,8,0:0:0:0:
256,192,97771,1,0,0:0:0:0:
256,192,97905,1,12,0:0:0:0:
256,192,98039,1,0,0:0:0:0:
256,192,98173,1,12,0:0:0:0:
256,192,98307,1,0,0:0:0:0:
256,192,98441,1,12,0:0:0:0:
256,192,98575,1,0,0:0:0:0:
256,192,98709,1,4,0:0:0:0:
256,192,98843,1,0,0:0:0:0:
256,192,98910,1,0,0:0:0:0:
256,192,98977,1,8,0:0:0:0:
256,192,99111,1,0,0:0:0:0:
256,192,99178,1,8,0:0:0:0:
256,192,99245,1,0,0:0:0:0:
256,192,99379,1,0,0:0:0:0:
256,192,99513,1,8,0:0:0:0:
256,192,99579,1,8,0:0:0:0:
256,192,99646,1,0,0:0:0:0:
256,192,99713,1,8,0:0:0:0:
256,192,99780,1,0,0:0:0:0:
256,192,99914,1,0,0:0:0:0:
256,192,100048,1,8,0:0:0:0:
256,192,100182,1,8,0:0:0:0:
256,192,100249,1,8,0:0:0:0:
256,192,100316,1,0,0:0:0:0:
256,192,100450,1,0,0:0:0:0:
256,192,100517,1,0,0:0:0:0:
256,192,100584,1,8,0:0:0:0:
256,192,100718,1,0,0:0:0:0:
256,192,100852,1,8,0:0:0:0:
256,192,100986,1,0,0:0:0:0:
256,192,101053,1,0,0:0:0:0:
256,192,101120,1,8,0:0:0:0:
256,192,101187,1,8,0:0:0:0:
256,192,101254,1,0,0:0:0:0:
256,192,101388,1,8,0:0:0:0:
256,192,101454,1,8,0:0:0:0:
256,192,101521,1,0,0:0:0:0:
256,192,101655,1,8,0:0:0:0:
256,192,101789,1,0,0:0:0:0:
256,192,101923,1,8,0:0:0:0:
256,192,102057,1,0,0:0:0:0:
256,192,102124,1,0,0:0:0:0:
256,192,102191,1,8,0:0:0:0:
256,192,102325,1,0,0:0:0:0:
256,192,102459,1,8,0:0:0:0:
256,192,102526,1,8,0:0:0:0:
256,192,102593,1,8,0:0:0:0:
256,192,102727,1,0,0:0:0:0:
256,192,102794,1,0,0:0:0:0:
256,192,102861,1,0,0:0:0:0:
256,192,102928,1,0,0:0:0:0:
256,192,102995,1,12,0:0:0:0:
256,192,103129,1,8,0:0:0:0:
256,192,103263,1,0,0:0:0:0:
256,192,103329,1,0,0:0:0:0:
256,192,103396,1,8,0:0:0:0:
256,192,103463,1,0,0:0:0:0:
256,192,103530,1,8,0:0:0:0:
256,192,103664,1,0,0:0:0:0:
256,192,103798,1,8,0:0:0:0:
256,192,103865,1,0,0:0:0:0:
256,192,103932,1,8,0:0:0:0:
256,192,104066,1,0,0:0:0:0:
256,192,104133,1,8,0:0:0:0:
256,192,104200,1,0,0:0:0:0:
256,192,104267,1,0,0:0:0:0:
256,192,104334,1,8,0:0:0:0:
256,192,104468,1,0,0:0:0:0:
256,192,104602,1,8,0:0:0:0:
256,192,104669,1,8,0:0:0:0:
256,192,104736,1,0,0:0:0:0:
256,192,104870,1,8,0:0:0:0:
256,192,104937,1,8,0:0:0:0:
256,192,105004,1,0,0:0:0:0:
256,192,105071,1,0,0:0:0:0:
256,192,105138,1,8,0:0:0:0:
256,192,105271,1,0,0:0:0:0:
256,192,105405,1,8,0:0:0:0:
256,192,105472,1,0,0:0:0:0:
256,192,105539,1,8,0:0:0:0:
256,192,105673,1,0,0:0:0:0:
256,192,105740,1,8,0:0:0:0:
256,192,105807,1,0,0:0:0:0:
256,192,105874,1,0,0:0:0:0:
256,192,105941,1,8,0:0:0:0:
256,192,106075,1,0,0:0:0:0:
256,192,106142,1,0,0:0:0:0:
256,192,106209,1,8,0:0:0:0:
256,192,106343,1,0,0:0:0:0:
256,192,106477,1,8,0:0:0:0:
256,192,106544,1,8,0:0:0:0:
256,192,106611,1,0,0:0:0:0:
256,192,106678,1,0,0:0:0:0:
256,192,106745,1,8,0:0:0:0:
256,192,106879,1,0,0:0:0:0:
256,192,107013,1,8,0:0:0:0:
256,192,107280,1,12,0:0:0:0:
256,192,107414,1,0,0:0:0:0:
256,192,107548,1,8,0:0:0:0:
256,192,107682,1,0,0:0:0:0:
256,192,107749,1,8,0:0:0:0:
256,192,107816,1,0,0:0:0:0:
256,192,107950,1,0,0:0:0:0:
256,192,108084,1,8,0:0:0:0:
256,192,108151,1,8,0:0:0:0:
256,192,108218,1,0,0:0:0:0:
256,192,108352,1,8,0:0:0:0:
256,192,108419,1,8,0:0:0:0:
256,192,108486,1,8,0:0:0:0:
256,192,108620,1,0,0:0:0:0:
256,192,108754,1,8,0:0:0:0:
256,192,108888,1,0,0:0:0:0:
256,192,109021,1,0,0:0:0:0:
256,192,109155,1,8,0:0:0:0:
256,192,109222,1,8,0:0:0:0:
256,192,109289,1,0,0:0:0:0:
256,192,109423,1,8,0:0:0:0:
256,192,109490,1,0,0:0:0:0:
256,192,109557,1,0,0:0:0:0:
256,192,109691,1,8,0:0:0:0:
256,192,109825,1,0,0:0:0:0:
256,192,109959,1,8,0:0:0:0:
256,192,110093,1,0,0:0:0:0:
256,192,110160,1,0,0:0:0:0:
256,192,110227,1,8,0:0:0:0:
256,192,110361,1,8,0:0:0:0:
256,192,110495,1,0,0:0:0:0:
256,192,110629,1,8,0:0:0:0:
256,192,110763,1,8,0:0:0:0:
256,192,110896,1,8,0:0:0:0:
256,192,111030,1,0,0:0:0:0:
256,192,111164,1,8,0:0:0:0:
256,192,111298,1,0,0:0:0:0:
256,192,111432,1,0,0:0:0:0:
256,192,111566,1,12,0:0:0:0:
256,192,111700,1,12,0:0:0:0:
256,192,112102,1,4,0:0:0:0:
256,192,112236,1,4,0:0:0:0:
256,192,112638,1,12,0:0:0:0:
256,192,112771,1,12,0:0:0:0:
256,192,113173,1,4,0:0:0:0:
256,192,113307,1,4,0:0:0:0:
256,192,113709,1,12,0:0:0:0:
256,192,113843,1,12,0:0:0:0:
256,192,114245,1,4,0:0:0:0:
256,192,114379,1,4,0:0:0:0:
256,192,114780,1,12,0:0:0:0:
256,192,114914,1,12,0:0:0:0:
256,192,115182,1,12,0:0:0:0:
256,192,115450,1,12,0:0:0:0:
256,192,116521,1,0,0:0:0:0:
256,192,116588,1,0,0:0:0:0:
256,192,116655,1,8,0:0:0:0:
256,192,116923,1,0,0:0:0:0:
256,192,117057,1,0,0:0:0:0:
256,192,117124,1,0,0:0:0:0:
256,192,117191,1,8,0:0:0:0:
256,192,117325,1,8,0:0:0:0:
256,192,117392,1,8,0:0:0:0:
256,192,117459,1,0,0:0:0:0:
256,192,117593,1,0,0:0:0:0:
256,192,117727,1,8,0:0:0:0:
256,192,117995,1,0,0:0:0:0:
256,192,118129,1,0,0:0:0:0:
256,192,118263,1,8,0:0:0:0:
256,192,118396,1,8,0:0:0:0:
256,192,118463,1,8,0:0:0:0:
256,192,118530,1,0,0:0:0:0:
256,192,118664,1,0,0:0:0:0:
256,192,118731,1,0,0:0:0:0:
256,192,118798,1,8,0:0:0:0:
256,192,119066,1,0,0:0:0:0:
256,192,119200,1,0,0:0:0:0:
256,192,119267,1,0,0:0:0:0:
256,192,119334,1,8,0:0:0:0:
256,192,119468,1,8,0:0:0:0:
256,192,119535,1,8,0:0:0:0:
256,192,119602,1,0,0:0:0:0:
256,192,119736,1,0,0:0:0:0:
256,192,119803,1,0,0:0:0:0:
256,192,119870,1,8,0:0:0:0:
256,192,120138,1,0,0:0:0:0:
256,192,120271,1,0,0:0:0:0:
256,192,120405,1,8,0:0:0:0:
256,192,120539,1,0,0:0:0:0:
256,192,120606,1,0,0:0:0:0:
256,192,120673,1,8,0:0:0:0:
256,192,120740,1,8,0:0:0:0:
256,192,120807,1,0,0:0:0:0:
256,192,120874,1,0,0:0:0:0:
256,192,120941,1,8,0:0:0:0:
256,192,121075,1,8,0:0:0:0:
256,192,121209,1,0,0:0:0:0:
256,192,121343,1,0,0:0:0:0:
256,192,121477,1,8,0:0:0:0:
256,192,121611,1,0,0:0:0:0:
256,192,121678,1,8,0:0:0:0:
256,192,121745,1,0,0:0:0:0:
256,192,121879,1,0,0:0:0:0:
256,192,122013,1,8,0:0:0:0:
256,192,122280,1,0,0:0:0:0:
256,192,122414,1,0,0:0:0:0:
256,192,122481,1,0,0:0:0:0:
256,192,122548,1,8,0:0:0:0:
256,192,122682,1,8,0:0:0:0:
256,192,122749,1,8,0:0:0:0:
256,192,122816,1,0,0:0:0:0:
256,192,122950,1,0,0:0:0:0:
256,192,123084,1,8,0:0:0:0:
256,192,123352,1,0,0:0:0:0:
256,192,123486,1,0,0:0:0:0:
256,192,123620,1,8,0:0:0:0:
256,192,123709,1,0,0:0:0:0:
256,192,123798,1,0,0:0:0:0:
256,192,123888,1,0,0:0:0:0:
256,192,124423,1,4,0:0:0:0:
256,192,124602,1,4,0:0:0:0:
256,192,124780,1,4,0:0:0:0:
256,192,124959,1,12,0:0:0:0:
256,192,125138,1,12,0:0:0:0:
256,192,125316,1,12,0:0:0:0:
256,192,125495,1,4,0:0:0:0:
256,192,125629,1,8,0:0:0:0:
256,192,125696,1,8,0:0:0:0:
256,192,125763,1,0,0:0:0:0:
256,192,125896,1,8,0:0:0:0:
256,192,126030,1,0,0:0:0:0:
256,192,126097,1,0,0:0:0:0:
256,192,126164,1,8,0:0:0:0:
256,192,126298,1,0,0:0:0:0:
256,192,126432,1,8,0:0:0:0:
256,192,126566,1,0,0:0:0:0:
256,192,126633,1,0,0:0:0:0:
256,192,126700,1,8,0:0:0:0:
256,192,126834,1,0,0:0:0:0:
256,192,126968,1,8,0:0:0:0:
256,192,127102,1,8,0:0:0:0:
256,192,127169,1,8,0:0:0:0:
256,192,127236,1,0,0:0:0:0:
256,192,127370,1,8,0:0:0:0:
256,192,127504,1,0,0:0:0:0:
256,192,127638,1,8,0:0:0:0:
256,192,127704,1,8,0:0:0:0:
256,192,127771,1,8,0:0:0:0:
256,192,127905,1,8,0:0:0:0:
256,192,128039,1,0,0:0:0:0:
256,192,128173,1,8,0:0:0:0:
256,192,128307,1,8,0:0:0:0:
256,192,128374,1,8,0:0:0:0:
256,192,128441,1,0,0:0:0:0:
256,192,128575,1,8,0:0:0:0:
256,192,128709,1,0,0:0:0:0:
256,192,128843,1,8,0:0:0:0:
256,192,128977,1,0,0:0:0:0:
256,192,129245,1,8,0:0:0:0:
256,192,129513,1,0,0:0:0:0:
256,192,129780,1,8,0:0:0:0:
256,192,129914,1,8,0:0:0:0:
256,192,129981,1,8,0:0:0:0:
256,192,130048,1,8,0:0:0:0:
256,192,130182,1,0,0:0:0:0:
256,192,130249,1,0,0:0:0:0:
256,192,130316,1,8,0:0:0:0:
256,192,130450,1,0,0:0:0:0:
256,192,130584,1,8,0:0:0:0:
256,192,130651,1,8,0:0:0:0:
256,192,130718,1,0,0:0:0:0:
256,192,130852,1,8,0:0:0:0:
256,192,130986,1,8,0:0:0:0:
256,192,131053,1,8,0:0:0:0:
256,192,131120,1,8,0:0:0:0:
256,192,131254,1,0,0:0:0:0:
256,192,131388,1,8,0:0:0:0:
256,192,131521,1,0,0:0:0:0:
256,192,131588,1,0,0:0:0:0:
256,192,131655,1,8,0:0:0:0:
256,192,131789,1,8,0:0:0:0:
256,192,131923,1,0,0:0:0:0:
256,192,132057,1,0,0:0:0:0:
256,192,132124,1,0,0:0:0:0:
256,192,132191,1,8,0:0:0:0:
256,192,132325,1,0,0:0:0:0:
256,192,132459,1,0,0:0:0:0:
256,192,132526,1,0,0:0:0:0:
256,192,132593,1,0,0:0:0:0:
256,192,132727,1,8,0:0:0:0:
256,192,132861,1,0,0:0:0:0:
256,192,132995,1,0,0:0:0:0:
256,192,133129,1,8,0:0:0:0:
256,192,133263,1,8,0:0:0:0:
256,192,133396,1,8,0:0:0:0:
256,192,133530,1,0,0:0:0:0:
256,192,133664,1,8,0:0:0:0:
256,192,133798,1,0,0:0:0:0:
256,192,133932,1,8,0:0:0:0:
256,192,134066,1,4,0:0:0:0:
256,192,134200,1,4,0:0:0:0:
256,192,134468,1,4,0:0:0:0:
256,192,136209,1,4,0:0:0:0:
256,192,136343,1,4,0:0:0:0:
256,192,136611,1,4,0:0:0:0:
256,192,136879,1,0,0:0:0:0:
256,192,137013,1,8,0:0:0:0:
256,192,137414,1,0,0:0:0:0:
256,192,137548,1,8,0:0:0:0:
256,192,137816,1,0,0:0:0:0:
256,192,137950,1,0,0:0:0:0:
256,192,138084,1,8,0:0:0:0:
256,192,138151,1,8,0:0:0:0:
256,192,138218,1,8,0:0:0:0:
256,192,138285,1,8,0:0:0:0:
256,192,138352,1,0,0:0:0:0:
256,192,138486,1,0,0:0:0:0:
256,192,138553,1,0,0:0:0:0:
256,192,138620,1,8,0:0:0:0:
256,192,138754,1,0,0:0:0:0:
256,192,138821,1,8,0:0:0:0:
256,192,138888,1,0,0:0:0:0:
256,192,139021,1,0,0:0:0:0:
256,192,139155,1,8,0:0:0:0:
256,192,139289,1,8,0:0:0:0:
256,192,139356,1,8,0:0:0:0:
256,192,139423,1,0,0:0:0:0:
256,192,139557,1,0,0:0:0:0:
256,192,139691,1,8,0:0:0:0:
256,192,139825,1,0,0:0:0:0:
256,192,139892,1,8,0:0:0:0:
256,192,139959,1,0,0:0:0:0:
256,192,140093,1,0,0:0:0:0:
256,192,140227,1,8,0:0:0:0:
256,192,140361,1,0,0:0:0:0:
256,192,140495,1,0,0:0:0:0:
256,192,140629,1,0,0:0:0:0:
256,192,140696,1,0,0:0:0:0:
256,192,140763,1,8,0:0:0:0:
256,192,140896,1,0,0:0:0:0:
256,192,141030,1,8,0:0:0:0:
256,192,141097,1,8,0:0:0:0:
256,192,141164,1,0,0:0:0:0:
256,192,141298,1,8,0:0:0:0:
256,192,141432,1,0,0:0:0:0:
256,192,141566,1,12,0:0:0:0:
256,192,141700,1,0,0:0:0:0:
256,192,141834,1,0,0:0:0:0:
256,192,141968,1,12,0:0:0:0:
256,192,142102,1,0,0:0:0:0:
256,192,142236,1,0,0:0:0:0:
256,192,142370,1,12,0:0:0:0:
256,192,142638,1,0,0:0:0:0:
256,192,142771,1,0,0:0:0:0:
256,192,143173,1,8,0:0:0:0:
256,192,143575,1,0,0:0:0:0:
256,192,143843,1,8,0:0:0:0:
256,192,144111,1,0,0:0:0:0:
256,192,144245,1,8,0:0:0:0:
256,192,144513,1,0,0:0:0:0:
256,192,144780,1,0,0:0:0:0:
256,192,145048,1,0,0:0:0:0:
256,192,145316,1,8,0:0:0:0:
256,192,145450,1,0,0:0:0:0:
256,192,145718,1,0,0:0:0:0:
256,192,145852,1,8,0:0:0:0:
256,192,145986,1,0,0:0:0:0:
256,192,146254,1,0,0:0:0:0:
256,192,146388,1,8,0:0:0:0:
256,192,146521,1,0,0:0:0:0:
256,192,146655,1,8,0:0:0:0:
256,192,146789,1,0,0:0:0:0:
256,192,146856,1,0,0:0:0:0:
256,192,146923,1,12,0:0:0:0:
256,192,147057,1,0,0:0:0:0:
256,192,147191,1,0,0:0:0:0:
256,192,147325,1,0,0:0:0:0:
256,192,147459,1,8,0:0:0:0:
256,192,147593,1,0,0:0:0:0:
256,192,147727,1,0,0:0:0:0:
256,192,147861,1,0,0:0:0:0:
256,192,147928,1,0,0:0:0:0:
256,192,147995,1,8,0:0:0:0:
256,192,148129,1,0,0:0:0:0:
256,192,148263,1,0,0:0:0:0:
256,192,148396,1,0,0:0:0:0:
256,192,148530,1,8,0:0:0:0:
256,192,148664,1,0,0:0:0:0:
256,192,148798,1,0,0:0:0:0:
256,192,148932,1,0,0:0:0:0:
256,192,148999,1,0,0:0:0:0:
256,192,149066,1,8,0:0:0:0:
256,192,149200,1,0,0:0:0:0:
256,192,149334,1,8,0:0:0:0:
256,192,149468,1,0,0:0:0:0:
256,192,149602,1,8,0:0:0:0:
256,192,149736,1,0,0:0:0:0:
256,192,149870,1,8,0:0:0:0:
256,192,150004,1,0,0:0:0:0:
256,192,150071,1,0,0:0:0:0:
256,192,150138,1,8,0:0:0:0:
256,192,150271,1,0,0:0:0:0:
256,192,150338,1,0,0:0:0:0:
256,192,150405,1,8,0:0:0:0:
256,192,150539,1,0,0:0:0:0:
256,192,150606,1,0,0:0:0:0:
256,192,150673,1,8,0:0:0:0:
256,192,150740,1,0,0:0:0:0:
256,192,150807,1,0,0:0:0:0:
256,192,150874,1,0,0:0:0:0:
256,192,150941,1,8,0:0:0:0:
256,192,151008,1,8,0:0:0:0:
256,192,151075,1,0,0:0:0:0:
256,192,151142,1,0,0:0:0:0:
256,192,151209,1,8,0:0:0:0:
256,192,151276,1,0,0:0:0:0:
256,192,151343,1,0,0:0:0:0:
256,192,151410,1,0,0:0:0:0:
256,192,151477,1,8,0:0:0:0:
256,192,151544,1,0,0:0:0:0:
256,192,151611,1,8,0:0:0:0:
256,192,151678,1,0,0:0:0:0:
256,192,151745,1,0,0:0:0:0:
256,192,151812,1,0,0:0:0:0:
256,192,151879,1,8,0:0:0:0:
256,192,151946,1,8,0:0:0:0:
256,192,152013,1,0,0:0:0:0:
256,192,152079,1,0,0:0:0:0:
256,192,152146,1,8,0:0:0:0:
256,192,152280,1,4,0:0:0:0:
256,192,152950,1,0,0:0:0:0:
256,192,153084,1,8,0:0:0:0:
256,192,153352,1,12,0:0:0:0:
256,192,153486,1,0,0:0:0:0:
256,192,153553,1,0,0:0:0:0:
256,192,153620,1,8,0:0:0:0:
256,192,153754,1,0,0:0:0:0:
256,192,153821,1,0,0:0:0:0:
256,192,153888,1,8,0:0:0:0:
256,192,153954,1,8,0:0:0:0:
256,192,154021,1,0,0:0:0:0:
256,192,154155,1,8,0:0:0:0:
256,192,154222,1,8,0:0:0:0:
256,192,154289,1,8,0:0:0:0:
256,192,154423,1,0,0:0:0:0:
256,192,154557,1,0,0:0:0:0:
256,192,154624,1,0,0:0:0:0:
256,192,154691,1,8,0:0:0:0:
256,192,154825,1,8,0:0:0:0:
256,192,154892,1,8,0:0:0:0:
256,192,154959,1,0,0:0:0:0:
256,192,155026,1,8,0:0:0:0:
256,192,155093,1,0,0:0:0:0:
256,192,155227,1,8,0:0:0:0:
256,192,155361,1,0,0:0:0:0:
256,192,155428,1,0,0:0:0:0:
256,192,155495,1,8,0:0:0:0:
256,192,155629,1,0,0:0:0:0:
256,192,155696,1,0,0:0:0:0:
256,192,155763,1,8,0:0:0:0:
256,192,155829,1,8,0:0:0:0:
256,192,155896,1,0,0:0:0:0:
256,192,156030,1,8,0:0:0:0:
256,192,156097,1,8,0:0:0:0:
256,192,156164,1,8,0:0:0:0:
256,192,156231,1,0,0:0:0:0:
256,192,156298,1,8,0:0:0:0:
256,192,156432,1,0,0:0:0:0:
256,192,156566,1,8,0:0:0:0:
256,192,156700,1,0,0:0:0:0:
256,192,156834,1,12,0:0:0:0:
256,192,156968,1,0,0:0:0:0:
256,192,157102,1,12,0:0:0:0:
256,192,157236,1,0,0:0:0:0:
256,192,157370,1,12,0:0:0:0:
256,192,157504,1,0,0:0:0:0:
256,192,157638,1,4,0:0:0:0:
256,192,157771,1,0,0:0:0:0:
256,192,157838,1,0,0:0:0:0:
256,192,157905,1,8,0:0:0:0:
256,192,158039,1,0,0:0:0:0:
256,192,158106,1,8,0:0:0:0:
256,192,158173,1,0,0:0:0:0:
256,192,158307,1,0,0:0:0:0:
256,192,158441,1,8,0:0:0:0:
256,192,158508,1,8,0:0:0:0:
256,192,158575,1,0,0:0:0:0:
256,192,158642,1,8,0:0:0:0:
256,192,158709,1,0,0:0:0:0:
256,192,158843,1,0,0:0:0:0:
256,192,158977,1,8,0:0:0:0:
256,192,159111,1,8,0:0:0:0:
256,192,159178,1,8,0:0:0:0:
256,192,159245,1,0,0:0:0:0:
256,192,159379,1,0,0:0:0:0:
256,192,159446,1,0,0:0:0:0:
256,192,159513,1,8,0:0:0:0:
256,192,159646,1,0,0:0:0:0:
256,192,159780,1,8,0:0:0:0:
256,192,159914,1,0,0:0:0:0:
256,192,159981,1,0,0:0:0:0:
256,192,160048,1,8,0:0:0:0:
256,192,160115,1,8,0:0:0:0:
256,192,160182,1,0,0:0:0:0:
256,192,160316,1,8,0:0:0:0:
256,192,160383,1,8,0:0:0:0:
256,192,160450,1,0,0:0:0:0:
256,192,160584,1,8,0:0:0:0:
256,192,160718,1,0,0:0:0:0:
256,192,160852,1,8,0:0:0:0:
256,192,160986,1,0,0:0:0:0:
256,192,161053,1,0,0:0:0:0:
256,192,161120,1,8,0:0:0:0:
256,192,161254,1,0,0:0:0:0:
256,192,161388,1,8,0:0:0:0:
256,192,161454,1,8,0:0:0:0:
256,192,161521,1,8,0:0:0:0:
256,192,161655,1,0,0:0:0:0:
256,192,161722,1,0,0:0:0:0:
256,192,161789,1,0,0:0:0:0:
256,192,161856,1,0,0:0:0:0:
256,192,161923,1,12,0:0:0:0:
256,192,162057,1,8,0:0:0:0:
256,192,162191,1,0,0:0:0:0:
256,192,162258,1,0,0:0:0:0:
256,192,162325,1,8,0:0:0:0:
256,192,162392,1,0,0:0:0:0:
256,192,162459,1,8,0:0:0:0:
256,192,162593,1,0,0:0:0:0:
256,192,162727,1,8,0:0:0:0:
256,192,162794,1,0,0:0:0:0:
256,192,162861,1,8,0:0:0:0:
256,192,162995,1,0,0:0:0:0:
256,192,163062,1,8,0:0:0:0:
256,192,163129,1,0,0:0:0:0:
256,192,163196,1,0,0:0:0:0:
256,192,163263,1,8,0:0:0:0:
256,192,163396,1,0,0:0:0:0:
256,192,163530,1,8,0:0:0:0:
256,192,163597,1,8,0:0:0:0:
256,192,163664,1,0,0:0:0:0:
256,192,163798,1,8,0:0:0:0:
256,192,163865,1,8,0:0:0:0:
256,192,163932,1,0,0:0:0:0:
256,192,163999,1,0,0:0:0:0:
256,192,164066,1,8,0:0:0:0:
256,192,164200,1,0,0:0:0:0:
256,192,164334,1,8,0:0:0:0:
256,192,164401,1,0,0:0:0:0:
256,192,164468,1,8,0:0:0:0:
256,192,164602,1,0,0:0:0:0:
256,192,164669,1,8,0:0:0:0:
256,192,164736,1,0,0:0:0:0:
256,192,164803,1,0,0:0:0:0:
256,192,164870,1,8,0:0:0:0:
256,192,165004,1,0,0:0:0:0:
256,192,165071,1,0,0:0:0:0:
256,192,165138,1,8,0:0:0:0:
256,192,165271,1,0,0:0:0:0:
256,192,165405,1,8,0:0:0:0:
256,192,165472,1,8,0:0:0:0:
256,192,165539,1,0,0:0:0:0:
256,192,165606,1,8,0:0:0:0:
256,192,165673,1,0,0:0:0:0:
256,192,165807,1,0,0:0:0:0:
256,192,165941,1,8,0:0:0:0:
256,192,166209,1,12,0:0:0:0:
256,192,166343,1,0,0:0:0:0:
256,192,166477,1,8,0:0:0:0:
256,192,166611,1,0,0:0:0:0:
256,192,166678,1,8,0:0:0:0:
256,192,166745,1,0,0:0:0:0:
256,192,166879,1,0,0:0:0:0:
256,192,167013,1,8,0:0:0:0:
256,192,167079,1,8,0:0:0:0:
256,192,167146,1,0,0:0:0:0:
256,192,167280,1,8,0:0:0:0:
256,192,167347,1,8,0:0:0:0:
256,192,167414,1,8,0:0:0:0:
256,192,167548,1,0,0:0:0:0:
256,192,167682,1,8,0:0:0:0:
256,192,167816,1,0,0:0:0:0:
256,192,167950,1,0,0:0:0:0:
256,192,168084,1,8,0:0:0:0:
256,192,168151,1,8,0:0:0:0:
256,192,168218,1,0,0:0:0:0:
256,192,168352,1,8,0:0:0:0:
256,192,168419,1,0,0:0:0:0:
256,192,168486,1,0,0:0:0:0:
256,192,168620,1,8,0:0:0:0:
256,192,168754,1,0,0:0:0:0:
256,192,168888,1,8,0:0:0:0:
256,192,169021,1,0,0:0:0:0:
256,192,169088,1,0,0:0:0:0:
256,192,169155,1,8,0:0:0:0:
256,192,169289,1,8,0:0:0:0:
256,192,169423,1,8,0:0:0:0:
256,192,169490,1,8,0:0:0:0:
256,192,169557,1,0,0:0:0:0:
256,192,169602,1,0,0:0:0:0:
256,192,169646,1,0,0:0:0:0:
256,192,169691,1,8,0:0:0:0:
256,192,169959,1,0,0:0:0:0:
256,192,170026,1,0,0:0:0:0:
256,192,170093,1,8,0:0:0:0:
256,192,170138,1,8,0:0:0:0:
256,192,170182,1,8,0:0:0:0:
256,192,170227,1,0,0:0:0:0:
256,192,170495,1,8,0:0:0:0:
256,192,170629,1,0,0:0:0:0:
256,192,170696,1,0,0:0:0:0:
256,192,170763,1,8,0:0:0:0:
256,192,170896,1,8,0:0:0:0:
256,192,171030,1,0,0:0:0:0:
256,192,171164,1,0,0:0:0:0:
256,192,171298,1,8,0:0:0:0:
256,192,171432,1,8,0:0:0:0:
256,192,171566,1,0,0:0:0:0:
256,192,171633,1,0,0:0:0:0:
256,192,171700,1,0,0:0:0:0:
256,192,171834,1,8,0:0:0:0:
256,192,171968,1,0,0:0:0:0:
256,192,172102,1,8,0:0:0:0:
256,192,172169,1,8,0:0:0:0:
256,192,172236,1,0,0:0:0:0:
256,192,172303,1,0,0:0:0:0:
256,192,172370,1,8,0:0:0:0:
256,192,172504,1,0,0:0:0:0:
256,192,172638,1,8,0:0:0:0:
256,192,172704,1,0,0:0:0:0:
256,192,172771,1,0,0:0:0:0:
256,192,172905,1,0,0:0:0:0:
256,192,173039,1,8,0:0:0:0:
256,192,173106,1,8,0:0:0:0:
256,192,173173,1,0,0:0:0:0:
256,192,173307,1,0,0:0:0:0:
256,192,173441,1,8,0:0:0:0:
256,192,173508,1,8,0:0:0:0:
256,192,173575,1,8,0:0:0:0:
256,192,173709,1,0,0:0:0:0:
256,192,173843,1,0,0:0:0:0:
256,192,173977,1,12,0:0:0:0:
256,192,174111,1,0,0:0:0:0:
256,192,174245,1,12,0:0:0:0:
256,192,174379,1,0,0:0:0:0:
256,192,174513,1,12,0:0:0:0:
256,192,174646,1,0,0:0:0:0:
256,192,174780,1,4,0:0:0:0:
256,192,174914,1,0,0:0:0:0:
256,192,174981,1,0,0:0:0:0:
256,192,175048,1,8,0:0:0:0:
256,192,175182,1,8,0:0:0:0:
256,192,175316,1,0,0:0:0:0:
256,192,175450,1,0,0:0:0:0:
256,192,175584,1,8,0:0:0:0:
256,192,175718,1,8,0:0:0:0:
256,192,175785,1,8,0:0:0:0:
256,192,175852,1,0,0:0:0:0:
256,192,175986,1,0,0:0:0:0:
256,192,176120,1,8,0:0:0:0:
256,192,176254,1,0,0:0:0:0:
256,192,176321,1,0,0:0:0:0:
256,192,176388,1,0,0:0:0:0:
256,192,176521,1,0,0:0:0:0:
256,192,176655,1,8,0:0:0:0:
256,192,176789,1,0,0:0:0:0:
256,192,176923,1,0,0:0:0:0:
256,192,177057,1,0,0:0:0:0:
256,192,177124,1,0,0:0:0:0:
256,192,177191,1,8,0:0:0:0:
256,192,177325,1,0,0:0:0:0:
256,192,177459,1,8,0:0:0:0:
256,192,177593,1,0,0:0:0:0:
256,192,177727,1,8,0:0:0:0:
256,192,177794,1,8,0:0:0:0:
256,192,177861,1,0,0:0:0:0:
256,192,177995,1,8,0:0:0:0:
256,192,178129,1,0,0:0:0:0:
256,192,178263,1,8,0:0:0:0:
256,192,178396,1,0,0:0:0:0:
256,192,178463,1,0,0:0:0:0:
256,192,178530,1,8,0:0:0:0:
256,192,178664,1,8,0:0:0:0:
256,192,178798,1,8,0:0:0:0:
256,192,178932,1,8,0:0:0:0:
256,192,179066,1,8,0:0:0:0:
256,192,179133,1,8,0:0:0:0:
256,192,179200,1,0,0:0:0:0:
256,192,179334,1,0,0:0:0:0:
256,192,179468,1,8,0:0:0:0:
256,192,179535,1,8,0:0:0:0:
256,192,179602,1,0,0:0:0:0:
256,192,179736,1,0,0:0:0:0:
256,192,179870,1,8,0:0:0:0:
256,192,179937,1,8,0:0:0:0:
256,192,180004,1,0,0:0:0:0:
256,192,180138,1,0,0:0:0:0:
256,192,180271,1,8,0:0:0:0:
256,192,180338,1,8,0:0:0:0:
256,192,180405,1,0,0:0:0:0:
256,192,180539,1,0,0:0:0:0:
256,192,180673,1,8,0:0:0:0:
256,192,180807,1,0,0:0:0:0:
256,192,180941,1,8,0:0:0:0:
256,192,181075,1,0,0:0:0:0:
256,192,181209,1,8,0:0:0:0:
256,192,181276,1,8,0:0:0:0:
256,192,181343,1,0,0:0:0:0:
256,192,181477,1,0,0:0:0:0:
256,192,181611,1,8,0:0:0:0:
256,192,181678,1,8,0:0:0:0:
256,192,181745,1,0,0:0:0:0:
256,192,181879,1,0,0:0:0:0:
256,192,182013,1,8,0:0:0:0:
256,192,182079,1,8,0:0:0:0:
256,192,182146,1,0,0:0:0:0:
256,192,182280,1,0,0:0:0:0:
256,192,182414,1,8,0:0:0:0:
256,192,182481,1,8,0:0:0:0:
256,192,182548,1,8,0:0:0:0:
256,192,182682,1,0,0:0:0:0:
256,192,182816,1,12,0:0:0:0:
256,192,183084,1,12,0:0:0:0:
256,192,183352,1,0,0:0:0:0:
256,192,183486,1,0,0:0:0:0:
256,192,183553,1,0,0:0:0:0:
256,192,183620,1,8,0:0:0:0:
256,192,183754,1,8,0:0:0:0:
256,192,183888,1,0,0:0:0:0:
256,192,184021,1,8,0:0:0:0:
256,192,184088,1,8,0:0:0:0:
256,192,184155,1,8,0:0:0:0:
256,192,184289,1,8,0:0:0:0:
256,192,184423,1,0,0:0:0:0:
256,192,184557,1,0,0:0:0:0:
256,192,184691,1,8,0:0:0:0:
256,192,184825,1,8,0:0:0:0:
256,192,184892,1,8,0:0:0:0:
256,192,184959,1,0,0:0:0:0:
256,192,185093,1,0,0:0:0:0:
256,192,185227,1,8,0:0:0:0:
256,192,185361,1,0,0:0:0:0:
256,192,185495,1,12,0:0:0:0:
256,192,185629,1,0,0:0:0:0:
256,192,185763,1,0,0:0:0:0:
256,192,185896,1,12,0:0:0:0:
256,192,186164,1,0,0:0:0:0:
256,192,186298,1,12,0:0:0:0:
256,192,186432,1,0,0:0:0:0:
256,192,186566,1,0,0:0:0:0:
256,192,186700,1,8,0:0:0:0:
256,192,186968,1,8,0:0:0:0:
256,192,187102,1,8,0:0:0:0:
256,192,187236,1,0,0:0:0:0:
256,192,187370,1,12,0:0:0:0:
256,192,187504,1,8,0:0:0:0:
256,192,187638,1,4,0:0:0:0:
256,192,187771,12,0,189780,0:0:0:0:
256,192,196075,5,0,0:0:0:0:
256,192,196142,1,0,0:0:0:0:
256,192,196209,1,12,0:0:0:0:
256,192,196477,1,0,0:0:0:0:
256,192,196611,1,0,0:0:0:0:
256,192,196678,1,0,0:0:0:0:
256,192,196745,1,8,0:0:0:0:
256,192,196879,1,0,0:0:0:0:
256,192,197013,1,8,0:0:0:0:
256,192,197079,1,8,0:0:0:0:
256,192,197146,1,0,0:0:0:0:
256,192,197280,1,8,0:0:0:0:
256,192,197414,1,0,0:0:0:0:
256,192,197481,1,0,0:0:0:0:
256,192,197548,1,8,0:0:0:0:
256,192,197682,1,0,0:0:0:0:
256,192,197749,1,0,0:0:0:0:
256,192,197816,1,8,0:0:0:0:
256,192,197950,1,0,0:0:0:0:
256,192,198084,1,8,0:0:0:0:
256,192,198218,1,0,0:0:0:0:
256,192,198285,1,0,0:0:0:0:
256,192,198352,1,12,0:0:0:0:
256,192,198486,1,0,0:0:0:0:
256,192,198620,1,8,0:0:0:0:
256,192,198754,1,0,0:0:0:0:
256,192,198821,1,0,0:0:0:0:
256,192,198888,1,8,0:0:0:0:
256,192,199021,1,0,0:0:0:0:
256,192,199155,1,8,0:0:0:0:
256,192,199222,1,8,0:0:0:0:
256,192,199289,1,0,0:0:0:0:
256,192,199423,1,8,0:0:0:0:
256,192,199557,1,0,0:0:0:0:
256,192,199691,1,8,0:0:0:0:
256,192,199758,1,8,0:0:0:0:
256,192,199825,1,0,0:0:0:0:
256,192,199959,1,8,0:0:0:0:
256,192,200026,1,0,0:0:0:0:
256,192,200093,1,0,0:0:0:0:
256,192,200160,1,0,0:0:0:0:
256,192,200227,1,8,0:0:0:0:
256,192,200294,1,8,0:0:0:0:
256,192,200361,1,0,0:0:0:0:
256,192,200428,1,0,0:0:0:0:
256,192,200495,1,12,0:0:0:0:
256,192,200763,1,8,0:0:0:0:
256,192,200829,1,0,0:0:0:0:
256,192,200896,1,0,0:0:0:0:
256,192,200963,1,0,0:0:0:0:
256,192,201030,1,8,0:0:0:0:
256,192,201097,1,0,0:0:0:0:
256,192,201164,1,8,0:0:0:0:
256,192,201231,1,8,0:0:0:0:
256,192,201298,1,0,0:0:0:0:
256,192,201365,1,0,0:0:0:0:
256,192,201432,1,8,0:0:0:0:
256,192,201499,1,0,0:0:0:0:
256,192,201566,1,8,0:0:0:0:
256,192,201633,1,8,0:0:0:0:
256,192,201700,1,8,0:0:0:0:
256,192,201767,1,0,0:0:0:0:
256,192,201834,1,8,0:0:0:0:
256,192,201901,1,0,0:0:0:0:
256,192,201968,1,8,0:0:0:0:
256,192,202035,1,8,0:0:0:0:
256,192,202102,1,0,0:0:0:0:
256,192,202169,1,0,0:0:0:0:
256,192,202236,1,8,0:0:0:0:
256,192,202303,1,0,0:0:0:0:
256,192,202370,1,8,0:0:0:0:
256,192,202437,1,8,0:0:0:0:
256,192,202504,1,0,0:0:0:0:
256,192,202571,1,0,0:0:0:0:
256,192,202638,1,12,0:0:0:0:
256,192,202905,1,8,0:0:0:0:
256,192,203039,1,0,0:0:0:0:
256,192,203106,1,0,0:0:0:0:
256,192,203173,1,0,0:0:0:0:
256,192,203240,1,0,0:0:0:0:
256,192,203307,1,8,0:0:0:0:
256,192,203374,1,8,0:0:0:0:
256,192,203441,1,0,0:0:0:0:
256,192,203508,1,0,0:0:0:0:
256,192,203575,1,0,0:0:0:0:
256,192,203642,1,0,0:0:0:0:
256,192,203709,1,8,0:0:0:0:
256,192,203843,1,0,0:0:0:0:
256,192,203910,1,0,0:0:0:0:
256,192,203977,1,12,0:0:0:0:
256,192,204780,1,12,0:0:0:0:
256,192,204914,1,0,0:0:0:0:
256,192,204981,1,0,0:0:0:0:
256,192,205048,1,8,0:0:0:0:
256,192,205182,1,0,0:0:0:0:
256,192,205249,1,0,0:0:0:0:
256,192,205316,1,8,0:0:0:0:
256,192,205383,1,8,0:0:0:0:
256,192,205450,1,0,0:0:0:0:
256,192,205584,1,8,0:0:0:0:
256,192,205651,1,8,0:0:0:0:
256,192,205718,1,8,0:0:0:0:
256,192,205852,1,0,0:0:0:0:
256,192,205986,1,0,0:0:0:0:
256,192,206053,1,0,0:0:0:0:
256,192,206120,1,8,0:0:0:0:
256,192,206254,1,8,0:0:0:0:
256,192,206321,1,8,0:0:0:0:
256,192,206388,1,0,0:0:0:0:
256,192,206454,1,8,0:0:0:0:
256,192,206521,1,0,0:0:0:0:
256,192,206655,1,8,0:0:0:0:
256,192,206789,1,0,0:0:0:0:
256,192,206856,1,0,0:0:0:0:
256,192,206923,1,8,0:0:0:0:
256,192,207057,1,0,0:0:0:0:
256,192,207124,1,0,0:0:0:0:
256,192,207191,1,8,0:0:0:0:
256,192,207258,1,8,0:0:0:0:
256,192,207325,1,0,0:0:0:0:
256,192,207459,1,8,0:0:0:0:
256,192,207526,1,8,0:0:0:0:
256,192,207593,1,8,0:0:0:0:
256,192,207660,1,0,0:0:0:0:
256,192,207727,1,8,0:0:0:0:
256,192,207861,1,0,0:0:0:0:
256,192,207995,1,8,0:0:0:0:
256,192,208129,1,0,0:0:0:0:
256,192,208263,1,12,0:0:0:0:
256,192,208396,1,0,0:0:0:0:
256,192,208530,1,12,0:0:0:0:
256,192,208664,1,0,0:0:0:0:
256,192,208798,1,12,0:0:0:0:
256,192,208932,1,0,0:0:0:0:
256,192,209066,1,4,0:0:0:0:
256,192,209200,1,0,0:0:0:0:
256,192,209267,1,0,0:0:0:0:
256,192,209334,1,8,0:0:0:0:
256,192,209468,1,0,0:0:0:0:
256,192,209535,1,8,0:0:0:0:
256,192,209602,1,0,0:0:0:0:
256,192,209736,1,0,0:0:0:0:
256,192,209870,1,8,0:0:0:0:
256,192,209937,1,8,0:0:0:0:
256,192,210004,1,0,0:0:0:0:
256,192,210071,1,8,0:0:0:0:
256,192,210138,1,0,0:0:0:0:
256,192,210271,1,0,0:0:0:0:
256,192,210405,1,8,0:0:0:0:
256,192,210539,1,8,0:0:0:0:
256,192,210606,1,8,0:0:0:0:
256,192,210673,1,0,0:0:0:0:
256,192,210807,1,0,0:0:0:0:
256,192,210874,1,0,0:0:0:0:
256,192,210941,1,8,0:0:0:0:
256,192,211075,1,0,0:0:0:0:
256,192,211209,1,8,0:0:0:0:
256,192,211343,1,0,0:0:0:0:
256,192,211410,1,0,0:0:0:0:
256,192,211477,1,8,0:0:0:0:
256,192,211544,1,8,0:0:0:0:
256,192,211611,1,0,0:0:0:0:
256,192,211745,1,8,0:0:0:0:
256,192,211812,1,8,0:0:0:0:
256,192,211879,1,0,0:0:0:0:
256,192,212013,1,8,0:0:0:0:
256,192,212146,1,0,0:0:0:0:
256,192,212280,1,8,0:0:0:0:
256,192,212414,1,0,0:0:0:0:
256,192,212481,1,0,0:0:0:0:
256,192,212548,1,8,0:0:0:0:
256,192,212682,1,0,0:0:0:0:
256,192,212816,1,8,0:0:0:0:
256,192,212883,1,8,0:0:0:0:
256,192,212950,1,8,0:0:0:0:
256,192,213084,1,0,0:0:0:0:
256,192,213151,1,0,0:0:0:0:
256,192,213218,1,0,0:0:0:0:
256,192,213285,1,0,0:0:0:0:
256,192,213352,1,12,0:0:0:0:
256,192,213486,1,8,0:0:0:0:
256,192,213620,1,0,0:0:0:0:
256,192,213687,1,0,0:0:0:0:
256,192,213754,1,8,0:0:0:0:
256,192,213821,1,0,0:0:0:0:
256,192,213888,1,8,0:0:0:0:
256,192,214021,1,0,0:0:0:0:
256,192,214155,1,8,0:0:0:0:
256,192,214222,1,0,0:0:0:0:
256,192,214289,1,8,0:0:0:0:
256,192,214423,1,0,0:0:0:0:
256,192,214490,1,8,0:0:0:0:
256,192,214557,1,0,0:0:0:0:
256,192,214624,1,0,0:0:0:0:
256,192,214691,1,8,0:0:0:0:
256,192,214825,1,0,0:0:0:0:
256,192,214959,1,8,0:0:0:0:
256,192,215026,1,8,0:0:0:0:
256,192,215093,1,0,0:0:0:0:
256,192,215227,1,8,0:0:0:0:
256,192,215294,1,8,0:0:0:0:
256,192,215361,1,0,0:0:0:0:
256,192,215428,1,0,0:0:0:0:
256,192,215495,1,8,0:0:0:0:
256,192,215629,1,0,0:0:0:0:
256,192,215763,1,8,0:0:0:0:
256,192,215829,1,0,0:0:0:0:
256,192,215896,1,8,0:0:0:0:
256,192,216030,1,0,0:0:0:0:
256,192,216097,1,8,0:0:0:0:
256,192,216164,1,0,0:0:0:0:
256,192,216231,1,0,0:0:0:0:
256,192,216298,1,8,0:0:0:0:
256,192,216432,1,0,0:0:0:0:
256,192,216499,1,0,0:0:0:0:
256,192,216566,1,8,0:0:0:0:
256,192,216700,1,0,0:0:0:0:
256,192,216834,1,8,0:0:0:0:
256,192,216901,1,8,0:0:0:0:
256,192,216968,1,0,0:0:0:0:
256,192,217035,1,0,0:0:0:0:
256,192,217102,1,8,0:0:0:0:
256,192,217236,1,0,0:0:0:0:
256,192,217370,1,8,0:0:0:0:
256,192,217638,1,12,0:0:0:0:
256,192,217771,1,0,0:0:0:0:
256,192,217905,1,8,0:0:0:0:
256,192,218039,1,0,0:0:0:0:
256,192,218106,1,8,0:0:0:0:
256,192,218173,1,0,0:0:0:0:
256,192,218307,1,0,0:0:0:0:
256,192,218441,1,8,0:0:0:0:
256,192,218508,1,8,0:0:0:0:
256,192,218575,1,0,0:0:0:0:
256,192,218709,1,8,0:0:0:0:
256,192,218776,1,8,0:0:0:0:
256,192,218843,1,8,0:0:0:0:
256,192,218977,1,0,0:0:0:0:
256,192,219111,1,8,0:0:0:0:
256,192,219245,1,0,0:0:0:0:
256,192,219379,1,0,0:0:0:0:
256,192,219513,1,8,0:0:0:0:
256,192,219579,1,8,0:0:0:0:
256,192,219646,1,0,0:0:0:0:
256,192,219780,1,8,0:0:0:0:
256,192,219847,1,0,0:0:0:0:
256,192,219914,1,0,0:0:0:0:
256,192,220048,1,8,0:0:0:0:
256,192,220182,1,0,0:0:0:0:
256,192,220316,1,8,0:0:0:0:
256,192,220450,1,0,0:0:0:0:
256,192,220517,1,0,0:0:0:0:
256,192,220584,1,8,0:0:0:0:
256,192,220718,1,8,0:0:0:0:
256,192,220852,1,0,0:0:0:0:
256,192,221120,1,8,0:0:0:0:
256,192,221388,1,8,0:0:0:0:
256,192,221655,1,0,0:0:0:0:
256,192,221923,1,12,0:0:0:0:
256,192,222057,1,0,0:0:0:0:
256,192,222124,1,0,0:0:0:0:
256,192,222191,1,8,0:0:0:0:
256,192,222325,1,0,0:0:0:0:
256,192,222392,1,0,0:0:0:0:
256,192,222459,1,8,0:0:0:0:
256,192,222526,1,8,0:0:0:0:
256,192,222593,1,0,0:0:0:0:
256,192,222727,1,8,0:0:0:0:
256,192,222794,1,8,0:0:0:0:
256,192,222861,1,0,0:0:0:0:
256,192,222995,1,8,0:0:0:0:
256,192,223129,1,8,0:0:0:0:
256,192,223196,1,8,0:0:0:0:
256,192,223263,1,8,0:0:0:0:
256,192,223396,1,0,0:0:0:0:
256,192,223463,1,0,0:0:0:0:
256,192,223530,1,8,0:0:0:0:
256,192,223597,1,8,0:0:0:0:
256,192,223664,1,0,0:0:0:0:
256,192,223798,1,8,0:0:0:0:
256,192,223932,1,0,0:0:0:0:
256,192,223999,1,0,0:0:0:0:
256,192,224066,1,8,0:0:0:0:
256,192,224200,1,8,0:0:0:0:
256,192,224267,1,8,0:0:0:0:
256,192,224334,1,0,0:0:0:0:
256,192,224401,1,8,0:0:0:0:
256,192,224468,1,0,0:0:0:0:
256,192,224602,1,8,0:0:0:0:
256,192,224669,1,8,0:0:0:0:
256,192,224736,1,0,0:0:0:0:
256,192,224803,1,0,0:0:0:0:
256,192,224870,1,8,0:0:0:0:
256,192,225004,1,0,0:0:0:0:
256,192,225071,1,0,0:0:0:0:
256,192,225138,1,8,0:0:0:0:
256,192,225271,1,0,0:0:0:0:
256,192,225405,1,12,0:0:0:0:
256,192,225539,1,0,0:0:0:0:
256,192,225606,1,0,0:0:0:0:
256,192,225673,1,12,0:0:0:0:
256,192,225807,1,0,0:0:0:0:
256,192,225941,1,12,0:0:0:0:
256,192,226075,1,0,0:0:0:0:
256,192,226209,1,12,0:0:0:0:
256,192,226343,1,0,0:0:0:0:
256,192,226410,1,0,0:0:0:0:
256,192,226477,1,8,0:0:0:0:
256,192,226611,1,8,0:0:0:0:
256,192,226678,1,8,0:0:0:0:
256,192,226745,1,0,0:0:0:0:
256,192,226879,1,0,0:0:0:0:
256,192,227013,1,8,0:0:0:0:
256,192,227079,1,8,0:0:0:0:
256,192,227146,1,0,0:0:0:0:
256,192,227213,1,0,0:0:0:0:
256,192,227280,1,8,0:0:0:0:
256,192,227414,1,0,0:0:0:0:
256,192,227548,1,8,0:0:0:0:
256,192,227682,1,8,0:0:0:0:
256,192,227749,1,8,0:0:0:0:
256,192,227816,1,0,0:0:0:0:
256,192,227950,1,0,0:0:0:0:
256,192,228017,1,0,0:0:0:0:
256,192,228084,1,8,0:0:0:0:
256,192,228218,1,0,0:0:0:0:
256,192,228352,1,8,0:0:0:0:
256,192,228486,1,0,0:0:0:0:
256,192,228553,1,0,0:0:0:0:
256,192,228620,1,8,0:0:0:0:
256,192,228687,1,8,0:0:0:0:
256,192,228754,1,0,0:0:0:0:
256,192,228888,1,8,0:0:0:0:
256,192,228954,1,8,0:0:0:0:
256,192,229021,1,0,0:0:0:0:
256,192,229155,1,8,0:0:0:0:
256,192,229289,1,0,0:0:0:0:
256,192,229423,1,8,0:0:0:0:
256,192,229557,1,0,0:0:0:0:
256,192,229624,1,0,0:0:0:0:
256,192,229691,1,8,0:0:0:0:
256,192,229825,1,0,0:0:0:0:
256,192,229892,1,0,0:0:0:0:
256,192,229959,1,8,0:0:0:0:
256,192,230026,1,0,0:0:0:0:
256,192,230093,1,8,0:0:0:0:
256,192,230227,1,0,0:0:0:0:
256,192,230294,1,0,0:0:0:0:
256,192,230361,1,0,0:0:0:0:
256,192,230428,1,0,0:0:0:0:
256,192,230495,1,8,0:0:0:0:
256,192,230562,1,0,0:0:0:0:
256,192,230629,1,8,0:0:0:0:
256,192,230696,1,8,0:0:0:0:
256,192,230763,1,0,0:0:0:0:
256,192,230829,1,0,0:0:0:0:
256,192,230896,1,8,0:0:0:0:
256,192,231030,1,0,0:0:0:0:
256,192,231164,1,0,0:0:0:0:
256,192,231298,1,8,0:0:0:0:
256,192,231365,1,0,0:0:0:0:
256,192,231432,1,8,0:0:0:0:
256,192,231499,1,8,0:0:0:0:
256,192,231566,1,0,0:0:0:0:
256,192,231633,1,8,0:0:0:0:
256,192,231700,1,0,0:0:0:0:
256,192,231834,1,8,0:0:0:0:
256,192,231968,1,0,0:0:0:0:
256,192,232102,1,8,0:0:0:0:
256,192,232169,1,8,0:0:0:0:
256,192,232236,1,0,0:0:0:0:
256,192,232303,1,0,0:0:0:0:
256,192,232370,1,8,0:0:0:0:
256,192,232437,1,0,0:0:0:0:
256,192,232504,1,8,0:0:0:0:
256,192,232638,1,0,0:0:0:0:
256,192,232771,1,0,0:0:0:0:
256,192,232905,1,8,0:0:0:0:
256,192,232972,1,0,0:0:0:0:
256,192,233039,1,8,0:0:0:0:
256,192,233106,1,8,0:0:0:0:
256,192,233173,1,0,0:0:0:0:
256,192,233240,1,8,0:0:0:0:
256,192,233307,1,0,0:0:0:0:
256,192,233441,1,8,0:0:0:0:
256,192,233575,1,0,0:0:0:0:
256,192,233709,1,8,0:0:0:0:
256,192,233776,1,0,0:0:0:0:
256,192,233843,1,0,0:0:0:0:
256,192,233910,1,0,0:0:0:0:
256,192,233977,1,8,0:0:0:0:
256,192,234044,1,0,0:0:0:0:
256,192,234111,1,8,0:0:0:0:
256,192,234245,1,0,0:0:0:0:
256,192,234379,1,0,0:0:0:0:
256,192,234513,1,8,0:0:0:0:
256,192,234646,1,0,0:0:0:0:
256,192,234713,1,0,0:0:0:0:
256,192,234780,1,12,0:0:0:0:
256,192,234914,1,0,0:0:0:0:
256,192,235048,1,8,0:0:0:0:
256,192,235182,1,0,0:0:0:0:
256,192,235249,1,8,0:0:0:0:
256,192,235316,1,0,0:0:0:0:
256,192,235450,1,0,0:0:0:0:
256,192,235584,1,8,0:0:0:0:
256,192,235651,1,8,0:0:0:0:
256,192,235718,1,0,0:0:0:0:
256,192,235852,1,8,0:0:0:0:
256,192,235919,1,8,0:0:0:0:
256,192,235986,1,8,0:0:0:0:
256,192,236120,1,0,0:0:0:0:
256,192,236254,1,8,0:0:0:0:
256,192,236388,1,0,0:0:0:0:
256,192,236521,1,0,0:0:0:0:
256,192,236655,1,8,0:0:0:0:
256,192,236722,1,8,0:0:0:0:
256,192,236789,1,0,0:0:0:0:
256,192,236923,1,8,0:0:0:0:
256,192,236990,1,0,0:0:0:0:
256,192,237057,1,0,0:0:0:0:
256,192,237191,1,8,0:0:0:0:
256,192,237325,1,0,0:0:0:0:
256,192,237459,1,8,0:0:0:0:
256,192,237593,1,0,0:0:0:0:
256,192,237660,1,0,0:0:0:0:
256,192,237727,1,8,0:0:0:0:
256,192,237861,1,8,0:0:0:0:
256,192,237995,1,0,0:0:0:0:
256,192,239066,1,8,0:0:0:0:
256,192,239200,1,0,0:0:0:0:
256,192,239267,1,0,0:0:0:0:
256,192,239334,1,8,0:0:0:0:
256,192,239468,1,0,0:0:0:0:
256,192,239602,1,8,0:0:0:0:
256,192,239736,1,0,0:0:0:0:
256,192,239803,1,0,0:0:0:0:
256,192,239870,1,8,0:0:0:0:
256,192,239937,1,8,0:0:0:0:
256,192,240004,1,0,0:0:0:0:
256,192,240138,1,8,0:0:0:0:
256,192,240271,1,0,0:0:0:0:
256,192,240338,1,0,0:0:0:0:
256,192,240405,1,8,0:0:0:0:
256,192,240539,1,0,0:0:0:0:
256,192,240673,1,8,0:0:0:0:
256,192,240807,1,0,0:0:0:0:
256,192,240941,1,8,0:0:0:0:
256,192,241008,1,0,0:0:0:0:
256,192,241075,1,8,0:0:0:0:
256,192,241142,1,8,0:0:0:0:
256,192,241209,1,0,0:0:0:0:
256,192,241343,1,0,0:0:0:0:
256,192,241477,1,8,0:0:0:0:
256,192,241611,1,0,0:0:0:0:
256,192,241678,1,8,0:0:0:0:
256,192,241745,1,0,0:0:0:0:
256,192,241879,1,0,0:0:0:0:
256,192,242013,1,8,0:0:0:0:
256,192,242146,1,8,0:0:0:0:
256,192,242213,1,8,0:0:0:0:
256,192,242280,1,0,0:0:0:0:
256,192,242414,1,0,0:0:0:0:
256,192,242548,1,12,0:0:0:0:
256,192,242682,1,0,0:0:0:0:
256,192,242816,1,12,0:0:0:0:
256,192,242950,1,0,0:0:0:0:
256,192,243084,1,12,0:0:0:0:
256,192,243218,1,0,0:0:0:0:
256,192,243352,1,4,0:0:0:0:
256,192,243486,1,0,0:0:0:0:
256,192,243620,1,8,0:0:0:0:
256,192,243754,1,0,0:0:0:0:
256,192,243821,1,8,0:0:0:0:
256,192,243888,1,0,0:0:0:0:
256,192,244021,1,0,0:0:0:0:
256,192,244155,1,8,0:0:0:0:
256,192,244289,1,8,0:0:0:0:
256,192,244356,1,0,0:0:0:0:
256,192,244423,1,8,0:0:0:0:
256,192,244557,1,0,0:0:0:0:
256,192,244691,1,8,0:0:0:0:
256,192,244825,1,8,0:0:0:0:
256,192,244892,1,8,0:0:0:0:
256,192,244959,1,0,0:0:0:0:
256,192,245093,1,0,0:0:0:0:
256,192,245227,1,8,0:0:0:0:
256,192,245294,1,0,0:0:0:0:
256,192,245361,1,8,0:0:0:0:
256,192,245428,1,8,0:0:0:0:
256,192,245495,1,0,0:0:0:0:
256,192,245629,1,0,0:0:0:0:
256,192,245763,1,8,0:0:0:0:
256,192,245896,1,8,0:0:0:0:
256,192,245963,1,8,0:0:0:0:
256,192,246030,1,0,0:0:0:0:
256,192,246164,1,0,0:0:0:0:
256,192,246298,1,8,0:0:0:0:
256,192,246365,1,8,0:0:0:0:
256,192,246432,1,8,0:0:0:0:
256,192,246566,1,0,0:0:0:0:
256,192,246700,1,0,0:0:0:0:
256,192,246767,1,0,0:0:0:0:
256,192,246834,1,8,0:0:0:0:
256,192,246968,1,0,0:0:0:0:
256,192,247035,1,0,0:0:0:0:
256,192,247102,1,8,0:0:0:0:
256,192,247236,1,0,0:0:0:0:
256,192,247370,1,8,0:0:0:0:
256,192,247437,1,8,0:0:0:0:
256,192,247504,1,8,0:0:0:0:
256,192,247638,1,4,0:0:0:0:
256,192,247771,1,0,0:0:0:0:
256,192,247838,1,0,0:0:0:0:
256,192,247905,1,8,0:0:0:0:
256,192,248173,1,8,0:0:0:0:
256,192,248307,1,0,0:0:0:0:
256,192,248374,1,8,0:0:0:0:
256,192,248441,1,8,0:0:0:0:
256,192,248709,1,0,0:0:0:0:
256,192,248843,1,8,0:0:0:0:
256,192,248910,1,8,0:0:0:0:
256,192,248977,1,8,0:0:0:0:
256,192,249245,1,8,0:0:0:0:
256,192,249379,1,0,0:0:0:0:
256,192,249513,1,8,0:0:0:0:
256,192,249579,1,8,0:0:0:0:
256,192,249646,1,8,0:0:0:0:
256,192,249780,1,0,0:0:0:0:
256,192,249914,1,0,0:0:0:0:
256,192,249981,1,0,0:0:0:0:
256,192,250048,1,8,0:0:0:0:
256,192,250316,1,8,0:0:0:0:
256,192,250450,1,0,0:0:0:0:
256,192,250517,1,8,0:0:0:0:
256,192,250584,1,8,0:0:0:0:
256,192,250852,1,0,0:0:0:0:
256,192,250986,1,8,0:0:0:0:
256,192,251053,1,8,0:0:0:0:
256,192,251120,1,8,0:0:0:0:
256,192,251254,1,8,0:0:0:0:
256,192,251388,1,0,0:0:0:0:
256,192,251521,1,8,0:0:0:0:
256,192,251655,1,0,0:0:0:0:
256,192,251789,1,8,0:0:0:0:
256,192,251923,1,4,0:0:0:0:
256,192,252057,1,0,0:0:0:0:
256,192,252124,1,0,0:0:0:0:
256,192,252191,1,8,0:0:0:0:
256,192,252325,1,0,0:0:0:0:
256,192,252392,1,8,0:0:0:0:
256,192,252459,1,0,0:0:0:0:
256,192,252593,1,0,0:0:0:0:
256,192,252727,1,8,0:0:0:0:
256,192,252794,1,8,0:0:0:0:
256,192,252861,1,0,0:0:0:0:
256,192,252928,1,0,0:0:0:0:
256,192,252995,1,8,0:0:0:0:
256,192,253129,1,0,0:0:0:0:
256,192,253263,1,8,0:0:0:0:
256,192,253396,1,0,0:0:0:0:
256,192,253463,1,8,0:0:0:0:
256,192,253530,1,0,0:0:0:0:
256,192,253664,1,0,0:0:0:0:
256,192,253798,1,8,0:0:0:0:
256,192,253865,1,0,0:0:0:0:
256,192,253932,1,0,0:0:0:0:
256,192,253999,1,0,0:0:0:0:
256,192,254066,1,8,0:0:0:0:
256,192,254200,1,0,0:0:0:0:
256,192,254334,1,8,0:0:0:0:
256,192,254468,1,8,0:0:0:0:
256,192,254535,1,8,0:0:0:0:
256,192,254602,1,0,0:0:0:0:
256,192,254736,1,0,0:0:0:0:
256,192,254870,1,8,0:0:0:0:
256,192,255004,1,0,0:0:0:0:
256,192,255138,1,0,0:0:0:0:
256,192,255405,1,8,0:0:0:0:
256,192,255673,1,8,0:0:0:0:
256,192,255941,1,0,0:0:0:0:
256,192,256209,1,4,0:0:0:0:
256,192,256477,1,8,0:0:0:0:
256,192,256745,1,8,0:0:0:0:
256,192,256812,1,8,0:0:0:0:
256,192,256879,1,8,0:0:0:0:
256,192,256946,1,8,0:0:0:0:
256,192,257013,1,0,0:0:0:0:
256,192,257079,1,0,0:0:0:0:
256,192,257146,1,0,0:0:0:0:
256,192,257213,1,0,0:0:0:0:
256,192,257280,1,12,0:0:0:0:
256,192,257548,1,0,0:0:0:0:
256,192,257816,1,12,0:0:0:0:
256,192,258084,1,0,0:0:0:0:
256,192,258352,1,12,0:0:0:0:
256,192,258620,1,4,0:0:0:0:
256,192,258888,1,4,0:0:0:0:
256,192,259155,1,4,0:0:0:0:
256,192,259423,1,12,0:0:0:0:
