osu file format v14

[General]
AudioFilename: audio.mp3
AudioLeadIn: 0
PreviewTime: 81928
Countdown: 0
SampleSet: Normal
StackLeniency: 0.7
Mode: 1
LetterboxInBreaks: 0
WidescreenStoryboard: 1

[Editor]
Bookmarks: 56563
DistanceSpacing: 1.4
BeatDivisor: 4
GridSize: 32
TimelineZoom: 2.7

[Metadata]
Title:Ohne Herz
TitleUnicode:オーネヘルツ
Artist:Omoi
ArtistUnicode:Omoi
Creator:duski
Version:Muzukashii
Source:
Tags:vocaloid hatsune miku 初音ミク japanese synth rock jrock j-rock electronic without a heart fa featured artist
BeatmapID:3428830
BeatmapSetID:1358927

[Difficulty]
HPDrainRate:5
CircleSize:6
OverallDifficulty:5
ApproachRate:6
SliderMultiplier:1.4
SliderTickRate:1

[Events]
//Background and Video events
0,0,"ohneherz.jpg",0,0
//Break Periods
//Storyboard Layer 0 (Background)
//Storyboard Layer 1 (Fail)
//Storyboard Layer 2 (Pass)
//Storyboard Layer 3 (Foreground)
//Storyboard Layer 4 (Overlay)
//Storyboard Sound Samples

[TimingPoints]
5873,285.714285714286,4,1,0,100,1,0
55015,387.096774193549,4,1,0,100,1,0
55015,-74.0740740740741,4,1,0,100,0,0
55402,-76.3358778625954,4,1,0,100,0,0
55789,-78.7401574803149,4,1,0,100,0,0
56176,-81.3008130081301,4,1,0,100,0,0
56369,-82.6446280991736,4,1,0,100,0,0
56563,387.096774193549,4,1,0,100,1,0
56563,-84.0336134453781,4,1,0,100,0,0
67401,315.789473684211,4,1,0,100,1,0
82558,-100,4,1,0,100,0,1
104664,-100,4,1,0,100,0,0
135611,387.096774193548,4,1,0,100,1,0
135611,-81.9672131147541,4,1,0,100,0,0
136191,-86.2068965517241,4,1,0,100,0,0
136288,-86.9565217391304,4,1,0,100,0,0
136385,-87.719298245614,4,1,0,100,0,0
137159,387.096774193548,4,1,0,100,1,0
137159,-87.719298245614,4,1,0,100,0,0
149546,315.789473684211,4,1,0,100,1,0
164703,-100,4,1,0,100,0,1
184914,-100,4,1,0,100,0,0

[HitObjects]
256,192,10158,5,0,0:0:0:0:
256,192,10301,1,0,0:0:0:0:
256,192,10444,1,8,0:0:0:0:
256,192,10587,1,0,0:0:0:0:
256,192,10873,1,0,0:0:0:0:
256,192,11015,1,8,0:0:0:0:
256,192,11301,1,0,0:0:0:0:
256,192,11444,1,8,0:0:0:0:
256,192,11587,1,0,0:0:0:0:
256,192,11873,1,0,0:0:0:0:
256,192,12158,1,8,0:0:0:0:
256,192,12444,1,0,0:0:0:0:
256,192,12587,1,0,0:0:0:0:
256,192,12730,1,8,0:0:0:0:
256,192,12873,1,0,0:0:0:0:
256,192,13158,1,0,0:0:0:0:
256,192,13301,1,8,0:0:0:0:
256,192,13587,1,8,0:0:0:0:
256,192,13730,1,8,0:0:0:0:
256,192,13873,1,0,0:0:0:0:
256,192,14158,1,0,0:0:0:0:
256,192,14444,1,12,0:0:0:0:
256,192,14730,1,0,0:0:0:0:
256,192,15015,1,12,0:0:0:0:
256,192,15444,1,0,0:0:0:0:
256,192,15587,1,8,0:0:0:0:
256,192,15873,1,0,0:0:0:0:
256,192,16015,1,8,0:0:0:0:
256,192,16158,1,0,0:0:0:0:
256,192,16444,1,8,0:0:0:0:
256,192,16730,1,0,0:0:0:0:
256,192,17015,1,0,0:0:0:0:
256,192,17158,1,0,0:0:0:0:
256,192,17301,1,8,0:0:0:0:
256,192,17444,1,0,0:0:0:0:
256,192,17730,1,0,0:0:0:0:
256,192,17873,1,8,0:0:0:0:
256,192,18158,1,0,0:0:0:0:
256,192,18301,1,8,0:0:0:0:
256,192,18444,1,0,0:0:0:0:
256,192,18587,1,8,0:0:0:0:
256,192,18730,1,8,0:0:0:0:
256,192,18873,1,8,0:0:0:0:
256,192,19015,1,8,0:0:0:0:
256,192,19301,1,8,0:0:0:0:
256,192,19587,1,0,0:0:0:0:
256,192,20015,1,0,0:0:0:0:
256,192,20158,1,8,0:0:0:0:
256,192,20444,1,0,0:0:0:0:
256,192,20587,1,8,0:0:0:0:
256,192,20730,1,0,0:0:0:0:
256,192,21015,1,8,0:0:0:0:
256,192,21301,1,0,0:0:0:0:
256,192,21587,1,0,0:0:0:0:
256,192,21730,1,0,0:0:0:0:
256,192,21873,1,8,0:0:0:0:
256,192,22015,1,0,0:0:0:0:
256,192,22301,1,0,0:0:0:0:
256,192,22444,1,8,0:0:0:0:
256,192,22730,1,8,0:0:0:0:
256,192,22873,1,8,0:0:0:0:
256,192,23015,1,0,0:0:0:0:
256,192,23301,1,0,0:0:0:0:
256,192,23587,1,8,0:0:0:0:
256,192,23801,1,8,0:0:0:0:
256,192,23873,1,8,0:0:0:0:
256,192,24015,1,8,0:0:0:0:
256,192,24158,1,0,0:0:0:0:
256,192,24587,1,0,0:0:0:0:
256,192,24730,1,8,0:0:0:0:
256,192,25015,1,0,0:0:0:0:
256,192,25158,1,8,0:0:0:0:
256,192,25301,1,0,0:0:0:0:
256,192,25587,1,8,0:0:0:0:
256,192,25873,1,0,0:0:0:0:
256,192,26158,1,0,0:0:0:0:
256,192,26301,1,0,0:0:0:0:
256,192,26444,1,8,0:0:0:0:
256,192,26587,1,0,0:0:0:0:
256,192,26873,1,0,0:0:0:0:
256,192,27015,1,8,0:0:0:0:
256,192,27301,1,0,0:0:0:0:
256,192,27444,1,8,0:0:0:0:
256,192,27587,1,0,0:0:0:0:
256,192,27730,1,8,0:0:0:0:
256,192,27873,1,8,0:0:0:0:
256,192,28158,1,0,0:0:0:0:
256,192,28301,1,0,0:0:0:0:
256,192,28444,1,8,0:0:0:0:
256,192,28730,1,4,0:0:0:0:
256,192,29015,1,8,0:0:0:0:
256,192,29158,1,0,0:0:0:0:
256,192,29444,1,0,0:0:0:0:
256,192,29587,1,8,0:0:0:0:
256,192,29730,1,8,0:0:0:0:
256,192,29873,1,0,0:0:0:0:
256,192,30301,1,0,0:0:0:0:
256,192,30444,1,8,0:0:0:0:
256,192,31015,1,8,0:0:0:0:
256,192,31301,1,8,0:0:0:0:
256,192,31587,1,0,0:0:0:0:
256,192,31873,1,8,0:0:0:0:
256,192,32015,1,8,0:0:0:0:
256,192,32158,1,4,0:0:0:0:
256,192,32730,1,12,0:0:0:0:
256,192,33301,1,4,0:0:0:0:
256,192,33587,1,0,0:0:0:0:
256,192,33873,1,8,0:0:0:0:
256,192,34158,1,8,0:0:0:0:
256,192,34444,1,0,0:0:0:0:
256,192,34730,1,0,0:0:0:0:
256,192,35015,1,8,0:0:0:0:
256,192,35444,1,8,0:0:0:0:
256,192,35587,1,0,0:0:0:0:
256,192,35873,1,0,0:0:0:0:
256,192,36158,1,8,0:0:0:0:
256,192,36444,1,8,0:0:0:0:
256,192,36587,1,8,0:0:0:0:
256,192,36730,1,4,0:0:0:0:
256,192,37301,1,12,0:0:0:0:
256,192,37730,1,0,0:0:0:0:
256,192,37873,1,12,0:0:0:0:
256,192,38158,1,8,0:0:0:0:
256,192,38444,1,0,0:0:0:0:
256,192,38587,1,0,0:0:0:0:
256,192,38730,1,8,0:0:0:0:
256,192,39015,1,0,0:0:0:0:
256,192,39444,1,0,0:0:0:0:
256,192,39587,1,8,0:0:0:0:
256,192,40015,1,0,0:0:0:0:
256,192,40158,1,8,0:0:0:0:
256,192,40444,1,8,0:0:0:0:
256,192,40730,1,0,0:0:0:0:
256,192,41015,1,8,0:0:0:0:
256,192,41158,1,8,0:0:0:0:
256,192,41301,1,4,0:0:0:0:
256,192,41873,1,12,0:0:0:0:
256,192,42444,1,4,0:0:0:0:
256,192,42730,1,0,0:0:0:0:
256,192,42873,1,8,0:0:0:0:
256,192,43158,1,8,0:0:0:0:
256,192,43301,1,0,0:0:0:0:
256,192,43587,1,8,0:0:0:0:
256,192,43873,1,0,0:0:0:0:
256,192,44015,1,8,0:0:0:0:
256,192,44587,1,8,0:0:0:0:
256,192,44730,1,0,0:0:0:0:
256,192,45015,1,0,0:0:0:0:
256,192,45158,1,8,0:0:0:0:
256,192,45444,1,0,0:0:0:0:
256,192,45587,1,8,0:0:0:0:
256,192,45873,1,12,0:0:0:0:
256,192,46015,1,0,0:0:0:0:
256,192,46087,1,0,0:0:0:0:
256,192,46158,1,0,0:0:0:0:
256,192,46301,1,8,0:0:0:0:
256,192,46444,1,0,0:0:0:0:
256,192,46730,1,0,0:0:0:0:
256,192,46873,1,0,0:0:0:0:
256,192,47015,1,8,0:0:0:0:
256,192,47158,1,0,0:0:0:0:
256,192,47444,1,0,0:0:0:0:
256,192,47587,1,8,0:0:0:0:
256,192,47873,1,0,0:0:0:0:
256,192,48015,1,8,0:0:0:0:
256,192,48158,1,0,0:0:0:0:
256,192,48444,1,8,0:0:0:0:
256,192,48730,1,0,0:0:0:0:
256,192,49015,1,0,0:0:0:0:
256,192,49158,1,0,0:0:0:0:
256,192,49301,1,8,0:0:0:0:
256,192,49444,1,0,0:0:0:0:
256,192,49730,1,0,0:0:0:0:
256,192,49873,1,8,0:0:0:0:
256,192,50158,1,0,0:0:0:0:
256,192,50301,1,8,0:0:0:0:
256,192,50444,1,0,0:0:0:0:
256,192,50730,1,0,0:0:0:0:
256,192,51015,1,8,0:0:0:0:
256,192,51301,1,0,0:0:0:0:
256,192,51444,1,0,0:0:0:0:
256,192,51587,1,8,0:0:0:0:
256,192,51730,1,0,0:0:0:0:
256,192,52015,1,0,0:0:0:0:
256,192,52158,1,8,0:0:0:0:
256,192,52444,1,0,0:0:0:0:
256,192,52587,1,8,0:0:0:0:
256,192,52730,1,0,0:0:0:0:
256,192,53015,1,8,0:0:0:0:
256,192,53301,1,0,0:0:0:0:
256,192,53587,1,0,0:0:0:0:
256,192,53730,1,0,0:0:0:0:
256,192,53873,1,8,0:0:0:0:
256,192,54015,1,0,0:0:0:0:
256,192,54087,1,0,0:0:0:0:
256,192,54158,1,0,0:0:0:0:
256,192,54301,1,8,0:0:0:0:
256,192,54444,1,0,0:0:0:0:
256,192,54587,1,0,0:0:0:0:
256,192,54730,1,8,0:0:0:0:
256,192,55015,1,12,0:0:0:0:
256,192,55402,1,0,0:0:0:0:
256,192,55789,1,8,0:0:0:0:
256,192,56176,1,0,0:0:0:0:
256,192,56369,1,0,0:0:0:0:
256,192,56563,1,8,0:0:0:0:
256,192,56950,1,8,0:0:0:0:
256,192,57143,1,0,0:0:0:0:
256,192,57337,1,0,0:0:0:0:
256,192,57530,1,8,0:0:0:0:
256,192,57917,1,0,0:0:0:0:
256,192,58111,1,0,0:0:0:0:
256,192,58304,1,8,0:0:0:0:
256,192,58498,1,8,0:0:0:0:
256,192,58885,1,0,0:0:0:0:
256,192,59079,1,8,0:0:0:0:
256,192,59466,1,0,0:0:0:0:
256,192,59659,1,0,0:0:0:0:
256,192,59853,1,8,0:0:0:0:
256,192,60046,1,8,0:0:0:0:
256,192,60240,1,0,0:0:0:0:
256,192,60433,1,8,0:0:0:0:
256,192,60627,1,8,0:0:0:0:
256,192,61014,1,0,0:0:0:0:
256,192,61208,1,8,0:0:0:0:
256,192,61595,1,8,0:0:0:0:
256,192,61788,1,0,0:0:0:0:
256,192,61982,1,0,0:0:0:0:
256,192,62175,1,8,0:0:0:0:
256,192,62756,1,0,0:0:0:0:
256,192,63143,1,8,0:0:0:0:
256,192,63337,1,0,0:0:0:0:
256,192,63530,1,0,0:0:0:0:
256,192,63724,1,8,0:0:0:0:
256,192,64111,1,0,0:0:0:0:
256,192,64304,1,0,0:0:0:0:
256,192,64692,1,8,0:0:0:0:
256,192,64885,1,0,0:0:0:0:
256,192,65079,1,0,0:0:0:0:
256,192,65272,1,8,0:0:0:0:
256,192,65659,1,8,0:0:0:0:
256,192,66046,1,8,0:0:0:0:
256,192,66240,1,8,0:0:0:0:
256,192,66433,1,8,0:0:0:0:
256,192,66627,1,8,0:0:0:0:
256,192,66821,1,8,0:0:0:0:
256,192,67014,1,8,0:0:0:0:
256,192,67111,1,8,0:0:0:0:
256,192,67208,1,8,0:0:0:0:
256,192,67401,1,4,0:0:0:0:
256,192,67716,1,8,0:0:0:0:
256,192,68190,1,0,0:0:0:0:
256,192,68348,1,8,0:0:0:0:
256,192,68664,1,8,0:0:0:0:
256,192,68979,1,8,0:0:0:0:
256,192,69137,1,0,0:0:0:0:
256,192,69453,1,0,0:0:0:0:
256,192,69611,1,8,0:0:0:0:
256,192,69927,1,4,0:0:0:0:
256,192,70243,1,8,0:0:0:0:
256,192,70401,1,8,0:0:0:0:
256,192,70558,1,0,0:0:0:0:
256,192,70874,1,8,0:0:0:0:
256,192,71190,1,0,0:0:0:0:
256,192,71348,1,8,0:0:0:0:
256,192,71427,1,8,0:0:0:0:
256,192,71506,1,8,0:0:0:0:
256,192,71664,1,0,0:0:0:0:
256,192,71822,1,8,0:0:0:0:
256,192,71979,1,8,0:0:0:0:
256,192,72058,1,8,0:0:0:0:
256,192,72137,1,8,0:0:0:0:
256,192,72453,1,4,0:0:0:0:
256,192,72927,1,4,0:0:0:0:
256,192,73243,1,8,0:0:0:0:
256,192,73401,1,4,0:0:0:0:
256,192,73716,1,8,0:0:0:0:
256,192,73874,1,8,0:0:0:0:
256,192,74032,1,0,0:0:0:0:
256,192,74190,1,8,0:0:0:0:
256,192,74269,1,8,0:0:0:0:
256,192,74348,1,8,0:0:0:0:
256,192,74506,1,8,0:0:0:0:
256,192,74664,1,0,0:0:0:0:
256,192,74822,1,8,0:0:0:0:
256,192,74979,1,4,0:0:0:0:
256,192,75453,1,4,0:0:0:0:
256,192,75769,1,0,0:0:0:0:
256,192,75927,1,8,0:0:0:0:
256,192,76243,1,8,0:0:0:0:
256,192,76401,1,0,0:0:0:0:
256,192,76479,1,0,0:0:0:0:
256,192,76558,1,0,0:0:0:0:
256,192,76716,1,8,0:0:0:0:
256,192,76874,1,0,0:0:0:0:
256,192,76953,1,0,0:0:0:0:
256,192,77032,1,0,0:0:0:0:
256,192,77190,1,8,0:0:0:0:
256,192,77506,1,4,0:0:0:0:
256,192,77822,1,8,0:0:0:0:
256,192,77979,1,0,0:0:0:0:
256,192,78058,1,0,0:0:0:0:
256,192,78137,1,0,0:0:0:0:
256,192,78295,1,0,0:0:0:0:
256,192,78453,1,8,0:0:0:0:
256,192,78611,1,8,0:0:0:0:
256,192,78769,1,0,0:0:0:0:
256,192,79085,1,0,0:0:0:0:
256,192,79401,1,8,0:0:0:0:
256,192,79716,1,8,0:0:0:0:
256,192,79874,1,0,0:0:0:0:
256,192,80032,1,8,0:0:0:0:
256,192,80190,1,0,0:0:0:0:
256,192,80269,1,0,0:0:0:0:
256,192,80348,1,0,0:0:0:0:
256,192,80506,1,0,0:0:0:0:
256,192,80664,1,8,0:0:0:0:
256,192,80822,1,0,0:0:0:0:
256,192,80979,1,0,0:0:0:0:
256,192,81137,1,12,0:0:0:0:
256,192,81453,1,12,0:0:0:0:
256,192,81769,1,12,0:0:0:0:
256,192,81927,1,12,0:0:0:0:
256,192,82558,1,12,0:0:0:0:
256,192,83032,1,8,0:0:0:0:
256,192,83190,1,0,0:0:0:0:
256,192,83348,1,0,0:0:0:0:
256,192,83506,1,8,0:0:0:0:
256,192,83664,1,0,0:0:0:0:
256,192,83822,1,8,0:0:0:0:
256,192,84295,1,8,0:0:0:0:
256,192,84453,1,0,0:0:0:0:
256,192,84611,1,0,0:0:0:0:
256,192,84769,1,8,0:0:0:0:
256,192,84927,1,0,0:0:0:0:
256,192,85085,1,8,0:0:0:0:
256,192,85401,1,8,0:0:0:0:
256,192,85558,1,8,0:0:0:0:
256,192,85716,1,0,0:0:0:0:
256,192,85874,1,0,0:0:0:0:
256,192,86032,1,8,0:0:0:0:
256,192,86348,1,0,0:0:0:0:
256,192,86506,1,0,0:0:0:0:
256,192,86664,1,8,0:0:0:0:
256,192,86822,1,4,0:0:0:0:
256,192,87137,1,8,0:0:0:0:
256,192,87216,1,8,0:0:0:0:
256,192,87295,1,8,0:0:0:0:
256,192,87453,1,8,0:0:0:0:
256,192,87611,1,0,0:0:0:0:
256,192,88085,1,8,0:0:0:0:
256,192,88243,1,0,0:0:0:0:
256,192,88401,1,0,0:0:0:0:
256,192,88558,1,8,0:0:0:0:
256,192,88716,1,0,0:0:0:0:
256,192,88874,1,8,0:0:0:0:
256,192,89348,1,8,0:0:0:0:
256,192,89506,1,8,0:0:0:0:
256,192,89664,1,0,0:0:0:0:
256,192,89822,1,8,0:0:0:0:
256,192,89979,1,0,0:0:0:0:
256,192,90137,1,8,0:0:0:0:
256,192,90295,1,8,0:0:0:0:
256,192,90611,1,0,0:0:0:0:
256,192,90927,1,0,0:0:0:0:
256,192,91085,1,8,0:0:0:0:
256,192,91243,1,0,0:0:0:0:
256,192,91401,1,8,0:0:0:0:
256,192,91558,1,0,0:0:0:0:
256,192,91637,1,0,0:0:0:0:
256,192,91716,1,0,0:0:0:0:
256,192,91874,1,12,0:0:0:0:
256,192,92190,1,8,0:0:0:0:
256,192,92269,1,8,0:0:0:0:
256,192,92348,1,8,0:0:0:0:
256,192,92506,1,8,0:0:0:0:
256,192,92664,1,4,0:0:0:0:
256,192,93137,1,0,0:0:0:0:
256,192,93295,1,8,0:0:0:0:
256,192,93453,1,0,0:0:0:0:
256,192,93611,1,8,0:0:0:0:
256,192,93769,1,0,0:0:0:0:
256,192,93927,1,8,0:0:0:0:
256,192,94401,1,8,0:0:0:0:
256,192,94558,1,0,0:0:0:0:
256,192,94716,1,0,0:0:0:0:
256,192,94874,1,8,0:0:0:0:
256,192,95032,1,0,0:0:0:0:
256,192,95190,1,8,0:0:0:0:
256,192,95506,1,8,0:0:0:0:
256,192,95664,1,8,0:0:0:0:
256,192,95822,1,0,0:0:0:0:
256,192,95979,1,0,0:0:0:0:
256,192,96137,1,8,0:0:0:0:
256,192,96453,1,0,0:0:0:0:
256,192,96611,1,0,0:0:0:0:
256,192,96769,1,8,0:0:0:0:
256,192,96927,1,4,0:0:0:0:
256,192,97243,1,0,0:0:0:0:
256,192,97401,1,8,0:0:0:0:
256,192,97716,1,12,0:0:0:0:
256,192,98190,1,12,0:0:0:0:
256,192,98506,1,0,0:0:0:0:
256,192,98664,1,12,0:0:0:0:
256,192,98979,1,12,0:0:0:0:
256,192,99295,1,0,0:0:0:0:
256,192,99453,1,12,0:0:0:0:
256,192,99769,1,0,0:0:0:0:
256,192,99927,1,12,0:0:0:0:
256,192,100243,1,0,0:0:0:0:
256,192,100558,1,8,0:0:0:0:
256,192,100716,1,0,0:0:0:0:
256,192,101032,1,0,0:0:0:0:
256,192,101190,1,8,0:0:0:0:
256,192,101348,1,0,0:0:0:0:
256,192,101664,1,8,0:0:0:0:
256,192,101743,1,8,0:0:0:0:
256,192,101822,1,8,0:0:0:0:
256,192,101979,1,8,0:0:0:0:
256,192,102137,1,0,0:0:0:0:
256,192,102295,1,0,0:0:0:0:
256,192,102453,1,8,0:0:0:0:
256,192,102769,1,0,0:0:0:0:
256,192,102927,1,0,0:0:0:0:
256,192,103243,1,0,0:0:0:0:
256,192,103558,1,0,0:0:0:0:
256,192,103874,1,0,0:0:0:0:
256,192,104190,1,0,0:0:0:0:
256,192,104348,1,8,0:0:0:0:
256,192,104506,1,0,0:0:0:0:
256,192,104664,1,8,0:0:0:0:
256,192,105295,1,8,0:0:0:0:
256,192,105453,1,0,0:0:0:0:
256,192,105769,1,0,0:0:0:0:
256,192,105927,1,8,0:0:0:0:
256,192,106085,1,0,0:0:0:0:
256,192,106164,1,0,0:0:0:0:
256,192,106243,1,0,0:0:0:0:
256,192,106401,1,8,0:0:0:0:
256,192,106558,1,0,0:0:0:0:
256,192,106874,1,8,0:0:0:0:
256,192,107190,1,0,0:0:0:0:
256,192,107506,1,0,0:0:0:0:
256,192,107664,1,0,0:0:0:0:
256,192,107822,1,8,0:0:0:0:
256,192,107979,1,0,0:0:0:0:
256,192,108295,1,0,0:0:0:0:
256,192,108453,1,8,0:0:0:0:
256,192,108611,1,0,0:0:0:0:
256,192,108690,1,0,0:0:0:0:
256,192,108769,1,0,0:0:0:0:
256,192,108927,1,8,0:0:0:0:
256,192,109085,1,0,0:0:0:0:
256,192,109401,1,0,0:0:0:0:
256,192,109716,1,8,0:0:0:0:
256,192,110032,1,0,0:0:0:0:
256,192,110190,1,0,0:0:0:0:
256,192,110348,1,8,0:0:0:0:
256,192,110822,1,0,0:0:0:0:
256,192,110979,1,8,0:0:0:0:
256,192,111137,1,0,0:0:0:0:
256,192,111216,1,0,0:0:0:0:
256,192,111295,1,0,0:0:0:0:
256,192,111453,1,8,0:0:0:0:
256,192,111611,1,0,0:0:0:0:
256,192,111927,1,8,0:0:0:0:
256,192,112243,1,0,0:0:0:0:
256,192,112558,1,0,0:0:0:0:
256,192,112716,1,0,0:0:0:0:
256,192,112874,1,8,0:0:0:0:
256,192,113032,1,0,0:0:0:0:
256,192,113348,1,0,0:0:0:0:
256,192,113506,1,8,0:0:0:0:
256,192,113664,1,0,0:0:0:0:
256,192,113743,1,0,0:0:0:0:
256,192,113822,1,0,0:0:0:0:
256,192,113979,1,0,0:0:0:0:
256,192,114137,1,8,0:0:0:0:
256,192,114374,1,8,0:0:0:0:
256,192,114453,1,8,0:0:0:0:
256,192,114611,1,8,0:0:0:0:
256,192,114927,1,8,0:0:0:0:
256,192,115006,1,8,0:0:0:0:
256,192,115085,1,8,0:0:0:0:
256,192,115243,1,8,0:0:0:0:
256,192,115401,1,4,0:0:0:0:
256,192,115874,1,0,0:0:0:0:
256,192,116190,1,8,0:0:0:0:
256,192,116348,1,0,0:0:0:0:
256,192,116506,1,0,0:0:0:0:
256,192,116664,1,8,0:0:0:0:
256,192,117137,1,0,0:0:0:0:
256,192,117295,1,8,0:0:0:0:
256,192,117927,1,8,0:0:0:0:
256,192,118243,1,8,0:0:0:0:
256,192,118558,1,0,0:0:0:0:
256,192,118874,1,8,0:0:0:0:
256,192,119190,1,4,0:0:0:0:
256,192,119822,1,12,0:0:0:0:
256,192,120453,1,4,0:0:0:0:
256,192,120769,1,0,0:0:0:0:
256,192,121085,1,8,0:0:0:0:
256,192,121401,1,8,0:0:0:0:
256,192,121716,1,0,0:0:0:0:
256,192,122032,1,8,0:0:0:0:
256,192,122822,1,8,0:0:0:0:
256,192,122979,1,8,0:0:0:0:
256,192,123295,1,0,0:0:0:0:
256,192,123611,1,8,0:0:0:0:
256,192,123927,1,8,0:0:0:0:
256,192,124243,1,4,0:0:0:0:
256,192,124558,1,4,0:0:0:0:
256,192,124874,1,4,0:0:0:0:
256,192,125032,1,12,0:0:0:0:
256,192,125190,1,12,0:0:0:0:
256,192,125506,1,0,0:0:0:0:
256,192,125822,1,8,0:0:0:0:
256,192,125979,1,0,0:0:0:0:
256,192,126295,1,0,0:0:0:0:
256,192,126453,1,8,0:0:0:0:
256,192,126769,1,0,0:0:0:0:
256,192,127085,1,8,0:0:0:0:
256,192,127243,1,0,0:0:0:0:
256,192,127401,1,8,0:0:0:0:
256,192,127716,1,0,0:0:0:0:
256,192,127874,1,0,0:0:0:0:
256,192,128032,1,8,0:0:0:0:
256,192,128348,1,8,0:0:0:0:
256,192,128664,1,0,0:0:0:0:
256,192,128979,1,8,0:0:0:0:
256,192,129295,1,4,0:0:0:0:
256,192,129611,1,8,0:0:0:0:
256,192,129769,1,8,0:0:0:0:
256,192,129927,1,4,0:0:0:0:
256,192,130243,1,8,0:0:0:0:
256,192,130558,1,4,0:0:0:0:
256,192,130874,1,8,0:0:0:0:
256,192,131032,1,0,0:0:0:0:
256,192,131348,1,0,0:0:0:0:
256,192,131506,1,8,0:0:0:0:
256,192,131822,1,0,0:0:0:0:
256,192,132137,1,0,0:0:0:0:
256,192,132295,1,8,0:0:0:0:
256,192,132927,1,8,0:0:0:0:
256,192,133085,1,0,0:0:0:0:
256,192,133401,1,0,0:0:0:0:
256,192,133558,1,8,0:0:0:0:
256,192,133874,1,8,0:0:0:0:
256,192,134032,1,8,0:0:0:0:
256,192,134348,1,0,0:0:0:0:
256,192,134664,1,8,0:0:0:0:
256,192,134822,1,8,0:0:0:0:
256,192,135295,1,8,0:0:0:0:
256,192,135611,1,8,0:0:0:0:
256,192,136191,1,8,0:0:0:0:
256,192,136288,1,8,0:0:0:0:
256,192,136385,1,8,0:0:0:0:
256,192,136772,1,8,0:0:0:0:
256,192,137159,1,4,0:0:0:0:
256,192,137739,1,0,0:0:0:0:
256,192,137933,1,8,0:0:0:0:
256,192,138513,1,0,0:0:0:0:
256,192,138707,1,8,0:0:0:0:
256,192,138900,1,0,0:0:0:0:
256,192,139094,1,8,0:0:0:0:
256,192,139481,1,0,0:0:0:0:
256,192,139636,1,0,0:0:0:0:
256,192,139791,1,8,0:0:0:0:
256,192,140100,1,8,0:0:0:0:
256,192,140255,1,0,0:0:0:0:
256,192,140642,1,8,0:0:0:0:
256,192,140836,1,0,0:0:0:0:
256,192,141029,1,8,0:0:0:0:
256,192,141417,1,0,0:0:0:0:
256,192,141610,1,8,0:0:0:0:
256,192,141804,1,0,0:0:0:0:
256,192,142384,1,8,0:0:0:0:
256,192,142578,1,0,0:0:0:0:
256,192,142733,1,0,0:0:0:0:
256,192,142888,1,8,0:0:0:0:
256,192,143197,1,8,0:0:0:0:
256,192,143352,1,0,0:3:0:0:
256,192,143933,1,0,0:0:0:0:
256,192,144126,1,8,0:0:0:0:
256,192,144707,1,8,0:0:0:0:
256,192,144900,1,8,0:0:0:0:
256,192,145288,1,0,0:0:0:0:
256,192,145675,1,8,0:0:0:0:
256,192,145829,1,0,0:0:0:0:
256,192,145984,1,8,0:0:0:0:
256,192,146294,1,8,0:0:0:0:
256,192,146449,1,0,0:0:0:0:
256,192,147223,1,0,0:0:0:0:
256,192,147765,1,0,0:0:0:0:
256,192,147997,1,12,0:0:0:0:
256,192,148539,1,8,0:0:0:0:
256,192,148771,1,0,0:0:0:0:
256,192,149029,1,0,0:0:0:0:
256,192,149159,1,0,0:0:0:0:
256,192,149546,1,12,0:0:0:0:
256,192,149861,1,0,0:0:0:0:
256,192,150177,1,0,0:0:0:0:
256,192,150493,1,0,0:0:0:0:
256,192,150809,1,8,0:0:0:0:
256,192,151124,1,0,0:0:0:0:
256,192,151440,1,0,0:0:0:0:
256,192,151756,1,8,0:0:0:0:
256,192,152072,1,8,0:0:0:0:
256,192,152388,1,8,0:0:0:0:
256,192,152546,1,0,0:0:0:0:
256,192,152703,1,8,0:0:0:0:
256,192,152861,1,0,0:0:0:0:
256,192,152940,1,0,0:0:0:0:
256,192,153019,1,0,0:0:0:0:
256,192,153177,1,12,0:0:0:0:
256,192,153493,1,12,0:0:0:0:
256,192,153809,1,12,0:0:0:0:
256,192,153967,1,12,0:0:0:0:
256,192,154598,1,4,0:0:0:0:
256,192,154914,1,8,0:0:0:0:
256,192,155230,1,0,0:0:0:0:
256,192,155388,1,0,0:0:0:0:
256,192,155546,1,8,0:0:0:0:
256,192,155861,1,0,0:0:0:0:
256,192,156019,1,0,0:0:0:0:
256,192,156177,1,8,0:0:0:0:
256,192,156493,1,0,0:0:0:0:
256,192,156651,1,0,0:0:0:0:
256,192,156809,1,8,0:0:0:0:
256,192,156967,1,0,0:0:0:0:
256,192,157124,1,8,0:0:0:0:
256,192,157440,1,8,0:0:0:0:
256,192,157598,1,8,0:0:0:0:
256,192,157756,1,0,0:0:0:0:
256,192,158072,1,8,0:0:0:0:
256,192,158388,1,0,0:0:0:0:
256,192,158703,1,8,0:0:0:0:
256,192,158861,1,4,0:0:0:0:
256,192,159177,1,8,0:0:0:0:
256,192,159256,1,8,0:0:0:0:
256,192,159335,1,8,0:0:0:0:
256,192,159493,1,8,0:0:0:0:
256,192,159651,1,0,0:0:0:0:
256,192,160124,1,0,0:0:0:0:
256,192,160282,1,8,0:0:0:0:
256,192,160440,1,0,0:0:0:0:
256,192,160598,1,8,0:0:0:0:
256,192,160756,1,0,0:0:0:0:
256,192,160914,1,8,0:0:0:0:
256,192,161388,1,0,0:0:0:0:
256,192,161546,1,8,0:0:0:0:
256,192,161703,1,8,0:0:0:0:
256,192,161861,1,0,0:0:0:0:
256,192,162019,1,0,0:0:0:0:
256,192,162177,1,8,0:0:0:0:
256,192,162335,1,0,0:0:0:0:
256,192,162651,1,0,0:0:0:0:
256,192,162967,1,0,0:0:0:0:
256,192,163124,1,8,0:0:0:0:
256,192,163440,1,8,0:0:0:0:
256,192,163598,1,8,0:0:0:0:
256,192,163677,1,8,0:0:0:0:
256,192,163756,1,8,0:0:0:0:
256,192,163914,1,4,0:0:0:0:
256,192,164230,1,8,0:0:0:0:
256,192,164309,1,8,0:0:0:0:
256,192,164388,1,8,0:0:0:0:
256,192,164546,1,8,0:0:0:0:
256,192,164703,1,4,0:0:0:0:
256,192,165177,1,8,0:0:0:0:
256,192,165335,1,0,0:0:0:0:
256,192,165493,1,0,0:0:0:0:
256,192,165651,1,8,0:0:0:0:
256,192,165809,1,0,0:0:0:0:
256,192,165967,1,8,0:0:0:0:
256,192,166440,1,0,0:0:0:0:
256,192,166598,1,8,0:0:0:0:
256,192,166756,1,0,0:0:0:0:
256,192,166914,1,8,0:0:0:0:
256,192,167072,1,0,0:0:0:0:
256,192,167230,1,8,0:0:0:0:
256,192,167546,1,8,0:0:0:0:
256,192,167703,1,8,0:0:0:0:
256,192,167861,1,0,0:0:0:0:
256,192,168019,1,0,0:0:0:0:
256,192,168177,1,8,0:0:0:0:
256,192,168493,1,0,0:0:0:0:
256,192,168809,1,8,0:0:0:0:
256,192,168967,1,4,0:0:0:0:
256,192,169282,1,0,0:0:0:0:
256,192,169440,1,8,0:0:0:0:
256,192,169598,1,0,0:0:0:0:
256,192,169756,1,12,0:0:0:0:
256,192,170230,1,12,0:0:0:0:
256,192,170546,1,0,0:0:0:0:
256,192,170703,1,12,0:0:0:0:
256,192,171019,1,12,0:0:0:0:
256,192,171335,1,0,0:0:0:0:
256,192,171493,1,12,0:0:0:0:
256,192,171809,1,0,0:0:0:0:
256,192,171967,1,12,0:0:0:0:
256,192,172282,1,0,0:0:0:0:
256,192,172440,1,8,0:0:0:0:
256,192,172756,1,0,0:0:0:0:
256,192,173072,1,0,0:0:0:0:
256,192,173230,1,8,0:0:0:0:
256,192,173388,1,4,0:0:0:0:
256,192,173703,1,8,0:0:0:0:
256,192,173782,1,8,0:0:0:0:
256,192,173861,1,8,0:0:0:0:
256,192,174019,1,8,0:0:0:0:
256,192,174177,1,0,0:0:0:0:
256,192,174335,1,8,0:0:0:0:
256,192,174493,1,0,0:0:0:0:
256,192,174651,1,0,0:0:0:0:
256,192,174809,1,12,0:0:0:0:
256,192,175282,1,8,0:0:0:0:
256,192,175440,1,0,0:0:0:0:
256,192,175598,1,0,0:0:0:0:
256,192,175756,1,8,0:0:0:0:
256,192,175914,1,0,0:0:0:0:
256,192,176072,1,8,0:0:0:0:
256,192,176546,1,8,0:0:0:0:
256,192,176703,1,0,0:0:0:0:
256,192,176861,1,0,0:0:0:0:
256,192,177019,1,8,0:0:0:0:
256,192,177177,1,0,0:0:0:0:
256,192,177335,1,8,0:0:0:0:
256,192,177651,1,8,0:0:0:0:
256,192,177809,1,8,0:0:0:0:
256,192,177967,1,0,0:0:0:0:
256,192,178124,1,0,0:0:0:0:
256,192,178282,1,8,0:0:0:0:
256,192,178598,1,0,0:0:0:0:
256,192,178914,1,8,0:0:0:0:
256,192,179072,1,4,0:0:0:0:
256,192,179388,1,8,0:0:0:0:
256,192,179546,1,0,0:0:0:0:
256,192,179624,1,0,0:0:0:0:
256,192,179703,1,0,0:0:0:0:
256,192,179861,1,12,0:0:0:0:
256,192,180335,1,12,0:0:0:0:
256,192,180651,1,0,0:0:0:0:
256,192,180809,1,12,0:0:0:0:
256,192,181124,1,12,0:0:0:0:
256,192,181440,1,0,0:0:0:0:
256,192,181598,1,12,0:0:0:0:
256,192,181914,1,0,0:0:0:0:
256,192,182072,1,12,0:0:0:0:
256,192,182388,1,0,0:0:0:0:
256,192,182546,1,0,0:0:0:0:
256,192,182703,1,8,0:0:0:0:
256,192,182861,1,0,0:0:0:0:
256,192,183177,1,0,0:0:0:0:
256,192,183335,1,8,0:0:0:0:
256,192,183493,1,0,0:0:0:0:
256,192,183809,1,8,0:0:0:0:
256,192,183888,1,8,0:0:0:0:
256,192,183967,1,8,0:0:0:0:
256,192,184124,1,0,0:0:0:0:
256,192,184282,1,8,0:0:0:0:
256,192,184440,1,0,0:0:0:0:
256,192,184598,1,8,0:0:0:0:
256,192,184914,1,12,0:0:0:0:
256,192,185388,1,0,0:0:0:0:
256,192,185546,1,8,0:0:0:0:
256,192,185703,1,0,0:0:0:0:
256,192,185782,1,0,0:0:0:0:
256,192,185861,1,0,0:0:0:0:
256,192,186019,1,8,0:0:0:0:
256,192,186177,1,0,0:0:0:0:
256,192,186493,1,8,0:0:0:0:
256,192,186809,1,0,0:0:0:0:
256,192,187124,1,0,0:0:0:0:
256,192,187282,1,0,0:0:0:0:
256,192,187440,1,8,0:0:0:0:
256,192,187598,1,0,0:0:0:0:
256,192,187914,1,0,0:0:0:0:
256,192,188072,1,8,0:0:0:0:
256,192,188230,1,0,0:0:0:0:
256,192,188309,1,0,0:0:0:0:
256,192,188388,1,0,0:0:0:0:
256,192,188546,1,8,0:0:0:0:
256,192,188703,1,0,0:0:0:0:
256,192,189019,1,8,0:0:0:0:
256,192,189335,1,8,0:0:0:0:
256,192,189651,1,0,0:0:0:0:
256,192,189809,1,0,0:0:0:0:
256,192,189967,1,8,0:0:0:0:
256,192,190124,1,0,0:0:0:0:
256,192,190440,1,0,0:0:0:0:
256,192,190598,1,8,0:0:0:0:
256,192,190914,1,0,0:0:0:0:
256,192,191072,1,8,0:0:0:0:
256,192,191230,1,0,0:0:0:0:
256,192,191546,1,8,0:0:0:0:
256,192,191861,1,0,0:0:0:0:
256,192,192177,1,0,0:0:0:0:
256,192,192335,1,0,0:0:0:0:
256,192,192493,1,8,0:0:0:0:
256,192,192651,1,8,0:0:0:0:
256,192,192730,1,8,0:0:0:0:
256,192,192809,1,8,0:0:0:0:
256,192,192967,1,0,0:0:0:0:
256,192,193124,1,8,0:0:0:0:
256,192,193282,1,8,0:0:0:0:
256,192,193361,1,8,0:0:0:0:
256,192,193440,1,8,0:0:0:0:
256,192,193598,1,8,0:0:0:0:
256,192,193756,1,0,0:0:0:0:
256,192,193914,1,0,0:0:0:0:
256,192,194230,1,0,0:0:0:0:
256,192,194546,1,0,0:0:0:0:
256,192,194861,1,0,0:0:0:0:
256,192,195177,1,0,0:0:0:0:
256,192,195493,1,0,0:0:0:0:
256,192,195809,1,0,0:0:0:0:
256,192,196124,1,8,0:0:0:0:
256,192,196440,1,8,0:0:0:0:
256,192,196756,1,8,0:0:0:0:
256,192,197072,1,8,0:0:0:0:
256,192,197388,1,8,0:0:0:0:
256,192,197703,1,0,0:0:0:0:
256,192,197782,1,0,0:0:0:0:
256,192,197861,1,0,0:0:0:0:
256,192,198019,1,0,0:0:0:0:
256,192,198335,1,12,0:0:0:0:
256,192,198493,1,12,0:0:0:0:
