osu file format v14

[General]
AudioFilename: audio.mp3
AudioLeadIn: 0
PreviewTime: 64952
Countdown: 0
SampleSet: Normal
StackLeniency: 0.7
Mode: 1
LetterboxInBreaks: 0
WidescreenStoryboard: 0

[Editor]
Bookmarks: 12576,23184,33792,44399,76223,88156,98764,109372,119980,133239,143847,155781,161085,166388,182300,192908,204841
DistanceSpacing: 0.7
BeatDivisor: 4
GridSize: 32
TimelineZoom: 1.7

[Metadata]
Title:Nee William
TitleUnicode:ねぇウィリアム
Artist:Omoi
ArtistUnicode:Omoi
Creator:duski
Version:Luqua's Futsuu
Source:
Tags:hatsune miku vocaloid synth rock electronic hey japanese fa featured artist osu! mg mpg mappers' guild hivie luqua
BeatmapID:2659154
BeatmapSetID:1274930

[Difficulty]
HPDrainRate:6
CircleSize:2
OverallDifficulty:4
ApproachRate:5
SliderMultiplier:1.4
SliderTickRate:1

[Events]
//Background and Video events
0,0,"neewilliam.jpg",0,-110
//Break Periods
//Storyboard Layer 0 (Background)
//Storyboard Layer 1 (Fail)
//Storyboard Layer 2 (Pass)
//Storyboard Layer 3 (Foreground)
//Storyboard Layer 4 (Overlay)
//Storyboard Sound Samples

[TimingPoints]
1969,331.491712707182,4,1,0,70,1,0
5946,-100,4,1,0,75,0,0
7272,-100,4,1,0,80,0,0
8433,-100,4,1,0,85,0,0
8930,-100,4,1,0,70,0,0
9261,-100,4,1,0,100,0,0
39178,-100,4,1,0,80,0,0
43571,-100,4,1,0,100,0,0
65615,-100,4,1,0,100,0,1
75560,-100,4,1,0,100,0,0
76223,-100,4,1,0,100,0,1
86830,-100,4,1,0,100,0,0
133239,-100,4,1,0,100,0,1
143184,-100,4,1,0,100,0,0
143847,-100,4,1,0,100,0,1
154455,-100,4,1,0,100,0,0
155781,-100,4,1,0,80,0,0
160753,-100,4,1,0,90,0,0
161085,-100,4,1,0,100,0,0
182300,-100,4,1,0,100,0,1
192245,-100,4,1,0,100,0,0
192908,-100,4,1,0,100,0,1
203515,-100,4,1,0,100,0,0
215449,-100,4,1,0,100,0,1
226057,-100,4,1,0,100,0,0

[HitObjects]
256,192,4620,5,0,0:0:0:0:
256,192,5283,1,0,0:0:0:0:
256,192,5946,1,0,0:0:0:0:
256,192,6609,1,0,0:0:0:0:
256,192,7272,1,8,0:0:0:0:
256,192,7604,1,0,0:0:0:0:
256,192,7935,1,0,0:0:0:0:
256,192,8598,1,8,0:0:0:0:
256,192,8930,1,0,0:0:0:0:
256,192,9261,1,8,0:0:0:0:
256,192,9427,1,8,0:0:0:0:
256,192,9593,1,8,0:0:0:0:
256,192,9924,1,8,0:0:0:0:
256,192,10587,1,8,0:0:0:0:
256,192,10753,1,8,0:0:0:0:
256,192,10919,1,8,0:0:0:0:
256,192,11250,1,0,0:0:0:0:
256,192,11582,1,0,0:0:0:0:
256,192,11913,1,8,0:0:0:0:
256,192,12576,1,4,0:0:0:0:
256,192,12908,1,8,0:0:0:0:
256,192,13073,1,0,0:0:0:0:
256,192,13405,1,0,0:0:0:0:
256,192,13571,1,8,0:0:0:0:
256,192,13902,1,8,0:0:0:0:
256,192,14234,1,8,0:0:0:0:
256,192,14399,1,0,0:0:0:0:
256,192,14731,1,0,0:0:0:0:
256,192,14897,1,8,0:0:0:0:
256,192,15228,1,0,0:0:0:0:
256,192,15725,1,0,0:0:0:0:
256,192,16223,1,8,0:0:0:0:
256,192,16388,1,0,0:0:0:0:
256,192,16554,1,0,0:0:0:0:
256,192,16886,1,8,0:0:0:0:
256,192,17051,1,0,0:0:0:0:
256,192,17549,1,8,0:0:0:0:
256,192,17714,1,8,0:0:0:0:
256,192,17880,1,4,0:0:0:0:
256,192,18212,1,8,0:0:0:0:
256,192,18377,1,0,0:0:0:0:
256,192,18709,1,0,0:0:0:0:
256,192,18875,1,8,0:0:0:0:
256,192,19206,1,0,0:0:0:0:
256,192,19538,1,8,0:0:0:0:
256,192,19703,1,0,0:0:0:0:
256,192,20201,1,8,0:0:0:0:
256,192,20366,1,0,0:0:0:0:
256,192,20532,1,0,0:0:0:0:
256,192,20864,1,8,0:0:0:0:
256,192,21029,1,0,0:0:0:0:
256,192,21361,1,8,0:0:0:0:
256,192,21527,1,8,0:0:0:0:
256,192,21858,1,0,0:0:0:0:
256,192,22852,1,0,0:0:0:0:
256,192,23184,1,4,0:0:0:0:
256,192,23515,1,8,0:0:0:0:
256,192,23847,1,0,0:0:0:0:
256,192,24013,1,8,0:0:0:0:
256,192,24178,1,8,0:0:0:0:
256,192,24510,1,8,0:0:0:0:
256,192,24841,1,8,0:0:0:0:
256,192,25173,1,8,0:0:0:0:
256,192,25339,1,0,0:0:0:0:
256,192,25504,1,8,0:0:0:0:
256,192,25836,1,0,0:0:0:0:
256,192,26167,1,8,0:0:0:0:
256,192,26499,1,0,0:0:0:0:
256,192,26665,1,0,0:0:0:0:
256,192,26830,1,8,0:0:0:0:
256,192,27162,1,0,0:0:0:0:
256,192,27493,1,8,0:0:0:0:
256,192,27825,1,0,0:0:0:0:
256,192,28488,1,4,0:0:0:0:
256,192,28819,1,8,0:0:0:0:
256,192,29151,1,0,0:0:0:0:
256,192,29482,1,8,0:0:0:0:
256,192,29648,1,0,0:0:0:0:
256,192,29814,1,8,0:0:0:0:
256,192,30145,1,8,0:0:0:0:
256,192,30477,1,0,0:0:0:0:
256,192,30808,1,8,0:0:0:0:
256,192,30974,1,8,0:0:0:0:
256,192,31140,1,0,0:0:0:0:
256,192,31471,1,8,0:0:0:0:
256,192,31803,1,0,0:0:0:0:
256,192,32134,1,8,0:0:0:0:
256,192,32466,1,8,0:0:0:0:
256,192,32631,1,8,0:0:0:0:
256,192,32797,1,8,0:0:0:0:
256,192,33129,1,8,0:0:0:0:
256,192,33792,1,4,0:0:0:0:
256,192,34289,1,8,0:0:0:0:
256,192,34620,1,0,0:0:0:0:
256,192,34786,1,0,0:0:0:0:
256,192,35118,1,8,0:0:0:0:
256,192,35615,1,0,0:0:0:0:
256,192,35946,1,8,0:0:0:0:
256,192,36112,1,8,0:0:0:0:
256,192,36444,1,4,0:0:0:0:
256,192,36941,1,8,0:0:0:0:
256,192,37272,1,0,0:0:0:0:
256,192,37438,1,0,0:0:0:0:
256,192,37770,1,8,0:0:0:0:
256,192,38267,1,0,0:0:0:0:
256,192,38598,1,8,0:0:0:0:
256,192,38764,1,8,0:0:0:0:
256,192,39096,1,0,0:0:0:0:
256,192,39593,1,0,0:0:0:0:
256,192,40090,1,0,0:0:0:0:
256,192,40422,1,8,0:0:0:0:
256,192,40919,1,0,0:0:0:0:
256,192,41416,1,8,0:0:0:0:
256,192,41748,1,8,0:0:0:0:
256,192,42245,1,0,0:0:0:0:
256,192,42742,1,0,0:0:0:0:
256,192,43073,1,8,0:0:0:0:
256,192,43571,1,0,0:0:0:0:
256,192,44399,1,4,0:0:0:0:
256,192,44731,1,8,0:0:0:0:
256,192,44897,1,8,0:0:0:0:
256,192,45062,1,0,0:0:0:0:
256,192,45394,1,8,0:0:0:0:
256,192,45560,1,0,0:0:0:0:
256,192,45725,1,0,0:0:0:0:
256,192,46057,1,8,0:0:0:0:
256,192,46223,1,8,0:0:0:0:
256,192,46554,1,0,0:0:0:0:
256,192,46720,1,8,0:0:0:0:
256,192,47051,1,8,0:0:0:0:
256,192,47383,1,8,0:0:0:0:
256,192,47549,1,0,0:0:0:0:
256,192,47880,1,0,0:0:0:0:
256,192,48046,1,0,0:0:0:0:
256,192,48377,1,8,0:0:0:0:
256,192,48709,1,8,0:0:0:0:
256,192,48875,1,0,0:0:0:0:
256,192,49703,1,4,0:0:0:0:
256,192,50035,1,8,0:0:0:0:
256,192,50201,1,0,0:0:0:0:
256,192,50532,1,0,0:0:0:0:
256,192,50698,1,8,0:0:0:0:
256,192,51029,1,0,0:0:0:0:
256,192,51361,1,8,0:0:0:0:
256,192,51527,1,8,0:0:0:0:
256,192,51692,1,0,0:0:0:0:
256,192,52024,1,8,0:0:0:0:
256,192,52355,1,8,0:0:0:0:
256,192,52687,1,8,0:0:0:0:
256,192,52852,1,0,0:0:0:0:
256,192,53018,1,0,0:0:0:0:
256,192,53350,1,8,0:0:0:0:
256,192,53681,1,0,0:0:0:0:
256,192,53847,1,8,0:0:0:0:
256,192,54013,1,8,0:0:0:0:
256,192,54676,1,8,0:0:0:0:
256,192,55007,1,0,0:0:0:0:
256,192,55339,1,0,0:0:0:0:
256,192,55670,1,0,0:0:0:0:
256,192,56002,1,0,0:0:0:0:
256,192,56167,1,0,0:0:0:0:
256,192,56333,1,8,0:0:0:0:
256,192,56665,1,8,0:0:0:0:
256,192,56996,1,8,0:0:0:0:
256,192,57328,1,8,0:0:0:0:
256,192,57493,1,0,0:0:0:0:
256,192,57659,1,8,0:0:0:0:
256,192,57991,1,8,0:0:0:0:
256,192,58322,1,8,0:0:0:0:
256,192,58654,1,8,0:0:0:0:
256,192,58985,1,0,0:0:0:0:
256,192,59151,1,8,0:0:0:0:
256,192,59317,1,8,0:0:0:0:
256,192,59648,1,0,0:0:0:0:
256,192,60311,1,8,0:0:0:0:
256,192,60477,1,8,0:0:0:0:
256,192,60808,1,8,0:0:0:0:
256,192,60974,1,8,0:0:0:0:
256,192,61306,1,8,0:0:0:0:
256,192,61471,1,8,0:0:0:0:
256,192,61803,1,8,0:0:0:0:
256,192,61968,1,8,0:0:0:0:
256,192,62300,1,8,0:0:0:0:
256,192,62631,1,0,0:0:0:0:
256,192,62963,2,0,L|352:192,6,70
256,192,64455,1,0,0:0:0:0:
256,192,64620,1,8,0:0:0:0:
256,192,64786,1,8,0:0:0:0:
256,192,65615,1,4,0:0:0:0:
256,192,65946,1,8,0:0:0:0:
256,192,66112,1,0,0:0:0:0:
256,192,66278,1,0,0:0:0:0:
256,192,66609,1,8,0:0:0:0:
256,192,66775,1,8,0:0:0:0:
256,192,66941,1,0,0:0:0:0:
256,192,67107,1,0,0:0:0:0:
256,192,67272,1,8,0:0:0:0:
256,192,67604,1,8,0:0:0:0:
256,192,67935,1,8,0:0:0:0:
256,192,68101,1,0,0:0:0:0:
256,192,68267,1,8,0:0:0:0:
256,192,68598,1,8,0:0:0:0:
256,192,68764,1,8,0:0:0:0:
256,192,68930,1,0,0:0:0:0:
256,192,69261,1,8,0:0:0:0:
256,192,69427,1,0,0:0:0:0:
256,192,69759,1,0,0:0:0:0:
256,192,69924,1,8,0:0:0:0:
256,192,70256,1,0,0:0:0:0:
256,192,70919,1,4,0:0:0:0:
256,192,71250,1,8,0:0:0:0:
256,192,71582,1,0,0:0:0:0:
256,192,71913,1,0,0:0:0:0:
256,192,72079,1,8,0:0:0:0:
256,192,72245,1,4,0:0:0:0:
256,192,72576,1,0,0:0:0:0:
256,192,72908,1,8,0:0:0:0:
256,192,73571,1,4,0:0:0:0:
256,192,73902,1,0,0:0:0:0:
256,192,74234,1,0,0:0:0:0:
256,192,74399,1,8,0:0:0:0:
256,192,74565,1,4,0:0:0:0:
256,192,74897,1,8,0:0:0:0:
256,192,75062,1,8,0:0:0:0:
256,192,75228,1,0,0:0:0:0:
256,192,75560,1,8,0:0:0:0:
256,192,76223,1,4,0:0:0:0:
256,192,76554,1,8,0:0:0:0:
256,192,76886,1,0,0:0:0:0:
256,192,77217,1,8,0:0:0:0:
256,192,77383,1,8,0:0:0:0:
256,192,77714,1,0,0:0:0:0:
256,192,77880,1,8,0:0:0:0:
256,192,78212,1,0,0:0:0:0:
256,192,78543,1,8,0:0:0:0:
256,192,78709,1,8,0:0:0:0:
256,192,78875,1,0,0:0:0:0:
256,192,79206,1,8,0:0:0:0:
256,192,79372,1,0,0:0:0:0:
256,192,79538,1,8,0:0:0:0:
256,192,79869,1,8,0:0:0:0:
256,192,80035,1,0,0:0:0:0:
256,192,80201,1,0,0:0:0:0:
256,192,80366,1,0,0:0:0:0:
256,192,80532,1,8,0:0:0:0:
256,192,80864,1,8,0:0:0:0:
256,192,81527,1,4,0:0:0:0:
256,192,81858,1,8,0:0:0:0:
256,192,82024,1,0,0:0:0:0:
256,192,82355,1,0,0:0:0:0:
256,192,82521,1,8,0:0:0:0:
256,192,82852,1,0,0:0:0:0:
256,192,83184,1,8,0:0:0:0:
256,192,83350,1,8,0:0:0:0:
256,192,83681,1,0,0:0:0:0:
256,192,83847,1,8,0:0:0:0:
256,192,84178,1,0,0:0:0:0:
256,192,84510,1,8,0:0:0:0:
256,192,84676,1,0,0:0:0:0:
256,192,85007,1,0,0:0:0:0:
256,192,85173,1,8,0:0:0:0:
256,192,85504,1,8,0:0:0:0:
256,192,85670,1,0,0:0:0:0:
256,192,85836,1,8,0:0:0:0:
256,192,86167,1,0,0:0:0:0:
256,192,86333,1,0,0:0:0:0:
256,192,86499,1,8,0:0:0:0:
256,192,86830,1,0,0:0:0:0:
256,192,87162,1,0,0:0:0:0:
256,192,87328,1,8,0:0:0:0:
256,192,87493,1,0,0:0:0:0:
256,192,88156,1,4,0:0:0:0:
256,192,88488,1,8,0:0:0:0:
256,192,88819,1,0,0:0:0:0:
256,192,88985,1,8,0:0:0:0:
256,192,89151,1,8,0:0:0:0:
256,192,89482,1,8,0:0:0:0:
256,192,89814,1,8,0:0:0:0:
256,192,90145,1,8,0:0:0:0:
256,192,90311,1,0,0:0:0:0:
256,192,90477,1,8,0:0:0:0:
256,192,90808,1,0,0:0:0:0:
256,192,91140,1,8,0:0:0:0:
256,192,91471,1,0,0:0:0:0:
256,192,91637,1,0,0:0:0:0:
256,192,91803,1,8,0:0:0:0:
256,192,92134,1,0,0:0:0:0:
256,192,92466,1,8,0:0:0:0:
256,192,92797,1,0,0:0:0:0:
256,192,93460,1,4,0:0:0:0:
256,192,93792,1,8,0:0:0:0:
256,192,94123,1,0,0:0:0:0:
256,192,94455,1,8,0:0:0:0:
256,192,94620,1,0,0:0:0:0:
256,192,94786,1,8,0:0:0:0:
256,192,95118,1,8,0:0:0:0:
256,192,95449,1,0,0:0:0:0:
256,192,95781,1,8,0:0:0:0:
256,192,95946,1,8,0:0:0:0:
256,192,96112,1,0,0:0:0:0:
256,192,96444,1,8,0:0:0:0:
256,192,96775,1,0,0:0:0:0:
256,192,97107,1,8,0:0:0:0:
256,192,97438,1,8,0:0:0:0:
256,192,97604,1,8,0:0:0:0:
256,192,97770,1,8,0:0:0:0:
256,192,98101,1,8,0:0:0:0:
256,192,98764,1,4,0:0:0:0:
256,192,99096,1,8,0:0:0:0:
256,192,99261,1,0,0:0:0:0:
256,192,99427,1,0,0:0:0:0:
256,192,99759,1,8,0:0:0:0:
256,192,100090,1,0,0:0:0:0:
256,192,100422,1,8,0:0:0:0:
256,192,100587,1,8,0:0:0:0:
256,192,100753,1,0,0:0:0:0:
256,192,101085,1,8,0:0:0:0:
256,192,101416,1,0,0:0:0:0:
256,192,101748,1,8,0:0:0:0:
256,192,101913,1,0,0:0:0:0:
256,192,102079,1,0,0:0:0:0:
256,192,102742,1,0,0:0:0:0:
256,192,103073,1,8,0:0:0:0:
256,192,103239,1,0,0:0:0:0:
256,192,103405,1,8,0:0:0:0:
256,192,103736,1,8,0:0:0:0:
256,192,104068,1,4,0:0:0:0:
256,192,104399,1,8,0:0:0:0:
256,192,104565,1,0,0:0:0:0:
256,192,104731,1,0,0:0:0:0:
256,192,105062,1,8,0:0:0:0:
256,192,105394,1,0,0:0:0:0:
256,192,105725,1,8,0:0:0:0:
256,192,105891,1,8,0:0:0:0:
256,192,106057,1,0,0:0:0:0:
256,192,106388,1,0,0:0:0:0:
256,192,106720,1,0,0:0:0:0:
256,192,107051,1,8,0:0:0:0:
256,192,107217,1,0,0:0:0:0:
256,192,107383,1,0,0:0:0:0:
256,192,108046,1,8,0:0:0:0:
256,192,108377,1,8,0:0:0:0:
256,192,108543,1,0,0:0:0:0:
256,192,108709,1,8,0:0:0:0:
256,192,109040,1,8,0:0:0:0:
256,192,109206,1,8,0:0:0:0:
256,192,109372,1,4,0:0:0:0:
256,192,109703,1,8,0:0:0:0:
256,192,109869,1,0,0:0:0:0:
256,192,110035,1,0,0:0:0:0:
256,192,110366,1,8,0:0:0:0:
256,192,110698,1,0,0:0:0:0:
256,192,111029,1,8,0:0:0:0:
256,192,111195,1,8,0:0:0:0:
256,192,111361,1,0,0:0:0:0:
256,192,111692,1,8,0:0:0:0:
256,192,112024,1,0,0:0:0:0:
256,192,112355,1,8,0:0:0:0:
256,192,112521,1,0,0:0:0:0:
256,192,112687,1,0,0:0:0:0:
256,192,113350,1,0,0:0:0:0:
256,192,113681,1,8,0:0:0:0:
256,192,113847,1,0,0:0:0:0:
256,192,114013,1,8,0:0:0:0:
256,192,114344,1,8,0:0:0:0:
256,192,114676,1,4,0:0:0:0:
256,192,115007,1,8,0:0:0:0:
256,192,115173,1,8,0:0:0:0:
256,192,115339,1,0,0:0:0:0:
256,192,115670,1,8,0:0:0:0:
256,192,116002,1,0,0:0:0:0:
256,192,116333,1,8,0:0:0:0:
256,192,116499,1,8,0:0:0:0:
256,192,116665,1,0,0:0:0:0:
256,192,116996,1,8,0:0:0:0:
256,192,117328,1,0,0:0:0:0:
256,192,117659,1,8,0:0:0:0:
256,192,117825,1,0,0:0:0:0:
256,192,117991,1,0,0:0:0:0:
256,192,118654,1,0,0:0:0:0:
256,192,118819,1,8,0:0:0:0:
256,192,118985,1,8,0:0:0:0:
256,192,119317,1,0,0:0:0:0:
256,192,119482,1,0,0:0:0:0:
256,192,119648,1,8,0:0:0:0:
256,192,119980,1,4,0:0:0:0:
256,192,120311,1,8,0:0:0:0:
256,192,120477,1,8,0:0:0:0:
256,192,120808,1,0,0:0:0:0:
256,192,120974,1,0,0:0:0:0:
256,192,121140,1,0,0:0:0:0:
256,192,121803,1,0,0:0:0:0:
256,192,122134,1,0,0:0:0:0:
256,192,122300,1,0,0:0:0:0:
256,192,122631,1,4,0:0:0:0:
256,192,122963,1,8,0:0:0:0:
256,192,123294,1,8,0:0:0:0:
256,192,123460,1,0,0:0:0:0:
256,192,123792,1,0,0:0:0:0:
256,192,125283,1,4,0:0:0:0:
256,192,125615,1,0,0:0:0:0:
256,192,125946,1,0,0:0:0:0:
256,192,126609,1,0,0:0:0:0:
256,192,126941,1,0,0:0:0:0:
256,192,127272,1,0,0:0:0:0:
256,192,127604,1,0,0:0:0:0:
256,192,127935,1,8,0:0:0:0:
256,192,128101,1,8,0:0:0:0:
256,192,128267,1,8,0:0:0:0:
256,192,128598,1,0,0:0:0:0:
256,192,128930,1,8,0:0:0:0:
256,192,129096,1,8,0:0:0:0:
256,192,129261,1,0,0:0:0:0:
256,192,129593,1,8,0:0:0:0:
256,192,129759,1,0,0:0:0:0:
256,192,129924,1,8,0:0:0:0:
256,192,130256,1,0,0:0:0:0:
256,192,130422,1,8,0:0:0:0:
256,192,130587,1,4,0:0:0:0:
256,192,130919,1,8,0:0:0:0:
256,192,131085,1,8,0:0:0:0:
256,192,131250,1,0,0:0:0:0:
256,192,131582,1,8,0:0:0:0:
256,192,131748,1,0,0:0:0:0:
256,192,132079,1,8,0:0:0:0:
256,192,132245,1,8,0:0:0:0:
256,192,133239,1,4,0:0:0:0:
256,192,133571,1,8,0:0:0:0:
256,192,133736,1,0,0:0:0:0:
256,192,133902,1,0,0:0:0:0:
256,192,134234,1,8,0:0:0:0:
256,192,134399,1,8,0:0:0:0:
256,192,134565,1,0,0:0:0:0:
256,192,134731,1,0,0:0:0:0:
256,192,134897,1,8,0:0:0:0:
256,192,135228,1,8,0:0:0:0:
256,192,135560,1,8,0:0:0:0:
256,192,135725,1,0,0:0:0:0:
256,192,135891,1,8,0:0:0:0:
256,192,136223,1,8,0:0:0:0:
256,192,136388,1,8,0:0:0:0:
256,192,136554,1,0,0:0:0:0:
256,192,136886,1,8,0:0:0:0:
256,192,137051,1,0,0:0:0:0:
256,192,137383,1,0,0:0:0:0:
256,192,137549,1,8,0:0:0:0:
256,192,137880,1,0,0:0:0:0:
256,192,138543,1,4,0:0:0:0:
256,192,138875,1,8,0:0:0:0:
256,192,139206,1,0,0:0:0:0:
256,192,139538,1,0,0:0:0:0:
256,192,139703,1,8,0:0:0:0:
256,192,139869,1,4,0:0:0:0:
256,192,140201,1,0,0:0:0:0:
256,192,140532,1,8,0:0:0:0:
256,192,141195,1,4,0:0:0:0:
256,192,141527,1,8,0:0:0:0:
256,192,141858,1,0,0:0:0:0:
256,192,142024,1,8,0:0:0:0:
256,192,142189,1,0,0:0:0:0:
256,192,142521,1,8,0:0:0:0:
256,192,142687,1,8,0:0:0:0:
256,192,142852,1,0,0:0:0:0:
256,192,143184,1,8,0:0:0:0:
256,192,143847,1,4,0:0:0:0:
256,192,144178,1,8,0:0:0:0:
256,192,144510,1,0,0:0:0:0:
256,192,144841,1,8,0:0:0:0:
256,192,145007,1,8,0:0:0:0:
256,192,145339,1,0,0:0:0:0:
256,192,145504,1,8,0:0:0:0:
256,192,145836,1,0,0:0:0:0:
256,192,146167,1,8,0:0:0:0:
256,192,146333,1,0,0:0:0:0:
256,192,146499,1,8,0:0:0:0:
256,192,146830,1,0,0:0:0:0:
256,192,146996,1,0,0:0:0:0:
256,192,147162,1,8,0:0:0:0:
256,192,147493,1,0,0:0:0:0:
256,192,147659,1,0,0:0:0:0:
256,192,147825,1,8,0:0:0:0:
256,192,148156,1,8,0:0:0:0:
256,192,148488,1,8,0:0:0:0:
256,192,149151,1,4,0:0:0:0:
256,192,149482,1,8,0:0:0:0:
256,192,149648,1,0,0:0:0:0:
256,192,149980,1,0,0:0:0:0:
256,192,150145,1,8,0:0:0:0:
256,192,150477,1,0,0:0:0:0:
256,192,150808,1,8,0:0:0:0:
256,192,150974,1,8,0:0:0:0:
256,192,151306,1,0,0:0:0:0:
256,192,151471,1,8,0:0:0:0:
256,192,151803,1,0,0:0:0:0:
256,192,152134,1,8,0:0:0:0:
256,192,152300,1,8,0:0:0:0:
256,192,152631,1,0,0:0:0:0:
256,192,152797,1,8,0:0:0:0:
256,192,153129,1,8,0:0:0:0:
256,192,153294,1,0,0:0:0:0:
256,192,153460,1,8,0:0:0:0:
256,192,153792,1,0,0:0:0:0:
256,192,153957,1,0,0:0:0:0:
256,192,154123,1,8,0:0:0:0:
256,192,154455,1,0,0:0:0:0:
256,192,154786,1,0,0:0:0:0:
256,192,155118,1,0,0:0:0:0:
256,192,155781,1,4,0:0:0:0:
256,192,156112,1,0,0:0:0:0:
256,192,156278,1,0,0:0:0:0:
256,192,156775,1,8,0:0:0:0:
256,192,156941,1,8,0:0:0:0:
256,192,157107,1,8,0:0:0:0:
256,192,157438,1,0,0:0:0:0:
256,192,157604,1,0,0:0:0:0:
256,192,157935,1,0,0:0:0:0:
256,192,158101,1,8,0:0:0:0:
256,192,158433,1,4,0:0:0:0:
256,192,158930,1,0,0:0:0:0:
256,192,159096,1,8,0:0:0:0:
256,192,159427,1,8,0:0:0:0:
256,192,159593,1,8,0:0:0:0:
256,192,159759,1,0,0:0:0:0:
256,192,160090,1,0,0:0:0:0:
256,192,160256,1,0,0:0:0:0:
256,192,160753,1,8,0:0:0:0:
256,192,160919,1,8,0:0:0:0:
256,192,161085,1,0,0:0:0:0:
256,192,161416,1,0,0:0:0:0:
256,192,161582,1,0,0:0:0:0:
256,192,162079,1,8,0:0:0:0:
256,192,162245,1,8,0:0:0:0:
256,192,162410,1,0,0:0:0:0:
256,192,162742,1,0,0:0:0:0:
256,192,162908,1,0,0:0:0:0:
256,192,163239,1,8,0:0:0:0:
256,192,163405,1,8,0:0:0:0:
256,192,163736,1,0,0:0:0:0:
256,192,164234,1,0,0:0:0:0:
256,192,164399,1,0,0:0:0:0:
256,192,164731,1,0,0:0:0:0:
256,192,165062,1,12,0:0:0:0:
256,192,165560,1,12,0:0:0:0:
256,192,166057,1,12,0:0:0:0:
256,192,166388,1,4,0:0:0:0:
256,192,166720,1,8,0:0:0:0:
256,192,166886,1,0,0:0:0:0:
256,192,167217,1,0,0:0:0:0:
256,192,167383,1,8,0:0:0:0:
256,192,167714,1,0,0:0:0:0:
256,192,168046,1,8,0:0:0:0:
256,192,168212,1,0,0:0:0:0:
256,192,168377,1,8,0:0:0:0:
256,192,169040,1,0,0:0:0:0:
256,192,169372,1,8,0:0:0:0:
256,192,169538,1,0,0:0:0:0:
256,192,169703,1,0,0:0:0:0:
256,192,170035,1,8,0:0:0:0:
256,192,170201,1,8,0:0:0:0:
256,192,170366,1,0,0:0:0:0:
256,192,170698,1,8,0:0:0:0:
256,192,171029,1,0,0:0:0:0:
256,192,171195,1,8,0:0:0:0:
256,192,171361,1,8,0:0:0:0:
256,192,171692,1,4,0:0:0:0:
256,192,172024,1,8,0:0:0:0:
256,192,172355,1,0,0:0:0:0:
256,192,172521,1,0,0:0:0:0:
256,192,172687,1,8,0:0:0:0:
256,192,173018,1,0,0:0:0:0:
256,192,173350,1,8,0:0:0:0:
256,192,173515,1,8,0:0:0:0:
256,192,173847,1,0,0:0:0:0:
256,192,174344,1,0,0:0:0:0:
256,192,174676,1,0,0:0:0:0:
256,192,175007,1,0,0:0:0:0:
256,192,175339,1,0,0:0:0:0:
256,192,175670,1,8,0:0:0:0:
256,192,175836,1,8,0:0:0:0:
256,192,176002,1,8,0:0:0:0:
256,192,176333,1,8,0:0:0:0:
256,192,176499,1,0,0:0:0:0:
256,192,176665,1,8,0:0:0:0:
256,192,176996,1,4,0:0:0:0:
256,192,177328,1,4,0:0:0:0:
256,192,177659,1,4,0:0:0:0:
256,192,177991,1,4,0:0:0:0:
256,192,178322,1,12,0:0:0:0:
256,192,178654,1,12,0:0:0:0:
256,192,178985,1,12,0:0:0:0:
256,192,179648,1,4,0:0:0:0:
256,192,181637,1,0,0:0:0:0:
256,192,181803,1,0,0:0:0:0:
256,192,181968,1,8,0:0:0:0:
256,192,182300,1,4,0:0:0:0:
256,192,182631,1,8,0:0:0:0:
256,192,182797,1,0,0:0:0:0:
256,192,182963,1,0,0:0:0:0:
256,192,183294,1,8,0:0:0:0:
256,192,183460,1,8,0:0:0:0:
256,192,183626,1,0,0:0:0:0:
256,192,183792,1,0,0:0:0:0:
256,192,183957,1,8,0:0:0:0:
256,192,184289,1,8,0:0:0:0:
256,192,184620,1,8,0:0:0:0:
256,192,184786,1,0,0:0:0:0:
256,192,184952,1,8,0:0:0:0:
256,192,185283,1,8,0:0:0:0:
256,192,185449,1,8,0:0:0:0:
256,192,185615,1,0,0:0:0:0:
256,192,185946,1,8,0:0:0:0:
256,192,186112,1,0,0:0:0:0:
256,192,186278,1,0,0:0:0:0:
256,192,186444,1,0,0:0:0:0:
256,192,186609,1,8,0:0:0:0:
256,192,186941,1,0,0:0:0:0:
256,192,187604,1,4,0:0:0:0:
256,192,187935,1,8,0:0:0:0:
256,192,188267,1,0,0:0:0:0:
256,192,188598,1,8,0:0:0:0:
256,192,188764,1,8,0:0:0:0:
256,192,188930,1,4,0:0:0:0:
256,192,189261,1,0,0:0:0:0:
256,192,189593,1,8,0:0:0:0:
256,192,190256,1,4,0:0:0:0:
256,192,190587,1,0,0:0:0:0:
256,192,190919,1,8,0:0:0:0:
256,192,191085,1,8,0:0:0:0:
256,192,191250,1,0,0:0:0:0:
256,192,191416,1,8,0:0:0:0:
256,192,191582,1,0,0:0:0:0:
256,192,191913,1,8,0:0:0:0:
256,192,192245,1,8,0:0:0:0:
256,192,192908,1,4,0:0:0:0:
256,192,193239,1,8,0:0:0:0:
256,192,193571,1,0,0:0:0:0:
256,192,193902,1,8,0:0:0:0:
256,192,194068,1,8,0:0:0:0:
256,192,194399,1,0,0:0:0:0:
256,192,194565,1,8,0:0:0:0:
256,192,194897,1,0,0:0:0:0:
256,192,195228,1,8,0:0:0:0:
256,192,195394,1,0,0:0:0:0:
256,192,195560,1,8,0:0:0:0:
256,192,195891,1,0,0:0:0:0:
256,192,196057,1,8,0:0:0:0:
256,192,196223,1,0,0:0:0:0:
256,192,196554,1,8,0:0:0:0:
256,192,196720,1,0,0:0:0:0:
256,192,196886,1,8,0:0:0:0:
256,192,197051,1,8,0:0:0:0:
256,192,197217,1,0,0:0:0:0:
256,192,197549,1,8,0:0:0:0:
256,192,198212,1,4,0:0:0:0:
256,192,198543,1,8,0:0:0:0:
256,192,198709,1,0,0:0:0:0:
256,192,199040,1,0,0:0:0:0:
256,192,199206,1,8,0:0:0:0:
256,192,199538,1,0,0:0:0:0:
256,192,199869,1,8,0:0:0:0:
256,192,200035,1,8,0:0:0:0:
256,192,200366,1,0,0:0:0:0:
256,192,200532,1,8,0:0:0:0:
256,192,200864,1,0,0:0:0:0:
256,192,201195,1,8,0:0:0:0:
256,192,201361,1,8,0:0:0:0:
256,192,201692,1,8,0:0:0:0:
256,192,201858,1,0,0:0:0:0:
256,192,202189,1,0,0:0:0:0:
256,192,202355,1,8,0:0:0:0:
256,192,202521,1,8,0:0:0:0:
256,192,202852,1,8,0:0:0:0:
256,192,203018,1,8,0:0:0:0:
256,192,203184,1,8,0:0:0:0:
256,192,203350,1,8,0:0:0:0:
256,192,203515,1,0,0:0:0:0:
256,192,204344,1,0,0:0:0:0:
256,192,204510,1,8,0:0:0:0:
256,192,204841,1,4,0:0:0:0:
256,192,205173,1,8,0:0:0:0:
256,192,205504,1,0,0:0:0:0:
256,192,205670,1,8,0:0:0:0:
256,192,205836,1,8,0:0:0:0:
256,192,206167,1,8,0:0:0:0:
256,192,206499,1,8,0:0:0:0:
256,192,206830,1,8,0:0:0:0:
256,192,206996,1,0,0:0:0:0:
256,192,207162,1,8,0:0:0:0:
256,192,207493,1,0,0:0:0:0:
256,192,207825,1,8,0:0:0:0:
256,192,208156,1,0,0:0:0:0:
256,192,208322,1,0,0:0:0:0:
256,192,208488,1,8,0:0:0:0:
256,192,208819,1,0,0:0:0:0:
256,192,209151,1,8,0:0:0:0:
256,192,209482,1,0,0:0:0:0:
256,192,210145,1,4,0:0:0:0:
256,192,210477,1,8,0:0:0:0:
256,192,210808,1,0,0:0:0:0:
256,192,211140,1,8,0:0:0:0:
256,192,211306,1,0,0:0:0:0:
256,192,211471,1,8,0:0:0:0:
256,192,211803,1,8,0:0:0:0:
256,192,212134,1,0,0:0:0:0:
256,192,212466,1,8,0:0:0:0:
256,192,212631,1,8,0:0:0:0:
256,192,212797,1,0,0:0:0:0:
256,192,213129,1,8,0:0:0:0:
256,192,213460,1,0,0:0:0:0:
256,192,213792,1,8,0:0:0:0:
256,192,213957,1,8,0:0:0:0:
256,192,214123,1,8,0:0:0:0:
256,192,214455,1,8,0:0:0:0:
256,192,214786,1,8,0:0:0:0:
256,192,215449,1,4,0:0:0:0:
256,192,215781,1,8,0:0:0:0:
256,192,216112,1,0,0:0:0:0:
256,192,216278,1,8,0:0:0:0:
256,192,216444,1,8,0:0:0:0:
256,192,216609,1,0,0:0:0:0:
256,192,216775,1,8,0:0:0:0:
256,192,217107,1,8,0:0:0:0:
256,192,217438,1,8,0:0:0:0:
256,192,217604,1,0,0:0:0:0:
256,192,217770,1,8,0:0:0:0:
256,192,217935,1,8,0:0:0:0:
256,192,218101,1,0,0:0:0:0:
256,192,218433,1,8,0:0:0:0:
256,192,218764,1,0,0:0:0:0:
256,192,218930,1,0,0:0:0:0:
256,192,219096,1,8,0:0:0:0:
256,192,219261,1,8,0:0:0:0:
256,192,219427,1,0,0:0:0:0:
256,192,219759,1,8,0:0:0:0:
256,192,220090,1,8,0:0:0:0:
256,192,220753,1,4,0:0:0:0:
256,192,221085,1,8,0:0:0:0:
256,192,221416,1,0,0:0:0:0:
256,192,221582,1,0,0:0:0:0:
256,192,221748,1,8,0:0:0:0:
256,192,221913,1,0,0:0:0:0:
256,192,222079,1,8,0:0:0:0:
256,192,222410,1,8,0:0:0:0:
256,192,222742,1,0,0:0:0:0:
256,192,222908,1,8,0:0:0:0:
256,192,223073,1,8,0:0:0:0:
256,192,223239,1,8,0:0:0:0:
256,192,223405,1,0,0:0:0:0:
256,192,223736,1,8,0:0:0:0:
256,192,224068,1,0,0:0:0:0:
256,192,224234,1,0,0:0:0:0:
256,192,224399,1,8,0:0:0:0:
256,192,224565,1,8,0:0:0:0:
256,192,224731,1,8,0:0:0:0:
256,192,225062,1,0,0:0:0:0:
256,192,225394,1,8,0:0:0:0:
256,192,226057,1,4,0:0:0:0:
256,192,226388,1,8,0:0:0:0:
256,192,226554,1,0,0:0:0:0:
256,192,226886,1,0,0:0:0:0:
256,192,227051,1,8,0:0:0:0:
256,192,227383,1,0,0:0:0:0:
256,192,227714,1,8,0:0:0:0:
256,192,227880,1,8,0:0:0:0:
256,192,228046,1,0,0:0:0:0:
256,192,228377,1,8,0:0:0:0:
256,192,228709,1,0,0:0:0:0:
256,192,229040,1,8,0:0:0:0:
256,192,229206,1,8,0:0:0:0:
256,192,229372,1,0,0:0:0:0:
256,192,229703,1,8,0:0:0:0:
256,192,230035,1,8,0:0:0:0:
256,192,230201,1,0,0:0:0:0:
256,192,230366,1,8,0:0:0:0:
256,192,230698,1,0,0:0:0:0:
256,192,230864,1,0,0:0:0:0:
256,192,231029,1,8,0:0:0:0:
256,192,231361,1,4,0:0:0:0:
256,192,231692,1,4,0:0:0:0:
256,192,232024,1,4,0:0:0:0:
