osu file format v14

[General]
AudioFilename: audio.mp3
AudioLeadIn: 0
PreviewTime: 64952
Countdown: 0
SampleSet: Normal
StackLeniency: 0.7
Mode: 1
LetterboxInBreaks: 0
WidescreenStoryboard: 0

[Editor]
DistanceSpacing: 0.7
BeatDivisor: 4
GridSize: 32
TimelineZoom: 2.6

[Metadata]
Title:Nee William
TitleUnicode:ねぇウィリアム
Artist:Omoi
ArtistUnicode:Omoi
Creator:duski
Version:Inner Oni
Source:
Tags:hatsune miku vocaloid synth rock electronic hey japanese fa featured artist osu! mg mpg mappers' guild hivie luqua
BeatmapID:2649060
BeatmapSetID:1274930

[Difficulty]
HPDrainRate:5.5
CircleSize:6
OverallDifficulty:6.5
ApproachRate:6
SliderMultiplier:1.4
SliderTickRate:1

[Events]
//Background and Video events
0,0,"neewilliam.jpg",0,-110
//Break Periods
//Storyboard Layer 0 (Background)
//Storyboard Layer 1 (Fail)
//Storyboard Layer 2 (Pass)
//Storyboard Layer 3 (Foreground)
//Storyboard Layer 4 (Overlay)
//Storyboard Sound Samples

[TimingPoints]
1969,331.491712707182,4,1,0,70,1,0
4620,-116.279069767442,4,1,0,70,0,0
5283,-114.942528735632,4,1,0,70,0,0
5781,-113.636363636364,4,1,0,70,0,0
5946,-112.359550561798,4,1,0,75,0,0
6278,-111.111111111111,4,1,0,75,0,0
6609,-109.89010989011,4,1,0,75,0,0
6941,-108.695652173913,4,1,0,75,0,0
7107,-107.52688172043,4,1,0,75,0,0
7272,-106.382978723404,4,1,0,80,0,0
7438,-105.263157894737,4,1,0,80,0,0
7604,-104.166666666667,4,1,0,80,0,0
7935,-103.092783505155,4,1,0,80,0,0
8267,-102.040816326531,4,1,0,80,0,0
8433,-101.010101010101,4,1,0,85,0,0
8598,-100,4,1,0,85,0,0
8930,-99.009900990099,4,1,0,70,0,0
9261,-98.0392156862745,4,1,0,100,0,0
9344,-97.0873786407767,4,1,0,100,0,0
9427,-96.1538461538461,4,1,0,100,0,0
9510,-95.2380952380952,4,1,0,100,0,0
9593,-94.3396226415094,4,1,0,100,0,0
9676,-93.4579439252336,4,1,0,100,0,0
9759,-92.5925925925926,4,1,0,100,0,0
9841,-91.743119266055,4,1,0,100,0,0
9924,-90.9090909090909,4,1,0,100,0,0
10587,-86.9565217391304,4,1,0,100,0,0
11250,-83.3333333333333,4,1,0,100,0,0
12576,-100,4,1,0,100,0,0
33792,-105.263157894737,4,1,0,100,0,0
39178,-111.111111111111,4,1,0,80,0,0
43571,-90.9090909090909,4,1,0,100,0,0
44399,-100,4,1,0,100,0,0
54676,-99.009900990099,4,1,0,100,0,0
54759,-98.0392156862745,4,1,0,100,0,0
54841,-97.0873786407767,4,1,0,100,0,0
54924,-96.1538461538461,4,1,0,100,0,0
55007,-95.2380952380952,4,1,0,100,0,0
60145,-92.5925925925926,4,1,0,100,0,0
60228,-91.743119266055,4,1,0,100,0,0
60311,-90.9090909090909,4,1,0,100,0,0
65615,-90.9090909090909,4,1,0,100,0,1
70753,-93.4579439252336,4,1,0,100,0,1
70836,-94.3396226415094,4,1,0,100,0,1
70919,-95.2380952380952,4,1,0,100,0,1
76223,-90.9090909090909,4,1,0,100,0,1
86830,-86.9565217391304,4,1,0,100,0,0
87162,-89.2857142857143,4,1,0,100,0,0
87328,-90.9090909090909,4,1,0,100,0,0
87410,-91.743119266055,4,1,0,100,0,0
87493,-92.5925925925926,4,1,0,100,0,0
87659,-94.3396226415094,4,1,0,100,0,0
87742,-95.2380952380952,4,1,0,100,0,0
87825,-96.1538461538461,4,1,0,100,0,0
87991,-98.0392156862745,4,1,0,100,0,0
88073,-99.009900990099,4,1,0,100,0,0
88156,-100,4,1,0,100,0,0
120311,-105.263157894737,4,1,0,100,0,0
125118,-95.2380952380952,4,1,0,100,0,0
127935,-90.9090909090909,4,1,0,100,0,0
130587,-86.9565217391304,4,1,0,100,0,0
133239,-90.9090909090909,4,1,0,100,0,1
138377,-93.4579439252336,4,1,0,100,0,1
138460,-94.3396226415094,4,1,0,100,0,1
138543,-95.2380952380952,4,1,0,100,0,1
143847,-90.9090909090909,4,1,0,100,0,1
154455,-86.9565217391304,4,1,0,100,0,0
155366,-88.4955752212389,4,1,0,100,0,0
155449,-90.0900900900901,4,1,0,100,0,0
155532,-91.743119266055,4,1,0,100,0,0
155615,-93.4579439252336,4,1,0,100,0,0
155698,-95.2380952380952,4,1,0,100,0,0
155781,-97.0873786407767,4,1,0,80,0,0
156112,-104.166666666667,4,1,0,80,0,0
156444,-111.111111111111,4,1,0,80,0,0
160753,-109.89010989011,4,1,0,90,0,0
160836,-108.695652173913,4,1,0,90,0,0
160919,-107.52688172043,4,1,0,90,0,0
161002,-106.382978723404,4,1,0,90,0,0
161085,-105.263157894737,4,1,0,100,0,0
166388,-100,4,1,0,100,0,0
171527,-97.0873786407767,4,1,0,100,0,0
171609,-96.1538461538461,4,1,0,100,0,0
171692,-95.2380952380952,4,1,0,100,0,0
176830,-92.5925925925926,4,1,0,100,0,0
176913,-91.743119266055,4,1,0,100,0,0
176996,-90.9090909090909,4,1,0,100,0,0
178322,-86.9565217391304,4,1,0,100,0,0
180974,-100,4,1,0,100,0,0
181637,-90.9090909090909,4,1,0,100,0,0
182300,-83.3333333333333,4,1,0,100,0,1
187438,-85.4700854700855,4,1,0,100,0,1
187521,-86.2068965517241,4,1,0,100,0,1
187604,-86.9565217391304,4,1,0,100,0,1
192908,-83.3333333333333,4,1,0,100,0,1
203515,-83.3333333333333,4,1,0,100,0,0
203847,-86.9565217391304,4,1,0,100,0,0
204178,-90.9090909090909,4,1,0,100,0,0
204841,-95.2380952380952,4,1,0,100,0,0
215449,-90.9090909090909,4,1,0,100,0,1
224897,-91.743119266055,4,1,0,100,0,1
225062,-92.5925925925926,4,1,0,100,0,1
225394,-94.3396226415094,4,1,0,100,0,1
225560,-95.2380952380952,4,1,0,100,0,1
225725,-96.1538461538461,4,1,0,100,0,1
226057,-98.0392156862745,4,1,0,100,0,0
231692,-90.9090909090909,4,1,0,100,0,0
232024,-84.7457627118644,4,1,0,100,0,0

[HitObjects]
256,192,4620,5,8,0:0:0:0:
256,192,5283,1,0,0:0:0:0:
256,192,5781,1,0,0:0:0:0:
256,192,5946,1,8,0:0:0:0:
256,192,6278,1,0,0:0:0:0:
256,192,6609,1,8,0:0:0:0:
256,192,6941,1,8,0:0:0:0:
256,192,7107,1,0,0:0:0:0:
256,192,7272,1,8,0:0:0:0:
256,192,7438,1,8,0:0:0:0:
256,192,7604,1,0,0:0:0:0:
256,192,7935,1,0,0:0:0:0:
256,192,8267,1,8,0:0:0:0:
256,192,8433,1,0,0:0:0:0:
256,192,8598,1,8,0:0:0:0:
256,192,8930,1,0,0:0:0:0:
256,192,9261,1,0,0:0:0:0:
256,192,9344,1,8,0:0:0:0:
256,192,9427,1,8,0:0:0:0:
256,192,9510,1,8,0:0:0:0:
256,192,9593,1,8,0:0:0:0:
256,192,9676,1,8,0:0:0:0:
256,192,9759,1,8,0:0:0:0:
256,192,9841,1,8,0:0:0:0:
256,192,9924,1,4,0:0:0:0:
256,192,10090,1,8,0:0:0:0:
256,192,10256,1,0,0:0:0:0:
256,192,10587,1,12,0:0:0:0:
256,192,10753,1,8,0:0:0:0:
256,192,10836,1,8,0:0:0:0:
256,192,10919,1,8,0:0:0:0:
256,192,11002,1,8,0:0:0:0:
256,192,11085,1,0,0:0:0:0:
256,192,11250,1,12,0:0:0:0:
256,192,11582,1,12,0:0:0:0:
256,192,11913,1,12,0:0:0:0:
256,192,12576,1,4,0:0:0:0:
256,192,12825,1,0,0:0:0:0:
256,192,12908,1,8,0:0:0:0:
256,192,13073,1,0,0:0:0:0:
256,192,13239,1,0,0:0:0:0:
256,192,13322,1,0,0:0:0:0:
256,192,13405,1,8,0:0:0:0:
256,192,13571,1,0,0:0:0:0:
256,192,13736,1,8,0:0:0:0:
256,192,13819,1,8,0:0:0:0:
256,192,13902,1,0,0:0:0:0:
256,192,14151,1,0,0:0:0:0:
256,192,14234,1,8,0:0:0:0:
256,192,14399,1,0,0:0:0:0:
256,192,14482,1,8,0:0:0:0:
256,192,14565,1,0,0:0:0:0:
256,192,14731,1,0,0:0:0:0:
256,192,14814,1,0,0:0:0:0:
256,192,14897,1,8,0:0:0:0:
256,192,15062,1,0,0:0:0:0:
256,192,15228,1,8,0:0:0:0:
256,192,15477,1,0,0:0:0:0:
256,192,15560,1,8,0:0:0:0:
256,192,15725,1,8,0:0:0:0:
256,192,15891,1,0,0:0:0:0:
256,192,15974,1,0,0:0:0:0:
256,192,16057,1,0,0:0:0:0:
256,192,16223,1,8,0:0:0:0:
256,192,16306,1,0,0:0:0:0:
256,192,16388,1,8,0:0:0:0:
256,192,16554,1,0,0:0:0:0:
256,192,16803,1,0,0:0:0:0:
256,192,16886,1,8,0:0:0:0:
256,192,17051,1,0,0:0:0:0:
256,192,17217,1,0,0:0:0:0:
256,192,17300,1,0,0:0:0:0:
256,192,17383,1,8,0:0:0:0:
256,192,17466,1,0,0:0:0:0:
256,192,17549,1,8,0:0:0:0:
256,192,17714,1,8,0:0:0:0:
256,192,17797,1,8,0:0:0:0:
256,192,17880,1,4,0:0:0:0:
256,192,18129,1,0,0:0:0:0:
256,192,18212,1,8,0:0:0:0:
256,192,18377,1,8,0:0:0:0:
256,192,18543,1,0,0:0:0:0:
256,192,18709,1,0,0:0:0:0:
256,192,18792,1,8,0:0:0:0:
256,192,18875,1,0,0:0:0:0:
256,192,19040,1,8,0:0:0:0:
256,192,19123,1,8,0:0:0:0:
256,192,19206,1,0,0:0:0:0:
256,192,19455,1,0,0:0:0:0:
256,192,19538,1,8,0:0:0:0:
256,192,19703,1,0,0:0:0:0:
256,192,19786,1,8,0:0:0:0:
256,192,19869,1,0,0:0:0:0:
256,192,20035,1,0,0:0:0:0:
256,192,20118,1,0,0:0:0:0:
256,192,20201,1,8,0:0:0:0:
256,192,20366,1,0,0:0:0:0:
256,192,20532,1,0,0:0:0:0:
256,192,20781,1,0,0:0:0:0:
256,192,20864,1,8,0:0:0:0:
256,192,21029,1,0,0:0:0:0:
256,192,21195,1,0,0:0:0:0:
256,192,21361,1,8,0:0:0:0:
256,192,21444,1,8,0:0:0:0:
256,192,21527,1,0,0:0:0:0:
256,192,21609,1,8,0:0:0:0:
256,192,21692,1,8,0:0:0:0:
256,192,21775,1,8,0:0:0:0:
256,192,21858,1,0,0:0:0:0:
256,192,22852,1,0,0:0:0:0:
256,192,23184,1,4,0:0:0:0:
256,192,23433,1,8,0:0:0:0:
256,192,23515,1,0,0:0:0:0:
256,192,23681,1,8,0:0:0:0:
256,192,23847,1,0,0:0:0:0:
256,192,23930,1,0,0:0:0:0:
256,192,24013,1,8,0:0:0:0:
256,192,24096,1,8,0:0:0:0:
256,192,24178,1,0,0:0:0:0:
256,192,24344,1,8,0:0:0:0:
256,192,24510,1,0,0:0:0:0:
256,192,24759,1,8,0:0:0:0:
256,192,24841,1,0,0:0:0:0:
256,192,25007,1,8,0:0:0:0:
256,192,25173,1,0,0:0:0:0:
256,192,25256,1,0,0:0:0:0:
256,192,25339,1,8,0:0:0:0:
256,192,25422,1,0,0:0:0:0:
256,192,25504,1,8,0:0:0:0:
256,192,25670,1,0,0:0:0:0:
256,192,25836,1,8,0:0:0:0:
256,192,26085,1,0,0:0:0:0:
256,192,26167,1,8,0:0:0:0:
256,192,26333,1,8,0:0:0:0:
256,192,26499,1,0,0:0:0:0:
256,192,26582,1,0,0:0:0:0:
256,192,26665,1,0,0:0:0:0:
256,192,26748,1,0,0:0:0:0:
256,192,26830,1,8,0:0:0:0:
256,192,26996,1,8,0:0:0:0:
256,192,27162,1,0,0:0:0:0:
256,192,27410,1,8,0:0:0:0:
256,192,27493,1,0,0:0:0:0:
256,192,27659,1,8,0:0:0:0:
256,192,27825,1,0,0:0:0:0:
256,192,27991,1,8,0:0:0:0:
256,192,28073,1,8,0:0:0:0:
256,192,28156,1,0,0:0:0:0:
256,192,28239,1,8,0:0:0:0:
256,192,28322,1,8,0:0:0:0:
256,192,28405,1,8,0:0:0:0:
256,192,28488,1,4,0:0:0:0:
256,192,28736,1,8,0:0:0:0:
256,192,28819,1,0,0:0:0:0:
256,192,28985,1,8,0:0:0:0:
256,192,29151,1,0,0:0:0:0:
256,192,29234,1,0,0:0:0:0:
256,192,29317,1,8,0:0:0:0:
256,192,29399,1,8,0:0:0:0:
256,192,29482,1,0,0:0:0:0:
256,192,29648,1,8,0:0:0:0:
256,192,29814,1,0,0:0:0:0:
256,192,30062,1,8,0:0:0:0:
256,192,30145,1,0,0:0:0:0:
256,192,30311,1,8,0:0:0:0:
256,192,30477,1,0,0:0:0:0:
256,192,30560,1,0,0:0:0:0:
256,192,30643,1,8,0:0:0:0:
256,192,30725,1,0,0:0:0:0:
256,192,30808,1,8,0:0:0:0:
256,192,30974,1,8,0:0:0:0:
256,192,31140,1,0,0:0:0:0:
256,192,31388,1,8,0:0:0:0:
256,192,31471,1,0,0:0:0:0:
256,192,31637,1,8,0:0:0:0:
256,192,31803,1,0,0:0:0:0:
256,192,31886,1,8,0:0:0:0:
256,192,31968,1,0,0:0:0:0:
256,192,32051,1,0,0:0:0:0:
256,192,32134,1,8,0:0:0:0:
256,192,32300,1,0,0:0:0:0:
256,192,32466,1,8,0:0:0:0:
256,192,32549,1,8,0:0:0:0:
256,192,32631,1,8,0:0:0:0:
256,192,32714,1,8,0:0:0:0:
256,192,32797,1,0,0:0:0:0:
256,192,32963,1,8,0:0:0:0:
256,192,33129,1,0,0:0:0:0:
256,192,33212,1,8,0:0:0:0:
256,192,33294,1,8,0:0:0:0:
256,192,33377,1,8,0:0:0:0:
256,192,33460,1,0,0:0:0:0:
256,192,33626,1,8,0:0:0:0:
256,192,33792,1,0,0:0:0:0:
256,192,34040,1,0,0:0:0:0:
256,192,34123,1,0,0:0:0:0:
256,192,34289,1,8,0:0:0:0:
256,192,34455,1,0,0:0:0:0:
256,192,34620,1,0,0:0:0:0:
256,192,34786,1,8,0:0:0:0:
256,192,34952,1,8,0:0:0:0:
256,192,35118,1,0,0:0:0:0:
256,192,35366,1,0,0:0:0:0:
256,192,35449,1,0,0:0:0:0:
256,192,35615,1,8,0:0:0:0:
256,192,35781,1,0,0:0:0:0:
256,192,35946,1,8,0:0:0:0:
256,192,36112,1,8,0:0:0:0:
256,192,36444,1,12,0:0:0:0:
256,192,36692,1,0,0:0:0:0:
256,192,36775,1,0,0:0:0:0:
256,192,36941,1,8,0:0:0:0:
256,192,37272,1,0,0:0:0:0:
256,192,37438,1,0,0:0:0:0:
256,192,37604,1,8,0:0:0:0:
256,192,37770,1,0,0:0:0:0:
256,192,38018,1,0,0:0:0:0:
256,192,38101,1,0,0:0:0:0:
256,192,38267,1,8,0:0:0:0:
256,192,38433,1,0,0:0:0:0:
256,192,38598,1,8,0:0:0:0:
256,192,38681,1,8,0:0:0:0:
256,192,38764,1,8,0:0:0:0:
256,192,38847,1,8,0:0:0:0:
256,192,38930,1,8,0:0:0:0:
256,192,39013,1,8,0:0:0:0:
256,192,39096,1,0,0:0:0:0:
256,192,39593,1,0,0:0:0:0:
256,192,39924,1,0,0:0:0:0:
256,192,40090,1,8,0:0:0:0:
256,192,40256,1,0,0:0:0:0:
256,192,40422,1,8,0:0:0:0:
256,192,40919,1,8,0:0:0:0:
256,192,41416,1,0,0:0:0:0:
256,192,41748,1,0,0:0:0:0:
256,192,42245,1,0,0:0:0:0:
256,192,42742,1,8,0:0:0:0:
256,192,43073,1,8,0:0:0:0:
256,192,43571,1,0,0:0:0:0:
256,192,43626,1,0,0:0:0:0:
256,192,43681,1,0,0:0:0:0:
256,192,43736,1,12,0:0:0:0:
256,192,43985,1,12,0:0:0:0:
256,192,44234,1,12,0:0:0:0:
256,192,44399,1,4,0:0:0:0:
256,192,44648,1,0,0:0:0:0:
256,192,44731,1,8,0:0:0:0:
256,192,44897,1,0,0:0:0:0:
256,192,44980,1,0,0:0:0:0:
256,192,45062,1,8,0:0:0:0:
256,192,45228,1,0,0:0:0:0:
256,192,45394,1,8,0:0:0:0:
256,192,45560,1,8,0:0:0:0:
256,192,45725,1,0,0:0:0:0:
256,192,45974,1,0,0:0:0:0:
256,192,46057,1,8,0:0:0:0:
256,192,46223,1,0,0:0:0:0:
256,192,46306,1,8,0:0:0:0:
256,192,46388,1,0,0:0:0:0:
256,192,46554,1,0,0:0:0:0:
256,192,46637,1,0,0:0:0:0:
256,192,46720,1,8,0:0:0:0:
256,192,46886,1,0,0:0:0:0:
256,192,47051,1,0,0:0:0:0:
256,192,47300,1,0,0:0:0:0:
256,192,47383,1,8,0:0:0:0:
256,192,47549,1,8,0:0:0:0:
256,192,47714,1,0,0:0:0:0:
256,192,47880,1,0,0:0:0:0:
256,192,47963,1,0,0:0:0:0:
256,192,48046,1,8,0:0:0:0:
256,192,48212,1,8,0:0:0:0:
256,192,48377,1,0,0:0:0:0:
256,192,48626,1,0,0:0:0:0:
256,192,48709,1,8,0:0:0:0:
256,192,48875,1,0,0:0:0:0:
256,192,49040,1,0,0:0:0:0:
256,192,49206,1,8,0:0:0:0:
256,192,49289,1,0,0:0:0:0:
256,192,49372,1,8,0:0:0:0:
256,192,49538,1,8,0:0:0:0:
256,192,49620,1,8,0:0:0:0:
256,192,49703,1,4,0:0:0:0:
256,192,49952,1,0,0:0:0:0:
256,192,50035,1,8,0:0:0:0:
256,192,50201,1,0,0:0:0:0:
256,192,50283,1,0,0:0:0:0:
256,192,50366,1,0,0:0:0:0:
256,192,50532,1,0,0:0:0:0:
256,192,50698,1,8,0:0:0:0:
256,192,50864,1,0,0:0:0:0:
256,192,51029,1,0,0:0:0:0:
256,192,51278,1,0,0:0:0:0:
256,192,51361,1,8,0:0:0:0:
256,192,51527,1,0,0:0:0:0:
256,192,51609,1,8,0:0:0:0:
256,192,51692,1,0,0:0:0:0:
256,192,51858,1,8,0:0:0:0:
256,192,51941,1,8,0:0:0:0:
256,192,52024,1,0,0:0:0:0:
256,192,52189,1,8,0:0:0:0:
256,192,52355,1,0,0:0:0:0:
256,192,52604,1,0,0:0:0:0:
256,192,52687,1,8,0:0:0:0:
256,192,52852,1,0,0:0:0:0:
256,192,53018,1,0,0:0:0:0:
256,192,53184,1,0,0:0:0:0:
256,192,53267,1,0,0:0:0:0:
256,192,53350,1,8,0:0:0:0:
256,192,53515,1,8,0:0:0:0:
256,192,53681,1,0,0:0:0:0:
256,192,53764,1,8,0:0:0:0:
256,192,53847,1,8,0:0:0:0:
256,192,53930,1,8,0:0:0:0:
256,192,54013,1,0,0:0:0:0:
256,192,54096,1,8,0:0:0:0:
256,192,54178,1,8,0:0:0:0:
256,192,54261,1,8,0:0:0:0:
256,192,54344,1,0,0:0:0:0:
256,192,54427,1,8,0:0:0:0:
256,192,54510,1,8,0:0:0:0:
256,192,54593,1,0,0:0:0:0:
256,192,54676,1,8,0:0:0:0:
256,192,54759,1,8,0:0:0:0:
256,192,54841,1,0,0:0:0:0:
256,192,54924,1,0,0:0:0:0:
256,192,55007,1,8,0:0:0:0:
256,192,55173,1,0,0:0:0:0:
256,192,55339,1,8,0:0:0:0:
256,192,55504,1,0,0:0:0:0:
256,192,55670,1,8,0:0:0:0:
256,192,55836,1,0,0:0:0:0:
256,192,56002,1,8,0:0:0:0:
256,192,56167,1,0,0:0:0:0:
256,192,56250,1,0,0:0:0:0:
256,192,56333,1,8,0:0:0:0:
256,192,56499,1,0,0:0:0:0:
256,192,56665,1,8,0:0:0:0:
256,192,56830,1,0,0:0:0:0:
256,192,56996,1,8,0:0:0:0:
256,192,57162,1,0,0:0:0:0:
256,192,57245,1,0,0:0:0:0:
256,192,57328,1,8,0:0:0:0:
256,192,57493,1,0,0:0:0:0:
256,192,57576,1,0,0:0:0:0:
256,192,57659,1,8,0:0:0:0:
256,192,57825,1,0,0:0:0:0:
256,192,57991,1,8,0:0:0:0:
256,192,58156,1,0,0:0:0:0:
256,192,58322,1,8,0:0:0:0:
256,192,58488,1,0,0:0:0:0:
256,192,58654,1,8,0:0:0:0:
256,192,58819,1,0,0:0:0:0:
256,192,58902,1,0,0:0:0:0:
256,192,58985,1,8,0:0:0:0:
256,192,59151,1,8,0:0:0:0:
256,192,59234,1,8,0:0:0:0:
256,192,59317,1,0,0:0:0:0:
256,192,59482,1,0,0:0:0:0:
256,192,59565,1,0,0:0:0:0:
256,192,59648,1,12,0:0:0:0:
256,192,59814,1,8,0:0:0:0:
256,192,59897,1,8,0:0:0:0:
256,192,59980,1,0,0:0:0:0:
256,192,60145,1,0,0:0:0:0:
256,192,60228,1,0,0:0:0:0:
256,192,60311,1,12,0:0:0:0:
256,192,60477,1,12,0:0:0:0:
256,192,60643,1,0,0:0:0:0:
256,192,60725,1,0,0:0:0:0:
256,192,60808,1,12,0:0:0:0:
256,192,60974,1,12,0:0:0:0:
256,192,61140,1,0,0:0:0:0:
256,192,61223,1,0,0:0:0:0:
256,192,61306,1,12,0:0:0:0:
256,192,61471,1,12,0:0:0:0:
256,192,61637,1,0,0:0:0:0:
256,192,61720,1,0,0:0:0:0:
256,192,61803,1,12,0:0:0:0:
256,192,61968,1,12,0:0:0:0:
256,192,62134,1,0,0:0:0:0:
256,192,62217,1,0,0:0:0:0:
256,192,62300,1,12,0:0:0:0:
256,192,62466,1,0,0:0:0:0:
256,192,62549,1,0,0:0:0:0:
256,192,62631,1,0,0:0:0:0:
256,192,62797,1,0,0:0:0:0:
256,192,62880,1,0,0:0:0:0:
256,192,62963,1,12,0:0:0:0:
256,192,63129,1,12,0:0:0:0:
256,192,63294,1,0,0:0:0:0:
256,192,63377,1,0,0:0:0:0:
256,192,63460,1,8,0:0:0:0:
256,192,63543,1,8,0:0:0:0:
256,192,63626,1,0,0:0:0:0:
256,192,63709,1,8,0:0:0:0:
256,192,63792,1,8,0:0:0:0:
256,192,63875,1,8,0:0:0:0:
256,192,63957,1,0,0:0:0:0:
256,192,64040,1,0,0:0:0:0:
256,192,64123,1,12,0:0:0:0:
256,192,64455,1,0,0:0:0:0:
256,192,64538,1,0,0:0:0:0:
256,192,64620,1,8,0:0:0:0:
256,192,64786,1,8,0:0:0:0:
256,192,64952,1,0,0:0:0:0:
256,192,65615,1,4,0:0:0:0:
256,192,65864,1,0,0:0:0:0:
256,192,65946,1,8,0:0:0:0:
256,192,66029,1,8,0:0:0:0:
256,192,66112,1,0,0:0:0:0:
256,192,66195,1,0,0:0:0:0:
256,192,66278,1,8,0:0:0:0:
256,192,66444,1,0,0:0:0:0:
256,192,66527,1,0,0:0:0:0:
256,192,66609,1,8,0:0:0:0:
256,192,66692,1,0,0:0:0:0:
256,192,66775,1,8,0:0:0:0:
256,192,66941,1,0,0:0:0:0:
256,192,67107,1,8,0:0:0:0:
256,192,67189,1,8,0:0:0:0:
256,192,67272,1,0,0:0:0:0:
256,192,67438,1,0,0:0:0:0:
256,192,67521,1,0,0:0:0:0:
256,192,67604,1,8,0:0:0:0:
256,192,67770,1,0,0:0:0:0:
256,192,67935,1,8,0:0:0:0:
256,192,68018,1,8,0:0:0:0:
256,192,68101,1,8,0:0:0:0:
256,192,68267,1,0,0:0:0:0:
256,192,68433,1,0,0:0:0:0:
256,192,68515,1,0,0:0:0:0:
256,192,68598,1,8,0:0:0:0:
256,192,68764,1,0,0:0:0:0:
256,192,68930,1,8,0:0:0:0:
256,192,69013,1,8,0:0:0:0:
256,192,69096,1,0,0:0:0:0:
256,192,69178,1,8,0:0:0:0:
256,192,69261,1,0,0:0:0:0:
256,192,69427,1,8,0:0:0:0:
256,192,69593,1,0,0:0:0:0:
256,192,69759,1,0,0:0:0:0:
256,192,69841,1,0,0:0:0:0:
256,192,69924,1,8,0:0:0:0:
256,192,70090,1,0,0:0:0:0:
256,192,70256,1,8,0:0:0:0:
256,192,70422,1,8,0:0:0:0:
256,192,70504,1,8,0:0:0:0:
256,192,70587,1,0,0:0:0:0:
256,192,70753,1,8,0:0:0:0:
256,192,70836,1,8,0:0:0:0:
256,192,70919,1,4,0:0:0:0:
256,192,71085,1,8,0:0:0:0:
256,192,71250,1,0,0:0:0:0:
256,192,71333,1,0,0:0:0:0:
256,192,71416,1,8,0:0:0:0:
256,192,71582,1,0,0:0:0:0:
256,192,71748,1,8,0:0:0:0:
256,192,71913,1,0,0:0:0:0:
256,192,71996,1,0,0:0:0:0:
256,192,72079,1,8,0:0:0:0:
256,192,72245,1,4,0:0:0:0:
256,192,72410,1,8,0:0:0:0:
256,192,72493,1,8,0:0:0:0:
256,192,72576,1,0,0:0:0:0:
256,192,72742,1,8,0:0:0:0:
256,192,72908,1,0,0:0:0:0:
256,192,73073,1,8,0:0:0:0:
256,192,73156,1,8,0:0:0:0:
256,192,73239,1,0,0:0:0:0:
256,192,73405,1,8,0:0:0:0:
256,192,73571,1,4,0:0:0:0:
256,192,73736,1,8,0:0:0:0:
256,192,73819,1,8,0:0:0:0:
256,192,73902,1,0,0:0:0:0:
256,192,74068,1,0,0:0:0:0:
256,192,74151,1,0,0:0:0:0:
256,192,74234,1,8,0:0:0:0:
256,192,74399,1,0,0:0:0:0:
256,192,74565,1,12,0:0:0:0:
256,192,74731,1,0,0:0:0:0:
256,192,74814,1,0,0:0:0:0:
256,192,74897,1,12,0:0:0:0:
256,192,75062,1,8,0:0:0:0:
256,192,75145,1,8,0:0:0:0:
256,192,75228,1,0,0:0:0:0:
256,192,75311,1,0,0:0:0:0:
256,192,75394,1,8,0:0:0:0:
256,192,75560,1,0,0:0:0:0:
256,192,75643,1,8,0:0:0:0:
256,192,75725,1,8,0:0:0:0:
256,192,75808,1,8,0:0:0:0:
256,192,75891,1,0,0:0:0:0:
256,192,76057,1,8,0:0:0:0:
256,192,76223,1,4,0:0:0:0:
256,192,76388,1,8,0:0:0:0:
256,192,76471,1,8,0:0:0:0:
256,192,76554,1,0,0:0:0:0:
256,192,76720,1,8,0:0:0:0:
256,192,76886,1,0,0:0:0:0:
256,192,77051,1,12,0:0:0:0:
256,192,77217,1,8,0:0:0:0:
256,192,77300,1,8,0:0:0:0:
256,192,77383,1,0,0:0:0:0:
256,192,77466,1,0,0:0:0:0:
256,192,77549,1,0,0:0:0:0:
256,192,77714,1,0,0:0:0:0:
256,192,77797,1,0,0:0:0:0:
256,192,77880,1,8,0:0:0:0:
256,192,78046,1,0,0:0:0:0:
256,192,78212,1,8,0:0:0:0:
256,192,78377,1,12,0:0:0:0:
256,192,78543,1,0,0:0:0:0:
256,192,78626,1,0,0:0:0:0:
256,192,78709,1,8,0:0:0:0:
256,192,78875,1,0,0:0:0:0:
256,192,79040,1,8,0:0:0:0:
256,192,79123,1,8,0:0:0:0:
256,192,79206,1,0,0:0:0:0:
256,192,79372,1,8,0:0:0:0:
256,192,79538,1,0,0:0:0:0:
256,192,79703,1,12,0:0:0:0:
256,192,79869,1,8,0:0:0:0:
256,192,79952,1,0,0:0:0:0:
256,192,80035,1,8,0:0:0:0:
256,192,80201,1,0,0:0:0:0:
256,192,80283,1,8,0:0:0:0:
256,192,80366,1,8,0:0:0:0:
256,192,80449,1,8,0:0:0:0:
256,192,80532,1,0,0:0:0:0:
256,192,80698,1,8,0:0:0:0:
256,192,80864,1,0,0:0:0:0:
256,192,80946,1,8,0:0:0:0:
256,192,81112,1,8,0:0:0:0:
256,192,81195,1,0,0:0:0:0:
256,192,81278,1,0,0:0:0:0:
256,192,81361,1,0,0:0:0:0:
256,192,81444,1,0,0:0:0:0:
256,192,81527,1,8,0:0:0:0:
256,192,81775,1,0,0:0:0:0:
256,192,81858,1,8,0:0:0:0:
256,192,82024,1,0,0:0:0:0:
256,192,82189,1,0,0:0:0:0:
256,192,82355,1,0,0:0:0:0:
256,192,82438,1,0,0:0:0:0:
256,192,82521,1,8,0:0:0:0:
256,192,82687,1,0,0:0:0:0:
256,192,82852,1,0,0:0:0:0:
256,192,83101,1,0,0:0:0:0:
256,192,83184,1,8,0:0:0:0:
256,192,83350,1,0,0:0:0:0:
256,192,83433,1,8,0:0:0:0:
256,192,83515,1,0,0:0:0:0:
256,192,83681,1,0,0:0:0:0:
256,192,83847,1,8,0:0:0:0:
256,192,84013,1,0,0:0:0:0:
256,192,84096,1,8,0:0:0:0:
256,192,84178,1,0,0:0:0:0:
256,192,84427,1,0,0:0:0:0:
256,192,84510,1,8,0:0:0:0:
256,192,84676,1,8,0:0:0:0:
256,192,84841,1,0,0:0:0:0:
256,192,84924,1,0,0:0:0:0:
256,192,85007,1,8,0:0:0:0:
256,192,85090,1,0,0:0:0:0:
256,192,85173,1,8,0:0:0:0:
256,192,85339,1,0,0:0:0:0:
256,192,85504,1,8,0:0:0:0:
256,192,85587,1,8,0:0:0:0:
256,192,85670,1,8,0:0:0:0:
256,192,85753,1,0,0:0:0:0:
256,192,85836,1,8,0:0:0:0:
256,192,86002,1,0,0:0:0:0:
256,192,86167,1,8,0:0:0:0:
256,192,86250,1,8,0:0:0:0:
256,192,86333,1,0,0:0:0:0:
256,192,86416,1,0,0:0:0:0:
256,192,86499,1,8,0:0:0:0:
256,192,86665,1,0,0:0:0:0:
256,192,86830,1,4,0:0:0:0:
256,192,87162,1,4,0:0:0:0:
256,192,87328,1,8,0:0:0:0:
256,192,87410,1,8,0:0:0:0:
256,192,87493,1,4,0:0:0:0:
256,192,87659,1,8,0:0:0:0:
256,192,87742,1,0,0:0:0:0:
256,192,87825,1,8,0:0:0:0:
256,192,87991,1,8,0:0:0:0:
256,192,88073,1,8,0:0:0:0:
256,192,88156,1,4,0:0:0:0:
256,192,88405,1,8,0:0:0:0:
256,192,88488,1,0,0:0:0:0:
256,192,88654,1,8,0:0:0:0:
256,192,88819,1,0,0:0:0:0:
256,192,88902,1,0,0:0:0:0:
256,192,88985,1,8,0:0:0:0:
256,192,89068,1,8,0:0:0:0:
256,192,89151,1,0,0:0:0:0:
256,192,89317,1,8,0:0:0:0:
256,192,89482,1,0,0:0:0:0:
256,192,89731,1,8,0:0:0:0:
256,192,89814,1,0,0:0:0:0:
256,192,89980,1,8,0:0:0:0:
256,192,90145,1,0,0:0:0:0:
256,192,90228,1,0,0:0:0:0:
256,192,90311,1,8,0:0:0:0:
256,192,90394,1,0,0:0:0:0:
256,192,90477,1,8,0:0:0:0:
256,192,90643,1,0,0:0:0:0:
256,192,90808,1,8,0:0:0:0:
256,192,91057,1,0,0:0:0:0:
256,192,91140,1,8,0:0:0:0:
256,192,91306,1,8,0:0:0:0:
256,192,91471,1,0,0:0:0:0:
256,192,91554,1,0,0:0:0:0:
256,192,91637,1,0,0:0:0:0:
256,192,91720,1,0,0:0:0:0:
256,192,91803,1,8,0:0:0:0:
256,192,91968,1,8,0:0:0:0:
256,192,92134,1,0,0:0:0:0:
256,192,92383,1,8,0:0:0:0:
256,192,92466,1,0,0:0:0:0:
256,192,92631,1,8,0:0:0:0:
256,192,92797,1,0,0:0:0:0:
256,192,92963,1,8,0:0:0:0:
256,192,93046,1,8,0:0:0:0:
256,192,93129,1,0,0:0:0:0:
256,192,93212,1,8,0:0:0:0:
256,192,93294,1,8,0:0:0:0:
256,192,93377,1,8,0:0:0:0:
256,192,93460,1,0,0:0:0:0:
256,192,93709,1,8,0:0:0:0:
256,192,93792,1,0,0:0:0:0:
256,192,93957,1,8,0:0:0:0:
256,192,94123,1,0,0:0:0:0:
256,192,94206,1,0,0:0:0:0:
256,192,94289,1,8,0:0:0:0:
256,192,94372,1,8,0:0:0:0:
256,192,94455,1,0,0:0:0:0:
256,192,94620,1,8,0:0:0:0:
256,192,94786,1,0,0:0:0:0:
256,192,95035,1,8,0:0:0:0:
256,192,95118,1,0,0:0:0:0:
256,192,95283,1,8,0:0:0:0:
256,192,95449,1,0,0:0:0:0:
256,192,95532,1,0,0:0:0:0:
256,192,95615,1,8,0:0:0:0:
256,192,95698,1,0,0:0:0:0:
256,192,95781,1,8,0:0:0:0:
256,192,95946,1,8,0:0:0:0:
256,192,96112,1,0,0:0:0:0:
256,192,96361,1,8,0:0:0:0:
256,192,96444,1,0,0:0:0:0:
256,192,96609,1,8,0:0:0:0:
256,192,96775,1,0,0:0:0:0:
256,192,96858,1,8,0:0:0:0:
256,192,96941,1,0,0:0:0:0:
256,192,97024,1,0,0:0:0:0:
256,192,97107,1,8,0:0:0:0:
256,192,97272,1,0,0:0:0:0:
256,192,97438,1,8,0:0:0:0:
256,192,97521,1,8,0:0:0:0:
256,192,97604,1,8,0:0:0:0:
256,192,97687,1,8,0:0:0:0:
256,192,97770,1,0,0:0:0:0:
256,192,97935,1,8,0:0:0:0:
256,192,98101,1,0,0:0:0:0:
256,192,98184,1,8,0:0:0:0:
256,192,98267,1,8,0:0:0:0:
256,192,98350,1,8,0:0:0:0:
256,192,98433,1,0,0:0:0:0:
256,192,98598,1,8,0:0:0:0:
256,192,98764,1,4,0:0:0:0:
256,192,99013,1,0,0:0:0:0:
256,192,99096,1,8,0:0:0:0:
256,192,99261,1,0,0:0:0:0:
256,192,99427,1,0,0:0:0:0:
256,192,99510,1,0,0:0:0:0:
256,192,99593,1,8,0:0:0:0:
256,192,99759,1,0,0:0:0:0:
256,192,99924,1,8,0:0:0:0:
256,192,100007,1,8,0:0:0:0:
256,192,100090,1,0,0:0:0:0:
256,192,100339,1,0,0:0:0:0:
256,192,100422,1,8,0:0:0:0:
256,192,100587,1,0,0:0:0:0:
256,192,100670,1,8,0:0:0:0:
256,192,100753,1,0,0:0:0:0:
256,192,100919,1,0,0:0:0:0:
256,192,101002,1,0,0:0:0:0:
256,192,101085,1,8,0:0:0:0:
256,192,101250,1,0,0:0:0:0:
256,192,101416,1,8,0:0:0:0:
256,192,101665,1,0,0:0:0:0:
256,192,101748,1,8,0:0:0:0:
256,192,101913,1,8,0:0:0:0:
256,192,102079,1,0,0:0:0:0:
256,192,102162,1,0,0:0:0:0:
256,192,102245,1,0,0:0:0:0:
256,192,102410,1,8,0:0:0:0:
256,192,102493,1,0,0:0:0:0:
256,192,102576,1,8,0:0:0:0:
256,192,102742,1,0,0:0:0:0:
256,192,102991,1,0,0:0:0:0:
256,192,103073,1,8,0:0:0:0:
256,192,103239,1,0,0:0:0:0:
256,192,103405,1,0,0:0:0:0:
256,192,103488,1,0,0:0:0:0:
256,192,103571,1,8,0:0:0:0:
256,192,103654,1,0,0:0:0:0:
256,192,103736,1,8,0:0:0:0:
256,192,103902,1,8,0:0:0:0:
256,192,103985,1,8,0:0:0:0:
256,192,104068,1,4,0:0:0:0:
256,192,104317,1,0,0:0:0:0:
256,192,104399,1,8,0:0:0:0:
256,192,104565,1,8,0:0:0:0:
256,192,104731,1,0,0:0:0:0:
256,192,104897,1,0,0:0:0:0:
256,192,104980,1,8,0:0:0:0:
256,192,105062,1,0,0:0:0:0:
256,192,105228,1,8,0:0:0:0:
256,192,105311,1,8,0:0:0:0:
256,192,105394,1,0,0:0:0:0:
256,192,105643,1,0,0:0:0:0:
256,192,105725,1,8,0:0:0:0:
256,192,105891,1,0,0:0:0:0:
256,192,105974,1,8,0:0:0:0:
256,192,106057,1,0,0:0:0:0:
256,192,106223,1,0,0:0:0:0:
256,192,106306,1,0,0:0:0:0:
256,192,106388,1,8,0:0:0:0:
256,192,106554,1,0,0:0:0:0:
256,192,106720,1,0,0:0:0:0:
256,192,106968,1,0,0:0:0:0:
256,192,107051,1,8,0:0:0:0:
256,192,107217,1,0,0:0:0:0:
256,192,107300,1,8,0:0:0:0:
256,192,107383,1,0,0:0:0:0:
256,192,107549,1,8,0:0:0:0:
256,192,107714,1,0,0:0:0:0:
256,192,107880,1,0,0:0:0:0:
256,192,107963,1,0,0:0:0:0:
256,192,108046,1,12,0:0:0:0:
256,192,108212,1,0,0:0:0:0:
256,192,108294,1,0,0:0:0:0:
256,192,108377,1,12,0:0:0:0:
256,192,108543,1,0,0:0:0:0:
256,192,108626,1,0,0:0:0:0:
256,192,108709,1,12,0:0:0:0:
256,192,108875,1,0,0:0:0:0:
256,192,108957,1,8,0:0:0:0:
256,192,109040,1,8,0:0:0:0:
256,192,109123,1,8,0:0:0:0:
256,192,109206,1,0,0:0:0:0:
256,192,109289,1,0,0:0:0:0:
256,192,109372,1,12,0:0:0:0:
256,192,109620,1,8,0:0:0:0:
256,192,109703,1,0,0:0:0:0:
256,192,109869,1,8,0:0:0:0:
256,192,110035,1,0,0:0:0:0:
256,192,110201,1,8,0:0:0:0:
256,192,110283,1,8,0:0:0:0:
256,192,110366,1,0,0:0:0:0:
256,192,110532,1,8,0:0:0:0:
256,192,110698,1,0,0:0:0:0:
256,192,110946,1,8,0:0:0:0:
256,192,111029,1,0,0:0:0:0:
256,192,111195,1,8,0:0:0:0:
256,192,111361,1,0,0:0:0:0:
256,192,111444,1,0,0:0:0:0:
256,192,111527,1,8,0:0:0:0:
256,192,111692,1,0,0:0:0:0:
256,192,111858,1,8,0:0:0:0:
256,192,112024,1,0,0:0:0:0:
256,192,112272,1,8,0:0:0:0:
256,192,112355,1,0,0:0:0:0:
256,192,112521,1,8,0:0:0:0:
256,192,112687,1,0,0:0:0:0:
256,192,112852,1,0,0:0:0:0:
256,192,113018,1,8,0:0:0:0:
256,192,113184,1,0,0:0:0:0:
256,192,113267,1,8,0:0:0:0:
256,192,113350,1,0,0:0:0:0:
256,192,113598,1,0,0:0:0:0:
256,192,113681,1,8,0:0:0:0:
256,192,113847,1,0,0:0:0:0:
256,192,114013,1,0,0:0:0:0:
256,192,114178,1,8,0:0:0:0:
256,192,114261,1,8,0:0:0:0:
256,192,114344,1,0,0:0:0:0:
256,192,114510,1,8,0:0:0:0:
256,192,114676,1,4,0:0:0:0:
256,192,114924,1,8,0:0:0:0:
256,192,115007,1,0,0:0:0:0:
256,192,115173,1,8,0:0:0:0:
256,192,115339,1,0,0:0:0:0:
256,192,115504,1,0,0:0:0:0:
256,192,115587,1,0,0:0:0:0:
256,192,115670,1,8,0:0:0:0:
256,192,115836,1,8,0:0:0:0:
256,192,116002,1,0,0:0:0:0:
256,192,116250,1,8,0:0:0:0:
256,192,116333,1,0,0:0:0:0:
256,192,116499,1,8,0:0:0:0:
256,192,116665,1,0,0:0:0:0:
256,192,116748,1,0,0:0:0:0:
256,192,116830,1,8,0:0:0:0:
256,192,116996,1,0,0:0:0:0:
256,192,117162,1,8,0:0:0:0:
256,192,117328,1,0,0:0:0:0:
256,192,117576,1,8,0:0:0:0:
256,192,117659,1,0,0:0:0:0:
256,192,117825,1,8,0:0:0:0:
256,192,117991,1,0,0:0:0:0:
256,192,118073,1,0,0:0:0:0:
256,192,118156,1,8,0:0:0:0:
256,192,118322,1,0,0:0:0:0:
256,192,118488,1,8,0:0:0:0:
256,192,118654,1,0,0:0:0:0:
256,192,118819,1,8,0:0:0:0:
256,192,118902,1,8,0:0:0:0:
256,192,118985,1,0,0:0:0:0:
256,192,119151,1,8,0:0:0:0:
256,192,119317,1,0,0:0:0:0:
256,192,119482,1,0,0:0:0:0:
256,192,119565,1,0,0:0:0:0:
256,192,119648,1,8,0:0:0:0:
256,192,119814,1,0,0:0:0:0:
256,192,119980,1,0,0:0:0:0:
256,192,120311,1,8,0:0:0:0:
256,192,120394,1,8,0:0:0:0:
256,192,120477,1,8,0:0:0:0:
256,192,120560,1,8,0:0:0:0:
256,192,120643,1,8,0:0:0:0:
256,192,120808,1,4,0:0:0:0:
256,192,120974,1,4,0:0:0:0:
256,192,121140,1,4,0:0:0:0:
256,192,121803,1,0,0:0:0:0:
256,192,121886,1,0,0:0:0:0:
256,192,121968,1,0,0:0:0:0:
256,192,122134,1,0,0:0:0:0:
256,192,122217,1,0,0:0:0:0:
256,192,122300,1,0,0:0:0:0:
256,192,122631,1,4,0:0:0:0:
256,192,122963,1,8,0:0:0:0:
256,192,123046,1,8,0:0:0:0:
256,192,123129,1,0,0:0:0:0:
256,192,123212,1,8,0:0:0:0:
256,192,123294,1,8,0:0:0:0:
256,192,123460,1,4,0:0:0:0:
256,192,123626,1,0,0:0:0:0:
256,192,123792,1,12,0:0:0:0:
256,192,125118,1,0,0:0:0:0:
256,192,125201,1,0,0:0:0:0:
256,192,125283,1,12,0:0:0:0:
256,192,125615,1,0,0:0:0:0:
256,192,125946,1,0,0:0:0:0:
256,192,126278,1,0,0:0:0:0:
256,192,126609,1,0,0:0:0:0:
256,192,126941,1,0,0:0:0:0:
256,192,127272,1,8,0:0:0:0:
256,192,127604,1,8,0:0:0:0:
256,192,127935,1,4,0:0:0:0:
256,192,128101,1,8,0:0:0:0:
256,192,128267,1,0,0:0:0:0:
256,192,128350,1,8,0:0:0:0:
256,192,128433,1,8,0:0:0:0:
256,192,128515,1,8,0:0:0:0:
256,192,128598,1,0,0:0:0:0:
256,192,128681,1,0,0:0:0:0:
256,192,128764,1,8,0:0:0:0:
256,192,128847,1,0,0:0:0:0:
256,192,128930,1,8,0:0:0:0:
256,192,129013,1,8,0:0:0:0:
256,192,129096,1,0,0:0:0:0:
256,192,129178,1,8,0:0:0:0:
256,192,129261,1,0,0:0:0:0:
256,192,129344,1,0,0:0:0:0:
256,192,129427,1,8,0:0:0:0:
256,192,129510,1,8,0:0:0:0:
256,192,129593,1,0,0:0:0:0:
256,192,129676,1,8,0:0:0:0:
256,192,129759,1,8,0:0:0:0:
256,192,129841,1,8,0:0:0:0:
256,192,129924,1,0,0:0:0:0:
256,192,130007,1,0,0:0:0:0:
256,192,130090,1,8,0:0:0:0:
256,192,130173,1,8,0:0:0:0:
256,192,130256,1,0,0:0:0:0:
256,192,130422,1,8,0:0:0:0:
256,192,130587,1,4,0:0:0:0:
256,192,130753,1,8,0:0:0:0:
256,192,130836,1,0,0:0:0:0:
256,192,130919,1,8,0:0:0:0:
256,192,131002,1,8,0:0:0:0:
256,192,131085,1,8,0:0:0:0:
256,192,131167,1,8,0:0:0:0:
256,192,131250,1,0,0:0:0:0:
256,192,131333,1,8,0:0:0:0:
256,192,131416,1,8,0:0:0:0:
256,192,131499,1,8,0:0:0:0:
256,192,131582,1,0,0:0:0:0:
256,192,131665,1,0,0:0:0:0:
256,192,131748,1,12,0:0:0:0:
256,192,131913,1,0,0:0:0:0:
256,192,132079,1,8,0:0:0:0:
256,192,132162,1,0,0:0:0:0:
256,192,132245,1,8,0:0:0:0:
256,192,132410,1,0,0:0:0:0:
256,192,132493,1,0,0:0:0:0:
256,192,132576,1,8,0:0:0:0:
256,192,132742,1,8,0:0:0:0:
256,192,132908,1,8,0:0:0:0:
256,192,133073,1,8,0:0:0:0:
256,192,133239,1,4,0:0:0:0:
256,192,133488,1,0,0:0:0:0:
256,192,133571,1,8,0:0:0:0:
256,192,133654,1,8,0:0:0:0:
256,192,133736,1,0,0:0:0:0:
256,192,133819,1,0,0:0:0:0:
256,192,133902,1,8,0:0:0:0:
256,192,134068,1,0,0:0:0:0:
256,192,134151,1,0,0:0:0:0:
256,192,134234,1,8,0:0:0:0:
256,192,134317,1,0,0:0:0:0:
256,192,134399,1,8,0:0:0:0:
256,192,134565,1,0,0:0:0:0:
256,192,134731,1,8,0:0:0:0:
256,192,134814,1,8,0:0:0:0:
256,192,134897,1,0,0:0:0:0:
256,192,135062,1,0,0:0:0:0:
256,192,135145,1,0,0:0:0:0:
256,192,135228,1,8,0:0:0:0:
256,192,135394,1,0,0:0:0:0:
256,192,135560,1,8,0:0:0:0:
256,192,135643,1,8,0:0:0:0:
256,192,135725,1,8,0:0:0:0:
256,192,135891,1,0,0:0:0:0:
256,192,136057,1,0,0:0:0:0:
256,192,136140,1,0,0:0:0:0:
256,192,136223,1,8,0:0:0:0:
256,192,136388,1,0,0:0:0:0:
256,192,136554,1,8,0:0:0:0:
256,192,136637,1,8,0:0:0:0:
256,192,136720,1,0,0:0:0:0:
256,192,136803,1,8,0:0:0:0:
256,192,136886,1,0,0:0:0:0:
256,192,137051,1,8,0:0:0:0:
256,192,137217,1,0,0:0:0:0:
256,192,137383,1,0,0:0:0:0:
256,192,137466,1,0,0:0:0:0:
256,192,137549,1,8,0:0:0:0:
256,192,137714,1,0,0:0:0:0:
256,192,137880,1,8,0:0:0:0:
256,192,138046,1,8,0:0:0:0:
256,192,138129,1,8,0:0:0:0:
256,192,138212,1,0,0:0:0:0:
256,192,138377,1,8,0:0:0:0:
256,192,138460,1,8,0:0:0:0:
256,192,138543,1,4,0:0:0:0:
256,192,138709,1,8,0:0:0:0:
256,192,138875,1,0,0:0:0:0:
256,192,138957,1,0,0:0:0:0:
256,192,139040,1,8,0:0:0:0:
256,192,139206,1,0,0:0:0:0:
256,192,139372,1,8,0:0:0:0:
256,192,139538,1,0,0:0:0:0:
256,192,139620,1,0,0:0:0:0:
256,192,139703,1,8,0:0:0:0:
256,192,139869,1,4,0:0:0:0:
256,192,140035,1,8,0:0:0:0:
256,192,140118,1,8,0:0:0:0:
256,192,140201,1,0,0:0:0:0:
256,192,140366,1,8,0:0:0:0:
256,192,140532,1,0,0:0:0:0:
256,192,140698,1,8,0:0:0:0:
256,192,140781,1,8,0:0:0:0:
256,192,140864,1,0,0:0:0:0:
256,192,141029,1,8,0:0:0:0:
256,192,141195,1,4,0:0:0:0:
256,192,141361,1,8,0:0:0:0:
256,192,141444,1,8,0:0:0:0:
256,192,141527,1,0,0:0:0:0:
256,192,141692,1,0,0:0:0:0:
256,192,141775,1,0,0:0:0:0:
256,192,141858,1,8,0:0:0:0:
256,192,142024,1,0,0:0:0:0:
256,192,142189,1,12,0:0:0:0:
256,192,142355,1,0,0:0:0:0:
256,192,142438,1,0,0:0:0:0:
256,192,142521,1,12,0:0:0:0:
256,192,142687,1,8,0:0:0:0:
256,192,142770,1,8,0:0:0:0:
256,192,142852,1,0,0:0:0:0:
256,192,142935,1,0,0:0:0:0:
256,192,143018,1,8,0:0:0:0:
256,192,143184,1,0,0:0:0:0:
256,192,143267,1,8,0:0:0:0:
256,192,143350,1,8,0:0:0:0:
256,192,143433,1,8,0:0:0:0:
256,192,143515,1,0,0:0:0:0:
256,192,143681,1,8,0:0:0:0:
256,192,143847,1,4,0:0:0:0:
256,192,144013,1,8,0:0:0:0:
256,192,144096,1,8,0:0:0:0:
256,192,144178,1,0,0:0:0:0:
256,192,144344,1,8,0:0:0:0:
256,192,144510,1,0,0:0:0:0:
256,192,144676,1,12,0:0:0:0:
256,192,144841,1,8,0:0:0:0:
256,192,144924,1,8,0:0:0:0:
256,192,145007,1,0,0:0:0:0:
256,192,145090,1,0,0:0:0:0:
256,192,145173,1,0,0:0:0:0:
256,192,145339,1,0,0:0:0:0:
256,192,145422,1,0,0:0:0:0:
256,192,145504,1,8,0:0:0:0:
256,192,145670,1,0,0:0:0:0:
256,192,145836,1,8,0:0:0:0:
256,192,146002,1,12,0:0:0:0:
256,192,146167,1,0,0:0:0:0:
256,192,146250,1,0,0:0:0:0:
256,192,146333,1,8,0:0:0:0:
256,192,146499,1,0,0:0:0:0:
256,192,146665,1,8,0:0:0:0:
256,192,146748,1,8,0:0:0:0:
256,192,146830,1,0,0:0:0:0:
256,192,146996,1,8,0:0:0:0:
256,192,147162,1,0,0:0:0:0:
256,192,147328,1,12,0:0:0:0:
256,192,147493,1,8,0:0:0:0:
256,192,147576,1,0,0:0:0:0:
256,192,147659,1,8,0:0:0:0:
256,192,147825,1,0,0:0:0:0:
256,192,147908,1,8,0:0:0:0:
256,192,147991,1,8,0:0:0:0:
256,192,148073,1,8,0:0:0:0:
256,192,148156,1,0,0:0:0:0:
256,192,148322,1,8,0:0:0:0:
256,192,148488,1,0,0:0:0:0:
256,192,148571,1,8,0:0:0:0:
256,192,148736,1,8,0:0:0:0:
256,192,148819,1,0,0:0:0:0:
256,192,148902,1,0,0:0:0:0:
256,192,148985,1,0,0:0:0:0:
256,192,149068,1,0,0:0:0:0:
256,192,149151,1,8,0:0:0:0:
256,192,149399,1,0,0:0:0:0:
256,192,149482,1,8,0:0:0:0:
256,192,149648,1,0,0:0:0:0:
256,192,149814,1,0,0:0:0:0:
256,192,149980,1,0,0:0:0:0:
256,192,150062,1,0,0:0:0:0:
256,192,150145,1,8,0:0:0:0:
256,192,150311,1,0,0:0:0:0:
256,192,150477,1,0,0:0:0:0:
256,192,150725,1,0,0:0:0:0:
256,192,150808,1,8,0:0:0:0:
256,192,150974,1,0,0:0:0:0:
256,192,151057,1,8,0:0:0:0:
256,192,151140,1,0,0:0:0:0:
256,192,151306,1,0,0:0:0:0:
256,192,151471,1,8,0:0:0:0:
256,192,151637,1,0,0:0:0:0:
256,192,151720,1,8,0:0:0:0:
256,192,151803,1,0,0:0:0:0:
256,192,152051,1,0,0:0:0:0:
256,192,152134,1,8,0:0:0:0:
256,192,152300,1,8,0:0:0:0:
256,192,152466,1,0,0:0:0:0:
256,192,152549,1,0,0:0:0:0:
256,192,152631,1,8,0:0:0:0:
256,192,152714,1,0,0:0:0:0:
256,192,152797,1,8,0:0:0:0:
256,192,152963,1,0,0:0:0:0:
256,192,153129,1,8,0:0:0:0:
256,192,153212,1,8,0:0:0:0:
256,192,153294,1,8,0:0:0:0:
256,192,153377,1,0,0:0:0:0:
256,192,153460,1,8,0:0:0:0:
256,192,153626,1,0,0:0:0:0:
256,192,153792,1,8,0:0:0:0:
256,192,153875,1,8,0:0:0:0:
256,192,153957,1,0,0:0:0:0:
256,192,154040,1,0,0:0:0:0:
256,192,154123,1,8,0:0:0:0:
256,192,154289,1,0,0:0:0:0:
256,192,154455,1,4,0:0:0:0:
256,192,154786,1,4,0:0:0:0:
256,192,155118,1,4,0:0:0:0:
256,192,155283,1,0,0:0:0:0:
256,192,155366,1,0,0:0:0:0:
256,192,155449,1,8,0:0:0:0:
256,192,155532,1,8,0:0:0:0:
256,192,155615,1,8,0:0:0:0:
256,192,155698,1,8,0:0:0:0:
256,192,155781,1,0,0:0:0:0:
256,192,156112,1,8,0:0:0:0:
256,192,156444,1,0,0:0:0:0:
256,192,156775,1,8,0:0:0:0:
256,192,156941,1,8,0:0:0:0:
256,192,157107,1,0,0:0:0:0:
256,192,157438,1,8,0:0:0:0:
256,192,157770,1,0,0:0:0:0:
256,192,157935,1,8,0:0:0:0:
256,192,158101,1,0,0:0:0:0:
256,192,158267,1,8,0:0:0:0:
256,192,158433,1,0,0:0:0:0:
256,192,158764,1,8,0:0:0:0:
256,192,158930,1,8,0:0:0:0:
256,192,159096,1,0,0:0:0:0:
256,192,159178,1,0,0:0:0:0:
256,192,159261,1,0,0:0:0:0:
256,192,159427,1,8,0:0:0:0:
256,192,159593,1,0,0:0:0:0:
256,192,159759,1,8,0:0:0:0:
256,192,160090,1,8,0:0:0:0:
256,192,160422,1,0,0:0:0:0:
256,192,160587,1,0,0:0:0:0:
256,192,160753,1,8,0:0:0:0:
256,192,160836,1,8,0:0:0:0:
256,192,160919,1,0,0:0:0:0:
256,192,161002,1,0,0:0:0:0:
256,192,161085,1,12,0:0:0:0:
256,192,161416,1,8,0:0:0:0:
256,192,161748,1,8,0:0:0:0:
256,192,162079,1,8,0:0:0:0:
256,192,162245,1,0,0:0:0:0:
256,192,162410,1,4,0:0:0:0:
256,192,162742,1,0,0:0:0:0:
256,192,163073,1,0,0:0:0:0:
256,192,163239,1,0,0:0:0:0:
256,192,163405,1,8,0:0:0:0:
256,192,163736,1,4,0:0:0:0:
256,192,164068,1,0,0:0:0:0:
256,192,164399,1,0,0:0:0:0:
256,192,164731,1,0,0:0:0:0:
256,192,165062,1,8,0:0:0:0:
256,192,165311,1,8,0:0:0:0:
256,192,165394,1,0,0:0:0:0:
256,192,165560,1,8,0:0:0:0:
256,192,165725,1,0,0:0:0:0:
256,192,165808,1,8,0:0:0:0:
256,192,166057,1,8,0:0:0:0:
256,192,166223,1,8,0:0:0:0:
256,192,166388,1,4,0:0:0:0:
256,192,166637,1,0,0:0:0:0:
256,192,166720,1,8,0:0:0:0:
256,192,166886,1,0,0:0:0:0:
256,192,167051,1,0,0:0:0:0:
256,192,167217,1,8,0:0:0:0:
256,192,167300,1,0,0:0:0:0:
256,192,167383,1,8,0:0:0:0:
256,192,167549,1,8,0:0:0:0:
256,192,167714,1,0,0:0:0:0:
256,192,167963,1,8,0:0:0:0:
256,192,168046,1,0,0:0:0:0:
256,192,168212,1,8,0:0:0:0:
256,192,168377,1,0,0:0:0:0:
256,192,168543,1,0,0:0:0:0:
256,192,168626,1,0,0:0:0:0:
256,192,168709,1,8,0:0:0:0:
256,192,168875,1,8,0:0:0:0:
256,192,169040,1,0,0:0:0:0:
256,192,169289,1,0,0:0:0:0:
256,192,169372,1,8,0:0:0:0:
256,192,169538,1,0,0:0:0:0:
256,192,169620,1,0,0:0:0:0:
256,192,169703,1,8,0:0:0:0:
256,192,169869,1,0,0:0:0:0:
256,192,170035,1,8,0:0:0:0:
256,192,170201,1,8,0:0:0:0:
256,192,170283,1,8,0:0:0:0:
256,192,170366,1,0,0:0:0:0:
256,192,170615,1,0,0:0:0:0:
256,192,170698,1,8,0:0:0:0:
256,192,170864,1,0,0:0:0:0:
256,192,170946,1,8,0:0:0:0:
256,192,171029,1,0,0:0:0:0:
256,192,171195,1,8,0:0:0:0:
256,192,171278,1,8,0:0:0:0:
256,192,171361,1,0,0:0:0:0:
256,192,171527,1,8,0:0:0:0:
256,192,171609,1,8,0:0:0:0:
256,192,171692,1,4,0:0:0:0:
256,192,171858,1,8,0:0:0:0:
256,192,172024,1,8,0:0:0:0:
256,192,172107,1,8,0:0:0:0:
256,192,172189,1,0,0:0:0:0:
256,192,172272,1,0,0:0:0:0:
256,192,172355,1,8,0:0:0:0:
256,192,172521,1,8,0:0:0:0:
256,192,172687,1,0,0:0:0:0:
256,192,172852,1,0,0:0:0:0:
256,192,172935,1,0,0:0:0:0:
256,192,173018,1,8,0:0:0:0:
256,192,173184,1,8,0:0:0:0:
256,192,173267,1,0,0:0:0:0:
256,192,173350,1,8,0:0:0:0:
256,192,173515,1,0,0:0:0:0:
256,192,173598,1,8,0:0:0:0:
256,192,173681,1,0,0:0:0:0:
256,192,173847,1,0,0:0:0:0:
256,192,174013,1,8,0:0:0:0:
256,192,174344,1,4,0:0:0:0:
256,192,174593,1,8,0:0:0:0:
256,192,174676,1,0,0:0:0:0:
256,192,174841,1,8,0:0:0:0:
256,192,175007,1,0,0:0:0:0:
256,192,175173,1,0,0:0:0:0:
256,192,175339,1,8,0:0:0:0:
256,192,175504,1,0,0:0:0:0:
256,192,175670,1,8,0:0:0:0:
256,192,175753,1,8,0:0:0:0:
256,192,175836,1,8,0:0:0:0:
256,192,175919,1,8,0:0:0:0:
256,192,176002,1,0,0:0:0:0:
256,192,176085,1,0,0:0:0:0:
256,192,176167,1,0,0:0:0:0:
256,192,176250,1,0,0:0:0:0:
256,192,176333,1,8,0:0:0:0:
256,192,176416,1,8,0:0:0:0:
256,192,176499,1,0,0:0:0:0:
256,192,176665,1,0,0:0:0:0:
256,192,176830,1,0,0:0:0:0:
256,192,176913,1,0,0:0:0:0:
256,192,176996,1,12,0:0:0:0:
256,192,177328,1,12,0:0:0:0:
256,192,177659,1,12,0:0:0:0:
256,192,177991,1,12,0:0:0:0:
256,192,178322,1,4,0:0:0:0:
256,192,178488,1,8,0:0:0:0:
256,192,178654,1,4,0:0:0:0:
256,192,178819,1,8,0:0:0:0:
256,192,178985,1,4,0:0:0:0:
256,192,179151,1,8,0:0:0:0:
256,192,179317,1,4,0:0:0:0:
256,192,179482,1,8,0:0:0:0:
256,192,179648,1,4,0:0:0:0:
256,192,181637,1,8,0:0:0:0:
256,192,181692,1,0,0:0:0:0:
256,192,181748,1,0,0:0:0:0:
256,192,181803,1,0,0:0:0:0:
256,192,181968,1,8,0:0:0:0:
256,192,182134,1,8,0:0:0:0:
256,192,182300,1,4,0:0:0:0:
256,192,182549,1,0,0:0:0:0:
256,192,182631,1,8,0:0:0:0:
256,192,182714,1,8,0:0:0:0:
256,192,182797,1,0,0:0:0:0:
256,192,182880,1,0,0:0:0:0:
256,192,182963,1,8,0:0:0:0:
256,192,183129,1,0,0:0:0:0:
256,192,183212,1,0,0:0:0:0:
256,192,183294,1,8,0:0:0:0:
256,192,183377,1,0,0:0:0:0:
256,192,183460,1,8,0:0:0:0:
256,192,183626,1,0,0:0:0:0:
256,192,183792,1,8,0:0:0:0:
256,192,183875,1,8,0:0:0:0:
256,192,183957,1,0,0:0:0:0:
256,192,184123,1,0,0:0:0:0:
256,192,184206,1,0,0:0:0:0:
256,192,184289,1,8,0:0:0:0:
256,192,184455,1,0,0:0:0:0:
256,192,184620,1,8,0:0:0:0:
256,192,184703,1,8,0:0:0:0:
256,192,184786,1,8,0:0:0:0:
256,192,184952,1,0,0:0:0:0:
256,192,185118,1,0,0:0:0:0:
256,192,185201,1,0,0:0:0:0:
256,192,185283,1,8,0:0:0:0:
256,192,185449,1,0,0:0:0:0:
256,192,185615,1,8,0:0:0:0:
256,192,185698,1,8,0:0:0:0:
256,192,185781,1,0,0:0:0:0:
256,192,185864,1,8,0:0:0:0:
256,192,185946,1,0,0:0:0:0:
256,192,186112,1,8,0:0:0:0:
256,192,186278,1,0,0:0:0:0:
256,192,186444,1,0,0:0:0:0:
256,192,186527,1,0,0:0:0:0:
256,192,186609,1,8,0:0:0:0:
256,192,186775,1,0,0:0:0:0:
256,192,186941,1,8,0:0:0:0:
256,192,187107,1,8,0:0:0:0:
256,192,187189,1,8,0:0:0:0:
256,192,187272,1,0,0:0:0:0:
256,192,187438,1,8,0:0:0:0:
256,192,187521,1,8,0:0:0:0:
256,192,187604,1,4,0:0:0:0:
256,192,187770,1,8,0:0:0:0:
256,192,187935,1,0,0:0:0:0:
256,192,188018,1,0,0:0:0:0:
256,192,188101,1,8,0:0:0:0:
256,192,188267,1,0,0:0:0:0:
256,192,188433,1,8,0:0:0:0:
256,192,188598,1,0,0:0:0:0:
256,192,188681,1,0,0:0:0:0:
256,192,188764,1,8,0:0:0:0:
256,192,188930,1,4,0:0:0:0:
256,192,189096,1,8,0:0:0:0:
256,192,189178,1,8,0:0:0:0:
256,192,189261,1,0,0:0:0:0:
256,192,189427,1,8,0:0:0:0:
256,192,189593,1,0,0:0:0:0:
256,192,189759,1,8,0:0:0:0:
256,192,189841,1,8,0:0:0:0:
256,192,189924,1,0,0:0:0:0:
256,192,190090,1,8,0:0:0:0:
256,192,190256,1,4,0:0:0:0:
256,192,190422,1,8,0:0:0:0:
256,192,190504,1,8,0:0:0:0:
256,192,190587,1,0,0:0:0:0:
256,192,190753,1,0,0:0:0:0:
256,192,190836,1,0,0:0:0:0:
256,192,190919,1,8,0:0:0:0:
256,192,191085,1,0,0:0:0:0:
256,192,191250,1,12,0:0:0:0:
256,192,191416,1,0,0:0:0:0:
256,192,191499,1,0,0:0:0:0:
256,192,191582,1,12,0:0:0:0:
256,192,191748,1,8,0:0:0:0:
256,192,191830,1,8,0:0:0:0:
256,192,191913,1,0,0:0:0:0:
256,192,191996,1,0,0:0:0:0:
256,192,192079,1,8,0:0:0:0:
256,192,192245,1,0,0:0:0:0:
256,192,192328,1,8,0:0:0:0:
256,192,192410,1,8,0:0:0:0:
256,192,192493,1,8,0:0:0:0:
256,192,192576,1,0,0:0:0:0:
256,192,192742,1,8,0:0:0:0:
256,192,192908,1,4,0:0:0:0:
256,192,193073,1,8,0:0:0:0:
256,192,193156,1,8,0:0:0:0:
256,192,193239,1,0,0:0:0:0:
256,192,193405,1,8,0:0:0:0:
256,192,193571,1,0,0:0:0:0:
256,192,193736,1,12,0:0:0:0:
256,192,193902,1,8,0:0:0:0:
256,192,193985,1,8,0:0:0:0:
256,192,194068,1,0,0:0:0:0:
256,192,194151,1,0,0:0:0:0:
256,192,194234,1,0,0:0:0:0:
256,192,194399,1,0,0:0:0:0:
256,192,194482,1,0,0:0:0:0:
256,192,194565,1,8,0:0:0:0:
256,192,194731,1,0,0:0:0:0:
256,192,194897,1,8,0:0:0:0:
256,192,195062,1,12,0:0:0:0:
256,192,195228,1,0,0:0:0:0:
256,192,195311,1,0,0:0:0:0:
256,192,195394,1,8,0:0:0:0:
256,192,195560,1,0,0:0:0:0:
256,192,195725,1,8,0:0:0:0:
256,192,195808,1,8,0:0:0:0:
256,192,195891,1,0,0:0:0:0:
256,192,196057,1,8,0:0:0:0:
256,192,196223,1,0,0:0:0:0:
256,192,196388,1,12,0:0:0:0:
256,192,196554,1,8,0:0:0:0:
256,192,196637,1,0,0:0:0:0:
256,192,196720,1,8,0:0:0:0:
256,192,196886,1,0,0:0:0:0:
256,192,196968,1,8,0:0:0:0:
256,192,197051,1,8,0:0:0:0:
256,192,197134,1,8,0:0:0:0:
256,192,197217,1,0,0:0:0:0:
256,192,197383,1,8,0:0:0:0:
256,192,197549,1,0,0:0:0:0:
256,192,197631,1,8,0:0:0:0:
256,192,197797,1,8,0:0:0:0:
256,192,197880,1,0,0:0:0:0:
256,192,197963,1,0,0:0:0:0:
256,192,198046,1,0,0:0:0:0:
256,192,198129,1,0,0:0:0:0:
256,192,198212,1,8,0:0:0:0:
256,192,198460,1,0,0:0:0:0:
256,192,198543,1,8,0:0:0:0:
256,192,198709,1,0,0:0:0:0:
256,192,198875,1,0,0:0:0:0:
256,192,199040,1,0,0:0:0:0:
256,192,199123,1,0,0:0:0:0:
256,192,199206,1,8,0:0:0:0:
256,192,199372,1,0,0:0:0:0:
256,192,199538,1,0,0:0:0:0:
256,192,199786,1,0,0:0:0:0:
256,192,199869,1,8,0:0:0:0:
256,192,200035,1,0,0:0:0:0:
256,192,200118,1,8,0:0:0:0:
256,192,200201,1,0,0:0:0:0:
256,192,200366,1,0,0:0:0:0:
256,192,200532,1,8,0:0:0:0:
256,192,200698,1,0,0:0:0:0:
256,192,200781,1,8,0:0:0:0:
256,192,200864,1,0,0:0:0:0:
256,192,201112,1,0,0:0:0:0:
256,192,201195,1,8,0:0:0:0:
256,192,201361,1,8,0:0:0:0:
256,192,201527,1,0,0:0:0:0:
256,192,201609,1,0,0:0:0:0:
256,192,201692,1,8,0:0:0:0:
256,192,201775,1,0,0:0:0:0:
256,192,201858,1,8,0:0:0:0:
256,192,202024,1,0,0:0:0:0:
256,192,202189,1,8,0:0:0:0:
256,192,202272,1,8,0:0:0:0:
256,192,202355,1,8,0:0:0:0:
256,192,202438,1,0,0:0:0:0:
256,192,202521,1,8,0:0:0:0:
256,192,202687,1,0,0:0:0:0:
256,192,202852,1,8,0:0:0:0:
256,192,202935,1,8,0:0:0:0:
256,192,203018,1,0,0:0:0:0:
256,192,203101,1,0,0:0:0:0:
256,192,203184,1,8,0:0:0:0:
256,192,203350,1,0,0:0:0:0:
256,192,203515,1,0,0:0:0:0:
256,192,203847,1,0,0:0:0:0:
256,192,204178,1,8,0:0:0:0:
256,192,204344,1,0,0:0:0:0:
256,192,204399,1,0,0:0:0:0:
256,192,204455,1,0,0:0:0:0:
256,192,204510,1,8,0:0:0:0:
256,192,204841,1,4,0:0:0:0:
256,192,205090,1,8,0:0:0:0:
256,192,205173,1,0,0:0:0:0:
256,192,205339,1,8,0:0:0:0:
256,192,205504,1,0,0:0:0:0:
256,192,205587,1,0,0:0:0:0:
256,192,205670,1,8,0:0:0:0:
256,192,205753,1,8,0:0:0:0:
256,192,205836,1,0,0:0:0:0:
256,192,206002,1,8,0:0:0:0:
256,192,206167,1,0,0:0:0:0:
256,192,206416,1,8,0:0:0:0:
256,192,206499,1,0,0:0:0:0:
256,192,206665,1,8,0:0:0:0:
256,192,206830,1,0,0:0:0:0:
256,192,206913,1,0,0:0:0:0:
256,192,206996,1,8,0:0:0:0:
256,192,207079,1,0,0:0:0:0:
256,192,207162,1,8,0:0:0:0:
256,192,207328,1,0,0:0:0:0:
256,192,207493,1,8,0:0:0:0:
256,192,207742,1,0,0:0:0:0:
256,192,207825,1,8,0:0:0:0:
256,192,207991,1,8,0:0:0:0:
256,192,208156,1,0,0:0:0:0:
256,192,208239,1,0,0:0:0:0:
256,192,208322,1,0,0:0:0:0:
256,192,208405,1,0,0:0:0:0:
256,192,208488,1,8,0:0:0:0:
256,192,208654,1,8,0:0:0:0:
256,192,208819,1,0,0:0:0:0:
256,192,209068,1,8,0:0:0:0:
256,192,209151,1,0,0:0:0:0:
256,192,209317,1,8,0:0:0:0:
256,192,209482,1,0,0:0:0:0:
256,192,209648,1,8,0:0:0:0:
256,192,209731,1,8,0:0:0:0:
256,192,209814,1,0,0:0:0:0:
256,192,209897,1,8,0:0:0:0:
256,192,209980,1,8,0:0:0:0:
256,192,210062,1,8,0:0:0:0:
256,192,210145,1,4,0:0:0:0:
256,192,210394,1,0,0:0:0:0:
256,192,210477,1,8,0:0:0:0:
256,192,210643,1,0,0:0:0:0:
256,192,210808,1,0,0:0:0:0:
256,192,210891,1,0,0:0:0:0:
256,192,210974,1,8,0:0:0:0:
256,192,211057,1,8,0:0:0:0:
256,192,211140,1,0,0:0:0:0:
256,192,211306,1,8,0:0:0:0:
256,192,211471,1,0,0:0:0:0:
256,192,211720,1,8,0:0:0:0:
256,192,211803,1,0,0:0:0:0:
256,192,211968,1,8,0:0:0:0:
256,192,212134,1,0,0:0:0:0:
256,192,212217,1,0,0:0:0:0:
256,192,212300,1,8,0:0:0:0:
256,192,212383,1,0,0:0:0:0:
256,192,212466,1,8,0:0:0:0:
256,192,212631,1,0,0:0:0:0:
256,192,212797,1,8,0:0:0:0:
256,192,212963,1,8,0:0:0:0:
256,192,213046,1,8,0:0:0:0:
256,192,213129,1,0,0:0:0:0:
256,192,213212,1,0,0:0:0:0:
256,192,213294,1,8,0:0:0:0:
256,192,213377,1,8,0:0:0:0:
256,192,213460,1,0,0:0:0:0:
256,192,213543,1,8,0:0:0:0:
256,192,213626,1,8,0:0:0:0:
256,192,213709,1,8,0:0:0:0:
256,192,213792,1,0,0:0:0:0:
256,192,213875,1,8,0:0:0:0:
256,192,213957,1,8,0:0:0:0:
256,192,214040,1,8,0:0:0:0:
256,192,214123,1,0,0:0:0:0:
256,192,214206,1,8,0:0:0:0:
256,192,214289,1,0,0:0:0:0:
256,192,214372,1,0,0:0:0:0:
256,192,214455,1,8,0:0:0:0:
256,192,214620,1,8,0:0:0:0:
256,192,214703,1,8,0:0:0:0:
256,192,214786,1,0,0:0:0:0:
256,192,214952,1,0,0:0:0:0:
256,192,215035,1,0,0:0:0:0:
256,192,215118,1,12,0:0:0:0:
256,192,215283,1,0,0:0:0:0:
256,192,215449,1,8,0:0:0:0:
256,192,215532,1,0,0:0:0:0:
256,192,215615,1,0,0:0:0:0:
256,192,215698,1,0,0:0:0:0:
256,192,215781,1,8,0:0:0:0:
256,192,215864,1,0,0:0:0:0:
256,192,215946,1,0,0:0:0:0:
256,192,216029,1,0,0:0:0:0:
256,192,216112,1,8,0:0:0:0:
256,192,216195,1,0,0:0:0:0:
256,192,216278,1,8,0:0:0:0:
256,192,216361,1,0,0:0:0:0:
256,192,216444,1,8,0:0:0:0:
256,192,216527,1,0,0:0:0:0:
256,192,216609,1,0,0:0:0:0:
256,192,216692,1,0,0:0:0:0:
256,192,216775,1,8,0:0:0:0:
256,192,216858,1,8,0:0:0:0:
256,192,216941,1,0,0:0:0:0:
256,192,217024,1,0,0:0:0:0:
256,192,217107,1,8,0:0:0:0:
256,192,217189,1,8,0:0:0:0:
256,192,217272,1,0,0:0:0:0:
256,192,217355,1,0,0:0:0:0:
256,192,217438,1,8,0:0:0:0:
256,192,217521,1,0,0:0:0:0:
256,192,217604,1,8,0:0:0:0:
256,192,217687,1,0,0:0:0:0:
256,192,217770,1,8,0:0:0:0:
256,192,217852,1,8,0:0:0:0:
256,192,217935,1,0,0:0:0:0:
256,192,218018,1,0,0:0:0:0:
256,192,218101,1,8,0:0:0:0:
256,192,218184,1,0,0:0:0:0:
256,192,218267,1,0,0:0:0:0:
256,192,218350,1,0,0:0:0:0:
256,192,218433,1,8,0:0:0:0:
256,192,218515,1,0,0:0:0:0:
256,192,218598,1,0,0:0:0:0:
256,192,218681,1,0,0:0:0:0:
256,192,218764,1,8,0:0:0:0:
256,192,218847,1,0,0:0:0:0:
256,192,218930,1,8,0:0:0:0:
256,192,219013,1,0,0:0:0:0:
256,192,219096,1,8,0:0:0:0:
256,192,219178,1,0,0:0:0:0:
256,192,219261,1,0,0:0:0:0:
256,192,219344,1,0,0:0:0:0:
256,192,219427,1,8,0:0:0:0:
256,192,219510,1,8,0:0:0:0:
256,192,219593,1,8,0:0:0:0:
256,192,219676,1,0,0:0:0:0:
256,192,219759,1,8,0:0:0:0:
256,192,219841,1,8,0:0:0:0:
256,192,219924,1,8,0:0:0:0:
256,192,220007,1,0,0:0:0:0:
256,192,220090,1,8,0:0:0:0:
256,192,220173,1,8,0:0:0:0:
256,192,220256,1,8,0:0:0:0:
256,192,220339,1,8,0:0:0:0:
256,192,220422,1,0,0:0:0:0:
256,192,220504,1,0,0:0:0:0:
256,192,220587,1,0,0:0:0:0:
256,192,220670,1,0,0:0:0:0:
256,192,220753,1,8,0:0:0:0:
256,192,220836,1,0,0:0:0:0:
256,192,220919,1,0,0:0:0:0:
256,192,221002,1,0,0:0:0:0:
256,192,221085,1,8,0:0:0:0:
256,192,221167,1,0,0:0:0:0:
256,192,221250,1,0,0:0:0:0:
256,192,221333,1,0,0:0:0:0:
256,192,221416,1,8,0:0:0:0:
256,192,221499,1,0,0:0:0:0:
256,192,221582,1,8,0:0:0:0:
256,192,221665,1,0,0:0:0:0:
256,192,221748,1,8,0:0:0:0:
256,192,221830,1,0,0:0:0:0:
256,192,221913,1,0,0:0:0:0:
256,192,221996,1,0,0:0:0:0:
256,192,222079,1,8,0:0:0:0:
256,192,222162,1,8,0:0:0:0:
256,192,222245,1,0,0:0:0:0:
256,192,222328,1,0,0:0:0:0:
256,192,222410,1,8,0:0:0:0:
256,192,222493,1,8,0:0:0:0:
256,192,222576,1,0,0:0:0:0:
256,192,222659,1,0,0:0:0:0:
256,192,222742,1,8,0:0:0:0:
256,192,222825,1,0,0:0:0:0:
256,192,222908,1,8,0:0:0:0:
256,192,222991,1,0,0:0:0:0:
256,192,223073,1,8,0:0:0:0:
256,192,223156,1,8,0:0:0:0:
256,192,223239,1,0,0:0:0:0:
256,192,223322,1,0,0:0:0:0:
256,192,223405,1,8,0:0:0:0:
256,192,223488,1,0,0:0:0:0:
256,192,223571,1,0,0:0:0:0:
256,192,223654,1,0,0:0:0:0:
256,192,223736,1,8,0:0:0:0:
256,192,223819,1,0,0:0:0:0:
256,192,223902,1,0,0:0:0:0:
256,192,223985,1,0,0:0:0:0:
256,192,224068,1,8,0:0:0:0:
256,192,224151,1,0,0:0:0:0:
256,192,224234,1,8,0:0:0:0:
256,192,224317,1,0,0:0:0:0:
256,192,224399,1,8,0:0:0:0:
256,192,224482,1,0,0:0:0:0:
256,192,224565,1,0,0:0:0:0:
256,192,224648,1,0,0:0:0:0:
256,192,224731,1,8,0:0:0:0:
256,192,224897,1,8,0:0:0:0:
256,192,225062,1,0,0:0:0:0:
256,192,225394,1,8,0:0:0:0:
256,192,225560,1,0,0:0:0:0:
256,192,225725,1,8,0:0:0:0:
256,192,226057,1,4,0:0:0:0:
256,192,226388,1,0,0:0:0:0:
256,192,226554,1,8,0:0:0:0:
256,192,226720,1,0,0:0:0:0:
256,192,226886,1,0,0:0:0:0:
256,192,226968,1,0,0:0:0:0:
256,192,227051,1,8,0:0:0:0:
256,192,227383,1,0,0:0:0:0:
256,192,227549,1,0,0:0:0:0:
256,192,227714,1,8,0:0:0:0:
256,192,227880,1,0,0:0:0:0:
256,192,227963,1,8,0:0:0:0:
256,192,228046,1,0,0:0:0:0:
256,192,228212,1,0,0:0:0:0:
256,192,228377,1,8,0:0:0:0:
256,192,228543,1,0,0:0:0:0:
256,192,228626,1,8,0:0:0:0:
256,192,228709,1,0,0:0:0:0:
256,192,228875,1,0,0:0:0:0:
256,192,228957,1,0,0:0:0:0:
256,192,229040,1,8,0:0:0:0:
256,192,229206,1,8,0:0:0:0:
256,192,229372,1,0,0:0:0:0:
256,192,229455,1,0,0:0:0:0:
256,192,229538,1,0,0:0:0:0:
256,192,229620,1,0,0:0:0:0:
256,192,229703,1,8,0:0:0:0:
256,192,229869,1,0,0:0:0:0:
256,192,230035,1,8,0:0:0:0:
256,192,230118,1,8,0:0:0:0:
256,192,230201,1,0,0:0:0:0:
256,192,230366,1,8,0:0:0:0:
256,192,230532,1,0,0:0:0:0:
256,192,230615,1,0,0:0:0:0:
256,192,230698,1,8,0:0:0:0:
256,192,230864,1,0,0:0:0:0:
256,192,230946,1,8,0:0:0:0:
256,192,231112,1,8,0:0:0:0:
256,192,231195,1,8,0:0:0:0:
256,192,231361,1,4,0:0:0:0:
256,192,231692,1,4,0:0:0:0:
256,192,232024,1,4,0:0:0:0:
