osu file format v14

[General]
AudioFilename: audio.mp3
AudioLeadIn: 0
PreviewTime: 57076
Countdown: 0
SampleSet: Normal
StackLeniency: 0.7
Mode: 1
LetterboxInBreaks: 0
WidescreenStoryboard: 1

[Editor]
Bookmarks: 3793,15644,21570,33422,45274,57126,68978,80830,92681,104533,106015,117866,128237,140088,143051,154902,166754,178606,188977
DistanceSpacing: 1.4
BeatDivisor: 4
GridSize: 32
TimelineZoom: 2.599999

[Metadata]
Title:Misread, Mislead
TitleUnicode:ミスリード・ミスリード
Artist:Omoi
ArtistUnicode:Omoi
Creator:DakeDekaane
Version:duski's Deception
Source:
Tags:vocaloid Hatsune Miku 初音ミク Kagamine Rin 鏡音リ electronic synth rock jrock j-rock japanese night confession FA featured artist duski
BeatmapID:2674890
BeatmapSetID:1283785

[Difficulty]
HPDrainRate:5
CircleSize:6
OverallDifficulty:6.5
ApproachRate:9
SliderMultiplier:1.4
SliderTickRate:1

[Events]
//Background and Video events
0,0,"misleadmisread.jpg",0,0
//Break Periods
//Storyboard Layer 0 (Background)
//Storyboard Layer 1 (Fail)
//Storyboard Layer 2 (Pass)
//Storyboard Layer 3 (Foreground)
//Storyboard Layer 4 (Overlay)
//Storyboard Sound Samples

[TimingPoints]
3793,370.370370370371,4,1,0,70,1,0
3793,-111.111111111111,4,1,0,70,0,0
6755,-90.9090909090909,4,1,0,100,0,0
7126,-100,4,1,0,100,0,0
12311,-76.9230769230769,4,1,0,100,0,0
13052,-100,4,1,0,100,0,0
14904,-76.9230769230769,4,1,0,100,0,0
16015,-100,4,1,0,100,0,0
18237,-76.9230769230769,4,1,0,100,0,0
18793,-83.3333333333333,4,1,0,100,0,0
21755,-86.9565217391304,4,1,0,100,0,0
21941,-90.9090909090909,4,1,0,100,0,0
22126,-95.2380952380952,4,1,0,100,0,0
22218,-97.5609756097561,4,1,0,100,0,0
22311,-100,4,1,0,100,0,0
26293,-97.0873786407767,4,1,0,100,0,0
26570,-94.3396226415094,4,1,0,100,0,0
26755,-92.5925925925926,4,1,0,100,0,0
26941,-90.9090909090909,4,1,0,100,0,0
27126,-89.2857142857143,4,1,0,100,0,0
27311,-87.719298245614,4,1,0,100,0,0
27404,-86.9565217391304,4,1,0,100,0,0
27496,-86.2068965517241,4,1,0,100,0,0
27681,-89.2857142857143,4,1,0,100,0,0
27867,-92.5925925925926,4,1,0,100,0,0
27959,-94.3396226415094,4,1,0,100,0,0
28052,-96.1538461538461,4,1,0,100,0,0
28237,-100,4,1,0,100,0,0
32218,-97.0873786407767,4,1,0,100,0,0
32495,-94.3396226415094,4,1,0,100,0,0
32680,-92.5925925925926,4,1,0,100,0,0
32866,-90.9090909090909,4,1,0,100,0,0
33051,-89.2857142857143,4,1,0,100,0,0
33236,-87.719298245614,4,1,0,100,0,0
33329,-86.9565217391304,4,1,0,100,0,0
33421,-86.2068965517241,4,1,0,100,0,0
33606,-89.2857142857143,4,1,0,100,0,0
33792,-92.5925925925926,4,1,0,100,0,0
34533,-111.111111111111,4,1,0,100,0,0
44533,-108.695652173913,4,1,0,100,0,0
44718,-106.382978723404,4,1,0,100,0,0
44811,-105.263157894737,4,1,0,100,0,0
44904,-104.166666666667,4,1,0,100,0,0
45089,-102.040816326531,4,1,0,100,0,0
45181,-101.010101010101,4,1,0,100,0,0
45274,-100,4,1,0,100,0,0
47867,-99.009900990099,4,1,0,100,0,0
47959,-98.0392156862745,4,1,0,100,0,0
48052,-97.0873786407767,4,1,0,100,0,0
48144,-96.1538461538461,4,1,0,100,0,0
48237,-95.2380952380952,4,1,0,100,0,0
50830,-94.3396226415094,4,1,0,100,0,0
50922,-93.4579439252336,4,1,0,100,0,0
51015,-92.5925925925926,4,1,0,100,0,0
51107,-91.743119266055,4,1,0,100,0,0
51200,-90.9090909090909,4,1,0,100,0,0
54348,-93.4579439252336,4,1,0,100,0,0
54718,-100,4,1,0,100,0,0
56385,-98.0392156862745,4,1,0,100,0,0
56478,-97.0873786407767,4,1,0,100,0,0
56570,-96.1538461538461,4,1,0,100,0,0
56663,-95.2380952380952,4,1,0,100,0,0
56755,-94.3396226415094,4,1,0,100,0,0
56848,-93.4579439252336,4,1,0,100,0,0
56941,-92.5925925925926,4,1,0,100,0,0
57033,-91.743119266055,4,1,0,100,0,0
57126,-90.9090909090909,4,1,0,100,0,1
67496,-90.9090909090909,4,1,0,100,0,0
68607,-90.0900900900901,4,1,0,100,0,0
68793,-88.4955752212389,4,1,0,100,0,0
68885,-87.719298245614,4,1,0,100,0,0
68978,-86.9565217391304,4,1,0,100,0,1
80830,-86.9565217391304,4,1,0,100,0,0
81015,-88.4955752212389,4,1,0,100,0,0
81107,-89.2857142857143,4,1,0,100,0,0
81200,-90.0900900900901,4,1,0,100,0,0
81385,-90.9090909090909,4,1,0,100,0,0
104163,-83.3333333333333,4,1,0,100,0,0
106015,370.370370370371,4,1,0,100,1,0
106015,-83.3333333333333,4,1,0,100,0,0
106200,-86.9565217391304,4,1,0,100,0,0
106385,-90.9090909090909,4,1,0,100,0,0
107126,-125,4,1,0,100,0,0
115829,-111.111111111111,4,1,0,100,0,0
116385,-100,4,1,0,100,0,0
117496,-99.009900990099,4,1,0,100,0,0
117589,-98.0392156862745,4,1,0,100,0,0
117681,-97.0873786407767,4,1,0,100,0,0
117774,-96.1538461538461,4,1,0,100,0,0
117866,-95.2380952380952,4,1,0,100,0,0
128237,370.370370370371,4,1,0,100,1,0
128237,-90.9090909090909,4,1,0,100,0,0
128792,-111.111111111111,4,1,0,100,0,0
131199,-90.9090909090909,4,1,0,100,0,0
131755,-111.111111111111,4,1,0,100,0,0
133422,-90.9090909090909,4,1,0,100,0,0
134162,-83.3333333333333,4,1,0,100,0,0
134718,-100,4,1,0,100,0,0
137125,-83.3333333333333,4,1,0,100,0,0
137681,-100,4,1,0,100,0,0
140088,-95.2380952380952,4,1,0,100,0,0
143051,370.370370370371,4,1,0,100,1,0
143051,-95.2380952380952,4,1,0,100,0,0
143236,-97.0873786407767,4,1,0,100,0,0
143328,-98.0392156862745,4,1,0,100,0,0
143606,-101.010101010101,4,1,0,100,0,0
143791,-103.092783505155,4,1,0,100,0,0
143976,-105.263157894737,4,1,0,100,0,0
144162,-107.52688172043,4,1,0,100,0,0
144532,-111.111111111111,4,1,0,100,0,0
147495,-100,4,1,0,100,0,0
149162,-102.040816326531,4,1,0,100,0,0
149254,-103.092783505155,4,1,0,100,0,0
149532,-106.382978723404,4,1,0,100,0,0
149717,-108.695652173913,4,1,0,100,0,0
149902,-111.111111111111,4,1,0,100,0,0
151569,-108.695652173913,4,1,0,100,0,0
151662,-106.382978723404,4,1,0,100,0,0
151754,-104.166666666667,4,1,0,100,0,0
151847,-102.040816326531,4,1,0,100,0,0
151939,-100,4,1,0,100,0,0
153421,-95.2380952380952,4,1,0,100,0,0
153791,-90.9090909090909,4,1,0,100,0,0
154162,-86.9565217391304,4,1,0,100,0,0
154902,-86.9565217391304,4,1,0,100,0,1
166754,-86.9565217391304,4,1,0,100,0,0
166939,-88.4955752212389,4,1,0,100,0,0
167032,-89.2857142857143,4,1,0,100,0,0
167125,-90.0900900900901,4,1,0,100,0,0
167310,-90.9090909090909,4,1,0,100,0,0
188976,370.370370370371,4,1,0,100,1,1
188976,-76.9230769230769,4,1,0,100,0,1
191938,370.370370370371,4,1,0,100,1,0
191938,-76.9230769230769,4,1,0,100,0,0
192030,-100,4,1,0,100,0,0
194160,-76.9230769230769,4,1,0,100,0,0
195271,-100,4,1,0,100,0,0
195363,-98.0392156862745,4,1,0,100,0,0
195456,-96.1538461538461,4,1,0,100,0,0
195549,-94.3396226415094,4,1,0,100,0,0
195641,-92.5925925925926,4,1,0,100,0,0
195826,-96.1538461538461,4,1,0,100,0,0
196012,-100,4,1,0,100,0,0
196104,-98.0392156862745,4,1,0,100,0,0
196197,-96.1538461538461,4,1,0,100,0,0
196289,-94.3396226415094,4,1,0,100,0,0
196382,-92.5925925925926,4,1,0,100,0,0
196567,-94.3396226415094,4,1,0,100,0,0
196660,-95.2380952380952,4,1,0,100,0,0
196752,-96.1538461538461,4,1,0,100,0,0
196845,-97.0873786407767,4,1,0,100,0,0
197030,-93.4579439252336,4,1,0,100,0,0
197123,-91.743119266055,4,1,0,100,0,0
197493,-83.3333333333333,4,1,0,100,0,0
197863,-86.9565217391304,4,1,0,100,0,0

[HitObjects]
256,192,3793,5,0,0:0:0:0:
256,192,3885,1,0,0:0:0:0:
256,192,3978,1,0,0:0:0:0:
256,192,4070,1,0,0:0:0:0:
256,192,4255,1,0,0:0:0:0:
256,192,4348,1,0,0:0:0:0:
256,192,4533,1,0,0:0:0:0:
256,192,4626,1,0,0:0:0:0:
256,192,4718,1,0,0:0:0:0:
256,192,4811,1,0,0:0:0:0:
256,192,4996,1,0,0:0:0:0:
256,192,5089,1,0,0:0:0:0:
256,192,5274,1,0,0:0:0:0:
256,192,5367,1,0,0:0:0:0:
256,192,5459,1,0,0:0:0:0:
256,192,5552,1,0,0:0:0:0:
256,192,5737,1,0,0:0:0:0:
256,192,5830,1,0,0:0:0:0:
256,192,6015,1,0,0:0:0:0:
256,192,6107,1,0,0:0:0:0:
256,192,6200,1,0,0:0:0:0:
256,192,6293,1,0,0:0:0:0:
256,192,6478,1,0,0:0:0:0:
256,192,6570,1,0,0:0:0:0:
256,192,6755,1,12,0:0:0:0:
256,192,7126,1,0,0:0:0:0:
256,192,7218,1,8,0:0:0:0:
256,192,7311,1,8,0:0:0:0:
256,192,7404,1,8,0:0:0:0:
256,192,7496,1,0,0:0:0:0:
256,192,7589,1,0,0:0:0:0:
256,192,7681,1,8,0:0:0:0:
256,192,7774,1,8,0:0:0:0:
256,192,7867,1,0,0:0:0:0:
256,192,7959,1,8,0:0:0:0:
256,192,8052,1,8,0:0:0:0:
256,192,8237,1,0,0:0:0:0:
256,192,8330,1,0,0:0:0:0:
256,192,8422,1,8,0:0:0:0:
256,192,8515,1,8,0:0:0:0:
256,192,8700,1,8,0:0:0:0:
256,192,8793,1,8,0:0:0:0:
256,192,8978,1,12,0:0:0:0:
256,192,9163,1,0,0:0:0:0:
256,192,9255,1,8,0:0:0:0:
256,192,9348,1,0,0:0:0:0:
256,192,9533,1,0,0:0:0:0:
256,192,9718,1,12,0:0:0:0:
256,192,9904,1,0,0:0:0:0:
256,192,9996,1,0,0:0:0:0:
256,192,10089,1,0,0:0:0:0:
256,192,10181,1,8,0:0:0:0:
256,192,10274,1,8,0:0:0:0:
256,192,10367,1,0,0:0:0:0:
256,192,10459,1,8,0:0:0:0:
256,192,10737,1,8,0:0:0:0:
256,192,10830,1,0,0:0:0:0:
256,192,10922,1,0,0:0:0:0:
256,192,11015,1,8,0:0:0:0:
256,192,11107,1,8,0:0:0:0:
256,192,11200,1,0,0:0:0:0:
256,192,11293,1,0,0:0:0:0:
256,192,11385,1,0,0:0:0:0:
256,192,11478,1,8,0:0:0:0:
256,192,11570,1,0,0:0:0:0:
256,192,11663,1,0,0:0:0:0:
256,192,11755,1,8,0:0:0:0:
256,192,11848,1,0,0:0:0:0:
256,192,11941,1,8,0:0:0:0:
256,192,12311,1,12,0:0:0:0:
256,192,12681,1,12,0:0:0:0:
256,192,13052,1,0,0:0:0:0:
256,192,13144,1,0,0:0:0:0:
256,192,13237,1,8,0:0:0:0:
256,192,13330,1,0,0:0:0:0:
256,192,13422,1,8,0:0:0:0:
256,192,13700,1,8,0:0:0:0:
256,192,13793,1,0,0:0:0:0:
256,192,13978,1,8,0:0:0:0:
256,192,14163,1,0,0:0:0:0:
256,192,14255,1,0,0:0:0:0:
256,192,14348,1,8,0:0:0:0:
256,192,14441,1,8,0:0:0:0:
256,192,14533,1,0,0:0:0:0:
256,192,14626,1,8,0:0:0:0:
256,192,14718,1,0,0:0:0:0:
256,192,14811,1,0,0:0:0:0:
256,192,14904,1,8,0:0:0:0:
256,192,14996,1,8,0:0:0:0:
256,192,15181,1,8,0:0:0:0:
256,192,15367,1,8,0:0:0:0:
256,192,15459,1,8,0:0:0:0:
256,192,15644,1,4,0:0:0:0:
256,192,16015,1,0,0:0:0:0:
256,192,16107,1,0,0:0:0:0:
256,192,16200,1,8,0:0:0:0:
256,192,16293,1,8,0:0:0:0:
256,192,16385,1,0,0:0:0:0:
256,192,16570,1,8,0:0:0:0:
256,192,16755,1,0,0:0:0:0:
256,192,16941,1,8,0:0:0:0:
256,192,17033,1,8,0:0:0:0:
256,192,17126,1,0,0:0:0:0:
256,192,17311,1,8,0:0:0:0:
256,192,17496,1,0,0:0:0:0:
256,192,17589,1,8,0:0:0:0:
256,192,17681,1,0,0:0:0:0:
256,192,17774,1,8,0:0:0:0:
256,192,17867,1,0,0:0:0:0:
256,192,18052,1,0,0:0:0:0:
256,192,18237,1,12,0:0:0:0:
256,192,18607,1,12,0:0:0:0:
256,192,18793,1,0,0:0:0:0:
256,192,18885,1,0,0:0:0:0:
256,192,18978,1,8,0:0:0:0:
256,192,19070,1,8,0:0:0:0:
256,192,19163,1,0,0:0:0:0:
256,192,19255,1,0,0:0:0:0:
256,192,19348,1,8,0:0:0:0:
256,192,19441,1,0,0:0:0:0:
256,192,19533,1,8,0:0:0:0:
256,192,19626,1,8,0:0:0:0:
256,192,19718,1,0,0:0:0:0:
256,192,19811,1,8,0:0:0:0:
256,192,19904,1,0,0:0:0:0:
256,192,19996,1,0,0:0:0:0:
256,192,20089,1,8,0:0:0:0:
256,192,20181,1,0,0:0:0:0:
256,192,20274,1,0,0:0:0:0:
256,192,20367,1,0,0:0:0:0:
256,192,20459,1,8,0:0:0:0:
256,192,20552,1,0,0:0:0:0:
256,192,20644,1,0,0:0:0:0:
256,192,20830,1,0,0:0:0:0:
256,192,20922,1,8,0:0:0:0:
256,192,21107,1,8,0:0:0:0:
256,192,21293,1,0,0:0:0:0:
256,192,21385,1,8,0:0:0:0:
256,192,21570,1,4,0:0:0:0:
256,192,21755,1,0,0:0:0:0:
256,192,21941,1,8,0:0:0:0:
256,192,22126,1,8,0:0:0:0:
256,192,22218,1,8,0:0:0:0:
256,192,22311,1,0,0:0:0:0:
256,192,22496,1,0,0:0:0:0:
256,192,22681,1,8,0:0:0:0:
256,192,22867,1,0,0:0:0:0:
256,192,22959,1,8,0:0:0:0:
256,192,23052,1,0,0:0:0:0:
256,192,23237,1,0,0:0:0:0:
256,192,23422,1,8,0:0:0:0:
256,192,23607,1,0,0:0:0:0:
256,192,23700,1,0,0:0:0:0:
256,192,23793,1,0,0:0:0:0:
256,192,23978,1,0,0:0:0:0:
256,192,24163,1,8,0:0:0:0:
256,192,24348,1,0,0:0:0:0:
256,192,24533,1,0,0:0:0:0:
256,192,24718,1,0,0:0:0:0:
256,192,24904,1,8,0:0:0:0:
256,192,25089,1,0,0:0:0:0:
256,192,25181,1,8,0:0:0:0:
256,192,25274,1,0,0:0:0:0:
256,192,25459,1,0,0:0:0:0:
256,192,25644,1,8,0:0:0:0:
256,192,25830,1,8,0:0:0:0:
256,192,25922,1,8,0:0:0:0:
256,192,26015,1,4,0:0:0:0:
256,192,26293,1,4,0:0:0:0:
256,192,26570,1,4,0:0:0:0:
256,192,26755,1,8,0:0:0:0:
256,192,26941,1,0,0:0:0:0:
256,192,27126,1,8,0:0:0:0:
256,192,27311,1,8,0:0:0:0:
256,192,27404,1,8,0:0:0:0:
256,192,27496,1,4,0:0:0:0:
256,192,27681,1,8,0:0:0:0:
256,192,27867,1,0,0:0:0:0:
256,192,27959,1,0,0:0:0:0:
256,192,28052,1,8,0:0:0:0:
256,192,28237,1,0,0:0:0:0:
256,192,28422,1,8,0:0:0:0:
256,192,28515,1,8,0:0:0:0:
256,192,28607,1,0,0:0:0:0:
256,192,28793,1,8,0:0:0:0:
256,192,28978,1,0,0:0:0:0:
256,192,29163,1,8,0:0:0:0:
256,192,29255,1,8,0:0:0:0:
256,192,29348,1,8,0:0:0:0:
256,192,29533,1,8,0:0:0:0:
256,192,29718,1,0,0:0:0:0:
256,192,29904,1,8,0:0:0:0:
256,192,29996,1,0,0:0:0:0:
256,192,30089,1,8,0:0:0:0:
256,192,30274,1,8,0:0:0:0:
256,192,30459,1,0,0:0:0:0:
256,192,30644,1,0,0:0:0:0:
256,192,30737,1,0,0:0:0:0:
256,192,30830,1,8,0:0:0:0:
256,192,31015,1,8,0:0:0:0:
256,192,31200,1,0,0:0:0:0:
256,192,31385,1,0,0:0:0:0:
256,192,31478,1,0,0:0:0:0:
256,192,31570,1,8,0:0:0:0:
256,192,31755,1,8,0:0:0:0:
256,192,31941,1,4,0:0:0:0:
256,192,32218,1,4,0:0:0:0:
256,192,32496,1,4,0:0:0:0:
256,192,32681,1,8,0:0:0:0:
256,192,32867,1,0,0:0:0:0:
256,192,33052,1,8,0:0:0:0:
256,192,33237,1,8,0:0:0:0:
256,192,33330,1,8,0:0:0:0:
256,192,33422,1,4,0:0:0:0:
256,192,33607,1,0,0:0:0:0:
256,192,33793,1,8,0:0:0:0:
256,192,34533,1,8,0:0:0:0:
256,192,35274,1,8,0:0:0:0:
256,192,36015,1,8,0:0:0:0:
256,192,36200,1,0,0:0:0:0:
256,192,36385,1,0,0:0:0:0:
256,192,36570,1,0,0:0:0:0:
256,192,36755,1,8,0:0:0:0:
256,192,37496,1,8,0:0:0:0:
256,192,38237,1,8,0:0:0:0:
256,192,38978,1,8,0:0:0:0:
256,192,39163,1,0,0:0:0:0:
256,192,39348,1,0,0:0:0:0:
256,192,39533,1,0,0:0:0:0:
256,192,39718,1,8,0:0:0:0:
256,192,40459,1,8,0:0:0:0:
256,192,41200,1,8,0:0:0:0:
256,192,41941,1,8,0:0:0:0:
256,192,42126,1,0,0:0:0:0:
256,192,42311,1,0,0:0:0:0:
256,192,42496,1,0,0:0:0:0:
256,192,42681,1,8,0:0:0:0:
256,192,43422,1,8,0:0:0:0:
256,192,43607,1,0,0:0:0:0:
256,192,43793,1,0,0:0:0:0:
256,192,43978,1,0,0:0:0:0:
256,192,44163,1,8,0:0:0:0:
256,192,44348,1,0,0:0:0:0:
256,192,44533,1,0,0:0:0:0:
256,192,44718,1,0,0:0:0:0:
256,192,44811,1,0,0:0:0:0:
256,192,44904,1,8,0:0:0:0:
256,192,45089,1,8,0:0:0:0:
256,192,45181,1,8,0:0:0:0:
256,192,45274,1,4,0:0:0:0:
256,192,45459,1,0,0:0:0:0:
256,192,45552,1,0,0:0:0:0:
256,192,45644,1,8,0:0:0:0:
256,192,45830,1,8,0:0:0:0:
256,192,45922,1,8,0:0:0:0:
256,192,46015,1,0,0:0:0:0:
256,192,46107,1,8,0:0:0:0:
256,192,46200,1,0,0:0:0:0:
256,192,46293,1,0,0:0:0:0:
256,192,46385,1,8,0:0:0:0:
256,192,46478,1,8,0:0:0:0:
256,192,46570,1,0,0:0:0:0:
256,192,46663,1,8,0:0:0:0:
256,192,46755,1,0,0:0:0:0:
256,192,46941,1,0,0:0:0:0:
256,192,47033,1,0,0:0:0:0:
256,192,47126,1,8,0:0:0:0:
256,192,47311,1,8,0:0:0:0:
256,192,47404,1,8,0:0:0:0:
256,192,47496,1,0,0:0:0:0:
256,192,47589,1,0,0:0:0:0:
256,192,47681,1,8,0:0:0:0:
256,192,47774,1,0,0:0:0:0:
256,192,47867,1,8,0:0:0:0:
256,192,47959,1,0,0:0:0:0:
256,192,48052,1,0,0:0:0:0:
256,192,48144,1,0,0:0:0:0:
256,192,48237,1,8,0:0:0:0:
256,192,48422,1,8,0:0:0:0:
256,192,48515,1,0,0:0:0:0:
256,192,48607,1,8,0:0:0:0:
256,192,48793,1,0,0:0:0:0:
256,192,48885,1,8,0:0:0:0:
256,192,48978,1,0,0:0:0:0:
256,192,49070,1,8,0:0:0:0:
256,192,49163,1,0,0:0:0:0:
256,192,49255,1,0,0:0:0:0:
256,192,49348,1,8,0:0:0:0:
256,192,49441,1,0,0:0:0:0:
256,192,49533,1,8,0:0:0:0:
256,192,49626,1,8,0:0:0:0:
256,192,49718,1,0,0:0:0:0:
256,192,49904,1,0,0:0:0:0:
256,192,49996,1,0,0:0:0:0:
256,192,50089,1,8,0:0:0:0:
256,192,50274,1,0,0:0:0:0:
256,192,50367,1,0,0:0:0:0:
256,192,50459,1,8,0:0:0:0:
256,192,50552,1,0,0:0:0:0:
256,192,50644,1,8,0:0:0:0:
256,192,50737,1,0,0:0:0:0:
256,192,50830,1,8,0:0:0:0:
256,192,50922,1,0,0:0:0:0:
256,192,51015,1,0,0:0:0:0:
256,192,51107,1,0,0:0:0:0:
256,192,51200,1,12,0:0:0:0:
256,192,51385,1,0,0:0:0:0:
256,192,51478,1,0,0:0:0:0:
256,192,51570,1,8,0:0:0:0:
256,192,51755,1,0,0:0:0:0:
256,192,51848,1,0,0:0:0:0:
256,192,51941,1,0,0:0:0:0:
256,192,52033,1,8,0:0:0:0:
256,192,52126,1,0,0:0:0:0:
256,192,52218,1,0,0:0:0:0:
256,192,52311,1,8,0:0:0:0:
256,192,52404,1,0,0:0:0:0:
256,192,52496,1,8,0:0:0:0:
256,192,52589,1,8,0:0:0:0:
256,192,52681,1,0,0:0:0:0:
256,192,52867,1,0,0:0:0:0:
256,192,52959,1,0,0:0:0:0:
256,192,53052,1,8,0:0:0:0:
256,192,53144,1,8,0:0:0:0:
256,192,53237,1,8,0:0:0:0:
256,192,53330,1,0,0:0:0:0:
256,192,53422,1,8,0:0:0:0:
256,192,53607,1,8,0:0:0:0:
256,192,53700,1,0,0:0:0:0:
256,192,53793,1,8,0:0:0:0:
256,192,53978,1,0,0:0:0:0:
256,192,54070,1,0,0:0:0:0:
256,192,54163,1,12,0:0:0:0:
256,192,54348,1,0,0:0:0:0:
256,192,54718,1,0,0:0:0:0:
256,192,54811,1,0,0:0:0:0:
256,192,54904,1,12,0:0:0:0:
256,192,55089,1,0,0:0:0:0:
256,192,55274,1,8,0:0:0:0:
256,192,55459,1,0,0:0:0:0:
256,192,55552,1,0,0:0:0:0:
256,192,55644,1,12,0:0:0:0:
256,192,55830,1,0,0:0:0:0:
256,192,55922,1,0,0:0:0:0:
256,192,56015,1,12,0:0:0:0:
256,192,56200,1,0,0:0:0:0:
256,192,56385,1,0,0:0:0:0:
256,192,56478,1,0,0:0:0:0:
256,192,56570,1,8,0:0:0:0:
256,192,56663,1,8,0:0:0:0:
256,192,56755,1,0,0:0:0:0:
256,192,56848,1,0,0:0:0:0:
256,192,56941,1,8,0:0:0:0:
256,192,57033,1,0,0:0:0:0:
256,192,57126,1,12,0:0:0:0:
256,192,57311,1,0,0:0:0:0:
256,192,57404,1,8,0:0:0:0:
256,192,57589,1,0,0:0:0:0:
256,192,57681,1,8,0:0:0:0:
256,192,57774,1,0,0:0:0:0:
256,192,57867,1,8,0:0:0:0:
256,192,58052,1,0,0:0:0:0:
256,192,58237,1,8,0:0:0:0:
256,192,58607,1,8,0:0:0:0:
256,192,58793,1,0,0:0:0:0:
256,192,58885,1,8,0:0:0:0:
256,192,59070,1,8,0:0:0:0:
256,192,59163,1,0,0:0:0:0:
256,192,59255,1,0,0:0:0:0:
256,192,59348,1,8,0:0:0:0:
256,192,59533,1,0,0:0:0:0:
256,192,59626,1,0,0:0:0:0:
256,192,59718,1,8,0:0:0:0:
256,192,60089,1,8,0:0:0:0:
256,192,60274,1,0,0:0:0:0:
256,192,60367,1,8,0:0:0:0:
256,192,60552,1,0,0:0:0:0:
256,192,60644,1,8,0:0:0:0:
256,192,60737,1,0,0:0:0:0:
256,192,60830,1,8,0:0:0:0:
256,192,61015,1,0,0:0:0:0:
256,192,61107,1,0,0:0:0:0:
256,192,61200,1,8,0:0:0:0:
256,192,61293,1,8,0:0:0:0:
256,192,61385,1,8,0:0:0:0:
256,192,61478,1,8,0:0:0:0:
256,192,61570,1,4,0:0:0:0:
256,192,61848,1,4,0:0:0:0:
256,192,62126,1,4,0:0:0:0:
256,192,62311,1,8,0:0:0:0:
256,192,62496,1,0,0:0:0:0:
256,192,62589,1,0,0:0:0:0:
256,192,62681,1,12,0:0:0:0:
256,192,62867,1,8,0:0:0:0:
256,192,62959,1,8,0:0:0:0:
256,192,63052,1,4,0:0:0:0:
256,192,63237,1,0,0:1:0:0:
256,192,63330,1,8,0:1:0:0:
256,192,63515,1,8,0:1:0:0:
256,192,63607,1,8,0:1:0:0:
256,192,63700,1,0,0:1:0:0:
256,192,63793,1,8,0:1:0:0:
256,192,63978,1,0,0:1:0:0:
256,192,64163,1,8,0:1:0:0:
256,192,64533,1,8,0:1:0:0:
256,192,64718,1,0,0:1:0:0:
256,192,64811,1,8,0:1:0:0:
256,192,64996,1,0,0:1:0:0:
256,192,65089,1,8,0:1:0:0:
256,192,65181,1,8,0:1:0:0:
256,192,65274,1,0,0:1:0:0:
256,192,65459,1,0,0:1:0:0:
256,192,65644,1,8,0:1:0:0:
256,192,66015,1,0,0:1:0:0:
256,192,66200,1,8,0:0:0:0:
256,192,66293,1,8,0:0:0:0:
256,192,66570,1,8,0:0:0:0:
256,192,66755,1,0,0:0:0:0:
256,192,66941,1,8,0:0:0:0:
256,192,67033,1,8,0:0:0:0:
256,192,67126,1,0,0:0:0:0:
256,192,67218,1,8,0:0:0:0:
256,192,67311,1,8,0:0:0:0:
256,192,67404,1,8,0:0:0:0:
256,192,67496,1,4,0:0:0:0:
256,192,67867,1,4,0:0:0:0:
256,192,68237,1,4,0:0:0:0:
256,192,68607,1,12,0:0:0:0:
256,192,68793,1,8,0:0:0:0:
256,192,68885,1,8,0:0:0:0:
256,192,68978,1,0,0:0:0:0:
256,192,69163,1,0,0:0:0:0:
256,192,69255,1,8,0:0:0:0:
256,192,69441,1,8,0:0:0:0:
256,192,69533,1,0,0:0:0:0:
256,192,69626,1,0,0:0:0:0:
256,192,69718,1,8,0:0:0:0:
256,192,69904,1,0,0:0:0:0:
256,192,69996,1,0,0:0:0:0:
256,192,70089,1,8,0:0:0:0:
256,192,70274,1,0,0:0:0:0:
256,192,70459,1,8,0:0:0:0:
256,192,70644,1,0,0:0:0:0:
256,192,70737,1,8,0:0:0:0:
256,192,70922,1,0,0:0:0:0:
256,192,71015,1,8,0:0:0:0:
256,192,71107,1,8,0:0:0:0:
256,192,71200,1,0,0:0:0:0:
256,192,71385,1,0,0:0:0:0:
256,192,71570,1,8,0:0:0:0:
256,192,71755,1,0,0:0:0:0:
256,192,71941,1,0,0:0:0:0:
256,192,72126,1,0,0:0:0:0:
256,192,72218,1,8,0:0:0:0:
256,192,72404,1,0,0:0:0:0:
256,192,72496,1,8,0:0:0:0:
256,192,72589,1,0,0:0:0:0:
256,192,72681,1,0,0:0:0:0:
256,192,72867,1,0,0:0:0:0:
256,192,73052,1,8,0:0:0:0:
256,192,73237,1,8,0:0:0:0:
256,192,73330,1,8,0:0:0:0:
256,192,73422,1,4,0:0:0:0:
256,192,73700,1,4,0:0:0:0:
256,192,73978,1,4,0:0:0:0:
256,192,74163,1,12,0:0:0:0:
256,192,74348,1,0,0:0:0:0:
256,192,74533,1,12,0:0:0:0:
256,192,74718,1,8,0:0:0:0:
256,192,74811,1,8,0:0:0:0:
256,192,74904,1,4,0:0:0:0:
256,192,75089,1,8,0:0:0:0:
256,192,75181,1,0,0:0:0:0:
256,192,75367,1,8,0:0:0:0:
256,192,75459,1,0,0:0:0:0:
256,192,75552,1,0,0:0:0:0:
256,192,75644,1,8,0:0:0:0:
256,192,75830,1,0,0:0:0:0:
256,192,76015,1,8,0:0:0:0:
256,192,76200,1,0,0:0:0:0:
256,192,76385,1,0,0:0:0:0:
256,192,76570,1,0,0:0:0:0:
256,192,76663,1,8,0:0:0:0:
256,192,76848,1,8,0:0:0:0:
256,192,76941,1,0,0:0:0:0:
256,192,77033,1,0,0:0:0:0:
256,192,77126,1,8,0:0:0:0:
256,192,77311,1,0,0:0:0:0:
256,192,77496,1,8,0:0:0:0:
256,192,77681,1,0,0:0:0:0:
256,192,77774,1,0,0:0:0:0:
256,192,77867,1,12,0:0:0:0:
256,192,78237,1,0,0:0:0:0:
256,192,78330,1,0,0:0:0:0:
256,192,78422,1,8,0:0:0:0:
256,192,78515,1,8,0:0:0:0:
256,192,78607,1,0,0:0:0:0:
256,192,78700,1,8,0:0:0:0:
256,192,78793,1,8,0:0:0:0:
256,192,78885,1,8,0:0:0:0:
256,192,78978,1,0,0:0:0:0:
256,192,79070,1,0,0:0:0:0:
256,192,79163,1,8,0:0:0:0:
256,192,79255,1,8,0:0:0:0:
256,192,79348,1,4,0:0:0:0:
256,192,79533,1,8,0:0:0:0:
256,192,79626,1,8,0:0:0:0:
256,192,79718,1,0,0:0:0:0:
256,192,79811,1,8,0:0:0:0:
256,192,79904,1,8,0:0:0:0:
256,192,79996,1,8,0:0:0:0:
256,192,80089,1,4,0:0:0:0:
256,192,80274,1,8,0:0:0:0:
256,192,80367,1,8,0:0:0:0:
256,192,80459,1,8,0:0:0:0:
256,192,80552,1,0,0:0:0:0:
256,192,80644,1,0,0:0:0:0:
256,192,80737,1,0,0:0:0:0:
256,192,80830,1,12,0:0:0:0:
256,192,81015,1,0,0:0:0:0:
256,192,81107,1,0,0:0:0:0:
256,192,81200,1,0,0:0:0:0:
256,192,81385,1,8,0:0:0:0:
256,192,81570,1,0,0:0:0:0:
256,192,81755,1,0,0:0:0:0:
256,192,81848,1,0,0:0:0:0:
256,192,81941,1,8,0:0:0:0:
256,192,82126,1,8,0:0:0:0:
256,192,82311,1,0,0:0:0:0:
256,192,82496,1,8,0:0:0:0:
256,192,82589,1,8,0:0:0:0:
256,192,82681,1,0,0:0:0:0:
256,192,82867,1,8,0:0:0:0:
256,192,83052,1,0,0:0:0:0:
256,192,83237,1,0,0:0:0:0:
256,192,83330,1,0,0:0:0:0:
256,192,83422,1,8,0:0:0:0:
256,192,83607,1,8,0:0:0:0:
256,192,83793,1,4,0:0:0:0:
256,192,83978,1,8,0:0:0:0:
256,192,84070,1,8,0:0:0:0:
256,192,84163,1,0,0:0:0:0:
256,192,84348,1,8,0:0:0:0:
256,192,84533,1,0,0:0:0:0:
256,192,84718,1,0,0:0:0:0:
256,192,84904,1,8,0:0:0:0:
256,192,85089,1,0,0:0:0:0:
256,192,85181,1,8,0:0:0:0:
256,192,85274,1,0,0:0:0:0:
256,192,85459,1,0,0:0:0:0:
256,192,85644,1,8,0:0:0:0:
256,192,85830,1,8,0:0:0:0:
256,192,85922,1,8,0:0:0:0:
256,192,86015,1,0,0:0:0:0:
256,192,86200,1,8,0:0:0:0:
256,192,86293,1,8,0:0:0:0:
256,192,86385,1,0,0:0:0:0:
256,192,86478,1,0,0:0:0:0:
256,192,86570,1,8,0:0:0:0:
256,192,86663,1,8,0:0:0:0:
256,192,86755,1,4,0:0:0:0:
256,192,86941,1,0,0:0:0:0:
256,192,87126,1,8,0:0:0:0:
256,192,87311,1,0,0:0:0:0:
256,192,87681,1,0,0:0:0:0:
256,192,87867,1,8,0:0:0:0:
256,192,88052,1,8,0:0:0:0:
256,192,88144,1,8,0:0:0:0:
256,192,88237,1,0,0:0:0:0:
256,192,88422,1,0,0:0:0:0:
256,192,88515,1,0,0:0:0:0:
256,192,88607,1,8,0:0:0:0:
256,192,88793,1,0,0:0:0:0:
256,192,89163,1,0,0:0:0:0:
256,192,89348,1,8,0:0:0:0:
256,192,89533,1,8,0:0:0:0:
256,192,89718,1,4,0:0:0:0:
256,192,89904,1,8,0:0:0:0:
256,192,90089,1,8,0:0:0:0:
256,192,90274,1,0,0:0:0:0:
256,192,90644,1,0,0:0:0:0:
256,192,90830,1,8,0:0:0:0:
256,192,91015,1,0,0:0:0:0:
256,192,91385,1,12,0:0:0:0:
256,192,91570,1,12,0:0:0:0:
256,192,91755,1,0,0:0:0:0:
256,192,91848,1,0,0:0:0:0:
256,192,91941,1,0,0:0:0:0:
256,192,92126,1,8,0:0:0:0:
256,192,92218,1,8,0:0:0:0:
256,192,92311,1,0,0:0:0:0:
256,192,92496,1,8,0:0:0:0:
256,192,92589,1,8,0:0:0:0:
256,192,92681,1,4,0:0:0:0:
256,192,92867,1,0,0:0:0:0:
256,192,93052,1,8,0:0:0:0:
256,192,93237,1,0,0:0:0:0:
256,192,93607,1,0,0:0:0:0:
256,192,93793,1,8,0:0:0:0:
256,192,93978,1,0,0:0:0:0:
256,192,94070,1,0,0:0:0:0:
256,192,94163,1,0,0:0:0:0:
256,192,94348,1,0,0:0:0:0:
256,192,94533,1,8,0:0:0:0:
256,192,94718,1,0,0:0:0:0:
256,192,95089,1,0,0:0:0:0:
256,192,95274,1,8,0:0:0:0:
256,192,95459,1,8,0:0:0:0:
256,192,95552,1,8,0:0:0:0:
256,192,95644,1,4,0:0:0:0:
256,192,95830,1,0,0:0:0:0:
256,192,96015,1,8,0:0:0:0:
256,192,96200,1,0,0:0:0:0:
256,192,96570,1,0,0:0:0:0:
256,192,96663,1,0,0:0:0:0:
256,192,96755,1,8,0:0:0:0:
256,192,96941,1,8,0:0:0:0:
256,192,97126,1,0,0:0:0:0:
256,192,97311,1,0,0:0:0:0:
256,192,97496,1,8,0:0:0:0:
256,192,97681,1,0,0:0:0:0:
256,192,97774,1,8,0:0:0:0:
256,192,97867,1,4,0:0:0:0:
256,192,98052,1,8,0:0:0:0:
256,192,98144,1,8,0:0:0:0:
256,192,98237,1,8,0:0:0:0:
256,192,98422,1,8,0:0:0:0:
256,192,98515,1,8,0:0:0:0:
256,192,98607,1,4,0:0:0:0:
256,192,98793,1,0,0:0:0:0:
256,192,98978,1,8,0:0:0:0:
256,192,99163,1,4,0:0:0:0:
256,192,99533,1,8,0:0:0:0:
256,192,99626,1,0,0:0:0:0:
256,192,99718,1,8,0:0:0:0:
256,192,99811,1,8,0:0:0:0:
256,192,99904,1,0,0:0:0:0:
256,192,99996,1,0,0:0:0:0:
256,192,100089,1,12,0:0:0:0:
256,192,100274,1,8,0:0:0:0:
256,192,100367,1,8,0:0:0:0:
256,192,100459,1,0,0:0:0:0:
256,192,100552,1,8,0:0:0:0:
256,192,100644,1,4,0:0:0:0:
256,192,101015,1,0,0:0:0:0:
256,192,101107,1,0,0:0:0:0:
256,192,101200,1,8,0:0:0:0:
256,192,101293,1,0,0:0:0:0:
256,192,101385,1,8,0:0:0:0:
256,192,101478,1,8,0:0:0:0:
256,192,101570,1,4,0:0:0:0:
256,192,101755,1,8,0:0:0:0:
256,192,101848,1,8,0:0:0:0:
256,192,101941,1,8,0:0:0:0:
256,192,102033,1,8,0:0:0:0:
256,192,102126,1,4,0:0:0:0:
256,192,102496,1,4,0:0:0:0:
256,192,102681,1,12,0:0:0:0:
256,192,102867,1,12,0:0:0:0:
256,192,103237,1,0,0:0:0:0:
256,192,103330,1,0,0:0:0:0:
256,192,103422,1,0,0:0:0:0:
256,192,104163,1,4,0:0:0:0:
256,192,104533,1,4,0:0:0:0:
256,192,104718,1,8,0:0:0:0:
256,192,104811,1,8,0:0:0:0:
256,192,104904,1,4,0:0:0:0:
256,192,105089,1,8,0:0:0:0:
256,192,105181,1,8,0:0:0:0:
256,192,105274,1,4,0:0:0:0:
256,192,105459,1,0,0:0:0:0:
256,192,105552,1,0,0:0:0:0:
256,192,105644,1,12,0:0:0:0:
256,192,105830,1,8,0:0:0:0:
256,192,106015,1,0,0:0:0:0:
256,192,106200,1,0,0:0:0:0:
256,192,106385,1,8,0:0:0:0:
256,192,107126,1,8,0:0:0:0:
256,192,107866,1,8,0:0:0:0:
256,192,108607,1,8,0:0:0:0:
256,192,108792,1,0,0:0:0:0:
256,192,108977,1,0,0:0:0:0:
256,192,109163,1,0,0:0:0:0:
256,192,109348,1,8,0:0:0:0:
256,192,110089,1,8,0:0:0:0:
256,192,110829,1,8,0:0:0:0:
256,192,111385,1,0,0:0:0:0:
256,192,111570,1,8,0:0:0:0:
256,192,111755,1,0,0:0:0:0:
256,192,111940,1,0,0:0:0:0:
256,192,112126,1,0,0:0:0:0:
256,192,112311,1,8,0:0:0:0:
256,192,113052,1,8,0:0:0:0:
256,192,113792,1,8,0:0:0:0:
256,192,114533,1,8,0:0:0:0:
256,192,114718,1,0,0:0:0:0:
256,192,114903,1,0,0:0:0:0:
256,192,115089,1,0,0:0:0:0:
256,192,115274,1,8,0:0:0:0:
256,192,115829,1,0,0:0:0:0:
256,192,115922,1,0,0:0:0:0:
256,192,116015,1,8,0:0:0:0:
256,192,116385,1,0,0:0:0:0:
256,192,116570,1,8,0:0:0:0:
256,192,116663,1,8,0:0:0:0:
256,192,116755,1,0,0:0:0:0:
256,192,116848,1,0,0:0:0:0:
256,192,116940,1,8,0:0:0:0:
256,192,117033,1,8,0:0:0:0:
256,192,117126,1,0,0:0:0:0:
256,192,117218,1,8,0:0:0:0:
256,192,117311,1,8,0:0:0:0:
256,192,117403,1,8,0:0:0:0:
256,192,117496,1,0,0:0:0:0:
256,192,117589,1,0,0:0:0:0:
256,192,117681,1,8,0:0:0:0:
256,192,117774,1,8,0:0:0:0:
256,192,117866,1,0,0:0:0:0:
256,192,118052,1,0,0:0:0:0:
256,192,118144,1,0,0:0:0:0:
256,192,118237,1,8,0:0:0:0:
256,192,118422,1,0,0:0:0:0:
256,192,118792,1,0,0:0:0:0:
256,192,118977,1,8,0:0:0:0:
256,192,119163,1,8,0:0:0:0:
256,192,119255,1,8,0:0:0:0:
256,192,119348,1,0,0:0:0:0:
256,192,119533,1,0,0:0:0:0:
256,192,119718,1,8,0:0:0:0:
256,192,119903,1,0,0:0:0:0:
256,192,119996,1,8,0:0:0:0:
256,192,120089,1,0,0:0:0:0:
256,192,120274,1,0,0:0:0:0:
256,192,120459,1,8,0:0:0:0:
256,192,120829,1,4,0:0:0:0:
256,192,121015,1,0,0:0:0:0:
256,192,121200,1,8,0:0:0:0:
256,192,121385,1,0,0:0:0:0:
256,192,121477,1,0,0:0:0:0:
256,192,121570,1,0,0:0:0:0:
256,192,121755,1,0,0:0:0:0:
256,192,121940,1,8,0:0:0:0:
256,192,122126,1,0,0:0:0:0:
256,192,122311,1,0,0:0:0:0:
256,192,122496,1,8,0:0:0:0:
256,192,122589,1,8,0:0:0:0:
256,192,122681,1,0,0:0:0:0:
256,192,122774,1,0,0:0:0:0:
256,192,122866,1,8,0:0:0:0:
256,192,122959,1,8,0:0:0:0:
256,192,123052,1,0,0:0:0:0:
256,192,123237,1,8,0:0:0:0:
256,192,123329,1,8,0:0:0:0:
256,192,123422,1,0,0:0:0:0:
256,192,123515,1,8,0:0:0:0:
256,192,123607,1,8,0:0:0:0:
256,192,123700,1,8,0:0:0:0:
256,192,123792,1,4,0:0:0:0:
256,192,123977,1,0,0:0:0:0:
256,192,124163,1,8,0:0:0:0:
256,192,124348,1,4,0:0:0:0:
256,192,124718,1,0,0:0:0:0:
256,192,124811,1,0,0:0:0:0:
256,192,124903,1,8,0:0:0:0:
256,192,124996,1,8,0:0:0:0:
256,192,125089,1,8,0:0:0:0:
256,192,125181,1,0,0:0:0:0:
256,192,125274,1,12,0:0:0:0:
256,192,125459,1,0,0:0:0:0:
256,192,125644,1,0,0:0:0:0:
256,192,125829,1,12,0:0:0:0:
256,192,126200,1,8,0:0:0:0:
256,192,126292,1,8,0:0:0:0:
256,192,126385,1,8,0:0:0:0:
256,192,126477,1,8,0:0:0:0:
256,192,126570,1,0,0:0:0:0:
256,192,126663,1,0,0:0:0:0:
256,192,126755,1,12,0:0:0:0:
256,192,126940,1,0,0:0:0:0:
256,192,127126,1,12,0:0:0:0:
256,192,127311,1,0,0:0:0:0:
256,192,127496,1,12,0:0:0:0:
256,192,127681,1,0,0:0:0:0:
256,192,127866,1,0,0:0:0:0:
256,192,128237,1,0,0:0:0:0:
256,192,128792,1,0,0:0:0:0:
256,192,128885,1,0,0:0:0:0:
256,192,128977,1,8,0:0:0:0:
256,192,129348,1,0,0:0:0:0:
256,192,129440,1,0,0:0:0:0:
256,192,129533,1,0,0:0:0:0:
256,192,130088,1,0,0:0:0:0:
256,192,130181,1,0,0:0:0:0:
256,192,130274,1,0,0:0:0:0:
256,192,130459,1,8,0:0:0:0:
256,192,130644,1,0,0:0:0:0:
256,192,130737,1,0,0:0:0:0:
256,192,130922,1,0,0:0:0:0:
256,192,131014,1,0,0:0:0:0:
256,192,131199,1,8,0:0:0:0:
256,192,131755,1,0,0:0:0:0:
256,192,131848,1,0,0:0:0:0:
256,192,131940,1,8,0:0:0:0:
256,192,132311,1,0,0:0:0:0:
256,192,132403,1,0,0:0:0:0:
256,192,132496,1,0,0:0:0:0:
256,192,133051,1,0,0:0:0:0:
256,192,133144,1,0,0:0:0:0:
256,192,133422,1,12,0:0:0:0:
256,192,133607,1,8,0:0:0:0:
256,192,133699,1,8,0:0:0:0:
256,192,133885,1,8,0:0:0:0:
256,192,133977,1,8,0:0:0:0:
256,192,134162,1,4,0:0:0:0:
256,192,134718,1,0,0:0:0:0:
256,192,134811,1,0,0:0:0:0:
256,192,134903,1,8,0:0:0:0:
256,192,135274,1,0,0:0:0:0:
256,192,135335,1,0,0:0:0:0:
256,192,135397,1,0,0:0:0:0:
256,192,135459,1,0,0:0:0:0:
256,192,135520,1,0,0:0:0:0:
256,192,135582,1,0,0:0:0:0:
256,192,135644,1,8,0:0:0:0:
256,192,136014,1,0,0:0:0:0:
256,192,136076,1,0,0:0:0:0:
256,192,136138,1,0,0:0:0:0:
256,192,136199,1,0,0:0:0:0:
256,192,136385,1,8,0:0:0:0:
256,192,136570,1,0,0:0:0:0:
256,192,136662,1,0,0:0:0:0:
256,192,136755,1,0,0:0:0:0:
256,192,136848,1,0,0:0:0:0:
256,192,136940,1,0,0:0:0:0:
256,192,137125,1,12,0:0:0:0:
256,192,137681,1,0,0:0:0:0:
256,192,137743,1,0,0:0:0:0:
256,192,137804,1,0,0:0:0:0:
256,192,137866,1,8,0:0:0:0:
256,192,138237,1,0,0:0:0:0:
256,192,138298,1,0,0:0:0:0:
256,192,138360,1,0,0:0:0:0:
256,192,138422,1,0,0:0:0:0:
256,192,138977,1,0,0:0:0:0:
256,192,139039,1,0,0:0:0:0:
256,192,139101,1,0,0:0:0:0:
256,192,139162,1,0,0:0:0:0:
256,192,139348,1,8,0:0:0:0:
256,192,139533,1,0,0:0:0:0:
256,192,139718,1,0,0:0:0:0:
256,192,139903,1,0,0:0:0:0:
256,192,140088,1,12,0:0:0:0:
256,192,140274,1,0,0:0:0:0:
256,192,140644,1,0,0:0:0:0:
256,192,140737,1,0,0:0:0:0:
256,192,140829,1,12,0:0:0:0:
256,192,141385,1,0,0:0:0:0:
256,192,141477,1,0,0:0:0:0:
256,192,141570,1,12,0:0:0:0:
256,192,141755,1,0,0:0:0:0:
256,192,141940,1,8,0:0:0:0:
256,192,142125,1,8,0:0:0:0:
256,192,142218,1,8,0:0:0:0:
256,192,142311,1,8,0:0:0:0:
256,192,142496,1,8,0:0:0:0:
256,192,142681,1,8,0:0:0:0:
256,192,142866,1,8,0:0:0:0:
256,192,143051,1,4,0:0:0:0:
256,192,143236,1,8,0:0:0:0:
256,192,143328,1,0,0:0:0:0:
256,192,143606,1,0,0:0:0:0:
256,192,143791,1,0,0:0:0:0:
256,192,143976,1,0,0:0:0:0:
256,192,144162,1,8,0:0:0:0:
256,192,144532,1,0,0:0:0:0:
256,192,144717,1,8,0:0:0:0:
256,192,144810,1,0,0:0:0:0:
256,192,145088,1,0,0:0:0:0:
256,192,145273,1,8,0:0:0:0:
256,192,145458,1,0,0:0:0:0:
256,192,145643,1,12,0:0:0:0:
256,192,146013,1,0,0:0:0:0:
256,192,146199,1,8,0:0:0:0:
256,192,146291,1,0,0:0:0:0:
256,192,146569,1,0,0:0:0:0:
256,192,146754,1,8,0:0:0:0:
256,192,146939,1,0,0:0:0:0:
256,192,147125,1,8,0:0:0:0:
256,192,147310,1,8,0:0:0:0:
256,192,147495,1,0,0:0:0:0:
256,192,147588,1,8,0:0:0:0:
256,192,147680,1,8,0:0:0:0:
256,192,147773,1,0,0:0:0:0:
256,192,147865,1,0,0:0:0:0:
256,192,147958,1,0,0:0:0:0:
256,192,148051,1,12,0:0:0:0:
256,192,148236,1,0,0:0:0:0:
256,192,148328,1,8,0:0:0:0:
256,192,148421,1,8,0:0:0:0:
256,192,148606,1,0,0:0:0:0:
256,192,148791,1,8,0:0:0:0:
256,192,148884,1,8,0:0:0:0:
256,192,148976,1,4,0:0:0:0:
256,192,149162,1,8,0:1:0:0:
256,192,149254,1,0,0:1:0:0:
256,192,149532,1,0,0:1:0:0:
256,192,149717,1,8,0:1:0:0:
256,192,149902,1,0,0:1:0:0:
256,192,150088,1,8,0:1:0:0:
256,192,150458,1,0,0:1:0:0:
256,192,150643,1,0,0:1:0:0:
256,192,150736,1,8,0:1:0:0:
256,192,151013,1,8,0:1:0:0:
256,192,151199,1,0,0:1:0:0:
256,192,151384,1,0,0:1:0:0:
256,192,151569,1,8,0:1:0:0:
256,192,151662,1,8,0:0:0:0:
256,192,151754,1,8,0:0:0:0:
256,192,151847,1,8,0:0:0:0:
256,192,151939,1,4,0:0:0:0:
256,192,152125,1,0,0:0:0:0:
256,192,152217,1,8,0:0:0:0:
256,192,152495,1,8,0:0:0:0:
256,192,152680,1,0,0:0:0:0:
256,192,152865,1,0,0:0:0:0:
256,192,152958,1,0,0:0:0:0:
256,192,153051,1,8,0:0:0:0:
256,192,153236,1,8,0:0:0:0:
256,192,153421,1,4,0:0:0:0:
256,192,153791,1,4,0:0:0:0:
256,192,154162,1,4,0:0:0:0:
256,192,154347,1,0,0:0:0:0:
256,192,154439,1,0,0:0:0:0:
256,192,154532,1,8,0:0:0:0:
256,192,154717,1,8,0:0:0:0:
256,192,154810,1,8,0:0:0:0:
256,192,154902,1,4,0:0:0:0:
256,192,155088,1,0,0:0:0:0:
256,192,155180,1,8,0:0:0:0:
256,192,155365,1,0,0:0:0:0:
256,192,155458,1,8,0:0:0:0:
256,192,155551,1,0,0:0:0:0:
256,192,155643,1,8,0:0:0:0:
256,192,155828,1,0,0:0:0:0:
256,192,155921,1,0,0:0:0:0:
256,192,156013,1,8,0:0:0:0:
256,192,156199,1,0,0:0:0:0:
256,192,156384,1,8,0:0:0:0:
256,192,156569,1,0,0:0:0:0:
256,192,156662,1,8,0:0:0:0:
256,192,156847,1,0,0:0:0:0:
256,192,156939,1,8,0:0:0:0:
256,192,157032,1,8,0:0:0:0:
256,192,157125,1,0,0:0:0:0:
256,192,157310,1,0,0:0:0:0:
256,192,157495,1,8,0:0:0:0:
256,192,157680,1,0,0:0:0:0:
256,192,157865,1,0,0:0:0:0:
256,192,158051,1,0,0:0:0:0:
256,192,158143,1,8,0:0:0:0:
256,192,158328,1,0,0:0:0:0:
256,192,158421,1,8,0:0:0:0:
256,192,158513,1,0,0:0:0:0:
256,192,158606,1,0,0:0:0:0:
256,192,158791,1,0,0:0:0:0:
256,192,158976,1,8,0:0:0:0:
256,192,159162,1,8,0:0:0:0:
256,192,159254,1,8,0:0:0:0:
256,192,159347,1,4,0:0:0:0:
256,192,159625,1,4,0:0:0:0:
256,192,159902,1,4,0:0:0:0:
256,192,160088,1,12,0:0:0:0:
256,192,160273,1,0,0:0:0:0:
256,192,160458,1,12,0:0:0:0:
256,192,160643,1,8,0:0:0:0:
256,192,160736,1,8,0:0:0:0:
256,192,160828,1,4,0:0:0:0:
256,192,161013,1,0,0:0:0:0:
256,192,161106,1,8,0:0:0:0:
256,192,161291,1,8,0:0:0:0:
256,192,161384,1,0,0:0:0:0:
256,192,161476,1,0,0:0:0:0:
256,192,161569,1,8,0:0:0:0:
256,192,161754,1,0,0:0:0:0:
256,192,161939,1,8,0:0:0:0:
256,192,162125,1,0,0:0:0:0:
256,192,162310,1,0,0:0:0:0:
256,192,162495,1,0,0:0:0:0:
256,192,162588,1,8,0:0:0:0:
256,192,162773,1,8,0:0:0:0:
256,192,162865,1,0,0:0:0:0:
256,192,162958,1,0,0:0:0:0:
256,192,163051,1,8,0:0:0:0:
256,192,163236,1,0,0:0:0:0:
256,192,163421,1,8,0:0:0:0:
256,192,163606,1,0,0:0:0:0:
256,192,163699,1,0,0:0:0:0:
256,192,163791,1,12,0:0:0:0:
256,192,164162,1,0,0:0:0:0:
256,192,164254,1,0,0:0:0:0:
256,192,164347,1,8,0:0:0:0:
256,192,164439,1,8,0:0:0:0:
256,192,164532,1,0,0:0:0:0:
256,192,164625,1,8,0:0:0:0:
256,192,164717,1,8,0:0:0:0:
256,192,164810,1,8,0:0:0:0:
256,192,164902,1,0,0:0:0:0:
256,192,164995,1,0,0:0:0:0:
256,192,165088,1,8,0:0:0:0:
256,192,165180,1,8,0:0:0:0:
256,192,165273,1,4,0:0:0:0:
256,192,165458,1,8,0:0:0:0:
256,192,165551,1,8,0:0:0:0:
256,192,165643,1,0,0:0:0:0:
256,192,165736,1,8,0:0:0:0:
256,192,165828,1,8,0:0:0:0:
256,192,165921,1,8,0:0:0:0:
256,192,166013,1,4,0:0:0:0:
256,192,166199,1,8,0:0:0:0:
256,192,166291,1,8,0:0:0:0:
256,192,166384,1,8,0:0:0:0:
256,192,166476,1,0,0:0:0:0:
256,192,166569,1,0,0:0:0:0:
256,192,166662,1,0,0:0:0:0:
256,192,166754,1,12,0:0:0:0:
256,192,166939,1,0,0:0:0:0:
256,192,167032,1,0,0:0:0:0:
256,192,167125,1,0,0:0:0:0:
256,192,167310,1,8,0:0:0:0:
256,192,167495,1,0,0:0:0:0:
256,192,167680,1,0,0:0:0:0:
256,192,167773,1,0,0:0:0:0:
256,192,167865,1,8,0:0:0:0:
256,192,168051,1,8,0:0:0:0:
256,192,168236,1,0,0:0:0:0:
256,192,168421,1,8,0:0:0:0:
256,192,168513,1,8,0:0:0:0:
256,192,168606,1,0,0:0:0:0:
256,192,168791,1,8,0:0:0:0:
256,192,168976,1,0,0:0:0:0:
256,192,169162,1,0,0:0:0:0:
256,192,169254,1,0,0:0:0:0:
256,192,169347,1,8,0:0:0:0:
256,192,169532,1,8,0:0:0:0:
256,192,169717,1,4,0:0:0:0:
256,192,169902,1,8,0:0:0:0:
256,192,169995,1,8,0:0:0:0:
256,192,170088,1,0,0:0:0:0:
256,192,170273,1,8,0:0:0:0:
256,192,170458,1,0,0:0:0:0:
256,192,170643,1,0,0:0:0:0:
256,192,170828,1,8,0:0:0:0:
256,192,171013,1,0,0:0:0:0:
256,192,171106,1,8,0:0:0:0:
256,192,171199,1,0,0:0:0:0:
256,192,171384,1,0,0:0:0:0:
256,192,171569,1,8,0:0:0:0:
256,192,171754,1,8,0:0:0:0:
256,192,171847,1,8,0:0:0:0:
256,192,171939,1,0,0:0:0:0:
256,192,172125,1,8,0:0:0:0:
256,192,172217,1,8,0:0:0:0:
256,192,172310,1,0,0:0:0:0:
256,192,172402,1,0,0:0:0:0:
256,192,172495,1,8,0:0:0:0:
256,192,172588,1,8,0:0:0:0:
256,192,172680,1,4,0:0:0:0:
256,192,172865,1,0,0:0:0:0:
256,192,173051,1,8,0:0:0:0:
256,192,173236,1,0,0:0:0:0:
256,192,173606,1,0,0:0:0:0:
256,192,173791,1,8,0:0:0:0:
256,192,173976,1,8,0:0:0:0:
256,192,174069,1,8,0:0:0:0:
256,192,174162,1,0,0:0:0:0:
256,192,174347,1,0,0:0:0:0:
256,192,174439,1,0,0:0:0:0:
256,192,174532,1,8,0:0:0:0:
256,192,174717,1,0,0:0:0:0:
256,192,175088,1,0,0:0:0:0:
256,192,175273,1,8,0:0:0:0:
256,192,175458,1,8,0:0:0:0:
256,192,175643,1,4,0:0:0:0:
256,192,175828,1,8,0:0:0:0:
256,192,176013,1,8,0:0:0:0:
256,192,176199,1,0,0:0:0:0:
256,192,176569,1,0,0:0:0:0:
256,192,176754,1,8,0:0:0:0:
256,192,176939,1,0,0:0:0:0:
256,192,177310,1,12,0:0:0:0:
256,192,177495,1,12,0:0:0:0:
256,192,177680,1,0,0:0:0:0:
256,192,177773,1,0,0:0:0:0:
256,192,177865,1,0,0:0:0:0:
256,192,178051,1,8,0:0:0:0:
256,192,178143,1,8,0:0:0:0:
256,192,178236,1,0,0:0:0:0:
256,192,178421,1,8,0:0:0:0:
256,192,178513,1,8,0:0:0:0:
256,192,178606,1,4,0:0:0:0:
256,192,178791,1,0,0:0:0:0:
256,192,178976,1,8,0:0:0:0:
256,192,179162,1,0,0:0:0:0:
256,192,179532,1,0,0:0:0:0:
256,192,179717,1,8,0:0:0:0:
256,192,179902,1,0,0:0:0:0:
256,192,179995,1,0,0:0:0:0:
256,192,180088,1,0,0:0:0:0:
256,192,180273,1,0,0:0:0:0:
256,192,180458,1,8,0:0:0:0:
256,192,180643,1,0,0:0:0:0:
256,192,181013,1,0,0:0:0:0:
256,192,181199,1,8,0:0:0:0:
256,192,181384,1,8,0:0:0:0:
256,192,181476,1,8,0:0:0:0:
256,192,181569,1,4,0:0:0:0:
256,192,181754,1,0,0:0:0:0:
256,192,181939,1,8,0:0:0:0:
256,192,182125,1,0,0:0:0:0:
256,192,182495,1,0,0:0:0:0:
256,192,182680,1,8,0:0:0:0:
256,192,182865,1,0,0:0:0:0:
256,192,182958,1,0,0:0:0:0:
256,192,183051,1,12,0:0:0:0:
256,192,183236,1,0,0:0:0:0:
256,192,183328,1,12,0:0:0:0:
256,192,183513,1,0,0:0:0:0:
256,192,183606,1,8,0:0:0:0:
256,192,183699,1,0,0:0:0:0:
256,192,183791,1,8,0:0:0:0:
256,192,183976,1,0,0:0:0:0:
256,192,184069,1,0,0:0:0:0:
256,192,184162,1,0,0:0:0:0:
256,192,184347,1,0,0:0:0:0:
256,192,184439,1,0,0:0:0:0:
256,192,184532,1,12,0:0:0:0:
256,192,184717,1,12,0:0:0:0:
256,192,184902,1,0,0:0:0:0:
256,192,185088,1,4,0:0:0:0:
256,192,185458,1,0,0:0:0:0:
256,192,185551,1,0,0:0:0:0:
256,192,185643,1,8,0:0:0:0:
256,192,185828,1,0,0:0:0:0:
256,192,185921,1,0,0:0:0:0:
256,192,186013,1,8,0:0:0:0:
256,192,186075,1,8,0:0:0:0:
256,192,186137,1,8,0:0:0:0:
256,192,186199,1,0,0:0:0:0:
256,192,186291,1,0,0:0:0:0:
256,192,186384,1,8,0:0:0:0:
256,192,186476,1,8,0:0:0:0:
256,192,186569,1,0,0:0:0:0:
256,192,186662,1,0,0:0:0:0:
256,192,186754,1,8,0:0:0:0:
256,192,186847,1,8,0:0:0:0:
256,192,186939,1,8,0:0:0:0:
256,192,187032,1,0,0:0:0:0:
256,192,187125,1,8,0:0:0:0:
256,192,187217,1,8,0:0:0:0:
256,192,187310,1,0,0:0:0:0:
256,192,187402,1,0,0:0:0:0:
256,192,187495,1,12,0:0:0:0:
256,192,188236,1,12,0:0:0:0:
256,192,188606,1,0,0:0:0:0:
256,192,188791,1,0,0:0:0:0:
256,192,188976,1,12,0:0:0:0:
256,192,189346,1,4,0:0:0:0:
256,192,189716,1,4,0:0:0:0:
256,192,190087,1,4,0:0:0:0:
256,192,190457,1,4,0:0:0:0:
256,192,190827,1,4,0:0:0:0:
256,192,191198,1,4,0:0:0:0:
256,192,191568,1,12,0:0:0:0:
256,192,191938,1,4,0:0:0:0:
256,192,192308,1,0,0:0:0:0:
256,192,192400,1,0,0:0:0:0:
256,192,192493,1,8,0:0:0:0:
256,192,192586,1,0,0:0:0:0:
256,192,192678,1,8,0:0:0:0:
256,192,192956,1,8,0:0:0:0:
256,192,193049,1,0,0:0:0:0:
256,192,193234,1,8,0:0:0:0:
256,192,193419,1,0,0:0:0:0:
256,192,193512,1,0,0:0:0:0:
256,192,193604,1,8,0:0:0:0:
256,192,193697,1,8,0:0:0:0:
256,192,193789,1,0,0:0:0:0:
256,192,193882,1,8,0:0:0:0:
256,192,193975,1,0,0:0:0:0:
256,192,194067,1,0,0:0:0:0:
256,192,194160,1,8,0:0:0:0:
256,192,194252,1,8,0:0:0:0:
256,192,194438,1,8,0:0:0:0:
256,192,194623,1,8,0:0:0:0:
256,192,194715,1,0,0:0:0:0:
256,192,194900,1,4,0:0:0:0:
256,192,195271,1,8,0:0:0:0:
256,192,195363,1,8,0:0:0:0:
256,192,195456,1,0,0:0:0:0:
256,192,195549,1,0,0:0:0:0:
256,192,195641,1,12,0:0:0:0:
256,192,195826,1,0,0:0:0:0:
256,192,196012,1,0,0:0:0:0:
256,192,196104,1,0,0:0:0:0:
256,192,196197,1,0,0:0:0:0:
256,192,196289,1,0,0:0:0:0:
256,192,196382,1,12,0:0:0:0:
256,192,196567,1,0,0:0:0:0:
256,192,196660,1,0,0:0:0:0:
256,192,196752,1,8,0:0:0:0:
256,192,196845,1,0,0:0:0:0:
256,192,197030,1,0,0:0:0:0:
256,192,197123,1,12,0:0:0:0:
256,192,197493,1,12,0:0:0:0:
256,192,197863,1,0,0:0:0:0:
256,192,197956,1,0,0:0:0:0:
256,192,198049,1,8,0:0:0:0:
256,192,198141,1,8,0:0:0:0:
256,192,198234,1,0,0:0:0:0:
256,192,198326,1,8,0:0:0:0:
256,192,198419,1,8,0:0:0:0:
256,192,198512,1,8,0:0:0:0:
256,192,198604,1,0,0:0:0:0:
256,192,198697,1,0,0:0:0:0:
256,192,198789,1,0,0:0:0:0:
256,192,198882,1,0,0:0:0:0:
256,192,198975,1,8,0:0:0:0:
256,192,199067,1,0,0:0:0:0:
256,192,199160,1,0,0:0:0:0:
256,192,199252,1,0,0:0:0:0:
256,192,199345,1,8,0:0:0:0:
256,192,199438,1,8,0:0:0:0:
256,192,199530,1,8,0:0:0:0:
256,192,199623,1,8,0:0:0:0:
256,192,199808,1,0,0:0:0:0:
256,192,199900,1,8,0:0:0:0:
