osu file format v14

[General]
AudioFilename: audio.mp3
AudioLeadIn: 0
PreviewTime:57076
Countdown: 0
SampleSet: Normal
StackLeniency: 0.7
Mode: 1
LetterboxInBreaks: 0
WidescreenStoryboard: 1

[Editor]
DistanceSpacing: 1.4
BeatDivisor: 4
GridSize: 32
TimelineZoom: 1.7

[Metadata]
Title:Misread, Mislead
TitleUnicode:ミスリード・ミスリード
Artist:Omoi
ArtistUnicode:Omoi
Creator:DakeDekaane
Version:Muzukashii
Source:
Tags:vocaloid Hatsune Miku 初音ミク Kagamine Rin 鏡音リ electronic synth rock jrock j-rock japanese night confession FA featured artist duski
BeatmapID:2666378
BeatmapSetID:1283785

[Difficulty]
HPDrainRate:6
CircleSize:2
OverallDifficulty:5
ApproachRate:10
SliderMultiplier:1.4
SliderTickRate:1

[Events]
//Background and Video events
0,0,"misleadmisread.jpg",0,0
//Break Periods
//Storyboard Layer 0 (Background)
//Storyboard Layer 1 (Fail)
//Storyboard Layer 2 (Pass)
//Storyboard Layer 3 (Foreground)
//Storyboard Layer 4 (Overlay)
//Storyboard Sound Samples

[TimingPoints]
3793,370.370370370371,4,1,0,100,1,0
57126,-100,4,1,0,100,0,1
80830,-100,4,1,0,100,0,0
106015,370.370370370371,4,1,0,100,1,0
128237,370.370370370371,4,1,0,100,1,0
143051,370.370370370371,4,1,0,100,1,0
154902,-100,4,1,0,100,0,1
166754,-100,4,1,0,100,0,0
188976,370.370370370371,4,1,0,100,1,1
191938,370.370370370371,4,1,0,100,1,0

[HitObjects]
256,192,6755,5,12,0:0:0:0:
256,192,8978,1,8,0:0:0:0:
256,192,9348,1,12,0:0:0:0:
256,192,9718,1,4,0:0:0:0:
256,192,12311,1,12,0:0:0:0:
256,192,12681,1,4,0:0:0:0:
256,192,14904,1,8,0:0:0:0:
256,192,14996,1,8,0:0:0:0:
256,192,15181,1,8,0:0:0:0:
256,192,15367,1,8,0:0:0:0:
256,192,15459,1,8,0:0:0:0:
256,192,15644,1,4,0:0:0:0:
256,192,18237,1,12,0:0:0:0:
256,192,18607,2,0,B|512:192|512:192|512:0,1,420
256,192,20089,8,0,20644,0:0:0:0:
256,192,21570,5,0,0:0:0:0:
256,192,21755,1,8,0:0:0:0:
256,192,21941,1,0,0:0:0:0:
256,192,22126,1,8,0:0:0:0:
256,192,22311,1,0,0:0:0:0:
256,192,22496,1,8,0:0:0:0:
256,192,22681,1,0,0:0:0:0:
256,192,23052,1,0,0:0:0:0:
256,192,23237,1,8,0:0:0:0:
256,192,23422,1,0,0:0:0:0:
256,192,23607,1,8,0:0:0:0:
256,192,23793,1,0,0:0:0:0:
256,192,23978,1,0,0:0:0:0:
256,192,24163,1,8,0:0:0:0:
256,192,24348,1,8,0:0:0:0:
256,192,24533,1,0,0:0:0:0:
256,192,24718,1,8,0:0:0:0:
256,192,24904,1,0,0:0:0:0:
256,192,25089,1,8,0:0:0:0:
256,192,25274,1,0,0:0:0:0:
256,192,25459,1,8,0:0:0:0:
256,192,25644,1,0,0:0:0:0:
256,192,26015,1,4,0:0:0:0:
256,192,26755,1,12,0:0:0:0:
256,192,27126,1,12,0:0:0:0:
256,192,27496,1,0,0:0:0:0:
256,192,27681,1,8,0:0:0:0:
256,192,27867,1,0,0:0:0:0:
256,192,28052,1,8,0:0:0:0:
256,192,28237,1,0,0:0:0:0:
256,192,28422,1,8,0:0:0:0:
256,192,28607,1,0,0:0:0:0:
256,192,28978,1,0,0:0:0:0:
256,192,29163,1,8,0:0:0:0:
256,192,29348,1,0,0:0:0:0:
256,192,29533,1,8,0:0:0:0:
256,192,29718,1,0,0:0:0:0:
256,192,29904,1,0,0:0:0:0:
256,192,30089,1,8,0:0:0:0:
256,192,30274,1,8,0:0:0:0:
256,192,30459,1,0,0:0:0:0:
256,192,30644,1,8,0:0:0:0:
256,192,30830,1,0,0:0:0:0:
256,192,31015,1,8,0:0:0:0:
256,192,31200,1,0,0:0:0:0:
256,192,31385,1,8,0:0:0:0:
256,192,31570,1,0,0:0:0:0:
256,192,31941,1,4,0:0:0:0:
256,192,32496,1,4,0:0:0:0:
256,192,32681,1,4,0:0:0:0:
256,192,33052,1,12,0:0:0:0:
256,192,33422,1,0,0:0:0:0:
256,192,33607,1,0,0:0:0:0:
256,192,33793,1,8,0:0:0:0:
256,192,34533,1,8,0:0:0:0:
256,192,35274,1,8,0:0:0:0:
256,192,36015,1,8,0:0:0:0:
256,192,36200,1,0,0:0:0:0:
256,192,36385,1,0,0:0:0:0:
256,192,36570,1,0,0:0:0:0:
256,192,36755,1,8,0:0:0:0:
256,192,37496,1,8,0:0:0:0:
256,192,38237,1,8,0:0:0:0:
256,192,38978,1,8,0:0:0:0:
256,192,39163,1,0,0:0:0:0:
256,192,39348,1,0,0:0:0:0:
256,192,39533,1,0,0:0:0:0:
256,192,39718,1,8,0:0:0:0:
256,192,40459,1,8,0:0:0:0:
256,192,41200,1,8,0:0:0:0:
256,192,41941,1,8,0:0:0:0:
256,192,42126,1,0,0:0:0:0:
256,192,42311,1,0,0:0:0:0:
256,192,42496,1,0,0:0:0:0:
256,192,42681,1,8,0:0:0:0:
256,192,43422,1,8,0:0:0:0:
256,192,43607,1,0,0:0:0:0:
256,192,43793,1,0,0:0:0:0:
256,192,43978,1,0,0:0:0:0:
256,192,44163,1,8,0:0:0:0:
256,192,44533,1,0,0:0:0:0:
256,192,44718,1,0,0:0:0:0:
256,192,44904,1,12,0:0:0:0:
256,192,45274,1,0,0:0:0:0:
256,192,45644,1,0,0:0:0:0:
256,192,46015,1,0,0:0:0:0:
256,192,46200,1,0,0:0:0:0:
256,192,46293,1,0,0:0:0:0:
256,192,46385,1,0,0:0:0:0:
256,192,46570,1,8,0:0:0:0:
256,192,46755,1,0,0:0:0:0:
256,192,47126,1,0,0:0:0:0:
256,192,47496,1,8,0:0:0:0:
256,192,47681,1,8,0:0:0:0:
256,192,47774,1,8,0:0:0:0:
256,192,47867,1,8,0:0:0:0:
256,192,48052,1,0,0:0:0:0:
256,192,48237,1,0,0:0:0:0:
256,192,48607,1,0,0:0:0:0:
256,192,48978,1,0,0:0:0:0:
256,192,49163,1,0,0:0:0:0:
256,192,49255,1,0,0:0:0:0:
256,192,49348,1,0,0:0:0:0:
256,192,49533,1,8,0:0:0:0:
256,192,49718,1,0,0:0:0:0:
256,192,50089,1,0,0:0:0:0:
256,192,50459,1,8,0:0:0:0:
256,192,50644,1,8,0:0:0:0:
256,192,50737,1,8,0:0:0:0:
256,192,50830,1,8,0:0:0:0:
256,192,51015,1,0,0:0:0:0:
256,192,51200,1,0,0:0:0:0:
256,192,51570,1,0,0:0:0:0:
256,192,51755,1,8,0:0:0:0:
256,192,51848,1,8,0:0:0:0:
256,192,51941,1,8,0:0:0:0:
256,192,52126,1,0,0:0:0:0:
256,192,52311,1,8,0:0:0:0:
256,192,52681,1,0,0:0:0:0:
256,192,53052,1,0,0:0:0:0:
256,192,53237,1,8,0:0:0:0:
256,192,53330,1,8,0:0:0:0:
256,192,53422,1,8,0:0:0:0:
256,192,53607,1,0,0:0:0:0:
256,192,53793,1,8,0:0:0:0:
256,192,54163,1,4,0:0:0:0:
256,192,54904,1,4,0:0:0:0:
256,192,55644,1,8,0:0:0:0:
256,192,56015,1,8,0:0:0:0:
256,192,56385,1,8,0:0:0:0:
256,192,57126,1,4,0:0:0:0:
256,192,57311,1,8,0:0:0:0:
256,192,57496,1,0,0:0:0:0:
256,192,57681,1,8,0:0:0:0:
256,192,57867,1,0,0:0:0:0:
256,192,58052,1,0,0:0:0:0:
256,192,58144,1,0,0:0:0:0:
256,192,58237,1,0,0:0:0:0:
256,192,58607,1,0,0:0:0:0:
256,192,58793,1,8,0:0:0:0:
256,192,58978,1,0,0:0:0:0:
256,192,59163,1,8,0:0:0:0:
256,192,59348,1,0,0:0:0:0:
256,192,59533,1,8,0:0:0:0:
256,192,59626,1,8,0:0:0:0:
256,192,59718,1,8,0:0:0:0:
256,192,60089,1,0,0:0:0:0:
256,192,60274,1,8,0:0:0:0:
256,192,60459,1,0,0:0:0:0:
256,192,60644,1,8,0:0:0:0:
256,192,60830,1,0,0:0:0:0:
256,192,61015,1,0,0:0:0:0:
256,192,61200,1,8,0:0:0:0:
256,192,61385,1,8,0:0:0:0:
256,192,61570,1,4,0:0:0:0:
256,192,62126,1,4,0:0:0:0:
256,192,62311,1,4,0:0:0:0:
256,192,62681,1,12,0:0:0:0:
256,192,63052,1,4,0:0:0:0:
256,192,63237,1,8,0:0:0:0:
256,192,63422,1,0,0:0:0:0:
256,192,63607,1,8,0:0:0:0:
256,192,63793,1,0,0:0:0:0:
256,192,63978,1,0,0:0:0:0:
256,192,64070,1,0,0:0:0:0:
256,192,64163,1,0,0:0:0:0:
256,192,64533,1,0,0:0:0:0:
256,192,64718,1,8,0:0:0:0:
256,192,64904,1,0,0:0:0:0:
256,192,65089,1,8,0:0:0:0:
256,192,65274,1,0,0:0:0:0:
256,192,65459,1,8,0:0:0:0:
256,192,65552,1,8,0:0:0:0:
256,192,65644,1,8,0:0:0:0:
256,192,66015,1,0,0:0:0:0:
256,192,66200,1,8,0:0:0:0:
256,192,66385,1,0,0:0:0:0:
256,192,66570,1,8,0:0:0:0:
256,192,66755,1,0,0:0:0:0:
256,192,66941,1,0,0:0:0:0:
256,192,67126,1,8,0:0:0:0:
256,192,67311,1,8,0:0:0:0:
256,192,67496,1,4,0:0:0:0:
256,192,67867,1,4,0:0:0:0:
256,192,68237,1,4,0:0:0:0:
256,192,68978,1,4,0:0:0:0:
256,192,69163,1,8,0:0:0:0:
256,192,69255,1,0,0:0:0:0:
256,192,69533,1,8,0:0:0:0:
256,192,69718,1,0,0:0:0:0:
256,192,69904,1,0,0:0:0:0:
256,192,70089,1,8,0:0:0:0:
256,192,70459,1,0,0:0:0:0:
256,192,70644,1,8,0:0:0:0:
256,192,70737,1,0,0:0:0:0:
256,192,71015,1,8,0:0:0:0:
256,192,71200,1,0,0:0:0:0:
256,192,71385,1,8,0:0:0:0:
256,192,71570,1,8,0:0:0:0:
256,192,71941,1,0,0:0:0:0:
256,192,72126,1,8,0:0:0:0:
256,192,72218,1,0,0:0:0:0:
256,192,72496,1,8,0:0:0:0:
256,192,72681,1,0,0:0:0:0:
256,192,72867,1,0,0:0:0:0:
256,192,73052,1,8,0:0:0:0:
256,192,73237,1,8,0:0:0:0:
256,192,73422,1,4,0:0:0:0:
256,192,73978,1,4,0:0:0:0:
256,192,74163,1,4,0:0:0:0:
256,192,74533,1,12,0:0:0:0:
256,192,74904,1,4,0:0:0:0:
256,192,75089,1,8,0:0:0:0:
256,192,75181,1,0,0:0:0:0:
256,192,75459,1,8,0:0:0:0:
256,192,75644,1,0,0:0:0:0:
256,192,75830,1,0,0:0:0:0:
256,192,76015,1,8,0:0:0:0:
256,192,76385,1,0,0:0:0:0:
256,192,76570,1,8,0:0:0:0:
256,192,76663,1,0,0:0:0:0:
256,192,76941,1,8,0:0:0:0:
256,192,77126,1,0,0:0:0:0:
256,192,77311,1,8,0:0:0:0:
256,192,77496,1,8,0:0:0:0:
256,192,77867,1,0,0:0:0:0:
256,192,78052,1,0,0:0:0:0:
256,192,78144,1,0,0:0:0:0:
256,192,78237,1,0,0:0:0:0:
256,192,78422,1,0,0:0:0:0:
256,192,78607,1,8,0:0:0:0:
256,192,78793,1,8,0:0:0:0:
256,192,78885,1,8,0:0:0:0:
256,192,78978,1,8,0:0:0:0:
256,192,79163,1,8,0:0:0:0:
256,192,79348,1,4,0:0:0:0:
256,192,79718,1,4,0:0:0:0:
256,192,80089,1,12,0:0:0:0:
256,192,80830,1,0,0:0:0:0:
256,192,81015,1,0,0:0:0:0:
256,192,81200,1,8,0:0:0:0:
256,192,81385,1,0,0:0:0:0:
259,198,81755,1,0,0:0:0:0:
256,192,81941,1,8,0:0:0:0:
259,198,82126,1,0,0:0:0:0:
259,198,82496,1,0,0:0:0:0:
259,198,82681,1,8,0:0:0:0:
256,192,82867,1,0,0:0:0:0:
259,198,83237,1,0,0:0:0:0:
259,198,83422,1,8,0:0:0:0:
259,198,83607,1,8,0:0:0:0:
259,198,83793,1,0,0:0:0:0:
253,191,83978,1,0,0:0:0:0:
259,198,84163,1,8,0:0:0:0:
259,198,84348,1,0,0:0:0:0:
259,198,84718,1,0,0:0:0:0:
259,198,85089,1,8,0:0:0:0:
259,198,85459,1,0,0:0:0:0:
259,198,85644,1,8,0:0:0:0:
259,198,85830,1,0,0:0:0:0:
259,198,86200,1,8,0:0:0:0:
259,198,86293,1,8,0:0:0:0:
259,198,86385,1,8,0:0:0:0:
259,198,86755,1,0,0:0:0:0:
259,198,86941,1,0,0:0:0:0:
259,198,87126,1,8,0:0:0:0:
259,198,87311,1,0,0:0:0:0:
259,198,87681,1,0,0:0:0:0:
259,198,87867,1,8,0:0:0:0:
259,198,88052,1,8,0:0:0:0:
259,198,88237,1,0,0:0:0:0:
259,198,88422,1,0,0:0:0:0:
259,198,88607,1,8,0:0:0:0:
259,198,88793,1,0,0:0:0:0:
259,198,89163,1,0,0:0:0:0:
259,198,89348,1,8,0:0:0:0:
259,198,89533,1,0,0:0:0:0:
259,198,89718,1,0,0:0:0:0:
259,198,89904,1,0,0:0:0:0:
259,198,90089,1,8,0:0:0:0:
259,198,90274,1,0,0:0:0:0:
259,198,90644,1,0,0:0:0:0:
259,198,90830,1,8,0:0:0:0:
259,198,91015,1,0,0:0:0:0:
259,198,91570,1,12,0:0:0:0:
259,198,91941,1,12,0:0:0:0:
256,192,92681,1,0,0:0:0:0:
256,192,92867,1,0,0:0:0:0:
256,192,93052,1,8,0:0:0:0:
256,192,93237,1,0,0:0:0:0:
259,198,93607,1,0,0:0:0:0:
259,198,93793,1,8,0:0:0:0:
259,198,93978,1,0,0:0:0:0:
259,198,94348,1,0,0:0:0:0:
259,198,94533,1,8,0:0:0:0:
259,198,94718,1,0,0:0:0:0:
259,198,95089,1,0,0:0:0:0:
259,198,95274,1,8,0:0:0:0:
259,198,95459,1,8,0:0:0:0:
259,198,95644,1,0,0:0:0:0:
259,198,95830,1,0,0:0:0:0:
259,198,96015,1,8,0:0:0:0:
259,198,96200,1,0,0:0:0:0:
259,198,96570,1,0,0:0:0:0:
259,198,96941,1,8,0:0:0:0:
259,198,97311,1,0,0:0:0:0:
259,198,97496,1,8,0:0:0:0:
259,198,97681,1,0,0:0:0:0:
259,198,98052,1,8,0:0:0:0:
259,198,98144,1,8,0:0:0:0:
259,198,98237,1,8,0:0:0:0:
259,198,98607,1,0,0:0:0:0:
259,198,98793,1,0,0:0:0:0:
259,198,98978,1,8,0:0:0:0:
259,198,99163,1,4,0:0:0:0:
259,198,99533,1,8,0:0:0:0:
259,198,99626,1,8,0:0:0:0:
259,198,99718,1,8,0:0:0:0:
259,198,99904,1,8,0:0:0:0:
259,198,100089,1,4,0:0:0:0:
259,198,100274,1,4,0:0:0:0:
259,198,100459,1,12,0:0:0:0:
259,198,100644,1,12,0:0:0:0:
259,198,101015,1,8,0:0:0:0:
259,198,101107,1,8,0:0:0:0:
259,198,101200,1,8,0:0:0:0:
259,198,101385,1,8,0:0:0:0:
259,198,101570,1,0,0:0:0:0:
259,198,101755,1,8,0:0:0:0:
259,198,101941,1,0,0:0:0:0:
259,198,102033,1,0,0:0:0:0:
259,198,102126,1,0,0:0:0:0:
259,198,102496,1,8,0:0:0:0:
259,198,102681,1,8,0:0:0:0:
259,198,102867,1,0,0:0:0:0:
259,198,103237,1,0,0:0:0:0:
259,198,103330,1,0,0:0:0:0:
259,198,103422,1,0,0:0:0:0:
259,198,104163,1,0,0:0:0:0:
254,195,104533,1,8,0:0:0:0:
250,193,104718,1,0,0:0:0:0:
254,195,104904,1,8,0:0:0:0:
250,193,105089,1,0,0:0:0:0:
254,195,105274,1,8,0:0:0:0:
254,195,105644,1,8,0:0:0:0:
256,192,106015,1,0,0:0:0:0:
256,192,106200,1,0,0:0:0:0:
256,192,106385,1,8,0:0:0:0:
256,192,107126,1,8,0:0:0:0:
256,192,107866,1,8,0:0:0:0:
256,192,108607,1,8,0:0:0:0:
256,192,108792,1,0,0:0:0:0:
256,192,108977,1,0,0:0:0:0:
256,192,109163,1,0,0:0:0:0:
256,192,109348,1,8,0:0:0:0:
256,192,110089,1,8,0:0:0:0:
256,192,110829,1,8,0:0:0:0:
256,192,111570,1,8,0:0:0:0:
256,192,111755,1,0,0:0:0:0:
256,192,111940,1,0,0:0:0:0:
256,192,112126,1,0,0:0:0:0:
256,192,112311,1,8,0:0:0:0:
256,192,113052,1,8,0:0:0:0:
256,192,113792,1,8,0:0:0:0:
256,192,114533,1,8,0:0:0:0:
256,192,114718,1,0,0:0:0:0:
256,192,114903,1,0,0:0:0:0:
256,192,115089,1,0,0:0:0:0:
256,192,115274,1,8,0:0:0:0:
256,192,115829,1,8,0:0:0:0:
256,192,115922,1,8,0:0:0:0:
256,192,116015,1,8,0:0:0:0:
256,192,116385,1,8,0:0:0:0:
256,192,116570,1,8,0:0:0:0:
256,192,116663,1,8,0:0:0:0:
256,192,116755,1,8,0:0:0:0:
256,192,116940,1,8,0:0:0:0:
256,192,117126,8,8,120459,0:0:0:0:
254,193,120829,5,0,0:0:0:0:
254,193,121015,1,0,0:0:0:0:
254,193,121200,1,8,0:0:0:0:
254,193,121385,1,0,0:0:0:0:
254,193,121755,1,0,0:0:0:0:
254,193,121940,1,8,0:0:0:0:
254,193,122126,1,0,0:0:0:0:
254,193,122496,1,8,0:0:0:0:
254,193,122589,1,8,0:0:0:0:
254,193,122681,1,8,0:0:0:0:
254,193,122866,1,0,0:0:0:0:
254,193,123052,1,0,0:0:0:0:
254,193,123237,1,8,0:0:0:0:
254,193,123329,1,8,0:0:0:0:
254,193,123422,1,8,0:0:0:0:
254,193,123792,1,0,0:0:0:0:
254,193,123977,1,0,0:0:0:0:
254,193,124163,1,8,0:0:0:0:
254,193,124348,1,4,0:0:0:0:
254,193,124718,1,0,0:0:0:0:
254,193,124903,1,8,0:0:0:0:
254,193,124996,1,8,0:0:0:0:
254,193,125089,1,8,0:0:0:0:
254,193,125274,1,0,0:0:0:0:
254,193,125459,1,0,0:0:0:0:
254,193,125644,1,0,0:0:0:0:
254,193,125829,1,12,0:0:0:0:
254,193,126200,1,8,0:0:0:0:
254,193,126292,1,8,0:0:0:0:
254,193,126385,1,8,0:0:0:0:
254,193,126755,1,8,0:0:0:0:
254,193,127126,1,8,0:0:0:0:
254,193,127496,1,0,0:0:0:0:
254,193,127866,1,8,0:0:0:0:
254,193,128237,1,4,0:0:0:0:
254,193,128977,1,8,0:0:0:0:
254,193,129348,1,0,0:0:0:0:
254,193,130088,1,0,0:0:0:0:
254,193,130459,1,8,0:0:0:0:
254,193,130644,1,0,0:0:0:0:
254,193,130737,1,0,0:0:0:0:
254,193,130922,1,0,0:0:0:0:
254,193,131014,1,0,0:0:0:0:
254,193,131199,1,12,0:0:0:0:
254,193,131940,1,8,0:0:0:0:
254,193,132311,1,0,0:0:0:0:
254,193,133051,1,0,0:0:0:0:
254,193,133422,1,8,0:0:0:0:
254,193,133607,1,8,0:0:0:0:
254,193,133699,1,8,0:0:0:0:
254,193,133885,1,8,0:0:0:0:
254,193,133977,1,8,0:0:0:0:
254,193,134162,1,4,0:0:0:0:
254,193,134903,1,8,0:0:0:0:
254,193,135274,1,0,0:0:0:0:
254,193,135459,1,0,0:0:0:0:
254,193,135644,1,0,0:0:0:0:
254,193,136014,1,0,0:0:0:0:
254,193,136385,1,8,0:0:0:0:
254,193,136755,1,0,0:0:0:0:
254,193,136940,1,0,0:0:0:0:
254,193,137125,1,12,0:0:0:0:
256,192,137866,1,8,0:0:0:0:
256,192,138237,1,0,0:0:0:0:
256,192,138422,1,0,0:0:0:0:
256,192,138607,1,0,0:0:0:0:
256,192,138977,1,0,0:0:0:0:
256,192,139348,1,0,0:0:0:0:
256,192,139533,1,0,0:0:0:0:
256,192,139718,1,0,0:0:0:0:
256,192,139903,1,0,0:0:0:0:
256,192,140088,1,12,0:0:0:0:
256,192,140829,1,12,0:0:0:0:
256,192,141570,1,12,0:0:0:0:
256,192,141940,1,8,0:0:0:0:
256,192,142311,1,8,0:0:0:0:
256,192,142496,1,8,0:0:0:0:
256,192,142681,1,8,0:0:0:0:
256,192,142866,1,8,0:0:0:0:
256,192,143051,1,0,0:0:0:0:
256,192,143791,1,0,0:0:0:0:
256,192,144162,1,0,0:0:0:0:
256,192,144532,1,0,0:0:0:0:
256,192,145273,1,0,0:0:0:0:
256,192,145643,1,8,0:0:0:0:
256,192,146013,1,0,0:0:0:0:
256,192,146754,1,0,0:0:0:0:
256,192,147125,1,0,0:0:0:0:
256,192,147495,1,8,0:0:0:0:
256,192,147680,1,0,0:0:0:0:
256,192,147773,1,0,0:0:0:0:
256,192,148051,1,8,0:0:0:0:
256,192,148236,1,0,0:0:0:0:
256,192,148421,1,0,0:0:0:0:
256,192,148606,1,8,0:0:0:0:
256,192,148976,1,0,0:0:0:0:
256,192,149717,1,0,0:0:0:0:
256,192,149902,1,0,0:0:0:0:
256,192,150088,1,8,0:0:0:0:
256,192,150458,1,0,0:0:0:0:
256,192,151199,1,0,0:0:0:0:
256,192,151384,1,0,0:0:0:0:
256,192,151569,1,8,0:0:0:0:
256,192,151754,1,0,0:0:0:0:
256,192,151847,1,0,0:0:0:0:
256,192,151939,1,0,0:0:0:0:
256,192,153421,1,4,0:0:0:0:
256,192,153791,1,12,0:0:0:0:
256,192,154162,1,4,0:0:0:0:
256,192,154902,1,4,0:0:0:0:
256,192,155088,1,8,0:0:0:0:
256,192,155180,1,0,0:0:0:0:
256,192,155458,1,8,0:0:0:0:
256,192,155643,1,0,0:0:0:0:
256,192,155828,1,0,0:0:0:0:
256,192,156013,1,8,0:0:0:0:
256,192,156384,1,0,0:0:0:0:
256,192,156569,1,8,0:0:0:0:
256,192,156662,1,0,0:0:0:0:
256,192,156939,1,8,0:0:0:0:
256,192,157125,1,0,0:0:0:0:
256,192,157310,1,8,0:0:0:0:
256,192,157495,1,8,0:0:0:0:
256,192,157865,1,0,0:0:0:0:
256,192,158051,1,8,0:0:0:0:
256,192,158143,1,0,0:0:0:0:
256,192,158421,1,8,0:0:0:0:
256,192,158606,1,0,0:0:0:0:
256,192,158791,1,0,0:0:0:0:
256,192,158976,1,8,0:0:0:0:
256,192,159162,1,8,0:0:0:0:
256,192,159347,1,4,0:0:0:0:
256,192,159902,1,4,0:0:0:0:
256,192,160088,1,4,0:0:0:0:
256,192,160458,1,12,0:0:0:0:
256,192,160828,1,4,0:0:0:0:
256,192,161013,1,8,0:0:0:0:
256,192,161106,1,0,0:0:0:0:
256,192,161384,1,8,0:0:0:0:
256,192,161569,1,0,0:0:0:0:
256,192,161754,1,0,0:0:0:0:
256,192,161939,1,8,0:0:0:0:
256,192,162310,1,0,0:0:0:0:
256,192,162495,1,8,0:0:0:0:
256,192,162588,1,0,0:0:0:0:
256,192,162865,1,8,0:0:0:0:
256,192,163051,1,0,0:0:0:0:
256,192,163236,1,8,0:0:0:0:
256,192,163421,1,8,0:0:0:0:
256,192,163791,1,0,0:0:0:0:
256,192,163976,1,0,0:0:0:0:
256,192,164069,1,0,0:0:0:0:
256,192,164162,1,0,0:0:0:0:
256,192,164347,1,0,0:0:0:0:
256,192,164532,1,8,0:0:0:0:
256,192,164717,1,8,0:0:0:0:
256,192,164810,1,8,0:0:0:0:
256,192,164902,1,8,0:0:0:0:
256,192,165088,1,8,0:0:0:0:
256,192,165273,1,4,0:0:0:0:
256,192,165643,1,4,0:0:0:0:
256,192,166013,1,12,0:0:0:0:
256,192,166754,1,0,0:0:0:0:
256,192,166939,1,0,0:0:0:0:
256,192,167125,1,8,0:0:0:0:
256,192,167310,1,0,0:0:0:0:
259,198,167680,1,0,0:0:0:0:
259,198,167865,1,8,0:0:0:0:
259,198,168051,1,0,0:0:0:0:
259,198,168421,1,0,0:0:0:0:
259,198,168606,1,8,0:0:0:0:
259,198,168791,1,0,0:0:0:0:
259,198,169162,1,0,0:0:0:0:
259,198,169347,1,8,0:0:0:0:
259,198,169532,1,8,0:0:0:0:
259,198,169717,1,0,0:0:0:0:
259,198,169902,1,0,0:0:0:0:
259,198,170088,1,8,0:0:0:0:
259,198,170273,1,0,0:0:0:0:
259,198,170643,1,8,0:0:0:0:
259,198,171013,1,8,0:0:0:0:
259,198,171384,1,0,0:0:0:0:
259,198,171569,1,8,0:0:0:0:
259,198,171754,1,0,0:0:0:0:
259,198,172125,1,8,0:0:0:0:
259,198,172217,1,8,0:0:0:0:
259,198,172310,1,8,0:0:0:0:
259,198,172680,1,0,0:0:0:0:
259,198,172865,1,0,0:0:0:0:
259,198,173051,1,8,0:0:0:0:
259,198,173236,1,0,0:0:0:0:
259,198,173606,1,0,0:0:0:0:
259,198,173791,1,8,0:0:0:0:
259,198,173976,1,8,0:0:0:0:
259,198,174162,1,0,0:0:0:0:
259,198,174347,1,0,0:0:0:0:
259,198,174532,1,8,0:0:0:0:
259,198,174717,1,0,0:0:0:0:
259,198,175088,1,0,0:0:0:0:
259,198,175273,1,8,0:0:0:0:
259,198,175458,1,0,0:0:0:0:
259,198,175643,1,0,0:0:0:0:
259,198,175828,1,0,0:0:0:0:
259,198,176013,1,8,0:0:0:0:
259,198,176199,1,0,0:0:0:0:
259,198,176569,1,0,0:0:0:0:
259,198,176754,1,8,0:0:0:0:
259,198,176939,1,0,0:0:0:0:
259,198,177495,1,12,0:0:0:0:
259,198,177865,1,12,0:0:0:0:
256,192,178606,1,0,0:0:0:0:
256,192,178791,1,0,0:0:0:0:
256,192,178976,1,8,0:0:0:0:
256,192,179162,1,0,0:0:0:0:
259,198,179532,1,0,0:0:0:0:
259,198,179717,1,8,0:0:0:0:
259,198,179902,1,0,0:0:0:0:
259,198,180273,1,0,0:0:0:0:
259,198,180458,1,8,0:0:0:0:
259,198,180643,1,0,0:0:0:0:
259,198,181013,1,0,0:0:0:0:
259,198,181199,1,8,0:0:0:0:
259,198,181384,1,8,0:0:0:0:
259,198,181569,1,0,0:0:0:0:
259,198,181754,1,0,0:0:0:0:
259,198,181939,1,8,0:0:0:0:
259,198,182125,1,0,0:0:0:0:
259,198,182495,1,8,0:0:0:0:
259,198,182865,1,8,0:0:0:0:
259,198,183236,1,0,0:0:0:0:
259,198,183606,1,8,0:0:0:0:
259,198,184532,1,4,0:0:0:0:
259,198,184717,1,4,0:0:0:0:
259,198,185088,1,12,0:0:0:0:
259,198,185458,1,0,0:0:0:0:
259,198,185551,1,0,0:0:0:0:
259,198,185643,1,0,0:0:0:0:
259,198,185828,1,0,0:0:0:0:
259,198,186013,1,4,0:0:0:0:
259,198,186199,1,4,0:0:0:0:
259,198,186384,1,12,0:0:0:0:
259,198,186569,1,12,0:0:0:0:
259,198,186939,1,0,0:0:0:0:
259,198,187125,1,0,0:0:0:0:
259,198,187310,1,0,0:0:0:0:
259,198,187495,1,12,0:0:0:0:
259,198,188236,1,12,0:0:0:0:
259,198,188976,1,4,0:0:0:0:
259,198,189346,1,4,0:0:0:0:
259,198,189716,1,4,0:0:0:0:
259,198,190087,1,4,0:0:0:0:
259,198,190457,1,4,0:0:0:0:
259,198,190827,1,4,0:0:0:0:
259,198,191198,1,4,0:0:0:0:
259,198,191568,1,12,0:0:0:0:
259,198,191938,1,4,0:0:0:0:
256,192,194160,1,8,0:0:0:0:
256,192,194252,1,8,0:0:0:0:
256,192,194438,1,8,0:0:0:0:
256,192,194623,1,8,0:0:0:0:
256,192,194715,1,8,0:0:0:0:
256,192,194900,1,4,0:0:0:0:
256,192,195641,1,4,0:0:0:0:
256,192,196382,1,4,0:0:0:0:
256,192,197123,1,4,0:0:0:0:
256,192,197493,1,12,0:0:0:0:
256,192,197863,1,0,0:0:0:0:
256,192,198049,1,0,0:0:0:0:
256,192,198234,1,8,0:0:0:0:
256,192,198326,1,8,0:0:0:0:
256,192,198419,1,8,0:0:0:0:
256,192,198604,1,0,0:0:0:0:
256,192,198789,1,0,0:0:0:0:
256,192,198975,1,8,0:0:0:0:
256,192,199067,1,8,0:0:0:0:
256,192,199160,1,8,0:0:0:0:
256,192,199345,1,8,0:0:0:0:
256,192,199438,1,8,0:0:0:0:
256,192,199530,1,8,0:0:0:0:
256,192,199623,1,8,0:0:0:0:
256,192,199808,1,8,0:0:0:0:
256,192,199900,1,8,0:0:0:0:
