osu file format v14

[General]
AudioFilename: audio.mp3
AudioLeadIn: 0
PreviewTime: 55814
Countdown: 0
SampleSet: Normal
StackLeniency: 0.7
Mode: 1
LetterboxInBreaks: 0
WidescreenStoryboard: 1

[Editor]
DistanceSpacing: 1.4
BeatDivisor: 4
GridSize: 32
TimelineZoom: 2.2

[Metadata]
Title:Kiseki sae mo
TitleUnicode:奇跡さえも
Artist:Omoi
ArtistUnicode:Omoi
Creator:duski
Version:Stingy's Muzukashii
Source:
Tags:hatsune miku 初音ミク kagamine rin 鏡音リン night confession ナイトコンフェッション even miracles saemo sakurai 桜井 kimura 木村 vocaloid synth jrock j-rock rock japanese electronic featured artist fa stingy
BeatmapID:2843381
BeatmapSetID:1357597

[Difficulty]
HPDrainRate:5
CircleSize:2
OverallDifficulty:5
ApproachRate:10
SliderMultiplier:1.4
SliderTickRate:1

[Events]
//Background and Video events
0,0,"kiseki.jpg",0,0
//Break Periods
//Storyboard Layer 0 (Background)
//Storyboard Layer 1 (Fail)
//Storyboard Layer 2 (Pass)
//Storyboard Layer 3 (Foreground)
//Storyboard Layer 4 (Overlay)
//Storyboard Sound Samples

[TimingPoints]
207,331.491712707182,4,1,0,35,1,0
2444,-100,4,1,0,70,0,0
2858,-100,4,1,0,100,0,0
13466,-100,4,1,0,80,0,0
50593,-100,4,1,0,90,0,0
55897,-100,4,1,0,100,0,1
66173,-100,4,1,0,100,0,0
66505,-100,4,1,0,100,0,1
77113,-100,4,1,0,100,0,0
87803,-100,4,1,0,70,0,0
89875,-100,4,1,0,80,0,0
114240,-100,4,1,0,90,0,0
116892,-100,4,1,0,100,0,1
127168,-100,4,1,0,100,0,0
127499,-100,4,1,0,100,0,1
138107,-100,4,1,0,100,0,0
138190,-100,4,1,0,80,0,0
169930,-100,4,1,0,100,0,1
174903,-100,4,1,0,100,0,0
175234,-100,4,1,0,100,0,1
177886,-100,4,1,0,100,0,0
177969,-100,4,1,0,70,0,0
180124,-100,4,1,0,100,0,0

[HitObjects]
256,192,207,12,0,2195,0:0:0:0:
256,192,2527,5,8,0:0:0:0:
256,192,2858,1,4,0:0:0:0:
256,192,3190,1,8,0:0:0:0:
256,192,3439,1,8,0:0:0:0:
256,192,3521,1,0,0:0:0:0:
256,192,3687,1,0,0:0:0:0:
256,192,3853,1,8,0:0:0:0:
256,192,4184,1,0,0:0:0:0:
256,192,4516,1,8,0:0:0:0:
256,192,4682,1,0,0:0:0:0:
256,192,4765,1,0,0:0:0:0:
256,192,4847,1,0,0:0:0:0:
256,192,5013,1,0,0:0:0:0:
256,192,5179,1,8,0:0:0:0:
256,192,5510,1,0,0:0:0:0:
256,192,5842,1,8,0:0:0:0:
256,192,6090,1,8,0:0:0:0:
256,192,6173,1,0,0:0:0:0:
256,192,6339,1,0,0:0:0:0:
256,192,6505,1,8,0:0:0:0:
256,192,6836,1,0,0:0:0:0:
256,192,7002,1,0,0:0:0:0:
256,192,7168,1,8,0:0:0:0:
256,192,7499,1,0,0:0:0:0:
256,192,7582,1,0,0:0:0:0:
256,192,7665,1,0,0:0:0:0:
256,192,7831,1,8,0:0:0:0:
256,192,7914,1,8,0:0:0:0:
256,192,7997,1,8,0:0:0:0:
256,192,8162,1,4,0:0:0:0:
256,192,8742,1,8,0:0:0:0:
256,192,8825,1,0,0:0:0:0:
256,192,8991,1,0,0:0:0:0:
256,192,9157,1,8,0:0:0:0:
256,192,9488,1,0,0:0:0:0:
256,192,9820,1,8,0:0:0:0:
256,192,9986,1,0,0:0:0:0:
256,192,10068,1,0,0:0:0:0:
256,192,10151,1,0,0:0:0:0:
256,192,10317,1,0,0:0:0:0:
256,192,10483,1,8,0:0:0:0:
256,192,10814,1,0,0:0:0:0:
256,192,11146,1,8,0:0:0:0:
256,192,11394,1,8,0:0:0:0:
256,192,11477,1,0,0:0:0:0:
256,192,11643,1,0,0:0:0:0:
256,192,11809,1,8,0:0:0:0:
256,192,12140,1,0,0:0:0:0:
256,192,12306,1,8,0:0:0:0:
256,192,12389,1,8,0:0:0:0:
256,192,12472,1,8,0:0:0:0:
256,192,12637,1,8,0:0:0:0:
256,192,12803,1,0,0:0:0:0:
256,192,12969,1,0,0:0:0:0:
256,192,13135,1,8,0:0:0:0:
256,192,13218,1,8,0:0:0:0:
256,192,13300,1,8,0:0:0:0:
256,192,13466,1,0,0:0:0:0:
256,192,14129,1,0,0:0:0:0:
256,192,14461,1,8,0:0:0:0:
256,192,14626,1,0,0:0:0:0:
256,192,14958,1,0,0:0:0:0:
256,192,15124,1,8,0:0:0:0:
256,192,15455,1,0,0:0:0:0:
256,192,15952,1,8,0:0:0:0:
256,192,16118,1,0,0:0:0:0:
256,192,16284,1,0,0:0:0:0:
256,192,16450,1,8,0:0:0:0:
256,192,16781,1,0,0:0:0:0:
256,192,17113,1,8,0:0:0:0:
256,192,17278,1,8,0:0:0:0:
256,192,17444,1,0,0:0:0:0:
256,192,17610,1,8,0:0:0:0:
256,192,17776,1,0,0:0:0:0:
256,192,18107,1,8,0:0:0:0:
256,192,18604,1,8,0:0:0:0:
256,192,18770,1,0,0:0:0:0:
256,192,19102,1,8,0:0:0:0:
256,192,19267,1,8,0:0:0:0:
256,192,19433,1,8,0:0:0:0:
256,192,19765,1,0,0:0:0:0:
256,192,19930,1,8,0:0:0:0:
256,192,20013,1,8,0:0:0:0:
256,192,20096,1,8,0:0:0:0:
256,192,20262,1,8,0:0:0:0:
256,192,20427,1,0,0:0:0:0:
256,192,20593,1,0,0:0:0:0:
256,192,20759,1,8,0:0:0:0:
256,192,20925,1,0,0:0:0:0:
256,192,21256,1,0,0:0:0:0:
256,192,21422,1,8,0:0:0:0:
256,192,21753,1,0,0:0:0:0:
256,192,21919,1,0,0:0:0:0:
256,192,22085,1,8,0:0:0:0:
256,192,22251,1,0,0:0:0:0:
256,192,22582,1,0,0:0:0:0:
256,192,22748,1,8,0:0:0:0:
256,192,22914,1,0,0:0:0:0:
256,192,23079,1,8,0:0:0:0:
256,192,23411,1,0,0:0:0:0:
256,192,23908,1,0,0:0:0:0:
256,192,24074,1,12,0:0:0:0:
256,192,24405,1,0,0:0:0:0:
256,192,24737,1,8,0:0:0:0:
256,192,24903,1,8,0:0:0:0:
256,192,25068,1,0,0:0:0:0:
256,192,25234,1,8,0:0:0:0:
256,192,25400,1,0,0:0:0:0:
256,192,25566,1,0,0:0:0:0:
256,192,25731,1,8,0:0:0:0:
256,192,26063,1,0,0:0:0:0:
256,192,26560,1,8,0:0:0:0:
256,192,26726,1,0,0:0:0:0:
256,192,26892,1,0,0:0:0:0:
256,192,27057,1,8,0:0:0:0:
256,192,27389,1,8,0:0:0:0:
256,192,27555,1,8,0:0:0:0:
256,192,27720,1,0,0:0:0:0:
256,192,28052,1,8,0:0:0:0:
256,192,28218,1,0,0:0:0:0:
256,192,28549,1,8,0:0:0:0:
256,192,28715,1,0,0:0:0:0:
256,192,29212,1,0,0:0:0:0:
256,192,29378,1,8,0:0:0:0:
256,192,29709,1,0,0:0:0:0:
256,192,29875,1,0,0:0:0:0:
256,192,30041,1,8,0:0:0:0:
256,192,30538,1,0,0:0:0:0:
256,192,30704,1,8,0:0:0:0:
256,192,31035,1,0,0:0:0:0:
256,192,31201,1,8,0:0:0:0:
256,192,31367,1,0,0:0:0:0:
256,192,31864,1,0,0:0:0:0:
256,192,32030,1,8,0:0:0:0:
256,192,32195,1,8,0:0:0:0:
256,192,32361,1,0,0:0:0:0:
256,192,32527,1,0,0:0:0:0:
256,192,32693,1,8,0:0:0:0:
256,192,33024,1,0,0:0:0:0:
256,192,33190,1,8,0:0:0:0:
256,192,33356,1,0,0:0:0:0:
256,192,33521,1,8,0:0:0:0:
256,192,33604,1,8,0:0:0:0:
256,192,33687,1,8,0:0:0:0:
256,192,33853,1,8,0:0:0:0:
256,192,34019,1,0,0:0:0:0:
256,192,34184,1,0,0:0:0:0:
256,192,34350,1,0,0:0:0:0:
256,192,34516,1,0,0:0:0:0:
256,192,34682,1,12,0:0:0:0:
256,192,35179,1,0,0:0:0:0:
256,192,35345,1,8,0:0:0:0:
256,192,36008,1,0,0:0:0:0:
256,192,36505,1,0,0:0:0:0:
256,192,36671,1,8,0:0:0:0:
256,192,37168,1,0,0:0:0:0:
256,192,37334,1,0,0:0:0:0:
256,192,37831,1,0,0:0:0:0:
256,192,37997,1,8,0:0:0:0:
256,192,38660,1,0,0:0:0:0:
256,192,38908,1,0,0:0:0:0:
256,192,39157,1,0,0:0:0:0:
256,192,39323,1,8,0:0:0:0:
256,192,39986,1,0,0:0:0:0:
256,192,40483,1,0,0:0:0:0:
256,192,40648,1,8,0:0:0:0:
256,192,41311,1,0,0:0:0:0:
256,192,41809,1,0,0:0:0:0:
256,192,41974,1,8,0:0:0:0:
256,192,42472,1,0,0:0:0:0:
256,192,42637,1,0,0:0:0:0:
256,192,43135,1,0,0:0:0:0:
256,192,43300,1,8,0:0:0:0:
256,192,43798,1,0,0:0:0:0:
256,192,43963,1,8,0:0:0:0:
256,192,44212,1,0,0:0:0:0:
256,192,44461,1,0,0:0:0:0:
256,192,44626,1,8,0:0:0:0:
256,192,44958,1,8,0:0:0:0:
256,192,45041,1,8,0:0:0:0:
256,192,45124,1,8,0:0:0:0:
256,192,45289,1,4,0:0:0:0:
256,192,45621,1,0,0:0:0:0:
256,192,45952,1,0,0:0:0:0:
256,192,46118,1,8,0:0:0:0:
256,192,46284,1,8,0:0:0:0:
256,192,46450,1,8,0:0:0:0:
256,192,46615,1,0,0:0:0:0:
256,192,46947,1,8,0:0:0:0:
256,192,47113,1,8,0:0:0:0:
256,192,47278,1,0,0:0:0:0:
256,192,47610,1,0,0:0:0:0:
256,192,47776,1,8,0:0:0:0:
256,192,47941,1,0,0:0:0:0:
256,192,48273,1,0,0:0:0:0:
256,192,48604,1,8,0:0:0:0:
256,192,48936,1,8,0:0:0:0:
256,192,49267,1,0,0:0:0:0:
256,192,49599,1,8,0:0:0:0:
256,192,49765,1,8,0:0:0:0:
256,192,49930,1,0,0:0:0:0:
256,192,50262,1,8,0:0:0:0:
256,192,50345,1,8,0:0:0:0:
256,192,50427,1,8,0:0:0:0:
256,192,50593,1,4,0:0:0:0:
256,192,50925,1,8,0:0:0:0:
256,192,51090,1,8,0:0:0:0:
256,192,51256,1,0,0:0:0:0:
256,192,51588,1,8,0:0:0:0:
256,192,51753,1,0,0:0:0:0:
256,192,51919,1,8,0:0:0:0:
256,192,52085,1,8,0:0:0:0:
256,192,52251,1,0,0:0:0:0:
256,192,52416,1,0,0:0:0:0:
256,192,52582,1,8,0:0:0:0:
256,192,52748,1,8,0:0:0:0:
256,192,53079,1,0,0:0:0:0:
256,192,53245,1,8,0:0:0:0:
256,192,53411,1,8,0:0:0:0:
256,192,53577,1,0,0:0:0:0:
256,192,53742,1,8,0:0:0:0:
256,192,53825,1,8,0:0:0:0:
256,192,53908,1,8,0:0:0:0:
256,192,54074,1,8,0:0:0:0:
256,192,54240,1,0,0:0:0:0:
256,192,54405,1,0,0:0:0:0:
256,192,54571,1,12,0:0:0:0:
256,192,55897,1,4,0:0:0:0:
256,192,56229,1,8,0:0:0:0:
256,192,56394,1,0,0:0:0:0:
256,192,56477,1,0,0:0:0:0:
256,192,56560,1,0,0:0:0:0:
256,192,56726,1,0,0:0:0:0:
256,192,56892,1,8,0:0:0:0:
256,192,57057,1,8,0:0:0:0:
256,192,57223,1,0,0:0:0:0:
256,192,57389,1,8,0:0:0:0:
256,192,57472,1,8,0:0:0:0:
256,192,57555,1,8,0:0:0:0:
256,192,57886,1,0,0:0:0:0:
256,192,58218,1,8,0:0:0:0:
256,192,58549,1,0,0:0:0:0:
256,192,58715,1,8,0:0:0:0:
256,192,58798,1,8,0:0:0:0:
256,192,58881,1,8,0:0:0:0:
256,192,59046,1,8,0:0:0:0:
256,192,59212,1,0,0:0:0:0:
256,192,59544,1,8,0:0:0:0:
256,192,59709,1,0,0:0:0:0:
256,192,59792,1,0,0:0:0:0:
256,192,59875,1,0,0:0:0:0:
256,192,60041,1,0,0:0:0:0:
256,192,60206,1,8,0:0:0:0:
256,192,60372,1,8,0:0:0:0:
256,192,60538,1,0,0:0:0:0:
256,192,60704,1,0,0:0:0:0:
256,192,60869,1,8,0:0:0:0:
256,192,60952,1,8,0:0:0:0:
256,192,61035,1,8,0:0:0:0:
256,192,61201,1,0,0:0:0:0:
256,192,61532,1,8,0:0:0:0:
256,192,61698,1,8,0:0:0:0:
256,192,61864,1,0,0:0:0:0:
256,192,62195,1,0,0:0:0:0:
256,192,62361,1,8,0:0:0:0:
256,192,62693,1,8,0:0:0:0:
256,192,62776,1,8,0:0:0:0:
256,192,62858,1,8,0:0:0:0:
256,192,63190,1,0,0:0:0:0:
256,192,63687,1,0,0:0:0:0:
256,192,63853,1,8,0:0:0:0:
256,192,64019,1,0,0:0:0:0:
256,192,64102,1,0,0:0:0:0:
256,192,64184,1,0,0:0:0:0:
256,192,64350,1,0,0:0:0:0:
256,192,64516,1,8,0:0:0:0:
256,192,64847,1,8,0:0:0:0:
256,192,64930,1,8,0:0:0:0:
256,192,65013,1,8,0:0:0:0:
256,192,65179,1,0,0:0:0:0:
256,192,65345,1,8,0:0:0:0:
256,192,65510,1,0,0:0:0:0:
256,192,65676,1,0,0:0:0:0:
256,192,65842,1,8,0:0:0:0:
256,192,66173,1,0,0:0:0:0:
256,192,66339,1,0,0:0:0:0:
256,192,66505,1,8,0:0:0:0:
256,192,66836,1,0,0:0:0:0:
256,192,67002,1,0,0:0:0:0:
256,192,67168,1,8,0:0:0:0:
256,192,67334,1,0,0:0:0:0:
256,192,67499,1,8,0:0:0:0:
256,192,67665,1,0,0:0:0:0:
256,192,67748,1,0,0:0:0:0:
256,192,67831,1,0,0:0:0:0:
256,192,68162,1,0,0:0:0:0:
256,192,68494,1,0,0:0:0:0:
256,192,68825,1,0,0:0:0:0:
256,192,68991,1,8,0:0:0:0:
256,192,69074,1,8,0:0:0:0:
256,192,69157,1,8,0:0:0:0:
256,192,69488,1,8,0:0:0:0:
256,192,69654,1,8,0:0:0:0:
256,192,69820,1,0,0:0:0:0:
256,192,69986,1,0,0:0:0:0:
256,192,70151,1,8,0:0:0:0:
256,192,70317,1,8,0:0:0:0:
256,192,70400,1,8,0:0:0:0:
256,192,70483,1,8,0:0:0:0:
256,192,70814,1,8,0:0:0:0:
256,192,70980,1,0,0:0:0:0:
256,192,71146,1,8,0:0:0:0:
256,192,71809,1,0,0:0:0:0:
256,192,71974,1,0,0:0:0:0:
256,192,72140,1,8,0:0:0:0:
256,192,72472,1,0,0:0:0:0:
256,192,72637,1,0,0:0:0:0:
256,192,72803,1,8,0:0:0:0:
256,192,73135,1,8,0:0:0:0:
256,192,73383,1,0,0:0:0:0:
256,192,73466,1,0,0:0:0:0:
256,192,73632,1,0,0:0:0:0:
256,192,73798,1,8,0:0:0:0:
256,192,74129,1,8,0:0:0:0:
256,192,74295,1,0,0:0:0:0:
256,192,74461,1,8,0:0:0:0:
256,192,74626,1,0,0:0:0:0:
256,192,74792,1,8,0:0:0:0:
256,192,74958,1,0,0:0:0:0:
256,192,75124,1,8,0:0:0:0:
256,192,75289,1,8,0:0:0:0:
256,192,75621,1,0,0:0:0:0:
256,192,75787,1,8,0:0:0:0:
256,192,75869,1,8,0:0:0:0:
256,192,75952,1,8,0:0:0:0:
256,192,76118,1,0,0:0:0:0:
256,192,76284,1,0,0:0:0:0:
256,192,76450,1,8,0:0:0:0:
256,192,76947,1,8,0:0:0:0:
256,192,77113,1,4,0:0:0:0:
256,192,77444,1,8,0:0:0:0:
256,192,77693,1,8,0:0:0:0:
256,192,77776,1,0,0:0:0:0:
256,192,77941,1,0,0:0:0:0:
256,192,78107,1,8,0:0:0:0:
256,192,78439,1,0,0:0:0:0:
256,192,78770,1,8,0:0:0:0:
256,192,78936,1,0,0:0:0:0:
256,192,79019,1,0,0:0:0:0:
256,192,79102,1,0,0:0:0:0:
256,192,79267,1,0,0:0:0:0:
256,192,79433,1,8,0:0:0:0:
256,192,79765,1,0,0:0:0:0:
256,192,80096,1,8,0:0:0:0:
256,192,80345,1,8,0:0:0:0:
256,192,80427,1,0,0:0:0:0:
256,192,80593,1,0,0:0:0:0:
256,192,80759,1,8,0:0:0:0:
256,192,81090,1,0,0:0:0:0:
256,192,81256,1,0,0:0:0:0:
256,192,81422,1,8,0:0:0:0:
256,192,81753,1,0,0:0:0:0:
256,192,81836,1,0,0:0:0:0:
256,192,81919,1,0,0:0:0:0:
256,192,82085,1,8,0:0:0:0:
256,192,82168,1,8,0:0:0:0:
256,192,82251,1,8,0:0:0:0:
256,192,82416,1,4,0:0:0:0:
256,192,82997,1,8,0:0:0:0:
256,192,83079,1,0,0:0:0:0:
256,192,83245,1,0,0:0:0:0:
256,192,83411,1,8,0:0:0:0:
256,192,83742,1,0,0:0:0:0:
256,192,84074,1,8,0:0:0:0:
256,192,84240,1,0,0:0:0:0:
256,192,84323,1,0,0:0:0:0:
256,192,84405,1,0,0:0:0:0:
256,192,84571,1,0,0:0:0:0:
256,192,84737,1,8,0:0:0:0:
256,192,84903,1,0,0:0:0:0:
256,192,85068,1,8,0:0:0:0:
256,192,85400,1,8,0:0:0:0:
256,192,85566,1,0,0:0:0:0:
256,192,85731,1,8,0:0:0:0:
256,192,86063,1,8,0:0:0:0:
256,192,86394,1,8,0:0:0:0:
256,192,86477,1,8,0:0:0:0:
256,192,86560,1,8,0:0:0:0:
256,192,86726,1,8,0:0:0:0:
256,192,86892,1,8,0:0:0:0:
256,192,87057,1,0,0:0:0:0:
256,192,87140,1,0,0:0:0:0:
256,192,87223,1,0,0:0:0:0:
256,192,87389,1,0,0:0:0:0:
256,192,87555,1,0,0:0:0:0:
256,192,89875,1,8,0:0:0:0:
256,192,89958,1,8,0:0:0:0:
256,192,90041,1,8,0:0:0:0:
256,192,90372,1,4,0:0:0:0:
256,192,90704,1,8,0:0:0:0:
256,192,90869,1,8,0:0:0:0:
256,192,91035,1,0,0:0:0:0:
256,192,91367,1,8,0:0:0:0:
256,192,91532,1,0,0:0:0:0:
256,192,91698,1,0,0:0:0:0:
256,192,91864,1,0,0:0:0:0:
256,192,92030,1,8,0:0:0:0:
256,192,92361,1,0,0:0:0:0:
256,192,92693,1,8,0:0:0:0:
256,192,92776,1,8,0:0:0:0:
256,192,93024,1,0,0:0:0:0:
256,192,93190,1,0,0:0:0:0:
256,192,93356,1,8,0:0:0:0:
256,192,93687,1,8,0:0:0:0:
256,192,93853,1,0,0:0:0:0:
256,192,94019,1,8,0:0:0:0:
256,192,94350,1,8,0:0:0:0:
256,192,94516,1,8,0:0:0:0:
256,192,94682,1,0,0:0:0:0:
256,192,95013,1,8,0:0:0:0:
256,192,95510,1,0,0:0:0:0:
256,192,95593,1,0,0:0:0:0:
256,192,95676,1,0,0:0:0:0:
256,192,96008,1,0,0:0:0:0:
256,192,96173,1,0,0:0:0:0:
256,192,96339,1,8,0:0:0:0:
256,192,96671,1,0,0:0:0:0:
256,192,96836,1,8,0:0:0:0:
256,192,96919,1,8,0:0:0:0:
256,192,97002,1,8,0:0:0:0:
256,192,97168,1,8,0:0:0:0:
256,192,97334,1,0,0:0:0:0:
256,192,97499,1,8,0:0:0:0:
256,192,97831,1,8,0:0:0:0:
256,192,98162,1,0,0:0:0:0:
256,192,98328,1,8,0:0:0:0:
256,192,98494,1,8,0:0:0:0:
256,192,98825,1,0,0:0:0:0:
256,192,98991,1,8,0:0:0:0:
256,192,99157,1,0,0:0:0:0:
256,192,99488,1,0,0:0:0:0:
256,192,99654,1,8,0:0:0:0:
256,192,99820,1,0,0:0:0:0:
256,192,99986,1,8,0:0:0:0:
256,192,100151,1,0,0:0:0:0:
256,192,100234,1,0,0:0:0:0:
256,192,100317,1,0,0:0:0:0:
256,192,100483,1,0,0:0:0:0:
256,192,100648,1,8,0:0:0:0:
256,192,100814,1,0,0:0:0:0:
256,192,100980,1,12,0:0:0:0:
256,192,101477,1,0,0:0:0:0:
256,192,101643,1,8,0:0:0:0:
256,192,101974,1,0,0:0:0:0:
256,192,102140,1,8,0:0:0:0:
256,192,102306,1,0,0:0:0:0:
256,192,102472,1,0,0:0:0:0:
256,192,102637,1,8,0:0:0:0:
256,192,102803,1,8,0:0:0:0:
256,192,102969,1,0,0:0:0:0:
256,192,103466,1,8,0:0:0:0:
256,192,103632,1,0,0:0:0:0:
256,192,103798,1,0,0:0:0:0:
256,192,103963,1,8,0:0:0:0:
256,192,104129,1,0,0:0:0:0:
256,192,104295,1,8,0:0:0:0:
256,192,104626,1,0,0:0:0:0:
256,192,104958,1,8,0:0:0:0:
256,192,105124,1,0,0:0:0:0:
256,192,105289,1,8,0:0:0:0:
256,192,105621,1,0,0:0:0:0:
256,192,106118,1,0,0:0:0:0:
256,192,106284,1,8,0:0:0:0:
256,192,106615,1,0,0:0:0:0:
256,192,106781,1,0,0:0:0:0:
256,192,106947,1,8,0:0:0:0:
256,192,107444,1,0,0:0:0:0:
256,192,107610,1,8,0:0:0:0:
256,192,107776,1,8,0:0:0:0:
256,192,107941,1,0,0:0:0:0:
256,192,108107,1,8,0:0:0:0:
256,192,108273,1,0,0:0:0:0:
256,192,108770,1,0,0:0:0:0:
256,192,108936,1,8,0:0:0:0:
256,192,109267,1,0,0:0:0:0:
256,192,109599,1,8,0:0:0:0:
256,192,110096,1,0,0:0:0:0:
256,192,110262,1,8,0:0:0:0:
256,192,110427,1,0,0:0:0:0:
256,192,110593,1,8,0:0:0:0:
256,192,110759,1,0,0:0:0:0:
256,192,110925,1,8,0:0:0:0:
256,192,111090,1,8,0:0:0:0:
256,192,111256,1,8,0:0:0:0:
256,192,111422,1,0,0:0:0:0:
256,192,111588,1,12,0:0:0:0:
256,192,111836,1,0,0:0:0:0:
256,192,111919,1,0,0:0:0:0:
256,192,112085,1,8,0:0:0:0:
256,192,112251,1,0,0:0:0:0:
256,192,112334,1,0,0:0:0:0:
256,192,112416,1,0,0:0:0:0:
256,192,112582,1,8,0:0:0:0:
256,192,112831,1,0,0:0:0:0:
256,192,112914,1,0,0:0:0:0:
256,192,113079,1,8,0:0:0:0:
256,192,113245,1,8,0:0:0:0:
256,192,113411,1,0,0:0:0:0:
256,192,113577,1,8,0:0:0:0:
256,192,113908,1,8,0:0:0:0:
256,192,114240,1,8,0:0:0:0:
256,192,114323,1,8,0:0:0:0:
256,192,114405,1,8,0:0:0:0:
256,192,114571,1,0,0:0:0:0:
256,192,114737,1,8,0:0:0:0:
256,192,114820,1,8,0:0:0:0:
256,192,114903,1,8,0:0:0:0:
256,192,115068,1,0,0:0:0:0:
256,192,115234,1,8,0:0:0:0:
256,192,115400,1,0,0:0:0:0:
256,192,115566,1,8,0:0:0:0:
256,192,116063,1,0,0:0:0:0:
256,192,116229,1,8,0:0:0:0:
256,192,116560,1,8,0:0:0:0:
256,192,116892,1,4,0:0:0:0:
256,192,117223,1,8,0:0:0:0:
256,192,117389,1,0,0:0:0:0:
256,192,117472,1,0,0:0:0:0:
256,192,117555,1,0,0:0:0:0:
256,192,117720,1,0,0:0:0:0:
256,192,117886,1,8,0:0:0:0:
256,192,117969,1,8,0:0:0:0:
256,192,118052,1,8,0:0:0:0:
256,192,118218,1,0,0:0:0:0:
256,192,118383,1,0,0:0:0:0:
256,192,118549,1,8,0:0:0:0:
256,192,118881,1,0,0:0:0:0:
256,192,119212,1,8,0:0:0:0:
256,192,119544,1,0,0:0:0:0:
256,192,119709,1,0,0:0:0:0:
256,192,119875,1,8,0:0:0:0:
256,192,119958,1,8,0:0:0:0:
256,192,120041,1,8,0:0:0:0:
256,192,120206,1,0,0:0:0:0:
256,192,120538,1,8,0:0:0:0:
256,192,120704,1,0,0:0:0:0:
256,192,120787,1,0,0:0:0:0:
256,192,120869,1,0,0:0:0:0:
256,192,121035,1,0,0:0:0:0:
256,192,121201,1,8,0:0:0:0:
256,192,121367,1,0,0:0:0:0:
256,192,121532,1,8,0:0:0:0:
256,192,121698,1,8,0:0:0:0:
256,192,121864,1,0,0:0:0:0:
256,192,121947,1,0,0:0:0:0:
256,192,122030,1,0,0:0:0:0:
256,192,122195,1,8,0:0:0:0:
256,192,122527,1,8,0:0:0:0:
256,192,122693,1,8,0:0:0:0:
256,192,122858,1,0,0:0:0:0:
256,192,123190,1,0,0:0:0:0:
256,192,123356,1,8,0:0:0:0:
256,192,123687,1,8,0:0:0:0:
256,192,123770,1,8,0:0:0:0:
256,192,123853,1,8,0:0:0:0:
256,192,124184,1,0,0:0:0:0:
256,192,124682,1,0,0:0:0:0:
256,192,124847,1,8,0:0:0:0:
256,192,125179,1,0,0:0:0:0:
256,192,125345,1,0,0:0:0:0:
256,192,125510,1,8,0:0:0:0:
256,192,125593,1,8,0:0:0:0:
256,192,125676,1,8,0:0:0:0:
256,192,125842,1,0,0:0:0:0:
256,192,126008,1,8,0:0:0:0:
256,192,126090,1,8,0:0:0:0:
256,192,126173,1,8,0:0:0:0:
256,192,126339,1,8,0:0:0:0:
256,192,126505,1,0,0:0:0:0:
256,192,126671,1,0,0:0:0:0:
256,192,126836,1,8,0:0:0:0:
256,192,127168,1,0,0:0:0:0:
256,192,127334,1,0,0:0:0:0:
256,192,127499,1,8,0:0:0:0:
256,192,127831,1,0,0:0:0:0:
256,192,127997,1,0,0:0:0:0:
256,192,128162,1,8,0:0:0:0:
256,192,128328,1,0,0:0:0:0:
256,192,128494,1,8,0:0:0:0:
256,192,128660,1,0,0:0:0:0:
256,192,128742,1,0,0:0:0:0:
256,192,128825,1,0,0:0:0:0:
256,192,129157,1,0,0:0:0:0:
256,192,129488,1,0,0:0:0:0:
256,192,129820,1,0,0:0:0:0:
256,192,129986,1,8,0:0:0:0:
256,192,130068,1,8,0:0:0:0:
256,192,130151,1,8,0:0:0:0:
256,192,130483,1,0,0:0:0:0:
256,192,130648,1,8,0:0:0:0:
256,192,130814,1,0,0:0:0:0:
256,192,130980,1,0,0:0:0:0:
256,192,131146,1,8,0:0:0:0:
256,192,131311,1,8,0:0:0:0:
256,192,131394,1,8,0:0:0:0:
256,192,131477,1,8,0:0:0:0:
256,192,131643,1,0,0:0:0:0:
256,192,131809,1,8,0:0:0:0:
256,192,131974,1,0,0:0:0:0:
256,192,132140,1,8,0:0:0:0:
256,192,132803,1,0,0:0:0:0:
256,192,132969,1,0,0:0:0:0:
256,192,133135,1,8,0:0:0:0:
256,192,133466,1,0,0:0:0:0:
256,192,133632,1,0,0:0:0:0:
256,192,133798,1,8,0:0:0:0:
256,192,134129,1,8,0:0:0:0:
256,192,134378,1,0,0:0:0:0:
256,192,134461,1,0,0:0:0:0:
256,192,134626,1,0,0:0:0:0:
256,192,134792,1,8,0:0:0:0:
256,192,135124,1,0,0:0:0:0:
256,192,135289,1,0,0:0:0:0:
256,192,135455,1,8,0:0:0:0:
256,192,135621,1,0,0:0:0:0:
256,192,135787,1,8,0:0:0:0:
256,192,135952,1,0,0:0:0:0:
256,192,136118,1,8,0:0:0:0:
256,192,136284,1,0,0:0:0:0:
256,192,136450,1,8,0:0:0:0:
256,192,136781,1,8,0:0:0:0:
256,192,136864,1,8,0:0:0:0:
256,192,136947,1,8,0:0:0:0:
256,192,137113,1,0,0:0:0:0:
256,192,137195,1,0,0:0:0:0:
256,192,137278,1,0,0:0:0:0:
256,192,137444,1,8,0:0:0:0:
256,192,137610,1,8,0:0:0:0:
256,192,137776,1,0,0:0:0:0:
256,192,138107,1,12,0:0:0:0:
256,192,138604,1,0,0:0:0:0:
256,192,138770,1,8,0:0:0:0:
256,192,139102,1,0,0:0:0:0:
256,192,139433,1,8,0:0:0:0:
256,192,139599,1,8,0:0:0:0:
256,192,139930,1,0,0:0:0:0:
256,192,140096,1,8,0:0:0:0:
256,192,140427,1,0,0:0:0:0:
256,192,140759,1,4,0:0:0:0:
256,192,141256,1,0,0:0:0:0:
256,192,141422,1,8,0:0:0:0:
256,192,141753,1,0,0:0:0:0:
256,192,142085,1,0,0:0:0:0:
256,192,142251,1,8,0:0:0:0:
256,192,142582,1,0,0:0:0:0:
256,192,142665,1,0,0:0:0:0:
256,192,142748,1,0,0:0:0:0:
256,192,142914,1,8,0:0:0:0:
256,192,143079,1,8,0:0:0:0:
256,192,143245,1,8,0:0:0:0:
256,192,143411,1,4,0:0:0:0:
256,192,143908,1,0,0:0:0:0:
256,192,144074,1,8,0:0:0:0:
256,192,144405,1,0,0:0:0:0:
256,192,144737,1,0,0:0:0:0:
256,192,144903,1,8,0:0:0:0:
256,192,145234,1,0,0:0:0:0:
256,192,145400,1,8,0:0:0:0:
256,192,145731,1,8,0:0:0:0:
256,192,145814,1,8,0:0:0:0:
256,192,145897,1,8,0:0:0:0:
256,192,146063,1,0,0:0:0:0:
256,192,146394,1,0,0:0:0:0:
256,192,146560,1,0,0:0:0:0:
256,192,146726,1,8,0:0:0:0:
256,192,147057,1,0,0:0:0:0:
256,192,147223,1,8,0:0:0:0:
256,192,147389,1,0,0:0:0:0:
256,192,147555,1,8,0:0:0:0:
256,192,147637,1,8,0:0:0:0:
256,192,147720,1,8,0:0:0:0:
256,192,147886,1,0,0:0:0:0:
256,192,148052,1,8,0:0:0:0:
256,192,148218,1,0,0:0:0:0:
256,192,148383,1,8,0:0:0:0:
256,192,148715,1,4,0:0:0:0:
256,192,149046,1,8,0:0:0:0:
256,192,149212,1,8,0:0:0:0:
256,192,149378,1,0,0:0:0:0:
256,192,149875,1,8,0:0:0:0:
256,192,150041,1,0,0:0:0:0:
256,192,150206,1,0,0:0:0:0:
256,192,150372,1,8,0:0:0:0:
256,192,150704,1,0,0:0:0:0:
256,192,150869,1,0,0:0:0:0:
256,192,151035,1,8,0:0:0:0:
256,192,151201,1,8,0:0:0:0:
256,192,151367,1,0,0:0:0:0:
256,192,151698,1,0,0:0:0:0:
256,192,151864,1,0,0:0:0:0:
256,192,152030,1,8,0:0:0:0:
256,192,152361,1,8,0:0:0:0:
256,192,152527,1,0,0:0:0:0:
256,192,152693,1,8,0:0:0:0:
256,192,153024,1,8,0:0:0:0:
256,192,153190,1,8,0:0:0:0:
256,192,153356,1,8,0:0:0:0:
256,192,153521,1,0,0:0:0:0:
256,192,153687,1,8,0:0:0:0:
256,192,154019,1,0,0:0:0:0:
256,192,154184,1,0,0:0:0:0:
256,192,154350,1,8,0:0:0:0:
256,192,154516,1,8,0:0:0:0:
256,192,154682,1,0,0:0:0:0:
256,192,154847,1,0,0:0:0:0:
256,192,155345,1,0,0:0:0:0:
256,192,155676,1,8,0:0:0:0:
256,192,155842,1,8,0:0:0:0:
256,192,156008,1,0,0:0:0:0:
256,192,156173,1,0,0:0:0:0:
256,192,156339,1,8,0:0:0:0:
256,192,156505,1,0,0:0:0:0:
256,192,156671,1,8,0:0:0:0:
256,192,157168,1,0,0:0:0:0:
256,192,157334,1,8,0:0:0:0:
256,192,157499,1,8,0:0:0:0:
256,192,157582,1,8,0:0:0:0:
256,192,157665,1,8,0:0:0:0:
256,192,157831,1,8,0:0:0:0:
256,192,157997,12,0,158991,0:0:0:0:
256,192,159323,5,4,0:0:0:0:
256,192,159654,1,8,0:0:0:0:
256,192,159903,1,8,0:0:0:0:
256,192,159986,1,0,0:0:0:0:
256,192,160151,1,0,0:0:0:0:
256,192,160317,1,8,0:0:0:0:
256,192,160648,1,0,0:0:0:0:
256,192,160980,1,8,0:0:0:0:
256,192,161146,1,0,0:0:0:0:
256,192,161229,1,0,0:0:0:0:
256,192,161311,1,0,0:0:0:0:
256,192,161477,1,0,0:0:0:0:
256,192,161643,1,8,0:0:0:0:
256,192,161974,1,0,0:0:0:0:
256,192,162306,1,8,0:0:0:0:
256,192,162555,1,8,0:0:0:0:
256,192,162637,1,0,0:0:0:0:
256,192,162803,1,0,0:0:0:0:
256,192,162969,1,8,0:0:0:0:
256,192,163300,1,0,0:0:0:0:
256,192,163466,1,0,0:0:0:0:
256,192,163632,1,8,0:0:0:0:
256,192,163963,1,0,0:0:0:0:
256,192,164046,1,0,0:0:0:0:
256,192,164129,1,0,0:0:0:0:
256,192,164295,1,8,0:0:0:0:
256,192,164378,1,8,0:0:0:0:
256,192,164461,1,8,0:0:0:0:
256,192,164626,1,4,0:0:0:0:
256,192,165206,1,8,0:0:0:0:
256,192,165289,1,0,0:0:0:0:
256,192,165455,1,0,0:0:0:0:
256,192,165621,1,8,0:0:0:0:
256,192,165952,1,0,0:0:0:0:
256,192,166284,1,8,0:0:0:0:
256,192,166450,1,0,0:0:0:0:
256,192,166532,1,0,0:0:0:0:
256,192,166615,1,0,0:0:0:0:
256,192,166781,1,0,0:0:0:0:
256,192,166947,1,8,0:0:0:0:
256,192,167278,1,0,0:0:0:0:
256,192,167444,1,8,0:0:0:0:
256,192,167527,1,8,0:0:0:0:
256,192,167610,1,8,0:0:0:0:
256,192,167776,1,8,0:0:0:0:
256,192,167941,1,0,0:0:0:0:
256,192,168273,1,8,0:0:0:0:
256,192,168439,1,8,0:0:0:0:
256,192,168604,1,0,0:0:0:0:
256,192,168687,1,0,0:0:0:0:
256,192,168770,1,0,0:0:0:0:
256,192,168936,1,8,0:0:0:0:
256,192,169267,1,0,0:0:0:0:
256,192,169350,1,0,0:0:0:0:
256,192,169433,1,0,0:0:0:0:
256,192,169599,1,8,0:0:0:0:
256,192,169765,1,8,0:0:0:0:
256,192,169930,1,4,0:0:0:0:
256,192,170427,1,0,0:0:0:0:
256,192,170593,1,8,0:0:0:0:
256,192,170759,1,8,0:0:0:0:
256,192,171090,1,8,0:0:0:0:
256,192,171256,1,0,0:0:0:0:
256,192,171422,1,8,0:0:0:0:
256,192,171588,1,0,0:0:0:0:
256,192,171919,1,8,0:0:0:0:
256,192,172085,1,8,0:0:0:0:
256,192,172416,1,8,0:0:0:0:
256,192,172582,1,4,0:0:0:0:
256,192,172914,1,0,0:0:0:0:
256,192,173079,1,0,0:0:0:0:
256,192,173245,1,8,0:0:0:0:
256,192,173411,1,8,0:0:0:0:
256,192,173742,1,8,0:0:0:0:
256,192,173908,1,0,0:0:0:0:
256,192,174074,1,8,0:0:0:0:
256,192,174240,1,0,0:0:0:0:
256,192,174405,1,8,0:0:0:0:
256,192,174488,1,8,0:0:0:0:
256,192,174571,1,8,0:0:0:0:
256,192,174737,1,8,0:0:0:0:
256,192,174903,1,0,0:0:0:0:
256,192,175068,1,8,0:0:0:0:
256,192,175234,1,4,0:0:0:0:
256,192,175566,1,0,0:0:0:0:
256,192,175731,1,0,0:0:0:0:
256,192,175897,1,8,0:0:0:0:
256,192,176063,1,8,0:0:0:0:
256,192,176229,1,0,0:0:0:0:
256,192,176560,1,8,0:0:0:0:
256,192,176892,1,8,0:0:0:0:
256,192,177057,1,0,0:0:0:0:
256,192,177223,1,8,0:0:0:0:
256,192,177555,1,8,0:0:0:0:
256,192,177720,1,8,0:0:0:0:
256,192,177886,1,4,0:0:0:0:
256,192,180206,1,4,0:0:0:0:
256,192,180372,1,12,0:0:0:0:
