osu file format v14

[General]
AudioFilename: audio.mp3
AudioLeadIn: 0
PreviewTime: -1
Countdown: 0
SampleSet: None
StackLeniency: 0.2
Mode: 0
LetterboxInBreaks: 0
WidescreenStoryboard: 0

[Editor]
Bookmarks: 33815
DistanceSpacing: 0.4
BeatDivisor: 4
GridSize: 4
TimelineZoom: 1

[Metadata]
Title:Greenlights Serenade
TitleUnicode:Greenlights Serenade
Artist:Omoi
ArtistUnicode:Omoi
Creator:DRythm
Version:Magical Moment
Source:
Tags:
BeatmapID:1951153
BeatmapSetID:934588

[Difficulty]
HPDrainRate:5
CircleSize:4.2
OverallDifficulty:9
ApproachRate:9.6
SliderMultiplier:1.4
SliderTickRate:1

[Events]
//Background and Video events
0,0,"Greenlight Serenade.png",0,0
//Break Periods
//Storyboard Layer 0 (Background)
//Storyboard Layer 1 (Fail)
//Storyboard Layer 2 (Pass)
//Storyboard Layer 3 (Foreground)
//Storyboard Sound Samples

[TimingPoints]
65,299.995500067499,4,3,0,50,1,0
9665,-133.333333333333,4,3,0,50,0,0
19265,-100,4,3,0,50,0,0
50014,-83.3333333333333,4,3,0,50,0,0
52265,-83.3333333333333,4,3,0,50,0,1
57665,-50,4,3,0,50,0,1
90965,-100,4,3,0,50,0,0
122465,-83.3333333333333,4,3,0,50,0,1
153065,-100,4,3,0,50,0,0

[Colours]
Combo1 : 128,255,128
Combo2 : 255,255,255
Combo3 : 128,255,255
Combo4 : 0,255,128

[HitObjects]
64,70,9664,6,0,L|136:193,1,140
164,210,10264,2,0,L|147:84,1,105.000004005432
172,42,10864,6,0,L|211:150,1,105.000004005432
199,203,11464,2,0,L|290:113,1,105.000004005432
312,81,12064,6,0,L|193:120,1,105.000004005432
156,142,12664,2,0,L|279:150,1,105.000004005432
323,143,13264,6,0,L|215:79,1,105.000004005432
171,72,13864,2,0,L|267:136,1,105.000004005432
405,178,14464,5,0,0:0:0:0:
405,178,14764,1,0,0:0:0:0:
187,67,15064,5,0,0:0:0:0:
187,67,15364,1,0,0:0:0:0:
288,348,15664,5,0,0:0:0:0:
288,348,15964,1,0,0:0:0:0:
329,57,16264,5,0,0:0:0:0:
329,57,16564,1,0,0:0:0:0:
59,231,16864,5,0,0:0:0:0:
59,231,17164,1,0,0:0:0:0:
405,178,17464,6,0,L|338:216,1,52.5000020027161
171,307,17764,1,0,0:0:0:0:
253,138,17914,1,0,0:0:0:0:
256,192,18064,12,0,19189,0:0:0:0:
298,176,19264,6,0,P|254:161|209:132,1,70
90,39,19564,1,0,0:0:0:0:
118,192,19714,2,0,B|140:205|137:243|167:252,1,70
308,336,20014,5,0,0:0:0:0:
187,370,20164,1,0,0:0:0:0:
303,210,20314,2,0,B|313:172|351:170|349:127,1,70
452,42,20614,5,0,0:0:0:0:
434,262,20764,1,0,0:0:0:0:
343,153,20914,2,0,B|316:147|318:115|276:104,1,70
211,24,21214,5,0,0:0:0:0:
211,216,21364,2,0,L|211:74,1,140
290,109,21814,5,0,0:0:0:0:
290,282,21964,1,0,0:0:0:0:
374,175,22114,2,0,P|394:146|413:116,1,70
242,333,22414,5,0,0:0:0:0:
66,192,22564,1,0,0:0:0:0:
211,216,22714,2,0,B|232:191|232:191|232:139,1,70
231,21,23014,5,0,0:0:0:0:
376,167,23164,1,0,0:0:0:0:
261,330,23314,1,0,0:0:0:0:
261,330,23464,2,0,P|233:352|240:327,1,70
238,312,23764,1,0,0:0:0:0:
238,170,23914,1,0,0:0:0:0:
238,20,24064,6,0,L|191:83,1,70
102,225,24364,1,0,0:0:0:0:
102,225,24514,2,0,L|171:190,1,70
309,134,24814,5,0,0:0:0:0:
462,305,24964,1,0,0:0:0:0:
468,136,25114,2,0,L|400:211,1,70
304,310,25414,5,0,0:0:0:0:
129,374,25564,1,0,0:0:0:0:
237,125,25714,2,0,L|167:140,1,70
49,199,26014,2,0,P|93:241|120:249,1,70
114,247,26239,1,0,0:0:0:0:
127,248,26314,1,0,0:0:0:0:
319,296,26464,5,0,0:0:0:0:
197,128,26614,1,0,0:0:0:0:
397,123,26764,1,0,0:0:0:0:
397,123,26839,1,0,0:0:0:0:
397,123,26914,2,0,P|357:92|309:80,1,70
179,34,27214,5,0,0:0:0:0:
197,226,27364,1,0,0:0:0:0:
367,314,27514,2,0,L|449:314,1,70
220,348,27814,5,0,0:0:0:0:
220,175,27964,1,0,0:0:0:0:
220,2,28114,2,0,L|169:75,1,70
64,207,28414,5,0,0:0:0:0:
274,139,28564,1,0,0:0:0:0:
274,139,28639,1,0,0:0:0:0:
274,139,28714,1,0,0:0:0:0:
167,312,28864,5,0,0:0:0:0:
127,105,29014,1,0,0:0:0:0:
309,266,29164,1,0,0:0:0:0:
64,207,29314,2,0,B|67:170|67:170|89:146,1,70
156,63,29614,5,0,0:0:0:0:
282,197,29764,1,0,0:0:0:0:
367,35,29914,2,0,L|367:109,1,70
367,321,30214,5,0,0:0:0:0:
190,234,30364,1,0,0:0:0:0:
156,63,30514,2,0,B|114:77|114:77|87:125,1,70
49,281,30814,5,0,0:0:0:0:
211,159,30964,1,0,0:0:0:0:
211,159,31039,1,0,0:0:0:0:
211,159,31114,1,0,0:0:0:0:
187,350,31264,5,0,0:0:0:0:
323,110,31414,1,0,0:0:0:0:
307,305,31564,1,0,0:0:0:0:
428,124,31714,2,0,L|484:60,1,70
474,257,32014,5,0,0:0:0:0:
310,359,32164,1,0,0:0:0:0:
105,359,32314,1,0,0:0:0:0:
61,52,32614,5,0,0:0:0:0:
82,79,32689,1,0,0:0:0:0:
96,111,32764,1,0,0:0:0:0:
101,145,32839,1,0,0:0:0:0:
99,199,32914,1,0,0:0:0:0:
80,257,32989,1,0,0:0:0:0:
80,257,33064,5,0,0:0:0:0:
132,207,33139,1,0,0:0:0:0:
190,163,33214,1,0,0:0:0:0:
258,135,33289,1,0,0:0:0:0:
334,127,33364,1,0,0:0:0:0:
413,123,33439,1,0,0:0:0:0:
487,92,33514,1,0,0:0:0:0:
459,212,33664,6,0,B|444:246|444:246|411:261,1,70
331,244,33964,2,0,B|346:210|346:210|379:195,1,70
312,319,34264,6,0,B|278:304|278:304|263:271,1,70,0|0,2:0|2:0,2:0:0:0:
396,128,34564,2,0,B|429:143|429:143|445:176,1,70,0|0,2:0|2:0,2:0:0:0:
245,370,34864,6,0,B|212:351|212:351|201:317,1,70,0|0,2:0|2:0,2:0:0:0:
456,77,35164,2,0,B|488:95|488:95|499:129,1,70,0|0,2:0|2:0,2:0:0:0:
188,384,35464,2,0,B|157:374|157:374|138:341,1,70,0|0,2:0|2:0,2:0:0:0:
206,315,35764,2,0,B|232:297|232:297|242:260,1,70,0|0,2:0|2:0,2:0:0:0:
251,213,35989,5,0,0:0:0:0:
261,193,36064,2,0,B|321:215|288:164|288:164|285:95,1,140
260,27,36664,5,0,0:0:0:0:
271,24,36964,2,0,P|333:41|358:112,2,140
181,83,37864,2,0,P|168:107|123:129,1,70
44,142,38164,1,0,0:0:0:0:
44,142,38464,6,0,P|55:185|97:212,1,70
194,191,38764,2,0,P|175:231|129:250,1,70
37,332,39064,2,0,P|54:362|84:378,1,70
182,377,39364,2,0,P|214:348|261:335,1,70
249,254,39664,6,0,P|214:248|180:253,1,70
232,120,39964,2,0,P|256:145|270:176,1,70
339,238,40264,2,0,P|356:207|363:173,1,70
427,291,40564,2,0,P|395:319|348:333,1,70
268,316,40864,6,0,P|251:268|426:222,1,280
302,284,41764,5,0,0:0:0:0:
292,258,42064,2,0,P|263:216|396:112,1,245
402,111,42664,1,0,0:0:0:0:
402,111,42964,1,2,0:0:0:0:
458,201,43414,6,0,B|445:237|445:237|465:282,1,70
348,185,43714,1,0,0:0:0:0:
371,319,43864,2,0,P|333:302|299:261,1,70
208,174,44164,2,0,P|189:183|216:175,1,140
204,59,44614,1,0,0:0:0:0:
212,44,44764,2,0,L|312:61,1,70
389,150,45064,6,0,L|331:223,1,70
239,316,45364,1,0,0:0:0:0:
180,118,45514,1,0,0:0:0:0:
405,142,45664,2,0,P|445:179|444:210,1,70
415,308,45964,5,0,0:0:0:0:
291,199,46114,1,0,0:0:0:0:
255,46,46264,1,0,0:0:0:0:
227,279,46414,1,0,0:0:0:0:
178,140,46564,2,0,P|117:173|88:236,1,140
93,345,47014,5,0,0:0:0:0:
216,290,47164,1,0,0:0:0:0:
210,384,47314,5,0,0:0:0:0:
333,329,47464,1,0,0:0:0:0:
196,217,47614,5,0,0:0:0:0:
391,263,47764,1,0,0:0:0:0:
282,146,47914,1,0,0:0:0:0:
483,264,48064,2,0,P|495:198|471:125,2,140
295,243,48814,5,0,0:0:0:0:
391,350,48964,1,0,0:0:0:0:
193,213,49114,5,0,0:0:0:0:
216,351,49264,1,0,0:0:0:0:
164,131,49414,5,0,0:0:0:0:
83,246,49564,1,0,0:0:0:0:
170,252,49714,5,0,0:0:0:0:
42,107,49864,1,0,0:0:0:0:
119,43,50164,6,0,P|200:20|286:11,1,167.999994873047
208,93,50764,6,0,P|292:91|377:105,1,167.999994873047
273,166,51364,6,0,P|354:186|433:221,1,167.999994873047
471,267,51814,1,0,0:0:0:0:
352,326,51964,1,0,0:0:0:0:
154,231,52114,1,0,0:0:0:0:
109,61,52264,5,0,0:0:0:0:
183,330,52414,1,0,0:0:0:0:
208,70,52564,5,0,0:0:0:0:
62,181,52714,1,0,0:0:0:0:
358,108,52864,2,0,P|457:134|426:191,1,167.999994873047
311,349,53314,5,0,0:0:0:0:
124,96,53464,1,0,0:0:0:0:
411,87,53614,1,0,0:0:0:0:
107,92,53764,1,0,0:0:0:0:
429,84,53914,1,0,0:0:0:0:
260,319,54064,6,0,P|278:334|222:330,1,167.999994873047
251,122,54514,5,0,0:0:0:0:
339,255,54664,1,0,0:0:0:0:
409,43,54814,1,0,0:0:0:0:
480,169,54964,1,0,0:0:0:0:
225,210,55114,1,0,0:0:0:0:
225,210,55264,2,0,L|155:133,1,83.9999974365235
114,109,55564,2,0,L|173:177,1,83.9999974365235
215,271,55864,2,0,L|145:194,1,83.9999974365235
29,116,56164,2,0,L|88:184,1,83.9999974365235
163,357,56464,2,0,L|21:211,1,167.999994873047
27,204,56839,5,0,0:0:0:0:
28,141,56914,1,0,0:0:0:0:
57,86,56989,1,0,0:0:0:0:
104,67,57064,2,0,B|157:52|42:-11|201:50|214:41|205:58|228:49|177:50|222:39|219:52|142:58|239:67|240:84|215:51|206:60|201:46|209:55|206:38|260:54|196:58|276:72|197:61|216:74|192:71|225:64|212:60|203:51|209:61|200:54|197:53|196:54|196:54|238:58|212:52|243:69|204:35|208:45|252:80|164:78|199:63|221:34|225:58|197:58|226:47|212:51|216:67|179:63|173:27|271:64|202:54|205:67|212:62,1,251.999992309571
202,30,57664,6,0,P|168:165|82:274,1,280
