osu file format v14

[General]
AudioFilename: audio.mp3
AudioLeadIn: 0
PreviewTime: 174640
Countdown: 0
SampleSet: Normal
StackLeniency: 0.3
Mode: 0
LetterboxInBreaks: 0
WidescreenStoryboard: 1

[Editor]
Bookmarks: 323,2710,4422,30059,41096,77513,173508,173883
DistanceSpacing: 1
BeatDivisor: 4
GridSize: 4
TimelineZoom: 2.4

[Metadata]
Title:Chiisana Koi no Uta (Synth Rock Cover)
TitleUnicode:小さな恋のうた (Synth Rock Cover)
Artist:Omoi
ArtistUnicode:Omoi
Creator:val0108
Version:Insane
Source:
Tags:Hatsune_Miku Miku vocaloid M_a_r_v_o_l_l_o Alphabet Kawashiro Marianna Frey Kroytz OnosakiHito Shmiklak Venax
BeatmapID:1419961
BeatmapSetID:609189

[Difficulty]
HPDrainRate:4.9
CircleSize:3.8
OverallDifficulty:7.3
ApproachRate:9
SliderMultiplier:1.5
SliderTickRate:1

[Events]
//Background and Video events
0,0,"ore no uta.jpg",0,0
//Break Periods
2,83166,89671
2,108210,111453
//Storyboard Layer 0 (Background)
//Storyboard Layer 1 (Fail)
//Storyboard Layer 2 (Pass)
//Storyboard Layer 3 (Foreground)
Sprite,Foreground,Centre,"sb\p1\ly01.png",320,240 F,0,1687,2232,0,1 M,0,1687,6051,217.6,204.2301,253.3699,204.2301 F,0,5505,6051,1,0
Sprite,Foreground,Centre,"sb\p1\ly02.png",320,240 F,0,6051,6596,0,1 M,0,6051,10414,422.4,317.852,375.4082,317.1507 F,0,9869,10414,1,0
Sprite,Foreground,Centre,"sb\p1\ly04.png",320,240 F,0,14778,15323,0,1 M,0,14778,19141,358.5753,395.7041,309.4795,395.7041 F,0,18596,19141,1,0 F,0,19141,,0
Sprite,Foreground,Centre,"sb\p1\ly03.png",320,240 F,0,10414,10960,0,1 M,0,10414,14778,230.2247,252.6247,277.2165,252.6247 F,0,14232,14778,1,0
Sprite,Foreground,Centre,"sb\p1\ly05.png",320,240 F,0,20232,20778,0,1 M,0,20232,22414,174.115,112.3507,200.0657,112.3507 F,0,20778,,1 F,0,21869,,1 F,0,21869,22414,1,0.007326007
Sprite,Foreground,Centre,"sb\p1\ly06.png",320,240 F,0,22414,22960,0,1 M,0,22414,24596,450.4549,173.3698,421.6986,173.3698 F,0,24051,24596,1,0
Sprite,Foreground,Centre,"sb\p1\ly07.png",320,240 F,0,24596,25141,0,1 M,0,24596,26778,254.7726,298.9151,289.8411,298.9151 F,0,26232,26778,1,0.005504587
Sprite,Foreground,Centre,"sb\p1\ly08.png",320,240 F,0,26778,27323,0,1 M,0,26778,28960,413.9836,364.1425,381.0192,364.1425 R,0,27404,,0.01402771 F,0,28414,28960,1,0
Sprite,Foreground,Centre,"sb\p1\ly09.png",320,240 S,0,28960,29096,0.1,1 M,0,29096,,146.2301,230.8822 M,0,29096,30596,146.2301,230.8822,171.3096,230.8822 S,0,30596,30732,1,0.1
Sprite,Foreground,Centre,"sb\p1\ly21.png",320,240 S,0,31005,31141,0.1,1 M,0,31141,32778,493.9397,331.8795,459.5726,331.8795 S,0,32778,32914,0.9801471,0.1
Sprite,Foreground,Centre,"sb\p1\ly25.png",320,240 S,0,33187,33323,0.1,1 M,0,33323,34960,137.6439,282.0822,169.9069,282.0822 S,0,34960,35096,1,0.1
Sprite,Foreground,Centre,"sb\p1\ly26.png",320,240 S,0,35369,35505,0.1,1 M,0,35505,37141,491.1342,218.2575,455.3644,218.2575 S,0,37141,37278,0.9933823,0.1
Sprite,Foreground,Centre,"sb\p1\lycro09.png",320,240 S,0,37551,37687,0.1,1 M,0,37687,39323,526.2028,171.9671,526.2028,204.9315 S,0,41505,41641,1,0.1
Sprite,Foreground,Centre,"sb\p1\lycro11.png",320,240 S,0,39732,39869,0.1,1 M,0,39869,41505,492.537,370.4548,492.537,329.7753 S,0,41505,41641,1,0.1
Sprite,Foreground,Centre,"sb\p1\lycro12.png",320,240 S,0,41914,42051,0.1,1 M,0,42051,43687,109.589,212.6466,109.589,242.8055 S,0,43687,43823,1,0.1
Sprite,Foreground,Centre,"sb\p1\ly14.png",320,240 S,0,44096,44232,0.1,1 M,0,44232,49141,313.6877,286.9918 S,0,49141,49278,1,0.1
Sprite,Foreground,Centre,"sb\p1\lycro01.png",320,240 M,0,49687,,207.0795,143.9123 F,0,49687,49960,0,1 S,0,49687,50232,1,1.252493 F,0,50232,50505,1,0
Sprite,Foreground,Centre,"sb\p1\lycro02.png",320,240 F,0,51051,51596,0,1 M,0,51051,51662,465.1834,180.3836,465.1834,179.6822 S,0,51051,52414,0.6843833,0.8667396 F,0,54596,55141,1,0
Sprite,Foreground,Centre,"sb\p1\lycro03.png",320,240 M,0,53232,,433.6219,329.0739 F,0,53232,53778,0,1 S,0,53232,54596,0.7404935,0.852713 F,0,54596,55141,0.9989032,0 F,0,55141,,0
Sprite,Foreground,Centre,"sb\p1\ly15.png",320,240 M,0,55414,,325.6109,172.6685 F,0,55414,55960,0,1 S,0,55414,57869,0.9579177,1.084164 F,0,57869,58414,0.9945055,0
Sprite,Foreground,Centre,"sb\p1\lycro05.png",320,240 M,0,58414,,529.0082,142.5096 F,0,58414,58687,0,1 S,0,58414,59232,1,1.175342 F,0,59232,59505,1,0
Sprite,Foreground,Centre,"sb\p1\lycro06.png",320,240 M,0,59778,,114.4987,188.0986 F,0,59778,60323,0,1 S,0,59778,61141,0.8386849,0.9158354 F,0,63323,63869,1,0
Sprite,Foreground,Centre,"sb\p1\lycro07.png",320,240 M,0,61960,,153.0739,312.9425 F,0,61960,62505,0,1 S,0,61960,63323,0.7545206,0.838685 F,0,63323,63869,0.9981651,0
Sprite,Foreground,Centre,"sb\p1\ly16.png",320,240 M,0,64141,,323.5069,335.3863 V,0,64141,,1,1 F,0,64141,64687,0,1 S,0,64141,66596,0.7615345,1.070137 F,0,66596,67141,1,0
Sprite,Foreground,Centre,"sb\p1\ly17.png",320,240 M,0,67141,,153.7753,105.337 F,0,67141,67687,0,1 S,0,67141,70960,1,1.329644 F,0,70960,71505,1,0
Sprite,Foreground,Centre,"sb\p1\ly17.png",320,240 M,0,71505,,531.1124,237.1945 F,0,71505,72051,0,1 S,0,71505,75323,1,1.364713 F,0,75323,75869,1,0
Sprite,Foreground,Centre,"sb\p1\ly17.png",320,240 M,0,75869,,125.7205,398.5096 F,0,75869,76414,0.09523285,1 S,0,75869,79687,1,1.364712 F,0,79687,80232,1,0.0286026
Sprite,Foreground,Centre,"sb\p1\ly16.png",320,240 M,0,80505,,320,202.8274 F,0,80505,81051,0,1 F,0,81051,82960,1 F,0,82960,83481,1,0
Sprite,Foreground,Centre,"sb\p2\t01.png",320,240 F,0,82278,82551,0,1 M,0,82278,84003,527.6055,193.0082,527.6055,218.9589 S,0,86090,86220,1,0.1 F,0,86090,86351,1,0
Sprite,Foreground,Centre,"sb\p2\t02.png",320,240 F,0,84264,84525,0,1 M,0,84525,86090,463.0795,349.4137,463.0795,320.6575 S,0,86090,86220,1,0.1 F,0,86090,86351,1,0
Sprite,Foreground,Centre,"sb\p2\t03.png",320,240 F,0,86351,86612,0,1 M,0,86612,88177,399.2548,168.4603,399.2548,195.1123 S,0,90264,90394,1,0.1 F,0,90264,90525,1,0
Sprite,Foreground,Centre,"sb\p2\t04.png",320,240 F,0,88438,88699,0,1 M,0,88699,90264,334.0274,342.4,334.0274,309.4356 S,0,90264,90394,1,0.1 F,0,90264,90525,1,0
Sprite,Foreground,Centre,"sb\p2\t05.png",320,240 F,0,90525,90786,0,1 M,0,90786,92351,111.6932,176.1753,111.6932,208.4384 S,0,94438,94568,1,0.1 F,0,94438,94699,1,0
Sprite,Foreground,Centre,"sb\p2\t06.png",320,240 F,0,92612,92873,0,1 M,0,92873,94438,175.5178,338.8932,175.5178,312.2411 S,0,94438,94568,1,0.1 F,0,94438,94699,1,0
Sprite,Foreground,Centre,"sb\p2\t07.png",320,240 F,0,94699,94959,0,1 M,0,94959,96525,174.1151,167.7589,174.1151,197.9178 S,0,98612,98742,1,0.1 F,0,98612,98873,1,0
Sprite,Foreground,Centre,"sb\p2\t08.png",320,240 F,0,96786,97046,0,1 M,0,97046,98612,239.3425,356.4274,239.3425,324.8658 S,0,98612,98742,1,0.1 F,0,98612,98873,1,0
Sprite,Foreground,Centre,"sb\p2\y01.png",320,240 F,0,98873,99133,0,1 M,0,99133,100699,159.3863,112.3507,179.0247,112.3507 S,0,102786,102916,1,0.1 F,0,102786,103046,1,0
Sprite,Foreground,Centre,"sb\p2\y02.png",320,240 F,0,100959,101220,0,1 M,0,101220,102786,323.5068,172.6685,293.3479,172.6685 F,0,101220,102786,1 S,0,102786,102916,1,0.1 F,0,102786,103046,1,0
Sprite,Foreground,Centre,"sb\p2\y03.png",320,240 F,0,103046,103307,0,1 M,0,103307,104873,246.3561,305.2274,277.2164,305.2274 S,0,106959,107090,1,0.1 F,0,106959,107220,1,0
Sprite,Foreground,Centre,"sb\p2\y04.png",320,240 F,0,105133,105394,0,1 M,0,105394,106959,402.7616,362.0384,374.7068,362.0384 S,0,106959,107090,1,0.1 F,0,106959,107220,1,0
Sprite,Foreground,Centre,"sb\p2\o01.png",320,240 S,0,107351,107481,0.1,1.007014 M,0,107481,,528.3068,114.4548 S,0,111133,111264,0.9860826,0.1
Sprite,Foreground,Centre,"sb\p2\o02.png",320,240 S,0,107612,107742,0.1,1 M,0,107742,,514.2794,155.1342 S,0,111133,111264,0.9930769,0.1
Sprite,Foreground,Centre,"sb\p2\o03.png",320,240 S,0,107873,108003,0.1,1 M,0,108003,,528.3068,194.411 S,0,111133,111264,1,0.1
Sprite,Foreground,Centre,"sb\p2\o04.png",320,240 S,0,108133,108264,0.1,1 M,0,108264,,514.2795,234.389 S,0,111133,111264,0.9931298,0.1
Sprite,Foreground,Centre,"sb\p2\o05.png",320,240 S,0,108394,108525,0.1,1 M,0,108525,,529.0082,274.3671 S,0,111133,111264,1,0.1
Sprite,Foreground,Centre,"sb\p2\o06.png",320,240 S,0,108655,108786,0.1,1 M,0,108786,,514.9808,314.3452 S,0,111133,111264,1,0.1
Sprite,Foreground,Centre,"sb\p2\o07.png",320,240 S,0,108916,109046,0.1,1 M,0,109046,,529.0082,354.3233 S,0,111133,111264,0.9792308,0.1
Sprite,Foreground,Centre,"sb\p2\o08.png",320,240 S,0,109438,109568,0.1,0.9761114 M,0,109568,,449.7534,251.9233 S,0,111133,111264,1,0.1
Sprite,Foreground,Centre,"sb\p2\o09.png",320,240 S,0,110220,110351,0.1,1 M,0,110351,,463.7808,296.1096 S,0,111133,111264,1,0.1
Sprite,Foreground,Centre,"sb\p2\o11.png",320,240 S,0,110351,110481,0.1,1 M,0,110481,,452.5589,336.0877 S,0,111133,111264,1,0.1
Sprite,Foreground,Centre,"sb\p2\o12.png",320,240 S,0,110612,110742,0.1,1 M,0,110742,,463.7808,376.0657 S,0,111133,111264,1,0.1
Sprite,Foreground,Centre,"sb\p2\o06.png",320,240 S,0,110873,111003,0.1,1 M,0,111003,,453.2603,416.0439 S,0,111133,111264,1,0.1
Sprite,Foreground,Centre,"sb\p2\o13.png",320,240 S,0,111525,111655,0.1,1 M,0,111655,,110.9918,108.1425 S,0,115307,115438,0.9861538,0.1
Sprite,Foreground,Centre,"sb\p2\o014.png",320,240 S,0,112373,112503,0.1,1 M,0,112503,,125.7205,148.1205 S,0,115307,115438,1,0.1
Sprite,Foreground,Centre,"sb\p2\o09.png",320,240 S,0,112438,112568,0.1,1 M,0,112568,,110.9918,188.0986 S,0,115307,115438,1,0.1
Sprite,Foreground,Centre,"sb\p2\o015.png",320,240 S,0,112699,112829,0.1,1 M,0,112829,,125.0192,228.0767 S,0,115307,115438,1,0.1
Sprite,Foreground,Centre,"sb\p2\o06.png",320,240 S,0,112959,113090,0.1,1 M,0,113090,,111.6931,268.0547 S,0,115307,115438,1,0.1
Sprite,Foreground,Centre,"sb\p2\o016.png",320,240 S,0,113612,113742,0.1,1 M,0,113742,,180.4274,207.0356 S,0,115307,115438,1,0.1
Sprite,Foreground,Centre,"sb\p2\o017.png",320,240 S,0,114133,114264,0.1,1 M,0,114264,,180.4274,256.8329 S,0,115307,115438,1,0.1
Sprite,Foreground,Centre,"sb\p2\o09.png",320,240 S,0,114394,114525,0.1,1 M,0,114525,,188.8438,301.7206 S,0,115307,115438,1,0.1
Sprite,Foreground,Centre,"sb\p2\o03.png",320,240 S,0,114525,114655,0.1,1 M,0,114655,,172.7123,341.6986 S,0,115307,115438,1,0.1
Sprite,Foreground,Centre,"sb\p2\o018.png",320,240 S,0,114786,114916,0.1,1 M,0,114916,,190.2465,381.6767 S,0,115307,115438,1,0.1
Sprite,Foreground,Centre,"sb\p2\o07.png",320,240 S,0,115046,115177,0.1,1 M,0,115177,,172.7123,421.6548 S,0,115307,115438,1,0.1
Sprite,Foreground,Centre,"sb\p2\y05.png",320,240 M,0,115829,115959,323.5069,240,323.5069,150.926 F,0,115829,115959,0,1 S,0,115829,115959,2.816548,1 F,0,117394,117525,1,0 S,0,117394,117525,1,0.1
Sprite,Foreground,Centre,"sb\p2\y05.png",320,240 M,0,117916,118046,324.2083,284.1863,322.8055,380.9753 F,0,117916,118046,0,1 S,0,117916,118046,3.125151,1 F,0,120264,120394,1,0 S,0,120264,120394,1,0.1206107
Sprite,Foreground,Centre,"sb\p1\ly17.png",320,240 M,0,123003,,318.5972,98.32329 S,0,123003,123133,0.1,1.294575 S,0,123655,123786,1,0.1
Sprite,Foreground,Centre,"sb\p1\ly18.png",320,240 S,0,124307,124438,0.1,1 M,0,124438,125742,191.6493,174.7726,217.6,174.7726 S,0,125742,125873,0.9725191,0.1
Sprite,Foreground,Centre,"sb\p1\ly19.png",320,240 S,0,126394,126525,0.1,1 M,0,126525,128090,323.5068,339.5945,296.8548,339.5945 S,0,128090,128220,1,0.1
Sprite,Foreground,Centre,"sb\p1\lycro04.png",320,240 F,0,128351,128612,0,1 M,0,128612,130959,498.8493,237.8959,498.8493,252.6246 F,0,130959,131025,1,0 S,0,130959,131025,1,2.095422
Sprite,Foreground,Centre,"sb\p1\ly22.png",320,240 M,0,131220,,320,105.337 S,0,131220,131351,0.1,1.224438 S,0,132003,132133,1.512,0.1
Sprite,Foreground,Centre,"sb\p1\ly23.png",320,240 S,0,132655,132786,0.1,1 M,0,132786,134090,337.5342,185.9945,360.6794,185.9945 S,0,134090,134220,1,0.1
Sprite,Foreground,Centre,"sb\p1\ly24.png",320,240 S,0,134742,134873,0.1,1.007014 M,0,134873,136438,463.0794,251.2219,435.0246,251.2219 S,0,136438,136568,1.007014,0.1
Sprite,Foreground,Centre,"sb\p1\lycro08.png",320,240 S,0,136829,136959,0.1,1 M,0,136959,139307,174.1151,232.9863,174.1151,247.0137 F,0,139307,139373,1,0 S,0,139307,139373,1,2.760438
Sprite,Foreground,Centre,"sb\p1\lycro01.png",320,240 S,0,139699,139829,0.1,1 M,0,139829,143481,143.2548,105.337,143.2548,148.8219 S,0,143481,143612,0.9861538,0.1
Sprite,Foreground,Centre,"sb\p1\lycro01.png",320,240 S,0,143873,144003,0.1,1 M,0,144003,147655,494.6411,106.0384,494.6411,150.2247 S,0,147655,147786,1,0.1
Sprite,Foreground,Centre,"sb\p1\ly17.png",320,240 S,0,148046,148177,0.1,1 M,0,148177,151829,319.2986,125.6767,319.2986,137.6 F,0,151829,151894,1,0 S,0,151829,151894,1,5
Sprite,Foreground,Centre,"sb\p2\o019.png",320,240 S,0,152481,152612,0.1,1 M,0,152612,,524.0986,177.5781 S,0,154959,155090,0.9931298,0.1
Sprite,Foreground,Centre,"sb\p2\o021.png",320,240 S,0,153525,153655,0.1,1 M,0,153655,,492.537,247.7151 S,0,154959,155090,1,0.1
Sprite,Foreground,Centre,"sb\p2\o022.png",320,240 S,0,154046,154177,0.1,1 M,0,154177,,463.7808,323.4631 S,0,154959,155090,0.9862595,0.1
Sprite,Foreground,Centre,"sb\p3\o1.png",320,240 S,0,158481,158612,0.1,1 M,0,158612,,522.6959,92.01097 S,0,161133,161258,1,0.1
Sprite,Foreground,Centre,"sb\p2\o015.png",320,240 S,0,159003,159133,0.1,1 M,0,159133,,509.3699,131.9891 S,0,161133,161258,0.9930769,0.1
Sprite,Foreground,Centre,"sb\p3\o2.png",320,240 S,0,159258,159383,0.1,1 M,0,159383,,522.6959,171.9672 S,0,161133,161258,0.9784,0.1
Sprite,Foreground,Centre,"sb\p3\o3.png",320,240 S,0,159508,159633,0.1,1 M,0,159633,,508.6686,211.9452 S,0,161133,161258,1,0.1
Sprite,Foreground,Centre,"sb\p3\o4.png",320,240 S,0,159758,159883,0.1,1 M,0,159883,,521.9945,251.9233 S,0,161133,161258,1,0.1
Sprite,Foreground,Centre,"sb\p3\o5.png",320,240 S,0,160008,160133,0.1,1 M,0,160133,,507.9671,291.9013 S,0,161133,161258,1,0.1
Sprite,Foreground,Centre,"sb\p2\o015.png",320,240 S,0,160258,160383,0.1,1 M,0,160383,,522.6959,331.8794 S,0,161133,161258,1,0.1
Sprite,Foreground,Centre,"sb\p3\o6.png",320,240 S,0,160508,160633,0.1,1 M,0,160633,,507.9671,371.8576 S,0,161133,161258,1,0.1
Sprite,Foreground,Centre,"sb\p2\o03.png",320,240 S,0,160758,160883,0.1,1 M,0,160883,,523.3973,411.8356 S,0,161133,161258,1,0.1
Sprite,Foreground,Centre,"sb\p3\o1.png",320,240 S,0,162508,162639,0.1,1 M,0,162639,,449.0521,94.11508 S,0,165160,165285,1,0.1
Sprite,Foreground,Centre,"sb\p2\o015.png",320,240 S,0,163008,163138,0.1,1 M,0,163138,,429.4137,134.0932 S,0,165138,165263,0.9930769,0.1
Sprite,Foreground,Centre,"sb\p3\o2.png",320,240 S,0,163258,163383,0.1,1 M,0,163383,,448.3508,174.0713 S,0,165133,165258,0.9784,0.1
Sprite,Foreground,Centre,"sb\p3\o3.png",320,240 S,0,163508,163633,0.1,1 M,0,163633,,429.4138,214.0493 S,0,165133,165258,1,0.1
Sprite,Foreground,Centre,"sb\p3\o4.png",320,240 S,0,163758,163883,0.1,1 M,0,163883,,447.6493,254.0274 S,0,165133,165258,1,0.1
Sprite,Foreground,Centre,"sb\p3\o5.png",320,240 S,0,164008,164133,0.1,1 M,0,164133,,431.5178,295.4081 S,0,165133,165258,1,0.1
Sprite,Foreground,Centre,"sb\p2\o015.png",320,240 S,0,164258,164383,0.1,1 M,0,164383,,447.6494,335.3863 S,0,165133,165258,1,0.1
Sprite,Foreground,Centre,"sb\p3\o6.png",320,240 S,0,164508,164633,0.1,1 M,0,164633,,431.5177,375.3645 S,0,165133,165258,1,0.1
Sprite,Foreground,Centre,"sb\p2\o03.png",320,240 S,0,164758,164883,0.1,1 M,0,164883,,448.3507,416.0439 S,0,165133,165258,1,0.1
Sprite,Foreground,Centre,"sb\p3\y1.png",320,240 S,0,166508,166633,0.1,1 M,0,166633,168883,189.5452,201.4247,218.3014,201.4247 S,0,168883,169008,1,0.1
Sprite,Foreground,Centre,"sb\p3\y2.png",320,240 S,0,169008,169133,0.1,1 M,0,169133,171133,303.8685,265.9507,316.4932,265.9507 S,0,174133,174258,1,0.1
Sprite,Foreground,Centre,"sb\p3\o7.png",320,240 S,0,171008,171133,0.1,1 M,0,171133,,378.915,279.2767 S,0,174133,174258,1,0.1
Sprite,Foreground,Centre,"sb\p3\y3.png",320,240 S,0,172258,172383,0.1,1 M,0,172383,,455.3644,274.3671 S,0,174133,174258,0.9856,0.1
Sprite,Foreground,Centre,"sb\p1\lycro01.png",320,240 S,0,174508,174633,0.1,1 M,0,174633,,141.1507,126.3781 S,0,175133,175258,0.9928,0.1
Sprite,Foreground,Centre,"sb\p1\ly18.png",320,240 F,0,175758,175883,0,1 M,0,175883,177133,181.8301,203.5288,202.8712,203.5288 F,0,177133,177258,1,0
Sprite,Foreground,Centre,"sb\p1\ly19.png",320,240 F,0,177758,177883,0,1 M,0,177883,179383,356.4713,244.9096,334.0274,244.9096 F,0,179383,179508,1,0
Sprite,Foreground,Centre,"sb\p1\lycro04.png",320,240 F,0,179758,179883,0,1 M,0,179883,182133,531.1123,224.5699,531.1123,256.1315 F,0,182133,182258,1,0
Sprite,Foreground,Centre,"sb\p1\lycro05.png",320,240 S,0,182508,182633,0.1,1 M,0,182633,,500.2521,111.6493 S,0,183133,183258,1,0.1
Sprite,Foreground,Centre,"sb\p1\ly23.png",320,240 F,0,183758,183883,0,1 M,0,183883,185133,159.3863,270.1589,181.8301,270.1589 F,0,185133,185258,1,0
Sprite,Foreground,Centre,"sb\p1\ly24.png",320,240 F,0,185758,185883,0.04263016,1 M,0,185883,187383,416.7891,366.2466,389.4357,366.2466 F,0,187383,187508,1,0
Sprite,Foreground,Centre,"sb\p3\t1.png",320,240 F,0,187758,187883,0,1 M,0,187883,190133,110.2904,225.9726,110.2904,258.937 F,0,190133,190258,1,0
Sprite,Foreground,Centre,"sb\p1\ly17.png",320,240 M,0,190570,190633,505.1617,98.32328,479.9123,110.2466 F,0,190570,190633,0,1 S,0,190570,190633,4.96274,1 F,0,191133,191258,1,0
Sprite,Foreground,Centre,"sb\p1\lycro02.png",320,240 S,0,191758,191883,0.1,1 M,0,191883,193133,113.0959,210.5425,113.0959,235.0904 S,0,193133,193258,1,0.1
Sprite,Foreground,Centre,"sb\p1\lycro03.png",320,240 S,0,193758,193883,0.1,1 M,0,193883,195383,169.2055,330.4767,169.2055,301.0192 S,0,195383,195508,1,0.1
Sprite,Foreground,Centre,"sb\p1\ly15.png",320,240 S,0,195758,195883,0.1,1 M,0,195883,198133,296.1534,390.7945,318.5972,390.7945 S,0,198133,198258,1,0.1
Sprite,Foreground,Centre,"sb\p1\ly22.png",320,240 M,0,198570,198633,163.5945,84.29588,161.4904,115.1562 F,0,198570,198633,0,1 S,0,198570,198633,3.903671,1 F,0,199133,199258,1,0
Sprite,Foreground,Centre,"sb\p1\lycro06.png",320,240 S,0,199758,199883,0.1,1 M,0,199883,201133,528.3068,209.1397,528.3068,226.674 S,0,201133,201258,1,0.1
Sprite,Foreground,Centre,"sb\p1\lycro07.png",320,240 S,0,201758,201883,0.1,1 M,0,201883,203383,464.4822,311.5397,464.4822,286.9917 S,0,203383,203508,1,0.1
Sprite,Foreground,Centre,"sb\p1\ly16.png",320,240 S,0,203758,203883,0.1,1 M,0,203883,206133,302.4658,75.87945,327.7151,75.87945 S,0,206133,206258,1,0.1
Sprite,Foreground,Centre,"sb\p1\lycro01.png",320,240 F,0,206508,206633,0,1 M,0,206633,210133,174.1151,98.3233,174.1151,113.7534 F,0,210133,210258,1,0
Sprite,Foreground,Centre,"sb\p1\lycro01.png",320,240 F,0,210508,210633,0,1 M,0,210633,214133,529.0082,97.62191,529.0082,115.1561 F,0,214133,214258,1,0
Sprite,Foreground,Centre,"sb\p1\ly17.png",320,240 M,0,214570,214633,318.5973,130.5863,308.0768,81.49042 F,0,214570,214633,0,1 S,0,214570,214633,3.69326,1 M,0,214633,218133,308.0768,81.49042,318.5973,81.49042 F,0,218133,218258,0.952381,0
Sprite,Foreground,Centre,"sb\p3\y4.png",320,240 F,0,218758,218883,0,1 M,0,218883,,241.4466,140.4055 F,0,221508,221633,0.984,0
Sprite,Foreground,Centre,"sb\p2\o021.png",320,240 F,0,219758,219883,0,1 M,0,219883,,319.2986,138.3014 F,0,221508,221633,1,0
Sprite,Foreground,Centre,"sb\p3\y5.png",320,240 F,0,220258,220383,0,1 M,0,220383,,397.1507,140.4055 F,0,221508,221633,0.984,0
//Storyboard Sound Samples

[TimingPoints]
58,272.727272727273,4,1,1,80,1,0
1148,-100,4,2,1,60,0,0
2239,-100,4,2,0,60,0,0
10967,-100,4,2,1,70,0,0
17512,-200,4,2,1,80,0,0
17580,-200,4,2,1,5,0,0
18398,-200,4,1,1,75,0,0
18603,-100,4,1,1,100,0,0
19694,-200,4,1,1,78,0,0
19762,-200,4,1,1,5,0,0
20239,-100,4,1,1,80,0,0
20785,-100,4,1,1,80,0,0
38239,-133.333333333333,4,2,1,60,0,0
42603,-133.333333333333,4,2,1,80,0,0
45876,-100,4,1,1,80,0,0
49148,-200,4,1,1,100,0,0
49183,-200,4,2,1,5,0,0
49694,-200,4,1,1,90,0,0
50103,-200,4,1,1,5,0,0
50239,-100,4,1,3,80,0,1
50273,-100,4,1,1,80,0,1
58421,-100,4,1,1,80,0,0
58967,-100,4,1,1,80,0,1
82967,260.869565217391,4,1,1,80,1,0
90271,-100,4,1,1,70,0,0
91314,-100,4,1,1,80,0,0
108010,-200,4,2,1,60,0,0
112053,-200,4,1,1,70,0,0
112184,-133.333333333333,4,1,1,70,0,0
115836,-133.333333333333,4,1,1,80,0,0
116358,-100,4,1,1,80,0,0
118445,-100,4,2,0,60,0,0
119488,-100,4,1,1,80,0,0
123662,-100,4,1,3,80,0,1
123695,-100,4,1,1,80,0,1
131488,-100,4,1,1,80,0,0
132010,-100,4,1,1,80,0,1
154966,-200,4,1,1,80,0,0
155032,-200,4,1,1,5,0,0
158358,-200,4,2,0,80,0,0
159140,250,4,2,0,60,1,0
159140,-133.333333333333,4,2,0,60,0,0
166390,-133.333333333333,4,1,1,70,0,0
167140,-133.333333333333,4,1,1,70,0,0
173140,-100,4,1,1,80,0,0
174140,-100,4,1,1,100,0,0
174640,-200,4,2,1,80,0,0
174702,-200,4,2,1,5,0,0
175140,-100,4,1,3,80,0,1
175171,-100,4,1,1,80,0,1
182640,-100,4,1,1,80,0,0
183140,-100,4,1,1,80,0,1
190640,-100,4,1,1,100,0,0
191140,-83.3333333333333,4,1,3,80,0,1
191202,-83.3333333333333,4,1,1,90,0,1
206640,-83.3333333333333,4,1,1,80,0,0
207140,-83.3333333333333,4,1,1,80,0,1
219140,-83.3333333333333,4,1,1,80,0,0
220140,-200,4,1,1,80,0,0
221140,-100,4,2,1,80,0,0
221577,-100,4,2,1,5,0,0

[Colours]
Combo1 : 232,232,232
Combo2 : 255,128,192
Combo3 : 0,128,255

[HitObjects]
187,167,1694,6,0,P|224:176|256:196,1,75
324,167,1967,2,0,P|287:176|256:196,1,75
255,196,2239,6,0,L|255:121,1,75,2|0,0:0|0:0,0:0:0:0:
200,48,2512,2,0,L|112:24,1,75
16,112,2785,2,0,L|104:88,1,75
212,188,3058,2,0,L|124:164,1,75,2|2,0:0|0:0,0:0:0:0:
132,314,3330,6,0,L|220:174,1,150,2|0,0:0|0:0,0:0:0:0:
256,112,3739,1,0,0:0:0:0:
300,187,3876,2,0,L|380:314,1,150
296,352,4285,1,0,0:0:0:0:
230,302,4421,6,0,L|394:314,1,150,2|0,0:0|0:0,0:0:0:0:
452,284,4830,1,0,0:0:0:0:
496,216,4967,2,0,P|484:168|488:120,1,75
480,32,5239,2,0,P|444:66|400:86,1,75,2|2,0:0|0:0,0:0:0:0:
339,117,5512,6,0,P|383:113|499:153,1,150,2|0,0:0|0:0,0:0:0:0:
452,284,5921,1,0,0:0:0:0:
424,204,6058,2,0,P|461:201|495:215,1,75
368,264,6330,2,0,P|344:236|336:184,1,75
124,152,6603,6,0,P|196:140|274:152,1,150,2|0,0:0|0:0,0:0:0:0:
236,60,7012,1,0,0:0:0:0:
315,92,7148,2,0,P|298:125|271:151,1,75
200,228,7421,2,0,L|216:332,1,75,2|2,0:0|0:0,0:0:0:0:
354,334,7694,6,0,B|294:350|278:298|198:302,1,150,2|0,0:0|0:0,0:0:0:0:
144,336,8103,1,0,0:0:0:0:
125,238,8239,2,0,L|209:226,1,75
344,192,8512,2,0,L|260:180,1,75
60,297,8785,6,0,B|28:269|24:225|24:225|44:185|82:166,1,150,2|0,0:0|0:0,0:0:0:0:
199,227,9194,2,0,L|125:238,1,75
296,120,9467,2,0,P|344:100|384:104,2,75,0|2|2,0:0|0:0|0:0,0:0:0:0:
198,226,9876,6,0,L|191:77,1,150,2|0,0:0|0:0,0:0:0:0:
272,16,10285,1,0,0:0:0:0:
296,120,10421,2,0,L|300:220,1,75
96,208,10694,2,0,L|92:108,1,75,8|0,0:3|0:0,0:0:0:0:
191,77,10967,6,0,L|198:226,1,150,4|2,0:0|0:0,0:0:0:0:
200,316,11376,1,0,0:0:0:0:
308,268,11512,2,0,P|356:264|396:268,1,75,2|0,0:0|0:0,0:0:0:0:
266,352,11785,2,0,L|200:316,1,75,2|0,0:0|0:0,0:0:0:0:
53,326,12058,6,0,P|127:333|200:316,1,150,2|2,0:0|0:0,0:0:0:0:
248,216,12467,1,0,0:0:0:0:
156,156,12603,2,0,L|168:244,1,75,2|0,0:0|0:0,0:0:0:0:
320,132,12876,2,0,L|308:44,1,75,2|0,0:0|0:0,0:0:0:0:
248,216,13148,6,0,B|304:232|304:232|358:226|398:182,1,150,2|2,0:0|0:0,0:0:0:0:
404,112,13558,1,0,0:0:0:0:
309,57,13694,2,0,P|253:49|213:61,1,75,2|0,0:0|0:0,0:0:0:0:
114,190,13967,2,0,P|157:198|210:186,1,75,2|0,0:0|0:0,0:0:0:0:
235,52,14239,6,0,L|183:212,1,150,2|2,0:0|0:0,0:0:0:0:
288,132,14648,1,0,0:0:0:0:
235,52,14785,2,0,P|199:20|159:8,1,75,2|0,0:0|0:0,0:0:0:0:
48,76,15058,2,0,L|123:73,1,75,2|0,0:0|0:0,0:0:0:0:
430,99,15330,6,0,B|365:90|352:159|266:124,1,150,2|2,0:0|0:0,0:0:0:0:
312,51,15739,1,0,0:0:0:0:
360,204,15876,2,0,P|375:238|377:275,1,75,2|0,0:0|0:0,0:0:0:0:
224,280,16148,2,0,P|271:274|307:252,1,75,2|0,0:0|0:0,0:0:0:0:
228,204,16421,5,2,0:0:0:0:
112,184,16558,1,0,0:0:0:0:
112,184,16626,1,0,0:0:0:0:
112,184,16694,2,0,L|16:168,1,75,2|0,0:0|0:0,0:0:0:0:
16,96,16967,5,2,0:0:0:0:
59,239,17103,1,2,0:0:0:0:
163,125,17239,2,0,P|136:68|112:52,1,75
16,96,17512,6,0,L|62:252,2,150,4|0|4,0:0|0:0|0:0,0:0:0:0:
216,52,18739,1,8,0:0:0:0:
216,52,18808,1,8,0:0:0:0:
216,52,18876,2,0,P|244:96|244:140,1,75,8|0,0:0|0:0,0:0:0:0:
169,192,19148,6,0,L|163:117,1,75,2|8,0:0|0:0,0:0:0:0:
343,192,19421,2,0,L|349:267,1,75,2|8,0:0|0:0,0:0:0:0:
256,192,19694,6,0,B|240:140|240:140|274:102|256:56,1,131.25,4|0,0:0|0:0,0:0:0:0:
216,88,20239,6,0,L|116:88,1,75
24,184,20512,2,0,L|132:184,1,75,8|0,0:0|0:0,0:0:0:0:
371,87,20785,6,0,P|361:51|336:24,1,75,4|0,0:0|0:0,0:0:0:0:
140,87,21058,2,0,P|150:51|176:24,1,75,8|0,0:0|0:0,0:0:0:0:
293,132,21330,1,2,0:0:0:0:
256,268,21467,1,2,0:0:0:0:
218,132,21603,2,0,L|314:132,1,75,8|0,0:0|0:0,0:0:0:0:
456,168,21876,6,0,B|395:163|393:223|308:208,1,150,2|8,0:0|0:0,0:0:0:0:
159,184,22285,1,0,0:0:0:0:
212,325,22421,2,0,P|240:304|256:257,1,75,2|2,0:0|0:0,0:0:0:0:
128,312,22694,2,0,P|93:319|60:356,1,75,8|0,0:0|0:0,0:0:0:0:
212,325,22967,6,0,L|152:164,1,150,2|8,0:0|0:0,0:0:0:0:
76,48,23376,1,0,0:0:0:0:
12,128,23512,2,0,P|60:132|112:120,1,75,2|2,0:0|0:0,0:0:0:0:
224,48,23785,2,0,P|184:76|164:108,1,75,8|0,0:0|0:0,0:0:0:0:
300,68,24058,6,0,L|468:40,1,150,2|8,0:0|0:0,0:0:0:0:
244,132,24467,1,0,0:0:0:0:
429,115,24603,2,0,L|447:42,1,75,2|2,0:0|0:0,0:0:0:0:
429,268,24876,2,0,L|447:341,1,75,8|0,0:0|0:0,0:0:0:0:
300,316,25148,6,0,L|447:340,1,150,2|8,0:0|0:0,0:0:0:0:
352,248,25558,1,0,0:0:0:0:
228,356,25694,2,0,P|184:352|140:340,1,75,2|2,0:0|0:0,0:0:0:0:
188,196,25967,2,0,P|228:204|288:232,1,75,8|0,0:0|0:0,0:0:0:0:
140,120,26239,6,0,L|164:296,1,150,2|8,0:0|0:0,0:0:0:0:
228,356,26648,1,0,0:0:0:0:
88,304,26785,2,0,P|40:292|0:288,1,75,2|2,0:0|0:0,0:0:0:0:
36,372,27058,1,8,0:0:0:0:
136,372,27194,1,0,0:0:0:0:
160,268,27330,6,0,L|140:120,1,150,2|8,0:0|0:0,0:0:0:0:
28,180,27739,2,0,P|80:184|128:160,1,75,0|2,0:0|0:0,0:0:0:0:
224,128,28012,1,2,0:0:0:0:
48,107,28148,2,0,L|20:207,1,75,8|0,0:0|0:0,0:0:0:0:
19,333,28421,6,0,P|55:313|99:301,1,75,2|0,0:0|0:0,0:0:0:0:
155,98,28694,2,0,P|191:118|235:130,1,75,8|0,0:0|0:0,0:0:0:0:
296,300,28967,2,0,P|331:288|364:270,1,75,2|2,0:0|0:0,0:0:0:0:
464,192,29239,1,8,0:0:0:0:
341,199,29376,1,0,0:0:0:0:
341,199,29512,6,0,P|348:236|364:270,1,75,4|0,0:0|0:0,0:0:0:0:
425,94,29785,2,0,L|393:6,1,75,8|0,0:0|0:0,0:0:0:0:
281,75,30058,2,0,B|320:63|320:63|384:71|434:98,1,150,2|8,0:0|0:0,0:0:0:0:
341,199,30467,1,0,0:0:0:0:
216,132,30603,6,0,L|44:144,1,150,2|8,0:0|0:0,0:0:0:0:
177,265,31012,1,0,0:0:0:0:
233,203,31148,2,0,P|229:163|205:115,1,75,2|2,0:0|0:0,0:0:0:0:
116,216,31421,1,8,0:0:0:0:
184,336,31558,1,0,0:0:0:0:
233,203,31694,6,0,L|264:32,1,150,2|8,0:0|0:0,0:0:0:0:
88,168,32103,1,0,0:0:0:0:
160,212,32239,2,0,P|212:200|248:208,1,75,2|2,0:0|0:0,0:0:0:0:
260,344,32512,2,0,P|223:304|212:269,1,75,8|0,0:0|0:0,0:0:0:0:
332,120,32785,6,0,L|305:267,1,150,2|8,0:0|0:0,0:0:0:0:
232,202,33194,1,0,0:0:0:0:
392,232,33330,2,0,L|472:248,1,75,2|2,0:0|0:0,0:0:0:0:
332,120,33603,2,0,L|412:136,1,75,8|0,0:0|0:0,0:0:0:0:
215,285,33876,6,0,L|384:324,1,150,2|8,0:0|0:0,0:0:0:0:
155,173,34285,1,0,0:0:0:0:
141,303,34421,2,0,L|214:284,1,75,2|2,0:0|0:0,0:0:0:0:
324,184,34694,2,0,P|280:200|260:220,1,75,8|0,0:0|0:0,0:0:0:0:
64,264,34967,6,0,L|214:284,1,150,2|8,0:0|0:0,0:0:0:0:
260,219,35376,1,0,0:0:0:0:
155,173,35512,2,0,L|64:160,1,75,2|2,0:0|0:0,0:0:0:0:
256,124,35785,2,0,L|256:40,1,75,8|0,0:0|0:0,0:0:0:0:
357,173,36058,6,0,L|448:160,1,75,2|0,0:0|0:0,0:0:0:0:
496,228,36330,1,8,0:0:0:0:
344,256,36467,2,0,B|303:244|303:244|280:204,1,75,0|2,0:0|0:0,0:0:0:0:
381,94,36739,1,2,0:0:0:0:
496,228,36876,1,8,0:0:0:0:
344,256,37012,1,0,0:0:0:0:
381,94,37148,6,0,P|424:112|448:144,1,75,2|0,0:0|0:0,0:0:0:0:
422,241,37421,1,8,0:0:0:0:
304,144,37558,2,0,P|260:128|240:124,2,37.5,8|0|8,0:0|0:0|0:0,0:0:0:0:
396,316,37830,5,8,0:0:0:0:
272,272,37967,1,2,0:0:0:0:
156,280,38103,1,2,0:0:0:0:
67,347,38239,6,0,P|48:320|48:264,1,84.3750032186509,4|0,0:0|0:0,0:0:0:0:
80,224,38512,2,0,L|72:144,1,56.2500021457673,8|0,0:0|0:0,0:0:0:0:
32,100,38785,2,0,L|24:20,2,56.2500021457673,2|2|8,0:0|0:0|0:0,0:0:0:0:
45,269,39194,1,0,0:0:0:0:
124,240,39330,6,0,L|212:228,1,84.3750032186509,2|0,0:0|0:0,0:0:0:0:
252,252,39603,2,0,L|312:244,1,56.2500021457673,8|0,0:0|0:0,0:0:0:0:
380,216,39876,2,0,P|432:220|456:232,2,56.2500021457673,2|2|8,0:0|0:0|0:0,0:0:0:0:
288,304,40285,1,0,0:0:0:0:
264,144,40421,6,0,L|256:68,1,56.2500021457673,2|0,0:0|0:0,0:0:0:0:
328,32,40694,1,8,0:0:0:0:
374,160,40830,2,0,L|379:215,1,56.2500021457673,0|2,0:0|0:0,0:0:0:0:
224,120,41103,2,0,L|216:44,2,56.2500021457673,2|8|0,0:0|0:0|0:0,0:0:0:0:
304,272,41512,6,0,L|292:144,1,112.500004291535,2|8,0:0|0:0,0:0:0:0:
328,32,41921,1,0,0:0:0:0:
374,160,42058,2,0,P|406:164|442:156,1,56.2500021457673,2|2,0:0|0:0,0:0:0:0:
138,160,42330,2,0,P|106:164|70:156,1,56.2500021457673,8|0,0:0|0:0,0:0:0:0:
171,91,42603,6,0,P|207:127|203:196,1,112.500004291535,6|8,0:0|0:0,0:0:0:0:
68,28,43012,2,0,L|136:24,1,56.2500021457673,0|2,0:0|0:0,0:0:0:0:
320,76,43285,2,0,L|252:72,2,56.2500021457673,2|8|0,0:0|0:0|0:0,0:0:0:0:
432,83,43694,6,0,L|308:75,1,112.500004291535,2|8,0:0|0:0,0:0:0:0:
171,91,44103,1,0,0:0:0:0:
252,128,44239,2,0,L|224:180,1,56.2500021457673,2|2,0:0|0:0,0:0:0:0:
168,236,44512,2,0,L|140:184,1,56.2500021457673,8|0,0:0|0:0,0:0:0:0:
31,205,44785,6,0,P|63:193|159:189,1,112.500004291535,2|8,0:0|0:0,0:0:0:0:
223,291,45194,2,0,P|183:311|103:279,2,112.500004291535,0|2|0,0:0|0:0|0:0,0:0:0:0:
256,192,45876,6,0,L|256:108,1,75,4|0,0:0|0:0,0:0:0:0:
336,152,46148,1,8,0:0:0:0:
176,152,46285,2,0,B|176:80|176:80|184:36|248:24,1,150,0|2,0:0|0:0,0:0:0:0:
256,192,46694,2,0,L|256:276,1,75,8|0,0:0|0:0,0:0:0:0:
282,355,46967,6,0,B|328:348|336:304|336:304|336:233,1,150,2|8,0:0|0:0,0:0:0:0:
176,231,47376,2,0,B|125:232|104:195|104:195|20:195,1,150,0|2,0:0|0:0,0:0:0:0:
336,153,47785,2,0,B|387:152|408:189|408:189|492:189,2,150,8|2|8,0:0|0:0|0:0,0:0:0:0:
256,192,48467,5,0,0:0:0:0:
377,333,48603,2,0,L|373:245,1,75,2|2,0:0|0:0,0:0:0:0:
135,51,48876,2,0,L|139:139,1,75,8|0,0:0|0:0,0:0:0:0:
256,192,49148,1,8,0:0:0:0:
256,192,49694,6,0,B|264:164|264:164|253:142|253:142|260:112|260:112|252:80|252:80|260:56,1,131.25
256,66,50239,6,0,P|208:48|160:48,1,75,4|0,0:0|0:0,0:0:0:0:
36,12,50512,2,0,L|56:112,1,75,8|0,0:0|0:0,0:0:0:0:
144,204,50785,1,2,0:0:0:0:
124,92,50921,1,2,0:0:0:0:
64,188,51058,2,0,P|64:224|88:268,1,75,8|0,0:0|0:0,0:0:0:0:
224,286,51330,6,0,B|178:303|154:255|68:258,1,150,2|8,0:0|0:0,0:0:0:0:
272,356,51739,2,0,L|356:348,1,75,0|2,0:0|0:0,0:0:0:0:
448,296,52012,1,2,0:0:0:0:
298,278,52148,2,0,L|214:286,1,75,8|0,0:0|0:0,0:0:0:0:
112,212,52421,6,0,L|272:200,1,150,2|8,0:0|0:0,0:0:0:0:
428,192,52830,1,0,0:0:0:0:
298,278,52967,2,0,L|214:286,1,75,2|2,0:0|0:0,0:0:0:0:
140,292,53239,1,8,0:0:0:0:
95,133,53376,1,0,0:0:0:0:
43,192,53512,6,0,P|75:212|119:208,1,75,2|0,0:0|0:0,0:0:0:0:
256,124,53785,1,8,0:0:0:0:
136,77,53921,2,0,P|96:117|96:141,1,75,0|2,0:0|0:0,0:0:0:0:
417,132,54194,2,0,P|406:97|376:77,1,75,2|8,0:0|0:0,0:0:0:0:
400,211,54467,6,0,P|437:211|469:192,1,75,0|2,0:0|0:0,0:0:0:0:
256,72,54739,1,0,0:0:0:0:
256,160,54876,2,0,B|256:252|256:252|268:284|296:328,1,150,8|2,0:0|0:0,0:0:0:0:
344,236,55285,1,2,0:0:0:0:
168,236,55421,2,0,P|116:236|88:220,1,75,8|0,0:0|0:0,0:0:0:0:
72,105,55694,6,0,B|72:169|16:169|20:241,1,150,2|8,0:0|0:0,0:0:0:0:
144,160,56103,1,0,0:0:0:0:
156,76,56239,2,0,P|133:39|100:20,1,75,2|2,0:0|0:0,0:0:0:0:
224,128,56512,2,0,L|312:108,1,75,8|0,0:0|0:0,0:0:0:0:
448,104,56785,5,2,0:0:0:0:
319,181,56921,1,0,0:0:0:0:
319,181,56989,1,0,0:0:0:0:
319,181,57058,2,0,P|299:137|299:93,1,75,8|0,0:0|0:0,0:0:0:0:
393,49,57330,6,0,B|425:26|425:26|481:30,1,75,2|2,0:0|0:0,0:0:0:0:
460,355,57603,2,0,B|425:358|425:358|393:335,1,75,8|0,0:0|0:0,0:0:0:0:
416,148,57876,2,0,L|512:148,1,75,2|0,0:0|0:0,0:0:0:0:
496,236,58148,2,0,L|400:236,1,75,8|0,0:0|0:0,0:0:0:0:
236,120,58421,5,2,0:0:0:0:
320,288,58558,1,8,0:0:0:0:
320,96,58694,1,8,0:0:0:0:
236,264,58830,1,8,0:0:0:0:
304,192,58967,6,0,L|396:192,1,75,4|0,0:0|0:0,0:0:0:0:
229,192,59239,2,0,L|321:192,1,75,8|0,0:0|0:0,0:0:0:0:
154,192,59512,2,0,L|246:192,1,75,2|2,0:0|0:0,0:0:0:0:
379,192,59785,1,8,0:0:0:0:
320,288,59921,1,0,0:0:0:0:
322,133,60058,6,0,P|378:117|458:169,1,150,2|8,0:0|0:0,0:0:0:0:
300,208,60467,2,0,P|264:188|248:144,1,75,0|2,0:0|0:0,0:0:0:0:
264,76,60739,1,2,0:0:0:0:
340,40,60876,1,8,0:0:0:0:
300,208,61012,1,0,0:0:0:0:
220,248,61148,6,0,L|128:272,1,75,2|0,0:0|0:0,0:0:0:0:
74,285,61421,2,0,L|166:261,1,75,8|0,0:0|0:0,0:0:0:0:
200,172,61694,1,2,0:0:0:0:
56,204,61830,1,2,0:0:0:0:
184,92,61967,2,0,L|272:100,1,75,8|0,0:0|0:0,0:0:0:0:
340,140,62239,6,0,P|248:144|177:194,1,150,2|8,0:0|0:0,0:0:0:0:
44,148,62648,2,0,P|92:148|140:140,1,75,0|2,0:0|0:0,0:0:0:0:
318,69,62921,2,0,P|336:104|339:144,1,75,2|8,0:0|0:0,0:0:0:0:
194,315,63194,2,0,P|176:282|172:244,1,75,0|2,0:0|0:0,0:0:0:0:
318,69,63467,6,0,B|374:53|374:53|422:45|474:85,1,150
292,216,63876,1,2,0:0:0:0:
231,130,64012,1,2,0:0:0:0:
378,157,64148,2,0,P|386:201|378:257,1,75,8|0,0:0|0:0,0:0:0:0:
231,130,64421,6,0,L|407:163,1,150,2|8,0:0|0:0,0:0:0:0:
324,288,64830,1,0,0:0:0:0:
292,216,64967,2,0,L|192:200,1,75,2|2,0:0|0:0,0:0:0:0:
352,76,65239,2,0,L|452:92,1,75,8|0,0:0|0:0,0:0:0:0:
156,160,65512,6,0,P|152:115|195:55,1,112.5,2|0,0:0|0:0,0:0:0:0:
187,60,65785,2,0,L|108:28,1,75,8|0,0:0|0:0,0:0:0:0:
325,324,66058,2,0,L|404:356,1,75,2|2,0:0|0:0,0:0:0:0:
156,160,66330,2,0,L|77:128,1,75,8|0,0:0|0:0,0:0:0:0:
356,224,66603,2,0,L|435:256,1,75,2|0,0:0|0:0,0:0:0:0:
164,240,66876,5,8,0:0:0:0:
348,144,67012,1,8,0:0:0:0:
256,192,67148,2,0,L|256:276,1,75,2|10,0:0|0:0,0:0:0:0:
256,117,67421,2,0,L|256:201,1,75,0|8,0:0|0:0,0:0:0:0:
256,42,67694,6,0,L|256:117,1,75,6|0,0:0|0:0,0:0:0:0:
256,342,67967,2,0,L|256:267,1,75,8|0,0:0|0:0,0:0:0:0:
383,112,68239,2,0,L|319:152,1,75,2|2,0:0|0:0,0:0:0:0:
128,271,68512,2,0,L|192:231,1,75,8|0,0:0|0:0,0:0:0:0:
383,271,68785,2,0,L|319:231,1,75,2|0,0:0|0:0,0:0:0:0:
128,112,69058,2,0,L|192:152,1,75,8|0,0:0|0:0,0:0:0:0:
392,192,69330,6,0,L|467:192,1,75,2|2,0:0|0:0,0:0:0:0:
120,192,69603,2,0,L|45:192,1,75,8|0,0:0|0:0,0:0:0:0:
173,340,69876,6,0,P|205:284|205:256,1,75,2|0,0:0|0:0,0:0:0:0:
173,141,70148,2,0,P|137:132|108:109,1,75,8|0,0:0|0:0,0:0:0:0:
338,44,70421,2,0,P|315:73|306:109,1,75,2|2,0:0|0:0,0:0:0:0:
337,241,70694,2,0,P|373:250|403:274,1,75,8|0,0:0|0:0,0:0:0:0:
247,333,70967,6,0,L|173:340,1,75,2|0,0:0|0:0,0:0:0:0:
263,235,71239,2,0,L|338:242,1,75,8|0,0:0|0:0,0:0:0:0:
170,137,71512,2,0,L|96:144,1,75,2|2,0:0|0:0,0:0:0:0:
338,43,71785,2,0,L|413:50,1,75,8|0,0:0|0:0,0:0:0:0:
308,136,72058,6,0,L|456:152,1,112.5,6|0,0:0|0:0,0:0:0:0:
419,148,72330,2,0,P|424:192|420:224,1,75,8|0,0:0|0:0,0:0:0:0:
208,230,72603,6,0,L|60:214,1,112.5,2|0,0:0|0:0,0:0:0:0:
97,218,72876,2,0,P|92:174|96:142,1,75,8|0,0:0|0:0,0:0:0:0:
200,88,73148,5,2,0:0:0:0:
308,136,73285,1,0,0:0:0:0:
201,160,73421,2,0,P|193:112|201:84,1,75,8|0,0:0|0:0,0:0:0:0:
388,72,73694,6,0,P|425:74|460:87,1,75,2|2,0:0|0:0,0:0:0:0:
440,308,73967,2,0,P|402:305|367:292,1,75,8|0,0:0|0:0,0:0:0:0:
408,188,74239,5,2,0:0:0:0:
312,212,74376,1,0,0:0:0:0:
219,183,74512,2,0,P|183:176|145:174,1,75,8|0,0:0|0:0,0:0:0:0:
48,224,74785,5,2,0:0:0:0:
160,268,74921,1,2,0:0:0:0:
280,244,75058,2,0,P|324:236|372:236,1,75,8|0,0:0|0:0,0:0:0:0:
192,335,75330,6,0,L|154:258,1,75,2|0,0:0|0:0,0:0:0:0:
36,136,75603,2,0,P|52:92|76:68,1,75,8|0,0:0|0:0,0:0:0:0:
192,49,75876,2,0,L|154:125,1,75,2|2,0:0|0:0,0:0:0:0:
70,312,76148,2,0,P|46:283|36:248,1,75,8|0,0:0|0:0,0:0:0:0:
160,192,76421,6,0,B|224:192|248:240|324:228,2,150,4|8|2,0:0|0:0|0:0,0:0:0:0:
192,48,77103,1,2,0:0:0:0:
264,68,77239,2,0,P|246:103|206:124,1,75,8|0,0:0|0:0,0:0:0:0:
0,80,77512,6,0,P|56:72|160:124,1,150,2|8,0:0|0:0,0:0:0:0:
304,228,77921,1,0,0:0:0:0:
324,300,78058,2,0,P|359:280|376:238,1,75,2|2,0:0|0:0,0:0:0:0:
232,212,78330,2,0,P|196:208|148:184,1,75,8|0,0:0|0:0,0:0:0:0:
376,104,78603,6,0,L|352:196,1,75,2|0,0:0|0:0,0:0:0:0:
253,261,78876,2,0,P|185:257|115:201,1,150,8|2,0:0|0:0,0:0:0:0:
141,105,79285,1,2,0:0:0:0:
240,187,79421,2,0,L|254:267,1,75,8|0,0:0|0:0,0:0:0:0:
288,384,79694,2,0,B|280:336|280:336|340:308|332:240,1,150,2|8,0:0|0:0,0:0:0:0:
240,187,80103,1,0,0:0:0:0:
188,308,80239,2,0,L|202:388,1,75,2|2,0:0|0:0,0:0:0:0:
94,308,80512,5,8,0:0:0:0:
42,187,80648,1,0,0:0:0:0:
141,105,80785,2,0,L|155:25,1,75,4|0,0:0|0:0,0:0:0:0:
286,135,81058,2,0,P|217:113|109:105,1,150,8|2,0:0|0:0,0:0:0:0:
42,187,81467,1,2,0:0:0:0:
84,252,81603,2,0,P|112:224|120:184,1,75,8|0,0:0|0:0,0:0:0:0:
79,42,81876,6,0,L|159:30,1,75,2|0,0:0|0:0,0:0:0:0:
433,42,82148,2,0,L|353:30,1,75,8|0,0:0|0:0,0:0:0:0:
256,192,82421,2,0,B|244:220|244:220|256:248|256:248|268:280|268:280|256:304|256:304|260:364,2,150,2|8|4,0:0|0:0|0:0,0:0:0:0:
256,236,90271,5,4,0:3:0:0:
256,152,90401,1,4,0:3:0:0:
256,68,90532,1,4,0:3:0:0:
188,304,90793,6,0,L|128:308,2,37.5
324,304,91053,2,0,L|384:308,2,37.5
171,236,91314,6,0,P|151:284|155:332,1,75,4|0,0:0|0:0,0:0:0:0:
341,236,91575,2,0,P|361:284|357:332,1,75,8|0,0:0|0:0,0:0:0:0:
218,356,91836,1,2,0:0:0:0:
256,232,91966,1,2,0:0:0:0:
293,356,92097,2,0,L|205:356,1,75,8|0,0:0|0:0,0:0:0:0:
74,371,92358,6,0,P|149:380|229:348,1,150,2|8,0:0|0:0,0:0:0:0:
188,160,92749,1,0,0:0:0:0:
117,187,92880,2,0,P|145:223|185:239,1,75,2|2,0:0|0:0,0:0:0:0:
330,238,93140,2,0,L|242:230,1,75,8|0,0:0|0:0,0:0:0:0:
38,167,93401,6,0,L|216:158,1,150,2|8,0:0|0:0,0:0:0:0:
256,108,93793,1,0,0:0:0:0:
148,84,93923,2,0,L|52:88,1,75,2|2,0:0|0:0,0:0:0:0:
0,244,94184,2,0,L|98:241,1,75,8|0,0:0|0:0,0:0:0:0:
216,36,94445,6,0,P|268:28|340:96,1,150,2|8,0:0|0:0,0:0:0:0:
312,164,94836,1,0,0:0:0:0:
232,184,94966,2,0,L|134:181,1,75,2|2,0:0|0:0,0:0:0:0:
256,108,95227,1,8,0:0:0:0:
296,240,95358,1,0,0:0:0:0:
337,87,95488,6,0,P|288:33|216:36,1,150,2|8,0:0|0:0,0:0:0:0:
157,181,95880,1,0,0:0:0:0:
312,164,96010,2,0,L|400:164,1,75,2|2,0:0|0:0,0:0:0:0:
444,355,96271,2,0,P|417:331|404:296,1,75,8|0,0:0|0:0,0:0:0:0:
464,162,96532,6,0,B|465:232|406:233|404:295,1,150,2|8,0:0|0:0,0:0:0:0:
488,292,96923,1,0,0:0:0:0:
340,346,97053,2,0,P|324:302|336:250,1,75,2|2,0:0|0:0,0:0:0:0:
338,121,97314,2,0,P|375:122|410:108,1,75,8|0,0:0|0:0,0:0:0:0:
272,8,97575,6,0,B|261:96|261:96|230:106|213:136,1,150,2|8,0:0|0:0,0:0:0:0:
364,41,97966,2,0,P|398:27|436:28,1,75,0|2,0:0|0:0,0:0:0:0:
291,246,98227,2,0,L|282:172,1,75,2|8,0:0|0:0,0:0:0:0:
409,108,98488,1,0,0:0:0:0:
376,232,98619,6,0,L|366:306,1,75,10|0,0:0|0:0,0:0:0:0:
145,306,98880,2,0,L|136:232,1,75,8|0,0:0|0:0,0:0:0:0:
256,328,99140,2,0,L|256:372,2,37.5,10|0|0,0:0|0:0|0:0,0:0:0:0:
256,56,99401,2,0,L|256:12,2,37.5,8|0|0,0:0|0:0|0:0,0:0:0:0:
256,192,99662,6,0,P|300:204|352:200,1,75,4|0,0:0|0:0,0:0:0:0:
448,112,99923,1,8,0:0:0:0:
412,256,100053,1,0,0:0:0:0:
352,120,100184,2,0,P|352:76|372:48,1,75,2|2,0:0|0:0,0:0:0:0:
480,272,100445,2,0,P|443:274|412:256,1,75,8|0,0:0|0:0,0:0:0:0:
352,120,100706,6,0,B|296:88|296:88|252:76|200:100,1,150,2|8,0:0|0:0,0:0:0:0:
156,156,101097,1,0,0:0:0:0:
232,188,101227,2,0,L|308:184,1,75,2|2,0:0|0:0,0:0:0:0:
448,112,101488,1,8,0:0:0:0:
412,256,101619,1,0,0:0:0:0:
352,120,101749,6,0,B|296:88|296:88|252:76|200:100,1,150,2|8,0:0|0:0,0:0:0:0:
164,232,102140,1,0,0:0:0:0:
100,284,102271,2,0,P|84:244|92:212,1,75,2|2,0:0|0:0,0:0:0:0:
212,94,102532,2,0,P|185:127|153:136,1,75,8|0,0:0|0:0,0:0:0:0:
37,80,102793,6,0,B|65:102|65:102|90:214,1,150,2|8,0:0|0:0,0:0:0:0:
172,312,103184,1,0,0:0:0:0:
236,260,103314,2,0,L|324:248,1,75,2|2,0:0|0:0,0:0:0:0:
352,120,103575,2,0,L|264:132,1,75,8|0,0:0|0:0,0:0:0:0:
320,331,103836,6,0,P|372:304|378:207,1,150,2|8,0:0|0:0,0:0:0:0:
277,130,104227,1,0,0:0:0:0:
382,48,104358,2,0,P|417:76|433:116,1,75,2|2,0:0|0:0,0:0:0:0:
260,212,104619,2,0,P|217:194|192:160,1,75,8|0,0:0|0:0,0:0:0:0:
292,64,104880,6,0,L|259:211,1,150,2|8,0:0|0:0,0:0:0:0:
352,120,105271,1,0,0:0:0:0:
208,93,105401,2,0,L|108:109,1,75,2|2,0:0|0:0,0:0:0:0:
56,240,105662,1,8,0:0:0:0:
56,144,105793,1,0,0:0:0:0:
133,279,105923,6,0,L|208:291,1,75,8|2,0:0|0:0,0:0:0:0:
344,288,106184,2,0,P|312:260|264:252,1,75,0|2,0:0|0:0,0:0:0:0:
112,300,106445,6,0,L|186:311,1,75,8|2,0:0|0:0,0:0:0:0:
372,264,106706,2,0,P|340:236|292:228,1,75,0|2,0:0|0:0,0:0:0:0:
84,328,106966,6,0,L|158:339,1,75,8|2,0:0|0:0,0:0:0:0:
408,240,107227,2,0,P|376:212|328:204,1,75,0|2,0:0|0:0,0:0:0:0:
168,256,107488,5,8,0:0:0:0:
344,288,107619,1,2,0:0:0:0:
216,188,107749,2,0,P|168:172|120:192,1,75,2|2,0:0|0:0,0:0:0:0:
64,344,108010,1,4,0:0:0:0:
256,140,112053,6,0,L|256:112,2,18.75,2|2|4,0:0|0:0|0:0,0:0:0:0:
112,100,112445,1,2,0:0:0:0:
0,192,112706,1,2,0:0:0:0:
112,284,112966,1,2,0:0:0:0:
280,192,113227,5,2,0:0:0:0:
256,88,113488,1,2,0:0:0:0:
232,192,113749,1,2,0:0:0:0:
256,296,114010,1,2,0:0:0:0:
400,100,114271,5,2,0:0:0:0:
512,192,114532,1,2,0:0:0:0:
400,284,114793,1,2,0:0:0:0:
232,192,115053,1,2,0:0:0:0:
344,192,115314,5,8,0:0:0:0:
256,288,115445,1,8,0:0:0:0:
228,116,115575,2,0,L|296:116,1,56.2500021457673
344,192,115836,5,8,0:0:0:0:
168,192,115966,1,2,0:0:0:0:
168,192,116358,6,0,L|88:192,1,75,4|2,0:0|0:0,0:0:0:0:
18,192,116619,2,0,L|94:192,1,75,8|2,0:0|0:0,0:0:0:0:
240,232,116880,2,0,P|252:192|240:148,1,75,8|2,0:0|0:0,0:0:0:0:
24,120,117140,2,0,P|12:160|24:204,1,75,8|2,0:0|0:0,0:0:0:0:
148,260,117401,1,8,0:0:0:0:
72,308,117532,6,0,L|44:336,2,37.5,2|0|2,0:0|0:0|0:0,0:0:0:0:
93,192,117793,1,2,0:0:0:0:
108,80,117923,2,0,P|164:76|196:104,1,75,8|2,0:0|0:0,0:0:0:0:
236,292,118184,2,0,P|270:304|306:296,1,75,8|2,0:0|0:0,0:0:0:0:
400,192,118445,1,8,0:0:0:0:
112,192,118706,5,0,0:0:0:0:
181,144,118836,2,0,L|256:144,1,75,2|0,0:0|0:0,0:0:0:0:
331,240,119097,2,0,L|256:240,1,75,2|0,0:0|0:0,0:0:0:0:
400,192,119358,1,0,0:0:0:0:
256,144,119488,6,0,L|256:69,1,75,4|0,0:0|0:0,0:0:0:0:
136,56,119749,2,0,L|100:68,2,37.5,8|0|0,0:0|0:0|0:0,0:0:0:0:
256,16,120010,1,2,0:0:0:0:
376,56,120140,2,0,L|412:68,2,37.5,8|0|0,0:0|0:0|0:0,0:0:0:0:
256,88,120401,1,2,0:0:0:0:
180,160,120532,6,0,P|160:176|136:184,2,37.5,8|0|2,0:0|0:0|0:0,0:0:0:0:
332,224,120793,2,0,P|352:208|376:200,2,37.5,8|0|2,0:0|0:0|0:0,0:0:0:0:
200,280,121053,2,0,P|200:304|208:324,2,37.5,8|0|2,0:0|0:0|0:0,0:0:0:0:
312,104,121314,2,0,P|312:80|304:60,2,37.5,8|0|2,0:0|0:0|0:0,0:0:0:0:
256,192,121575,5,12,0:0:0:0:
352,336,121706,2,0,P|384:312|392:248,1,75,8|2,0:0|0:0,0:0:0:0:
256,164,121966,1,12,0:0:0:0:
160,336,122097,2,0,P|128:312|120:248,1,75,8|2,0:0|0:0,0:0:0:0:
256,72,122358,5,8,0:0:0:0:
344,220,122488,1,2,0:0:0:0:
168,220,122619,1,4,0:0:0:0:
256,164,123140,6,0,L|256:224,7,37.5
293,99,123662,6,0,P|256:92|208:104,1,75,4|0,0:0|0:0,0:0:0:0:
220,266,123923,2,0,P|256:272|293:265,1,75,8|0,0:0|0:0,0:0:0:0:
400,148,124184,1,2,0:0:0:0:
368,296,124314,1,2,0:0:0:0:
324,136,124445,2,0,P|344:96|376:80,1,75,8|0,0:0|0:0,0:0:0:0:
509,258,124706,6,0,B|453:250|449:310|357:294,1,150,2|8,0:0|0:0,0:0:0:0:
249,141,125097,2,0,L|353:133,1,75,0|2,0:0|0:0,0:0:0:0:
372,216,125358,1,2,0:0:0:0:
320,360,125488,2,0,P|296:332|300:276,1,75,8|0,0:0|0:0,0:0:0:0:
454,131,125749,6,0,P|426:155|318:127,1,150,2|8,0:0|0:0,0:0:0:0:
256,88,126140,1,0,0:0:0:0:
188,134,126271,2,0,P|160:157|124:164,1,75,2|2,0:0|0:0,0:0:0:0:
56,132,126532,1,8,0:0:0:0:
184,52,126662,1,0,0:0:0:0:
222,211,126793,6,0,P|258:191|274:143,1,75,2|0,0:0|0:0,0:0:0:0:
116,88,127053,1,8,0:0:0:0:
146,212,127184,2,0,L|166:300,1,75,0|2,0:0|0:0,0:0:0:0:
256,88,127445,2,0,L|236:0,1,75,2|8,0:0|0:0,0:0:0:0:
60,84,127706,6,0,L|95:228,1,150
236,300,128097,2,0,P|196:288|144:288,1,75,8|0,0:0|0:0,0:0:0:0:
116,352,128358,1,2,0:0:0:0:
313,274,128488,1,2,0:0:0:0:
248,223,128619,2,0,L|188:180,1,75,8|0,0:0|0:0,0:0:0:0:
287,77,128880,6,0,B|328:96|328:96|376:72|440:92,1,150,2|8,0:0|0:0,0:0:0:0:
264,148,129271,1,0,0:0:0:0:
136,104,129401,2,0,P|176:92|228:104,1,75,2|2,0:0|0:0,0:0:0:0:
384,168,129662,2,0,L|396:260,1,75,8|0,0:0|0:0,0:0:0:0:
188,180,129923,5,2,0:0:0:0:
161,260,130053,1,0,0:0:0:0:
161,260,130119,1,0,0:0:0:0:
161,260,130184,2,0,P|197:268|234:254,1,75,8|0,0:0|0:0,0:0:0:0:
208,85,130445,6,0,L|112:109,1,75,2|2,0:0|0:0,0:0:0:0:
304,85,130706,2,0,L|400:109,1,75,8|0,0:0|0:0,0:0:0:0:
124,156,130966,2,0,P|95:135|79:100,1,75,2|0,0:0|0:0,0:0:0:0:
388,156,131227,2,0,P|417:134|432:101,1,75,8|0,0:0|0:0,0:0:0:0:
256,72,131488,5,2,0:0:0:0:
256,188,131619,1,2,0:0:0:0:
292,8,131749,2,0,P|255:-5|215:11,1,75,8|0,0:0|0:0,0:0:0:0:
337,178,132010,6,0,L|412:178,1,75,4|0,0:0|0:0,0:0:0:0:
256,236,132271,2,0,L|256:311,1,75,8|0,0:0|0:0,0:0:0:0:
175,179,132532,2,0,L|100:179,1,75,2|2,0:0|0:0,0:0:0:0:
28,76,132793,2,0,P|68:84|96:104,1,75,8|0,0:0|0:0,0:0:0:0:
208,212,133053,6,0,L|32:212,1,150,2|8,0:0|0:0,0:0:0:0:
28,76,133445,2,0,P|55:41|89:28,1,75,0|2,0:0|0:0,0:0:0:0:
196,44,133706,1,2,0:0:0:0:
95,103,133836,1,8,0:0:0:0:
204,124,133966,1,0,0:0:0:0:
308,76,134097,6,0,P|354:73|392:60,1,75,2|0,0:0|0:0,0:0:0:0:
488,168,134358,2,0,P|452:156|420:136,1,75,8|0,0:0|0:0,0:0:0:0:
332,264,134619,2,0,P|364:236|384:188,1,75,2|2,0:0|0:0,0:0:0:0:
436,328,134880,1,8,0:0:0:0:
332,264,135010,1,0,0:0:0:0:
488,168,135140,6,0,P|452:156|384:64,1,150,2|8,0:0|0:0,0:0:0:0:
488,168,135532,2,0,L|472:264,1,75,0|2,0:0|0:0,0:0:0:0:
284,323,135793,1,2,0:0:0:0:
379,207,135923,1,8,0:0:0:0:
428,348,136053,6,0,P|364:324|276:324,1,150
259,252,136445,2,0,L|283:322,1,75,8|0,0:0|0:0,0:0:0:0:
187,234,136706,2,0,P|224:237|258:251,1,75,2|2,0:0|0:0,0:0:0:0:
200,312,136966,1,8,0:0:0:0:
52,340,137097,1,0,0:0:0:0:
132,356,137227,6,0,L|104:184,1,150,2|8,0:0|0:0,0:0:0:0:
212,76,137619,1,0,0:0:0:0:
242,152,137749,2,0,B|186:148|170:228|90:204,1,150,2|8,0:0|0:0,0:0:0:0:
64,136,138140,1,0,0:0:0:0:
131,59,138271,6,0,L|108:208,1,150,2|8,0:0|0:0,0:0:0:0:
256,232,138662,1,0,0:0:0:0:
295,136,138793,2,0,P|256:123|215:138,1,75,2|2,0:0|0:0,0:0:0:0:
317,328,139053,2,0,P|345:304|356:269,1,75,8|0,0:0|0:0,0:0:0:0:
156,270,139314,2,0,P|166:305|195:328,1,75,2|0,0:0|0:0,0:0:0:0:
256,232,139575,5,8,0:0:0:0:
256,232,139640,1,8,0:0:0:0:
256,232,139706,2,0,L|256:144,1,75,8|2,0:0|0:0,0:0:0:0:
348,192,139966,5,8,0:0:0:0:
160,192,140097,1,2,0:0:0:0:
256,328,140227,1,8,0:0:0:0:
256,232,140358,6,0,L|256:144,1,75,4|0,0:0|0:0,0:0:0:0:
256,82,140619,2,0,L|256:170,1,75,8|0,0:0|0:0,0:0:0:0:
160,100,140880,2,0,P|120:80|72:84,1,75,2|2,0:0|0:0,0:0:0:0:
352,100,141140,2,0,P|392:80|440:84,1,75,8|0,0:0|0:0,0:0:0:0:
404,236,141401,6,0,L|404:148,1,75,2|0,0:0|0:0,0:0:0:0:
108,161,141662,2,0,L|108:236,1,75,8|0,0:0|0:0,0:0:0:0:
324,320,141923,2,0,L|324:236,1,75,2|2,0:0|0:0,0:0:0:0:
188,245,142184,2,0,L|188:320,1,75,8|0,0:0|0:0,0:0:0:0:
256,92,142445,6,0,P|224:56|184:44,1,75,2|0,0:0|0:0,0:0:0:0:
110,248,142706,2,0,P|126:214|156:191,1,75,8|0,0:0|0:0,0:0:0:0:
401,135,142966,2,0,P|385:169|355:192,1,75,2|2,0:0|0:0,0:0:0:0:
255,291,143227,2,0,P|278:321|312:337,1,75,8|0,0:0|0:0,0:0:0:0:
385,327,143488,6,0,P|333:331|289:347,1,75,2|0,0:0|0:0,0:0:0:0:
110,248,143749,2,0,P|162:252|206:268,1,75,8|0,0:0|0:0,0:0:0:0:
351,180,144010,2,0,P|299:184|255:200,1,75,2|2,0:0|0:0,0:0:0:0:
60,132,144271,2,0,P|112:136|156:152,1,75,10|2,0:0|0:0,0:0:0:0:
302,86,144532,6,0,P|246:118|182:98,1,112.5,4|0,0:0|0:0,0:0:0:0:
200,111,144793,2,0,P|153:126|129:146,1,75,8|0,0:0|0:0,0:0:0:0:
112,336,145053,2,0,L|128:212,1,112.5,2|0,0:0|0:0,0:0:0:0:
126,224,145314,2,0,P|172:208|196:188,1,75,8|0,0:0|0:0,0:0:0:0:
240,40,145575,6,0,P|274:16|312:12,1,75,2|0,0:0|0:0,0:0:0:0:
272,344,145836,2,0,P|238:368|200:372,1,75,8|0,0:0|0:0,0:0:0:0:
302,86,146097,2,0,P|318:126|318:158,1,75,2|2,0:0|0:0,0:0:0:0:
210,298,146358,2,0,P|194:258|194:226,1,75,8|0,0:0|0:0,0:0:0:0:
240,136,146619,5,2,0:0:0:0:
272,248,146749,1,0,0:0:0:0:
168,154,146880,2,0,P|208:138|256:138,1,75,8|0,0:0|0:0,0:0:0:0:
138,315,147140,5,2,0:0:0:0:
106,203,147271,1,2,0:0:0:0:
210,298,147401,2,0,P|175:312|138:316,1,75,8|0,0:0|0:0,0:0:0:0:
31,195,147662,6,0,L|115:203,1,75,2|0,0:0|0:0,0:0:0:0:
210,298,147923,2,0,L|294:290,1,75,8|0,0:0|0:0,0:0:0:0:
302,86,148184,2,0,L|218:94,1,75,2|2,0:0|0:0,0:0:0:0:
406,181,148445,2,0,L|481:189,1,75,8|0,0:0|0:0,0:0:0:0:
416,276,148706,6,0,B|344:280|344:224|278:224,2,150,4|8|2,0:0|0:0|0:0,0:0:0:0:
232,156,149358,1,2,0:0:0:0:
206,232,149488,2,0,P|243:235|278:223,1,75,8|0,0:0|0:0,0:0:0:0:
184,84,149749,6,0,L|208:244,1,150,2|8,0:0|0:0,0:0:0:0:
316,144,150140,1,0,0:0:0:0:
212,12,150271,2,0,P|174:8|139:20,1,75,2|2,0:0|0:0,0:0:0:0:
36,112,150532,2,0,L|124:96,1,75,8|0,0:0|0:0,0:0:0:0:
320,68,150793,6,0,P|364:88|384:128,1,75,2|0,0:0|0:0,0:0:0:0:
338,292,151053,2,0,L|314:132,1,150,8|2,0:0|0:0,0:0:0:0:
448,80,151445,1,2,0:0:0:0:
315,143,151575,2,0,P|280:136|248:88,1,75,8|0,0:0|0:0,0:0:0:0:
404,196,151836,6,0,L|428:356,1,150,2|8,0:0|0:0,0:0:0:0:
328,365,152227,1,0,0:0:0:0:
272,317,152358,2,0,P|310:291|360:301,1,75,2|2,0:0|0:0,0:0:0:0:
184,365,152619,5,8,0:0:0:0:
256,232,152749,1,0,0:0:0:0:
328,365,152880,2,0,L|248:365,1,75,6|0,0:0|0:0,0:0:0:0:
188,174,153140,2,0,B|220:152|256:144|256:144|292:152|335:180,1,150,8|2,0:0|0:0,0:0:0:0:
256,232,153532,1,2,0:0:0:0:
164,247,153662,6,0,P|132:230|116:197,1,75,8|0,0:0|0:0,0:0:0:0:
256,29,153923,2,0,L|256:104,1,75,2|0,0:0|0:0,0:0:0:0:
347,247,154184,2,0,P|379:230|396:197,1,75,8|8,0:0|0:0,0:0:0:0:
176,120,154445,5,10,0:0:0:0:
164,247,154575,1,8,0:0:0:0:
336,120,154706,1,10,0:0:0:0:
347,247,154836,1,8,0:0:0:0:
256,192,154966,5,4,0:0:0:0:
256,192,155032,12,0,157836,0:0:0:0:
144,192,158619,5,2,0:0:0:0:
256,212,158880,1,2,0:0:0:0:
368,192,159140,6,0,L|432:188,1,56.2500021457673,4|0,0:0|0:0,0:0:0:0:
448,112,159390,2,0,L|384:116,1,56.2500021457673
320,253,159640,2,0,P|352:269|388:269,1,56.2500021457673
320,132,159890,6,0,L|256:136,1,56.2500021457673
192,252,160140,2,0,L|256:248,1,56.2500021457673
176,116,160390,2,0,L|192:184,1,56.2500021457673
336,268,160640,2,0,L|320:200,1,56.2500021457673
176,116,160890,2,0,P|128:108|104:112,1,56.2500021457673
100,31,161140,6,0,P|148:29|228:49,2,112.500004291535,2|0|2,0:0|0:0|0:0,0:0:0:0:
52,192,161890,2,0,L|124:184,1,56.2500021457673,2|2,0:0|0:0,0:0:0:0:
272,200,162140,2,0,P|228:232|168:232,1,112.500004291535,2|0,0:0|0:0,0:0:0:0:
388,110,162640,2,0,L|371:163,1,56.2500021457673,2|0,0:0|0:0,0:0:0:0:
288,146,162890,2,0,L|271:199,1,56.2500021457673
220,112,163140,6,0,P|256:76|332:84,1,112.500004291535,2|0,0:0|0:0,0:0:0:0:
370,163,163515,1,0,0:0:0:0:
356,236,163640,2,0,P|388:236|424:224,1,56.2500021457673,2|0,0:0|0:0,0:0:0:0:
271,199,163890,2,0,P|239:199|203:211,1,56.2500021457673,2|2,0:0|0:0,0:0:0:0:
180,364,164140,6,0,L|260:260,1,112.500004291535,2|0,0:0|0:0,0:0:0:0:
163,262,164515,1,0,0:0:0:0:
88,280,164640,2,0,L|12:300,1,56.2500021457673,2|0,0:0|0:0,0:0:0:0:
88,104,164890,2,0,L|12:84,1,56.2500021457673
40,192,165140,6,0,P|66:198|93:190,1,56.2500021457673,2|0,0:0|0:0,0:0:0:0:
136,160,165390,2,0,P|162:153|189:161,1,56.2500021457673
208,260,165640,2,0,P|234:266|261:258,1,56.2500021457673,2|0,0:0|0:0,0:0:0:0:
276,128,165890,2,0,P|302:121|329:129,1,56.2500021457673,2|2,0:0|0:0,0:0:0:0:
364,288,166140,2,0,P|390:294|417:286,1,56.2500021457673,2|0,0:0|0:0,0:0:0:0:
440,88,166390,6,0,P|466:81|493:89,1,56.2500021457673,0|2,0:0|0:0,0:0:0:0:
256,240,166640,2,0,L|256:164,1,56.2500021457673,6|0,0:0|0:0,0:0:0:0:
72,88,166890,2,0,P|45:81|18:89,1,56.2500021457673
52,268,167140,6,0,B|64:228|64:228|64:188|44:148,2,112.500004291535,4|8|0,0:0|0:0|0:0,0:0:0:0:
148,104,167890,2,0,P|180:88|216:80,1,56.2500021457673
372,120,168140,2,0,L|256:132,2,112.500004291535,4|8|0,0:0|0:0|0:0,0:0:0:0:
268,292,168890,6,0,P|256:268|256:236,1,56.2500021457673
424,259,169140,2,0,P|358:250|264:295,1,168.750006437302,4|0,0:0|0:0,0:0:0:0:
267,291,169640,2,0,B|232:320|232:320|192:328|148:300,1,112.500004291535,8|0,0:0|0:0,0:0:0:0:
95,94,170140,6,0,L|275:134,1,168.750006437302,4|0,0:0|0:0,0:0:0:0:
259,130,170640,2,0,P|296:108|372:132,1,112.500004291535,8|0,0:0|0:0,0:0:0:0:
400,264,171015,1,0,0:0:0:0:
322,243,171140,6,0,L|316:188,1,56.2500021457673,4|0,0:0|0:0,0:0:0:0:
189,243,171390,2,0,L|196:188,1,56.2500021457673
298,333,171640,2,0,P|330:334|357:326,1,56.2500021457673,8|0,0:0|0:0,0:0:0:0:
214,333,171890,2,0,P|182:334|155:326,1,56.2500021457673
361,121,172140,6,0,P|389:161|389:193,1,56.2500021457673,2|0,0:0|0:0,0:0:0:0:
151,121,172390,2,0,P|123:161|123:193,1,56.2500021457673,2|0,0:0|0:0,0:0:0:0:
228,272,172640,2,0,L|296:272,1,56.2500021457673,8|0,0:0|0:0,0:0:0:0:
256,88,172890,2,0,L|256:12,1,56.2500021457673
78,120,173140,6,0,P|114:112|150:120,1,75,2|0,0:0|0:0,0:0:0:0:
434,120,173390,2,0,P|398:112|362:120,1,75,2|0,0:0|0:0,0:0:0:0:
78,264,173640,2,0,P|114:272|150:264,1,75,8|0,0:0|0:0,0:0:0:0:
434,264,173890,2,0,P|398:272|362:264,1,75
256,88,174140,5,8,0:0:0:0:
150,263,174265,1,8,0:0:0:0:
362,263,174390,1,2,0:0:0:0:
256,192,174640,6,0,B|264:220|264:220|253:242|253:242|260:272|260:272|252:304|252:304|260:328,1,131.25
256,318,175140,6,0,P|304:336|352:336,1,75,4|0,0:0|0:0,0:0:0:0:
476,372,175390,2,0,L|456:272,1,75,8|0,0:0|0:0,0:0:0:0:
368,180,175640,1,2,0:0:0:0:
388,292,175765,1,2,0:0:0:0:
448,196,175890,2,0,P|448:160|424:116,1,75,8|0,0:0|0:0,0:0:0:0:
288,98,176140,6,0,B|334:81|358:129|444:126,1,150,2|8,0:0|0:0,0:0:0:0:
240,28,176515,2,0,L|156:36,1,75,0|2,0:0|0:0,0:0:0:0:
64,88,176765,1,2,0:0:0:0:
214,106,176890,2,0,L|298:98,1,75,8|0,0:0|0:0,0:0:0:0:
400,172,177140,6,0,L|240:184,1,150,2|8,0:0|0:0,0:0:0:0:
84,192,177515,1,0,0:0:0:0:
214,106,177640,2,0,L|298:98,1,75,2|2,0:0|0:0,0:0:0:0:
372,92,177890,1,8,0:0:0:0:
417,251,178015,1,0,0:0:0:0:
469,192,178140,6,0,P|437:172|393:176,1,75,2|0,0:0|0:0,0:0:0:0:
256,260,178390,1,8,0:0:0:0:
376,307,178515,2,0,P|416:267|416:243,1,75,0|2,0:0|0:0,0:0:0:0:
95,252,178765,2,0,P|106:287|136:307,1,75,2|8,0:0|0:0,0:0:0:0:
112,173,179015,6,0,P|75:173|43:192,1,75,0|2,0:0|0:0,0:0:0:0:
256,312,179265,1,0,0:0:0:0:
256,224,179390,2,0,B|256:136|256:136|252:104|220:72,1,150,8|2,0:0|0:0,0:0:0:0:
168,148,179765,1,2,0:0:0:0:
344,148,179890,2,0,P|396:148|424:164,1,75,8|0,0:0|0:0,0:0:0:0:
440,279,180140,6,0,B|440:215|496:215|492:143,1,150,2|8,0:0|0:0,0:0:0:0:
368,224,180515,1,0,0:0:0:0:
356,308,180640,2,0,P|379:345|412:364,1,75,2|2,0:0|0:0,0:0:0:0:
288,256,180890,2,0,L|200:276,1,75,8|0,0:0|0:0,0:0:0:0:
64,280,181140,5,4,0:0:0:0:
193,203,181265,1,0,0:0:0:0:
193,203,181327,1,0,0:0:0:0:
193,203,181390,2,0,P|213:247|213:291,1,75,8|0,0:0|0:0,0:0:0:0:
119,335,181640,6,0,B|87:358|87:358|31:354,1,75,2|2,0:0|0:0,0:0:0:0:
52,29,181890,2,0,B|87:26|87:26|119:49,1,75,8|0,0:0|0:0,0:0:0:0:
96,236,182140,2,0,L|0:236,1,75,2|0,0:0|0:0,0:0:0:0:
16,148,182390,2,0,L|112:148,1,75,8|0,0:0|0:0,0:0:0:0:
276,264,182640,5,2,0:0:0:0:
192,96,182765,1,8,0:0:0:0:
192,288,182890,1,8,0:0:0:0:
276,120,183015,1,8,0:0:0:0:
208,192,183140,6,0,L|116:192,1,75,4|0,0:0|0:0,0:0:0:0:
283,192,183390,2,0,L|191:192,1,75,8|0,0:0|0:0,0:0:0:0:
358,192,183640,2,0,L|266:192,1,75,2|2,0:0|0:0,0:0:0:0:
133,192,183890,1,8,0:0:0:0:
192,96,184015,1,0,0:0:0:0:
190,251,184140,6,0,P|134:267|54:215,1,150,2|8,0:0|0:0,0:0:0:0:
212,176,184515,2,0,P|248:196|264:240,1,75,0|2,0:0|0:0,0:0:0:0:
248,308,184765,1,2,0:0:0:0:
172,344,184890,1,8,0:0:0:0:
212,176,185015,1,0,0:0:0:0:
292,136,185140,6,0,L|384:112,1,75,2|0,0:0|0:0,0:0:0:0:
438,99,185390,2,0,L|346:123,1,75,8|0,0:0|0:0,0:0:0:0:
312,212,185640,1,2,0:0:0:0:
456,180,185765,1,2,0:0:0:0:
328,292,185890,2,0,L|240:284,1,75,8|0,0:0|0:0,0:0:0:0:
172,244,186140,6,0,P|264:240|335:190,1,150,2|8,0:0|0:0,0:0:0:0:
468,236,186515,2,0,P|420:236|372:244,1,75,0|2,0:0|0:0,0:0:0:0:
194,315,186765,2,0,P|176:280|173:240,1,75,2|8,0:0|0:0,0:0:0:0:
318,69,187015,2,0,P|336:102|340:140,1,75,0|2,0:0|0:0,0:0:0:0:
194,315,187265,6,0,B|138:331|138:331|90:339|38:299,1,150
220,168,187640,1,2,0:0:0:0:
281,254,187765,1,2,0:0:0:0:
134,227,187890,2,0,P|126:183|134:127,1,75,8|0,0:0|0:0,0:0:0:0:
281,254,188140,6,0,L|105:221,1,150,2|8,0:0|0:0,0:0:0:0:
188,96,188515,1,0,0:0:0:0:
220,168,188640,2,0,L|320:184,1,75,2|2,0:0|0:0,0:0:0:0:
160,308,188890,2,0,L|60:292,1,75,8|0,0:0|0:0,0:0:0:0:
356,224,189140,6,0,P|360:269|317:329,1,112.5,6|0,0:0|0:0,0:0:0:0:
325,324,189390,2,0,L|404:356,1,75,8|0,0:0|0:0,0:0:0:0:
281,254,189640,2,0,L|202:286,1,75,2|2,0:0|0:0,0:0:0:0:
384,128,189890,2,0,L|463:160,1,75,8|0,0:0|0:0,0:0:0:0:
272,44,190140,2,0,L|193:76,1,75,2|0,0:0|0:0,0:0:0:0:
93,168,190390,6,0,L|32:168,3,37.5,8|0|8|0,0:0|0:0|0:0|0:0,0:0:0:0:
93,168,190640,2,0,L|185:168,1,75,8|10,0:0|0:0,0:0:0:0:
419,168,190890,2,0,L|335:168,1,75,8|10,0:0|0:0,0:0:0:0:
256,357,191140,6,0,L|256:241,1,89.9999972534181,4|0,0:0|0:0,0:0:0:0:
344,168,191390,2,0,L|344:272,1,89.9999972534181,8|0,0:0|0:0,0:0:0:0:
168,258,191640,2,0,L|168:168,1,89.9999972534181,2|2,0:0|0:0,0:0:0:0:
344,80,191890,1,8,0:0:0:0:
256,172,192015,1,0,0:0:0:0:
168,80,192140,6,0,B|256:63|256:63|345:81,1,179.999994506836,2|8,0:0|0:0,0:0:0:0:
108,132,192515,2,0,P|88:68|104:32,1,89.9999972534181,0|2,0:0|0:0,0:0:0:0:
160,0,192765,1,2,0:0:0:0:
160,192,192890,2,0,P|96:212|60:196,1,89.9999972534181,8|0,0:0|0:0,0:0:0:0:
168,80,193140,6,0,B|256:63|256:63|345:81,1,179.999994506836,2|8,0:0|0:0,0:0:0:0:
428,116,193515,1,0,0:0:0:0:
356,172,193640,2,0,P|364:220|404:260,1,89.9999972534181,2|2,0:0|0:0,0:0:0:0:
510,151,193890,1,8,0:0:0:0:
417,31,194015,1,0,0:0:0:0:
356,172,194140,6,0,P|316:200|256:200,1,89.9999972534181,2|0,0:0|0:0,0:0:0:0:
120,157,194390,1,8,0:0:0:0:
80,77,194515,2,0,P|128:69|184:89,1,89.9999972534181,0|2,0:0|0:0,0:0:0:0:
133,245,194765,2,0,L|119:156,1,89.9999972534181,2|8,0:0|0:0,0:0:0:0:
251,26,195015,6,0,L|279:226,1,179.999994506836
344,80,195390,2,0,P|375:48|417:31,1,89.9999972534181,8|0,0:0|0:0,0:0:0:0:
472,192,195640,1,2,0:0:0:0:
506,107,195765,1,2,0:0:0:0:
356,172,195890,2,0,L|252:136,1,89.9999972534181,8|0,0:0|0:0,0:0:0:0:
188,280,196140,6,0,B|256:276|268:348|360:340,1,179.999994506836,2|8,0:0|0:0,0:0:0:0:
332,252,196515,1,0,0:0:0:0:
186,357,196640,2,0,P|142:349|110:305,1,89.9999972534181,2|2,0:0|0:0,0:0:0:0:
326,27,196890,2,0,P|370:35|402:79,1,89.9999972534181,8|0,0:0|0:0,0:0:0:0:
180,132,197140,6,0,P|228:116|268:120,1,89.9999972534181,2|0,0:0|0:0,0:0:0:0:
332,252,197390,2,0,P|284:268|244:264,1,89.9999972534181,8|0,0:0|0:0,0:0:0:0:
390,164,197640,2,0,L|476:192,1,89.9999972534181,2|2,0:0|0:0,0:0:0:0:
121,219,197890,2,0,L|36:192,1,89.9999972534181,8|0,0:0|0:0,0:0:0:0:
36,20,198140,5,2,0:0:0:0:
156,72,198265,1,0,0:0:0:0:
30,102,198390,2,0,P|20:56|42:14,1,89.9999972534181,8|0,0:0|0:0,0:0:0:0:
224,112,198640,5,2,0:0:0:0:
344,60,198765,1,2,0:0:0:0:
218,30,198890,2,0,P|208:76|230:118,1,89.9999972534181,8|0,0:0|0:0,0:0:0:0:
427,89,199140,6,0,P|379:65|323:61,1,89.9999972534181,4|0,0:0|0:0,0:0:0:0:
312,272,199390,2,0,P|328:224|324:184,1,89.9999972534181,8|0,0:0|0:0,0:0:0:0:
116,256,199640,2,0,P|168:260|216:224,1,89.9999972534181,2|2,0:0|0:0,0:0:0:0:
225,113,199890,1,8,0:0:0:0:
136,40,200015,1,0,0:0:0:0:
53,121,200140,6,0,B|107:102|155:133|155:133|203:129|235:105,1,179.999994506836,2|8,0:0|0:0,0:0:0:0:
47,207,200515,2,0,P|39:163|53:121,1,89.9999972534181,0|2,0:0|0:0,0:0:0:0:
225,33,200765,1,2,0:0:0:0:
296,72,200890,2,0,P|303:115|290:158,1,89.9999972534181,8|0,0:0|0:0,0:0:0:0:
296,72,201140,6,0,B|352:56|352:56|424:72|472:148,1,179.999994506836,2|8,0:0|0:0,0:0:0:0:
396,292,201515,1,0,0:0:0:0:
344,231,201640,2,0,P|388:211|440:223,1,89.9999972534181,2|2,0:0|0:0,0:0:0:0:
320,344,201890,1,8,0:0:0:0:
192,344,202015,1,0,0:0:0:0:
256,196,202140,6,0,L|256:92,2,89.9999972534181,2|0|8,0:0|0:0|0:0,0:0:0:0:
168,231,202515,2,0,P|124:211|72:223,1,89.9999972534181,0|2,0:0|0:0,0:0:0:0:
256,376,202765,2,0,L|256:272,1,89.9999972534181,2|8,0:0|0:0,0:0:0:0:
256,16,203015,2,0,L|256:106,1,89.9999972534181,0|2,0:0|0:0,0:0:0:0:
256,286,203265,6,0,B|256:196|256:196|206:192|184:149,1,179.999994506836
255,196,203640,2,0,P|298:182|327:148,1,89.9999972534181,2|2,0:0|0:0,0:0:0:0:
256,16,203890,1,8,0:0:0:0:
256,106,204015,1,0,0:0:0:0:
377,84,204140,6,0,P|402:120|406:164,1,89.9999972534181,2|0,0:0|0:0,0:0:0:0:
405,164,204390,2,0,P|434:188|498:188,1,89.9999972534181,8|0,0:0|0:0,0:0:0:0:
135,84,204640,6,0,P|111:122|105:166,1,89.9999972534181,2|0,0:0|0:0,0:0:0:0:
105,165,204890,2,0,P|77:189|13:189,1,89.9999972534181,8|0,0:0|0:0,0:0:0:0:
192,156,205140,6,0,L|352:156,1,134.999995880127,2|0,0:0|0:0,0:0:0:0:
327,156,205390,2,0,B|327:205|327:205|292:240,1,89.9999972534181,8|0,0:0|0:0,0:0:0:0:
192,340,205640,6,0,B|221:362|221:362|327:362,1,134.999995880127,2|0,0:0|0:0,0:0:0:0:
319,362,205890,2,0,P|296:312|304:276,1,89.9999972534181,8|0,0:0|0:0,0:0:0:0:
456,260,206140,6,0,B|474:297|463:328|463:328|416:320,1,89.9999972534181,2|0,0:0|0:0,0:0:0:0:
274,201,206390,2,0,P|318:198|360:216,1,89.9999972534181,8|0,0:0|0:0,0:0:0:0:
200,248,206640,6,0,L|179:207,2,44.999998626709,8|0|8,0:0|0:0|0:0,0:0:0:0:
284,120,206890,2,0,L|304:79,2,44.999998626709,8|0|8,0:0|0:0|0:0,0:0:0:0:
192,328,207140,6,0,B|160:328|144:320|144:320|128:300|125:272,1,89.9999972534181,4|0,0:0|0:0,0:0:0:0:
385,283,207390,2,0,B|384:300|368:320|368:320|352:328|320:328,1,89.9999972534181,8|0,0:0|0:0,0:0:0:0:
320,56,207640,2,0,B|352:56|368:64|368:64|384:84|387:112,1,89.9999972534181,2|2,0:0|0:0,0:0:0:0:
126,100,207890,2,0,B|128:84|144:64|144:64|160:56|192:56,1,89.9999972534181,8|0,0:0|0:0,0:0:0:0:
300,256,208140,6,0,L|188:256,1,89.9999972534181,2|0,0:0|0:0,0:0:0:0:
210,128,208390,2,0,L|300:128,1,89.9999972534181,8|0,0:0|0:0,0:0:0:0:
136,192,208640,6,0,B|118:195|118:195|92:188|92:188|63:197|63:197|36:193,1,89.9999972534181,2|2,0:0|0:0,0:0:0:0:
376,192,208890,2,0,B|394:195|394:195|420:188|420:188|449:197|449:197|476:193,1,89.9999972534181,8|0,0:0|0:0,0:0:0:0:
349,53,209140,6,0,L|293:137,1,89.9999972534181,2|0,0:0|0:0,0:0:0:0:
163,331,209390,2,0,L|219:247,1,89.9999972534181,8|0,0:0|0:0,0:0:0:0:
200,143,209640,2,0,P|160:123|100:131,1,89.9999972534181,2|2,0:0|0:0,0:0:0:0:
312,241,209890,2,0,P|352:261|412:253,1,89.9999972534181,8|0,0:0|0:0,0:0:0:0:
395,125,210140,6,0,P|381:83|349:53,1,89.9999972534181,2|0,0:0|0:0,0:0:0:0:
256,204,210390,2,0,L|256:294,1,89.9999972534181,8|0,0:0|0:0,0:0:0:0:
116,125,210640,2,0,P|130:83|163:53,1,89.9999972534181,2|2,0:0|0:0,0:0:0:0:
316,128,210890,5,8,0:0:0:0:
196,128,211015,1,0,0:0:0:0:
336,252,211140,6,0,P|376:240|404:180,1,89.9999972534181,6|0,0:0|0:0,0:0:0:0:
175,131,211390,2,0,P|133:145|109:182,1,89.9999972534181,8|0,0:0|0:0,0:0:0:0:
316,111,211640,2,0,P|302:69|265:45,1,89.9999972534181,2|2,0:0|0:0,0:0:0:0:
195,272,211890,2,0,P|209:314|246:338,1,89.9999972534181,8|0,0:0|0:0,0:0:0:0:
364,212,212140,6,0,P|398:181|396:108,1,89.9999972534181,2|0,0:0|0:0,0:0:0:0:
147,171,212390,2,0,P|112:204|106:253,1,89.9999972534181,8|0,0:0|0:0,0:0:0:0:
276,83,212640,2,0,P|243:48|194:42,1,89.9999972534181,2|2,0:0|0:0,0:0:0:0:
235,300,212890,2,0,P|268:335|317:341,1,89.9999972534181,8|0,0:0|0:0,0:0:0:0:
375,166,213140,6,0,P|396:119|372:56,1,89.9999972534181,2|0,0:0|0:0,0:0:0:0:
136,217,213390,2,0,P|115:267|129:319,1,89.9999972534181,8|0,0:0|0:0,0:0:0:0:
230,72,213640,2,0,P|180:51|128:65,1,89.9999972534181,2|2,0:0|0:0,0:0:0:0:
281,311,213890,2,0,P|331:332|383:318,1,89.9999972534181,8|0,0:0|0:0,0:0:0:0:
368,118,214140,6,0,P|371:62|332:12,1,89.9999972534181,2|0,0:0|0:0,0:0:0:0:
143,265,214390,2,0,P|141:324|176:372,1,89.9999972534181,8|8,0:0|0:0,0:0:0:0:
182,79,214640,2,0,P|123:77|75:112,1,89.9999972534181,2|2,0:0|0:0,0:0:0:0:
329,304,214890,2,0,P|388:306|436:271,1,89.9999972534181,8|0,0:0|0:0,0:0:0:0:
256,192,215140,6,0,L|160:192,1,89.9999972534181,6|0,0:0|0:0,0:0:0:0:
48,192,215390,2,0,L|-8:192,3,44.999998626709,8|0|8|0,0:0|0:0|0:0|0:0,0:0:0:0:
76,192,215640,2,0,L|184:192,1,89.9999972534181,8|8,0:0|0:0,0:0:0:0:
323,240,215890,2,0,P|339:201|326:155,1,89.9999972534181,2|2,0:0|0:0,0:0:0:0:
164,112,216140,5,10,0:0:0:0:
164,268,216265,1,8,0:0:0:0:
256,64,216515,5,8,0:0:0:0:
256,320,216765,1,8,0:0:0:0:
323,240,216890,6,0,P|339:201|326:155,1,89.9999972534181,2|2,0:0|0:0,0:0:0:0:
200,192,217140,6,0,L|136:192,2,44.999998626709,2|0|2,0:0|0:0|0:0,0:0:0:0:
326,156,217390,2,0,L|420:172,1,89.9999972534181,12|2,0:0|0:0,0:0:0:0:
476,236,217640,1,2,0:0:0:0:
384,88,217765,2,0,L|332:80,2,44.999998626709,8|0|2,0:0|0:0|0:0,0:0:0:0:
472,104,218015,1,2,0:0:0:0:
260,108,218140,6,0,P|243:149|256:192,1,89.9999972534181,12|2,0:0|0:0,0:0:0:0:
251,275,218390,2,0,P|268:234|256:192,1,89.9999972534181,8|2,0:0|0:0,0:0:0:0:
136,192,218640,2,0,L|88:192,2,44.999998626709,8|0|2,0:0|0:0|0:0,0:0:0:0:
260,108,218890,6,0,P|227:71|174:54,1,89.9999972534181
252,276,219140,2,0,P|284:312|337:329,1,89.9999972534181,4|0,0:0|0:0,0:0:0:0:
376,192,219390,2,0,L|424:192,2,44.999998626709,8|0|8,0:0|0:0|0:0,0:0:0:0:
190,56,219640,6,0,P|228:24|284:24,1,89.9999972534181,8|8,0:0|0:0,0:0:0:0:
322,328,219890,2,0,P|284:360|228:360,1,89.9999972534181,8|8,0:0|0:0,0:0:0:0:
256,192,220140,1,0,0:0:0:0:
192,134,220640,6,0,B|255:117|255:117|323:134,1,131.25
256,192,221140,6,0,B|265:210|265:210|248:208|248:208|265:221|265:221|248:216|248:216|266:230|266:230|248:228|248:228|256:240|256:240|256:256|256:256|209:294|209:294|248:311|248:311|248:368,1,300,4|0,0:0|0:0,0:0:0:0:
