osu file format v14

[General]
AudioFilename: audio.mp3
AudioLeadIn: 0
PreviewTime: 174640
Countdown: 0
SampleSet: Normal
StackLeniency: 0.3
Mode: 0
LetterboxInBreaks: 0
WidescreenStoryboard: 1

[Editor]
Bookmarks: 323,2710,4414,4422,19414,30059,71103,71710,77513,107807,120590,124633,138786,148771,169258,173133,173508,173883,221133
DistanceSpacing: 1
BeatDivisor: 4
GridSize: 4
TimelineZoom: 3.4

[Metadata]
Title:Chiisana Koi no Uta (Synth Rock Cover)
TitleUnicode:小さな恋のうた (Synth Rock Cover)
Artist:Omoi
ArtistUnicode:Omoi
Creator:val0108
Version:Extreme
Source:
Tags:Hatsune_Miku Miku vocaloid M_a_r_v_o_l_l_o Alphabet Kawashiro Marianna Frey Kroytz OnosakiHito Shmiklak Venax
BeatmapID:1382021
BeatmapSetID:609189

[Difficulty]
HPDrainRate:5
CircleSize:4.2
OverallDifficulty:9
ApproachRate:9.4
SliderMultiplier:2.2
SliderTickRate:1

[Events]
//Background and Video events
0,0,"ore no uta.jpg",0,0
//Break Periods
2,83167,89731
//Storyboard Layer 0 (Background)
//Storyboard Layer 1 (Fail)
//Storyboard Layer 2 (Pass)
//Storyboard Layer 3 (Foreground)
Sprite,Foreground,Centre,"sb\p1\ly01.png",320,240 F,0,1687,2232,0,1 M,0,1687,6051,217.6,204.2301,253.3699,204.2301 F,0,5505,6051,1,0
Sprite,Foreground,Centre,"sb\p1\ly02.png",320,240 F,0,6051,6596,0,1 M,0,6051,10414,422.4,317.852,375.4082,317.1507 F,0,9869,10414,1,0
Sprite,Foreground,Centre,"sb\p1\ly04.png",320,240 F,0,14778,15323,0,1 M,0,14778,19141,358.5753,395.7041,309.4795,395.7041 F,0,18596,19141,1,0 F,0,19141,,0
Sprite,Foreground,Centre,"sb\p1\ly03.png",320,240 F,0,10414,10960,0,1 M,0,10414,14778,230.2247,252.6247,277.2165,252.6247 F,0,14232,14778,1,0
Sprite,Foreground,Centre,"sb\p1\ly05.png",320,240 F,0,20232,20778,0,1 M,0,20232,22414,174.115,112.3507,200.0657,112.3507 F,0,20778,,1 F,0,21869,,1 F,0,21869,22414,1,0.007326007
Sprite,Foreground,Centre,"sb\p1\ly06.png",320,240 F,0,22414,22960,0,1 M,0,22414,24596,450.4549,173.3698,421.6986,173.3698 F,0,24051,24596,1,0
Sprite,Foreground,Centre,"sb\p1\ly07.png",320,240 F,0,24596,25141,0,1 M,0,24596,26778,254.7726,298.9151,289.8411,298.9151 F,0,26232,26778,1,0.005504587
Sprite,Foreground,Centre,"sb\p1\ly08.png",320,240 F,0,26778,27323,0,1 M,0,26778,28960,413.9836,364.1425,381.0192,364.1425 R,0,27404,,0.01402771 F,0,28414,28960,1,0
Sprite,Foreground,Centre,"sb\p1\ly09.png",320,240 S,0,28960,29096,0.1,1 M,0,29096,,146.2301,230.8822 M,0,29096,30596,146.2301,230.8822,171.3096,230.8822 S,0,30596,30732,1,0.1
Sprite,Foreground,Centre,"sb\p1\ly21.png",320,240 S,0,31005,31141,0.1,1 M,0,31141,32778,493.9397,331.8795,459.5726,331.8795 S,0,32778,32914,0.9801471,0.1
Sprite,Foreground,Centre,"sb\p1\ly25.png",320,240 S,0,33187,33323,0.1,1 M,0,33323,34960,137.6439,282.0822,169.9069,282.0822 S,0,34960,35096,1,0.1
Sprite,Foreground,Centre,"sb\p1\ly26.png",320,240 S,0,35369,35505,0.1,1 M,0,35505,37141,491.1342,218.2575,455.3644,218.2575 S,0,37141,37278,0.9933823,0.1
Sprite,Foreground,Centre,"sb\p1\lycro09.png",320,240 S,0,37551,37687,0.1,1 M,0,37687,39323,526.2028,171.9671,526.2028,204.9315 S,0,41505,41641,1,0.1
Sprite,Foreground,Centre,"sb\p1\lycro11.png",320,240 S,0,39732,39869,0.1,1 M,0,39869,41505,492.537,370.4548,492.537,329.7753 S,0,41505,41641,1,0.1
Sprite,Foreground,Centre,"sb\p1\lycro12.png",320,240 S,0,41914,42051,0.1,1 M,0,42051,43687,109.589,212.6466,109.589,242.8055 S,0,43687,43823,1,0.1
Sprite,Foreground,Centre,"sb\p1\ly14.png",320,240 S,0,44096,44232,0.1,1 M,0,44232,49141,313.6877,286.9918 S,0,49141,49278,1,0.1
Sprite,Foreground,Centre,"sb\p1\lycro01.png",320,240 M,0,49687,,207.0795,143.9123 F,0,49687,49960,0,1 S,0,49687,50232,1,1.252493 F,0,50232,50505,1,0
Sprite,Foreground,Centre,"sb\p1\lycro02.png",320,240 F,0,51051,51596,0,1 M,0,51051,51662,465.1834,180.3836,465.1834,179.6822 S,0,51051,52414,0.6843833,0.8667396 F,0,54596,55141,1,0
Sprite,Foreground,Centre,"sb\p1\lycro03.png",320,240 M,0,53232,,433.6219,329.0739 F,0,53232,53778,0,1 S,0,53232,54596,0.7404935,0.852713 F,0,54596,55141,0.9989032,0 F,0,55141,,0
Sprite,Foreground,Centre,"sb\p1\ly15.png",320,240 M,0,55414,,325.6109,172.6685 F,0,55414,55960,0,1 S,0,55414,57869,0.9579177,1.084164 F,0,57869,58414,0.9945055,0
Sprite,Foreground,Centre,"sb\p1\lycro05.png",320,240 M,0,58414,,529.0082,142.5096 F,0,58414,58687,0,1 S,0,58414,59232,1,1.175342 F,0,59232,59505,1,0
Sprite,Foreground,Centre,"sb\p1\lycro06.png",320,240 M,0,59778,,114.4987,188.0986 F,0,59778,60323,0,1 S,0,59778,61141,0.8386849,0.9158354 F,0,63323,63869,1,0
Sprite,Foreground,Centre,"sb\p1\lycro07.png",320,240 M,0,61960,,153.0739,312.9425 F,0,61960,62505,0,1 S,0,61960,63323,0.7545206,0.838685 F,0,63323,63869,0.9981651,0
Sprite,Foreground,Centre,"sb\p1\ly16.png",320,240 M,0,64141,,323.5069,335.3863 V,0,64141,,1,1 F,0,64141,64687,0,1 S,0,64141,66596,0.7615345,1.070137 F,0,66596,67141,1,0
Sprite,Foreground,Centre,"sb\p1\ly17.png",320,240 M,0,67141,,153.7753,105.337 F,0,67141,67687,0,1 S,0,67141,70960,1,1.329644 F,0,70960,71505,1,0
Sprite,Foreground,Centre,"sb\p1\ly17.png",320,240 M,0,71505,,531.1124,237.1945 F,0,71505,72051,0,1 S,0,71505,75323,1,1.364713 F,0,75323,75869,1,0
Sprite,Foreground,Centre,"sb\p1\ly17.png",320,240 M,0,75869,,125.7205,398.5096 F,0,75869,76414,0.09523285,1 S,0,75869,79687,1,1.364712 F,0,79687,80232,1,0.0286026
Sprite,Foreground,Centre,"sb\p1\ly16.png",320,240 M,0,80505,,320,202.8274 F,0,80505,81051,0,1 F,0,81051,82960,1 F,0,82960,83481,1,0
Sprite,Foreground,Centre,"sb\p2\t01.png",320,240 F,0,82278,82551,0,1 M,0,82278,84003,527.6055,193.0082,527.6055,218.9589 S,0,86090,86220,1,0.1 F,0,86090,86351,1,0
Sprite,Foreground,Centre,"sb\p2\t02.png",320,240 F,0,84264,84525,0,1 M,0,84525,86090,463.0795,349.4137,463.0795,320.6575 S,0,86090,86220,1,0.1 F,0,86090,86351,1,0
Sprite,Foreground,Centre,"sb\p2\t03.png",320,240 F,0,86351,86612,0,1 M,0,86612,88177,399.2548,168.4603,399.2548,195.1123 S,0,90264,90394,1,0.1 F,0,90264,90525,1,0
Sprite,Foreground,Centre,"sb\p2\t04.png",320,240 F,0,88438,88699,0,1 M,0,88699,90264,334.0274,342.4,334.0274,309.4356 S,0,90264,90394,1,0.1 F,0,90264,90525,1,0
Sprite,Foreground,Centre,"sb\p2\t05.png",320,240 F,0,90525,90786,0,1 M,0,90786,92351,111.6932,176.1753,111.6932,208.4384 S,0,94438,94568,1,0.1 F,0,94438,94699,1,0
Sprite,Foreground,Centre,"sb\p2\t06.png",320,240 F,0,92612,92873,0,1 M,0,92873,94438,175.5178,338.8932,175.5178,312.2411 S,0,94438,94568,1,0.1 F,0,94438,94699,1,0
Sprite,Foreground,Centre,"sb\p2\t07.png",320,240 F,0,94699,94959,0,1 M,0,94959,96525,174.1151,167.7589,174.1151,197.9178 S,0,98612,98742,1,0.1 F,0,98612,98873,1,0
Sprite,Foreground,Centre,"sb\p2\t08.png",320,240 F,0,96786,97046,0,1 M,0,97046,98612,239.3425,356.4274,239.3425,324.8658 S,0,98612,98742,1,0.1 F,0,98612,98873,1,0
Sprite,Foreground,Centre,"sb\p2\y01.png",320,240 F,0,98873,99133,0,1 M,0,99133,100699,159.3863,112.3507,179.0247,112.3507 S,0,102786,102916,1,0.1 F,0,102786,103046,1,0
Sprite,Foreground,Centre,"sb\p2\y02.png",320,240 F,0,100959,101220,0,1 M,0,101220,102786,323.5068,172.6685,293.3479,172.6685 F,0,101220,102786,1 S,0,102786,102916,1,0.1 F,0,102786,103046,1,0
Sprite,Foreground,Centre,"sb\p2\y03.png",320,240 F,0,103046,103307,0,1 M,0,103307,104873,246.3561,305.2274,277.2164,305.2274 S,0,106959,107090,1,0.1 F,0,106959,107220,1,0
Sprite,Foreground,Centre,"sb\p2\y04.png",320,240 F,0,105133,105394,0,1 M,0,105394,106959,402.7616,362.0384,374.7068,362.0384 S,0,106959,107090,1,0.1 F,0,106959,107220,1,0
Sprite,Foreground,Centre,"sb\p2\o01.png",320,240 S,0,107351,107481,0.1,1.007014 M,0,107481,,528.3068,114.4548 S,0,111133,111264,0.9860826,0.1
Sprite,Foreground,Centre,"sb\p2\o02.png",320,240 S,0,107612,107742,0.1,1 M,0,107742,,514.2794,155.1342 S,0,111133,111264,0.9930769,0.1
Sprite,Foreground,Centre,"sb\p2\o03.png",320,240 S,0,107873,108003,0.1,1 M,0,108003,,528.3068,194.411 S,0,111133,111264,1,0.1
Sprite,Foreground,Centre,"sb\p2\o04.png",320,240 S,0,108133,108264,0.1,1 M,0,108264,,514.2795,234.389 S,0,111133,111264,0.9931298,0.1
Sprite,Foreground,Centre,"sb\p2\o05.png",320,240 S,0,108394,108525,0.1,1 M,0,108525,,529.0082,274.3671 S,0,111133,111264,1,0.1
Sprite,Foreground,Centre,"sb\p2\o06.png",320,240 S,0,108655,108786,0.1,1 M,0,108786,,514.9808,314.3452 S,0,111133,111264,1,0.1
Sprite,Foreground,Centre,"sb\p2\o07.png",320,240 S,0,108916,109046,0.1,1 M,0,109046,,529.0082,354.3233 S,0,111133,111264,0.9792308,0.1
Sprite,Foreground,Centre,"sb\p2\o08.png",320,240 S,0,109438,109568,0.1,0.9761114 M,0,109568,,449.7534,251.9233 S,0,111133,111264,1,0.1
Sprite,Foreground,Centre,"sb\p2\o09.png",320,240 S,0,110220,110351,0.1,1 M,0,110351,,463.7808,296.1096 S,0,111133,111264,1,0.1
Sprite,Foreground,Centre,"sb\p2\o11.png",320,240 S,0,110351,110481,0.1,1 M,0,110481,,452.5589,336.0877 S,0,111133,111264,1,0.1
Sprite,Foreground,Centre,"sb\p2\o12.png",320,240 S,0,110612,110742,0.1,1 M,0,110742,,463.7808,376.0657 S,0,111133,111264,1,0.1
Sprite,Foreground,Centre,"sb\p2\o06.png",320,240 S,0,110873,111003,0.1,1 M,0,111003,,453.2603,416.0439 S,0,111133,111264,1,0.1
Sprite,Foreground,Centre,"sb\p2\o13.png",320,240 S,0,111525,111655,0.1,1 M,0,111655,,110.9918,108.1425 S,0,115307,115438,0.9861538,0.1
Sprite,Foreground,Centre,"sb\p2\o014.png",320,240 S,0,112373,112503,0.1,1 M,0,112503,,125.7205,148.1205 S,0,115307,115438,1,0.1
Sprite,Foreground,Centre,"sb\p2\o09.png",320,240 S,0,112438,112568,0.1,1 M,0,112568,,110.9918,188.0986 S,0,115307,115438,1,0.1
Sprite,Foreground,Centre,"sb\p2\o015.png",320,240 S,0,112699,112829,0.1,1 M,0,112829,,125.0192,228.0767 S,0,115307,115438,1,0.1
Sprite,Foreground,Centre,"sb\p2\o06.png",320,240 S,0,112959,113090,0.1,1 M,0,113090,,111.6931,268.0547 S,0,115307,115438,1,0.1
Sprite,Foreground,Centre,"sb\p2\o016.png",320,240 S,0,113612,113742,0.1,1 M,0,113742,,180.4274,207.0356 S,0,115307,115438,1,0.1
Sprite,Foreground,Centre,"sb\p2\o017.png",320,240 S,0,114133,114264,0.1,1 M,0,114264,,180.4274,256.8329 S,0,115307,115438,1,0.1
Sprite,Foreground,Centre,"sb\p2\o09.png",320,240 S,0,114394,114525,0.1,1 M,0,114525,,188.8438,301.7206 S,0,115307,115438,1,0.1
Sprite,Foreground,Centre,"sb\p2\o03.png",320,240 S,0,114525,114655,0.1,1 M,0,114655,,172.7123,341.6986 S,0,115307,115438,1,0.1
Sprite,Foreground,Centre,"sb\p2\o018.png",320,240 S,0,114786,114916,0.1,1 M,0,114916,,190.2465,381.6767 S,0,115307,115438,1,0.1
Sprite,Foreground,Centre,"sb\p2\o07.png",320,240 S,0,115046,115177,0.1,1 M,0,115177,,172.7123,421.6548 S,0,115307,115438,1,0.1
Sprite,Foreground,Centre,"sb\p2\y05.png",320,240 M,0,115829,115959,323.5069,240,323.5069,150.926 F,0,115829,115959,0,1 S,0,115829,115959,2.816548,1 F,0,117394,117525,1,0 S,0,117394,117525,1,0.1
Sprite,Foreground,Centre,"sb\p2\y05.png",320,240 M,0,117916,118046,324.2083,284.1863,322.8055,380.9753 F,0,117916,118046,0,1 S,0,117916,118046,3.125151,1 F,0,120264,120394,1,0 S,0,120264,120394,1,0.1206107
Sprite,Foreground,Centre,"sb\p1\ly17.png",320,240 M,0,123003,,318.5972,98.32329 S,0,123003,123133,0.1,1.294575 S,0,123655,123786,1,0.1
Sprite,Foreground,Centre,"sb\p1\ly18.png",320,240 S,0,124307,124438,0.1,1 M,0,124438,125742,191.6493,174.7726,217.6,174.7726 S,0,125742,125873,0.9725191,0.1
Sprite,Foreground,Centre,"sb\p1\ly19.png",320,240 S,0,126394,126525,0.1,1 M,0,126525,128090,323.5068,339.5945,296.8548,339.5945 S,0,128090,128220,1,0.1
Sprite,Foreground,Centre,"sb\p1\lycro04.png",320,240 F,0,128351,128612,0,1 M,0,128612,130959,498.8493,237.8959,498.8493,252.6246 F,0,130959,131025,1,0 S,0,130959,131025,1,2.095422
Sprite,Foreground,Centre,"sb\p1\ly22.png",320,240 M,0,131220,,320,105.337 S,0,131220,131351,0.1,1.224438 S,0,132003,132133,1.512,0.1
Sprite,Foreground,Centre,"sb\p1\ly23.png",320,240 S,0,132655,132786,0.1,1 M,0,132786,134090,337.5342,185.9945,360.6794,185.9945 S,0,134090,134220,1,0.1
Sprite,Foreground,Centre,"sb\p1\ly24.png",320,240 S,0,134742,134873,0.1,1.007014 M,0,134873,136438,463.0794,251.2219,435.0246,251.2219 S,0,136438,136568,1.007014,0.1
Sprite,Foreground,Centre,"sb\p1\lycro08.png",320,240 S,0,136829,136959,0.1,1 M,0,136959,139307,174.1151,232.9863,174.1151,247.0137 F,0,139307,139373,1,0 S,0,139307,139373,1,2.760438
Sprite,Foreground,Centre,"sb\p1\lycro01.png",320,240 S,0,139699,139829,0.1,1 M,0,139829,143481,143.2548,105.337,143.2548,148.8219 S,0,143481,143612,0.9861538,0.1
Sprite,Foreground,Centre,"sb\p1\lycro01.png",320,240 S,0,143873,144003,0.1,1 M,0,144003,147655,494.6411,106.0384,494.6411,150.2247 S,0,147655,147786,1,0.1
Sprite,Foreground,Centre,"sb\p1\ly17.png",320,240 S,0,148046,148177,0.1,1 M,0,148177,151829,319.2986,125.6767,319.2986,137.6 F,0,151829,151894,1,0 S,0,151829,151894,1,5
Sprite,Foreground,Centre,"sb\p2\o019.png",320,240 S,0,152481,152612,0.1,1 M,0,152612,,524.0986,177.5781 S,0,154959,155090,0.9931298,0.1
Sprite,Foreground,Centre,"sb\p2\o021.png",320,240 S,0,153525,153655,0.1,1 M,0,153655,,492.537,247.7151 S,0,154959,155090,1,0.1
Sprite,Foreground,Centre,"sb\p2\o022.png",320,240 S,0,154046,154177,0.1,1 M,0,154177,,463.7808,323.4631 S,0,154959,155090,0.9862595,0.1
Sprite,Foreground,Centre,"sb\p3\o1.png",320,240 S,0,158481,158612,0.1,1 M,0,158612,,522.6959,92.01097 S,0,161133,161258,1,0.1
Sprite,Foreground,Centre,"sb\p2\o015.png",320,240 S,0,159003,159133,0.1,1 M,0,159133,,509.3699,131.9891 S,0,161133,161258,0.9930769,0.1
Sprite,Foreground,Centre,"sb\p3\o2.png",320,240 S,0,159258,159383,0.1,1 M,0,159383,,522.6959,171.9672 S,0,161133,161258,0.9784,0.1
Sprite,Foreground,Centre,"sb\p3\o3.png",320,240 S,0,159508,159633,0.1,1 M,0,159633,,508.6686,211.9452 S,0,161133,161258,1,0.1
Sprite,Foreground,Centre,"sb\p3\o4.png",320,240 S,0,159758,159883,0.1,1 M,0,159883,,521.9945,251.9233 S,0,161133,161258,1,0.1
Sprite,Foreground,Centre,"sb\p3\o5.png",320,240 S,0,160008,160133,0.1,1 M,0,160133,,507.9671,291.9013 S,0,161133,161258,1,0.1
Sprite,Foreground,Centre,"sb\p2\o015.png",320,240 S,0,160258,160383,0.1,1 M,0,160383,,522.6959,331.8794 S,0,161133,161258,1,0.1
Sprite,Foreground,Centre,"sb\p3\o6.png",320,240 S,0,160508,160633,0.1,1 M,0,160633,,507.9671,371.8576 S,0,161133,161258,1,0.1
Sprite,Foreground,Centre,"sb\p2\o03.png",320,240 S,0,160758,160883,0.1,1 M,0,160883,,523.3973,411.8356 S,0,161133,161258,1,0.1
Sprite,Foreground,Centre,"sb\p3\o1.png",320,240 S,0,162508,162639,0.1,1 M,0,162639,,449.0521,94.11508 S,0,165160,165285,1,0.1
Sprite,Foreground,Centre,"sb\p2\o015.png",320,240 S,0,163008,163138,0.1,1 M,0,163138,,429.4137,134.0932 S,0,165138,165263,0.9930769,0.1
Sprite,Foreground,Centre,"sb\p3\o2.png",320,240 S,0,163258,163383,0.1,1 M,0,163383,,448.3508,174.0713 S,0,165133,165258,0.9784,0.1
Sprite,Foreground,Centre,"sb\p3\o3.png",320,240 S,0,163508,163633,0.1,1 M,0,163633,,429.4138,214.0493 S,0,165133,165258,1,0.1
Sprite,Foreground,Centre,"sb\p3\o4.png",320,240 S,0,163758,163883,0.1,1 M,0,163883,,447.6493,254.0274 S,0,165133,165258,1,0.1
Sprite,Foreground,Centre,"sb\p3\o5.png",320,240 S,0,164008,164133,0.1,1 M,0,164133,,431.5178,295.4081 S,0,165133,165258,1,0.1
Sprite,Foreground,Centre,"sb\p2\o015.png",320,240 S,0,164258,164383,0.1,1 M,0,164383,,447.6494,335.3863 S,0,165133,165258,1,0.1
Sprite,Foreground,Centre,"sb\p3\o6.png",320,240 S,0,164508,164633,0.1,1 M,0,164633,,431.5177,375.3645 S,0,165133,165258,1,0.1
Sprite,Foreground,Centre,"sb\p2\o03.png",320,240 S,0,164758,164883,0.1,1 M,0,164883,,448.3507,416.0439 S,0,165133,165258,1,0.1
Sprite,Foreground,Centre,"sb\p3\y1.png",320,240 S,0,166508,166633,0.1,1 M,0,166633,168883,189.5452,201.4247,218.3014,201.4247 S,0,168883,169008,1,0.1
Sprite,Foreground,Centre,"sb\p3\y2.png",320,240 S,0,169008,169133,0.1,1 M,0,169133,171133,303.8685,265.9507,316.4932,265.9507 S,0,174133,174258,1,0.1
Sprite,Foreground,Centre,"sb\p3\o7.png",320,240 S,0,171008,171133,0.1,1 M,0,171133,,378.915,279.2767 S,0,174133,174258,1,0.1
Sprite,Foreground,Centre,"sb\p3\y3.png",320,240 S,0,172258,172383,0.1,1 M,0,172383,,455.3644,274.3671 S,0,174133,174258,0.9856,0.1
Sprite,Foreground,Centre,"sb\p1\lycro01.png",320,240 S,0,174508,174633,0.1,1 M,0,174633,,141.1507,126.3781 S,0,175133,175258,0.9928,0.1
Sprite,Foreground,Centre,"sb\p1\ly18.png",320,240 F,0,175758,175883,0,1 M,0,175883,177133,181.8301,203.5288,202.8712,203.5288 F,0,177133,177258,1,0
Sprite,Foreground,Centre,"sb\p1\ly19.png",320,240 F,0,177758,177883,0,1 M,0,177883,179383,356.4713,244.9096,334.0274,244.9096 F,0,179383,179508,1,0
Sprite,Foreground,Centre,"sb\p1\lycro04.png",320,240 F,0,179758,179883,0,1 M,0,179883,182133,531.1123,224.5699,531.1123,256.1315 F,0,182133,182258,1,0
Sprite,Foreground,Centre,"sb\p1\lycro05.png",320,240 S,0,182508,182633,0.1,1 M,0,182633,,500.2521,111.6493 S,0,183133,183258,1,0.1
Sprite,Foreground,Centre,"sb\p1\ly23.png",320,240 F,0,183758,183883,0,1 M,0,183883,185133,159.3863,270.1589,181.8301,270.1589 F,0,185133,185258,1,0
Sprite,Foreground,Centre,"sb\p1\ly24.png",320,240 F,0,185758,185883,0.04263016,1 M,0,185883,187383,416.7891,366.2466,389.4357,366.2466 F,0,187383,187508,1,0
Sprite,Foreground,Centre,"sb\p3\t1.png",320,240 F,0,187758,187883,0,1 M,0,187883,190133,110.2904,225.9726,110.2904,258.937 F,0,190133,190258,1,0
Sprite,Foreground,Centre,"sb\p1\ly17.png",320,240 M,0,190570,190633,505.1617,98.32328,479.9123,110.2466 F,0,190570,190633,0,1 S,0,190570,190633,4.96274,1 F,0,191133,191258,1,0
Sprite,Foreground,Centre,"sb\p1\lycro02.png",320,240 S,0,191758,191883,0.1,1 M,0,191883,193133,113.0959,210.5425,113.0959,235.0904 S,0,193133,193258,1,0.1
Sprite,Foreground,Centre,"sb\p1\lycro03.png",320,240 S,0,193758,193883,0.1,1 M,0,193883,195383,169.2055,330.4767,169.2055,301.0192 S,0,195383,195508,1,0.1
Sprite,Foreground,Centre,"sb\p1\ly15.png",320,240 S,0,195758,195883,0.1,1 M,0,195883,198133,296.1534,390.7945,318.5972,390.7945 S,0,198133,198258,1,0.1
Sprite,Foreground,Centre,"sb\p1\ly22.png",320,240 M,0,198570,198633,163.5945,84.29588,161.4904,115.1562 F,0,198570,198633,0,1 S,0,198570,198633,3.903671,1 F,0,199133,199258,1,0
Sprite,Foreground,Centre,"sb\p1\lycro06.png",320,240 S,0,199758,199883,0.1,1 M,0,199883,201133,528.3068,209.1397,528.3068,226.674 S,0,201133,201258,1,0.1
Sprite,Foreground,Centre,"sb\p1\lycro07.png",320,240 S,0,201758,201883,0.1,1 M,0,201883,203383,464.4822,311.5397,464.4822,286.9917 S,0,203383,203508,1,0.1
Sprite,Foreground,Centre,"sb\p1\ly16.png",320,240 S,0,203758,203883,0.1,1 M,0,203883,206133,302.4658,75.87945,327.7151,75.87945 S,0,206133,206258,1,0.1
Sprite,Foreground,Centre,"sb\p1\lycro01.png",320,240 F,0,206508,206633,0,1 M,0,206633,210133,174.1151,98.3233,174.1151,113.7534 F,0,210133,210258,1,0
Sprite,Foreground,Centre,"sb\p1\lycro01.png",320,240 F,0,210508,210633,0,1 M,0,210633,214133,529.0082,97.62191,529.0082,115.1561 F,0,214133,214258,1,0
Sprite,Foreground,Centre,"sb\p1\ly17.png",320,240 M,0,214570,214633,318.5973,130.5863,308.0768,81.49042 F,0,214570,214633,0,1 S,0,214570,214633,3.69326,1 M,0,214633,218133,308.0768,81.49042,318.5973,81.49042 F,0,218133,218258,0.952381,0
Sprite,Foreground,Centre,"sb\p3\y4.png",320,240 F,0,218758,218883,0,1 M,0,218883,,241.4466,140.4055 F,0,221508,221633,0.984,0
Sprite,Foreground,Centre,"sb\p2\o021.png",320,240 F,0,219758,219883,0,1 M,0,219883,,319.2986,138.3014 F,0,221508,221633,1,0
Sprite,Foreground,Centre,"sb\p3\y5.png",320,240 F,0,220258,220383,0,1 M,0,220383,,397.1507,140.4055 F,0,221508,221633,0.984,0
//Storyboard Sound Samples

[TimingPoints]
58,272.727272727273,4,1,1,80,1,0
1148,-133.333333333333,4,2,0,60,0,0
10967,-100,4,2,1,70,0,0
17512,-200,4,2,1,80,0,0
17580,-200,4,2,1,5,0,0
18398,-200,4,1,1,75,0,0
18603,-100,4,1,1,80,0,0
19694,-200,4,1,1,78,0,0
19762,-200,4,1,1,5,0,0
20239,-90.9090909090909,4,1,1,80,0,0
20785,-100,4,1,1,80,0,0
38239,-133.333333333333,4,2,1,70,0,0
42603,-133.333333333333,4,2,1,80,0,0
45876,-100,4,1,1,80,0,0
49148,-200,4,1,1,80,0,0
49183,-200,4,2,1,5,0,0
49694,-200,4,1,1,80,0,0
49762,-200,4,1,1,5,0,0
50239,-100,4,1,3,80,0,1
50273,-100,4,1,1,80,0,1
58421,-100,4,1,1,70,0,0
58967,-100,4,1,1,80,0,1
82967,260.869565217391,4,1,1,80,1,0
90271,-100,4,1,1,60,0,0
91314,-100,4,1,1,80,0,0
108010,-200,4,2,0,60,0,0
112053,-200,4,1,1,70,0,0
112184,-133.333333333333,4,1,1,70,0,0
115836,-133.333333333333,4,1,1,80,0,0
116358,-100,4,1,1,80,0,0
118445,-100,4,2,0,60,0,0
119488,-100,4,1,1,80,0,0
123140,-100,4,1,1,60,0,0
123662,-100,4,1,3,80,0,1
123695,-100,4,1,1,80,0,1
131488,-100,4,1,1,80,0,0
132010,-100,4,1,1,80,0,1
154966,-181.818181818182,4,1,1,80,0,1
155032,-181.818181818182,4,2,1,5,0,1
158358,-200,4,2,0,60,0,0
159140,250,4,2,1,80,1,0
159140,-133.333333333333,4,2,1,60,0,0
166390,-133.333333333333,4,2,0,70,0,0
166640,-133.333333333333,4,1,1,70,0,0
167140,-133.333333333333,4,1,1,70,0,0
173140,-100,4,1,1,70,0,0
174140,-100,4,1,1,70,0,0
174640,-200,4,1,1,70,0,0
174702,-200,4,2,1,5,0,0
175140,-100,4,1,3,80,0,1
175171,-100,4,1,1,80,0,1
182640,-100,4,1,1,80,0,0
183140,-100,4,1,1,80,0,1
190640,-100,4,1,1,80,0,0
191140,-83.3333333333333,4,1,3,80,0,1
191202,-83.3333333333333,4,1,1,80,0,1
206640,-83.3333333333333,4,1,1,80,0,0
207140,-83.3333333333333,4,1,1,80,0,1
219140,-83.3333333333333,4,1,1,80,0,0
220140,-200,4,1,1,80,0,0
221140,-133.333333333333,4,2,1,80,0,0
221577,-133.333333333333,4,2,1,5,0,0

[Colours]
Combo1 : 232,232,232
Combo2 : 255,128,192
Combo3 : 0,128,255

[HitObjects]
112,48,1694,5,2,0:0:0:0:
400,48,1967,1,2,0:0:0:0:
256,260,2239,6,0,P|212:248|164:240,1,82.5000031471254,2|0,0:0|0:0,0:0:0:0:
24,328,2512,2,0,P|72:300|104:268,1,82.5000031471254
80,108,2785,2,0,P|88:156|112:196,1,82.5000031471254,2|0,0:0|0:0,0:0:0:0:
256,260,3058,1,2,0:0:0:0:
176,136,3194,1,2,0:0:0:0:
91,281,3330,6,0,B|168:281|168:281|176:312|196:340|240:352,1,165.000006294251,2|0,0:0|0:0,0:0:0:0:
256,196,3739,1,0,0:0:0:0:
176,136,3876,2,0,P|132:120|104:92,1,82.5000031471254,2|0,0:0|0:0,0:0:0:0:
336,135,4148,2,0,P|374:123|405:95,1,82.5000031471254
421,281,4421,6,0,B|344:281|344:281|336:312|316:340|272:352,1,165.000006294251,2|0,0:0|0:0,0:0:0:0:
256,196,4830,1,0,0:0:0:0:
152,276,4967,2,0,L|234:276,1,82.5000031471254,2|0,0:0|0:0,0:0:0:0:
415,128,5239,2,0,P|351:128|319:148,1,82.5000031471254,2|2,0:0|0:0,0:0:0:0:
92,177,5512,6,0,L|268:197,1,165.000006294251,2|0,0:0|0:0,0:0:0:0:
64,88,5921,1,0,0:0:0:0:
234,276,6058,2,0,L|257:196,1,82.5000031471254,2|0,0:0|0:0,0:0:0:0:
119,29,6330,2,0,P|75:65|59:109,1,82.5000031471254
401,124,6603,6,0,P|395:83|376:48,1,82.5000031471254,2|0,0:0|0:0,0:0:0:0:
226,120,6876,2,0,L|258:200,1,82.5000031471254
376,48,7148,2,0,P|332:52|280:72,1,82.5000031471254,2|0,0:0|0:0,0:0:0:0:
96,228,7421,1,2,0:0:0:0:
226,120,7558,1,2,0:0:0:0:
69,65,7694,6,0,L|101:265,1,165.000006294251,2|0,0:0|0:0,0:0:0:0:
398,136,8103,1,0,0:0:0:0:
248,32,8239,2,0,P|206:34|167:44,1,82.5000031471254,2|0,0:0|0:0,0:0:0:0:
263,352,8512,2,0,P|305:350|345:339,1,82.5000031471254
244,208,8785,6,0,B|228:260|228:260|184:300|184:300|172:356,1,165.000006294251,2|0,0:0|0:0,0:0:0:0:
63,211,9194,2,0,L|149:209,1,82.5000031471254,0|2,0:0|0:0,0:0:0:0:
244,208,9467,1,0,0:0:0:0:
104,128,9603,1,2,0:0:0:0:
92,292,9739,6,0,L|285:289,1,165.000006294251,2|2,0:0|0:0,0:0:0:0:
396,112,10148,2,0,P|384:72|360:38,1,82.5000031471254,2|0,0:0|0:0,0:0:0:0:
104,128,10421,2,0,L|192:92,1,82.5000031471254,2|0,0:0|0:0,0:0:0:0:
456,12,10694,1,4,0:0:0:0:
296,120,10830,1,0,0:0:0:0:
505,98,10967,6,0,L|377:114,1,110,4|0,0:0|0:0,0:0:0:0:
180,96,11239,1,2,0:0:0:0:
360,38,11376,1,0,0:0:0:0:
116,196,11512,2,0,L|284:216,1,165,2|0,0:0|0:0,0:0:0:0:
348,264,11785,2,0,P|360:320|340:380,1,110,2|0,0:0|0:0,0:0:0:0:
32,280,12058,6,0,L|200:300,1,165,2|0,0:0|0:0,0:0:0:0:
276,312,12330,1,2,0:0:0:0:
180,96,12467,1,0,0:0:0:0:
116,196,12603,2,0,L|232:208,1,110,2|0,0:0|0:0,0:0:0:0:
505,98,12876,2,0,L|413:182,1,110,2|0,0:0|0:0,0:0:0:0:
344,380,13148,6,0,P|360:320|324:216,1,165,2|0,0:0|0:0,0:0:0:0:
288,160,13421,1,2,0:0:0:0:
260,308,13558,1,0,0:0:0:0:
180,96,13694,1,2,0:0:0:0:
380,108,13830,1,0,0:0:0:0:
204,208,13967,2,0,L|96:224,1,110,2|0,0:0|0:0,0:0:0:0:
18,60,14239,6,0,L|179:95,1,165,2|0,0:0|0:0,0:0:0:0:
251,57,14512,2,0,P|276:106|288:160,1,110,2|0,0:0|0:0,0:0:0:0:
95,224,14785,1,2,0:0:0:0:
20,140,14921,1,0,0:0:0:0:
204,208,15058,2,0,L|329:265,1,110,2|0,0:0|0:0,0:0:0:0:
432,136,15330,6,0,L|252:188,1,165,2|0,0:0|0:0,0:0:0:0:
204,208,15603,1,2,0:0:0:0:
408,232,15739,1,0,0:0:0:0:
248,60,15876,1,2,0:0:0:0:
264,324,16012,1,0,0:0:0:0:
264,324,16148,2,0,P|328:320|384:304,1,110,2|0,0:0|0:0,0:0:0:0:
172,120,16421,5,2,0:3:0:0:
432,136,16558,1,0,0:0:0:0:
432,136,16626,1,0,0:0:0:0:
432,136,16694,1,0,0:0:0:0:
203,207,16830,1,0,0:0:0:0:
248,60,16967,5,2,0:3:0:0:
264,324,17103,1,0,0:0:0:0:
166,40,17239,5,2,0:3:0:0:
346,344,17376,1,0,0:0:0:0:
84,192,17512,6,0,B|91:155|155:155|155:155|363:227|363:227|411:227|425:188,1,385,4|0,0:0|0:0,0:0:0:0:
448,112,18535,1,0,0:0:0:0:
476,40,18603,6,0,B|416:28|416:28|372:80,1,110,0|2,0:0|0:0,0:0:0:0:
356,112,18808,1,8,0:0:0:0:
324,156,18876,2,0,L|280:40,1,110,10|0,0:0|0:0,0:0:0:0:
144,40,19148,1,2,0:0:0:0:
48,296,19285,1,8,0:0:0:0:
220,160,19421,1,8,0:0:0:0:
0,72,19558,1,0,0:0:0:0:
120,248,19694,6,0,B|262:248|262:248|280:236|286:204,1,192.5,4|0,0:0|0:0,0:0:0:0:
220,160,20239,6,0,B|77:160|77:160|60:172|56:208,1,181.500005538941,2|0,0:3|0:0,0:0:0:0:
38,264,20512,6,0,B|51:309|34:356|34:356|73:331|134:332,1,181.500005538941
196,328,20785,6,0,L|344:328,1,110,4|0,0:0|0:0,0:0:0:0:
316,56,21058,2,0,L|168:56,1,110,8|0,0:0|0:0,0:0:0:0:
120,248,21330,1,2,0:0:0:0:
344,224,21467,1,2,0:0:0:0:
164,140,21603,2,0,B|132:132|116:112|116:112|52:112,1,110,8|0,0:0|0:0,0:0:0:0:
448,360,21876,6,0,L|424:192,1,165,2|0,0:0|0:0,0:0:0:0:
344,224,22148,2,0,L|360:336,1,110,8|0,0:0|0:0,0:0:0:0:
153,332,22421,1,2,0:0:0:0:
344,224,22558,1,2,0:0:0:0:
168,160,22694,1,8,0:0:0:0:
363,64,22830,1,0,0:0:0:0:
256,192,22967,6,0,L|280:360,1,165,2|0,0:0|0:0,0:0:0:0:
200,384,23239,2,0,L|184:275,1,110,8|0,0:0|0:0,0:0:0:0:
152,24,23512,1,2,0:0:0:0:
256,192,23648,1,2,0:0:0:0:
8,203,23785,2,0,P|50:237|103:251,1,110,8|0,0:0|0:0,0:0:0:0:
168,160,24058,6,0,L|8:204,1,165,2|0,0:0|0:0,0:0:0:0:
16,120,24330,2,0,L|132:88,1,110,8|0,0:0|0:0,0:0:0:0:
256,192,24603,1,2,0:0:0:0:
412,36,24739,1,0,0:0:0:0:
436,248,24876,2,0,P|385:228|356:183,1,110,8|0,0:0|0:0,0:0:0:0:
496,8,25148,6,0,B|492:72|492:72|460:148|443:160,1,165,2|0,0:0|0:0,0:0:0:0:
400,84,25421,2,0,L|276:44,1,110,8|0,0:0|0:0,0:0:0:0:
95,256,25694,1,2,0:0:0:0:
288,168,25830,1,2,0:0:0:0:
96,40,25967,2,0,P|75:74|72:152,1,110,8|0,0:0|0:0,0:0:0:0:
228,244,26239,6,0,B|188:168|220:120|220:120|220:60,1,165,2|0,0:0|0:0,0:0:0:0:
295,50,26512,2,0,L|400:84,1,110,8|0,0:0|0:0,0:0:0:0:
488,232,26785,1,2,0:0:0:0:
288,168,26921,1,2,0:0:0:0:
295,333,27058,2,0,L|400:300,1,110,8|0,0:0|0:0,0:0:0:0:
216,51,27330,6,0,L|60:100,1,165,2|0,0:0|0:0,0:0:0:0:
112,168,27603,2,0,L|216:134,1,110,8|0,0:0|0:0,0:0:0:0:
16,28,27876,1,2,0:0:0:0:
42,301,28012,1,2,0:0:0:0:
216,51,28148,1,8,0:0:0:0:
240,324,28285,1,0,0:0:0:0:
42,301,28421,6,0,L|158:285,1,110,2|0,0:0|0:0,0:0:0:0:
416,192,28694,2,0,L|300:192,1,110,8|0,0:0|0:0,0:0:0:0:
42,83,28967,2,0,L|150:98,1,110,2|2,0:0|0:0,0:0:0:0:
488,292,29239,1,8,0:0:0:0:
228,192,29376,1,0,0:0:0:0:
488,92,29512,6,0,L|372:92,1,110,4|0,0:0|0:0,0:0:0:0:
128,228,29785,2,0,P|208:240|248:264,1,110,8|0,0:0|0:0,0:0:0:0:
28,380,30058,1,2,0:0:0:0:
288,320,30194,1,2,0:0:0:0:
108,104,30330,2,0,P|64:120|32:192,1,110,8|0,0:0|0:0,0:0:0:0:
152,348,30603,6,0,L|124:185,1,165,2|0,0:0|0:0,0:0:0:0:
108,104,30876,2,0,P|162:108|208:152,1,110,8|0,0:0|0:0,0:0:0:0:
216,288,31148,1,2,0:0:0:0:
32,172,31285,1,2,0:0:0:0:
320,188,31421,1,8,0:0:0:0:
88,20,31558,1,0,0:0:0:0:
256,64,31694,6,0,B|322:31|322:31|368:48,1,110,2|0,0:0|0:0,0:0:0:0:
427,238,31967,2,0,P|376:220|344:177,1,110,8|0,0:0|0:0,0:0:0:0:
224,216,32239,1,2,0:0:0:0:
376,80,32376,1,2,0:0:0:0:
140,184,32512,1,8,0:0:0:0:
460,112,32648,1,2,0:0:0:0:
136,56,32785,6,0,L|322:72,1,165,2|0,0:0|0:0,0:0:0:0:
376,80,33058,2,0,B|376:144|376:144|344:177,1,110,8|0,0:0|0:0,0:0:0:0:
48,304,33330,1,2,0:0:0:0:
136,56,33467,1,2,0:0:0:0:
236,287,33603,2,0,P|284:307|360:295,1,110,8|0,0:0|0:0,0:0:0:0:
512,188,33876,6,0,B|464:144|464:144|352:144,1,165,2|0,0:0|0:0,0:0:0:0:
308,220,34148,2,0,L|432:220,1,110,8|0,0:0|0:0,0:0:0:0:
352,64,34421,1,2,0:0:0:0:
136,0,34558,1,2,0:0:0:0:
160,184,34694,2,0,L|276:144,1,110,8|0,0:0|0:0,0:0:0:0:
512,104,34967,6,0,L|346:63,1,165,2|0,0:0|0:0,0:0:0:0:
274,45,35239,2,0,P|252:94|263:148,1,110,8|0,0:0|0:0,0:0:0:0:
476,12,35512,1,2,0:0:0:0:
274,45,35648,1,2,0:0:0:0:
356,244,35785,2,0,P|366:190|344:141,1,110,8|0,0:0|0:0,0:0:0:0:
102,108,36058,6,0,L|262:147,1,165,2|0,0:0|0:0,0:0:0:0:
272,228,36330,2,0,P|224:276|152:280,1,110,8|0,0:0|0:0,0:0:0:0:
88,24,36603,1,2,0:0:0:0:
188,204,36739,1,2,0:0:0:0:
308,44,36876,1,8,0:0:0:0:
0,184,37012,1,0,0:0:0:0:
201,13,37148,6,0,L|172:120,1,110,2|0,0:0|0:0,0:0:0:0:
309,369,37421,2,0,L|340:264,1,110,10|8,0:0|0:0,0:0:0:0:
348,236,37626,1,8,0:0:0:0:
356,208,37694,1,8,0:0:0:0:
364,180,37762,1,0,0:0:0:0:
372,156,37830,1,0,0:0:0:0:
380,128,37898,1,0,0:0:0:0:
388,100,37967,2,0,L|280:52,1,110,10|8,0:0|0:0,0:0:0:0:
201,301,38239,6,0,L|86:256,1,123.750004720688,4|0,0:0|0:0,0:0:0:0:
60,192,38512,2,0,L|137:219,1,82.5000031471254,8|0,0:0|0:0,0:0:0:0:
248,240,38785,1,0,0:0:0:0:
137,121,38921,1,0,0:0:0:0:
86,346,39058,2,0,L|201:301,1,123.750004720688,8|0,0:0|0:0,0:0:0:0:
248,240,39330,6,0,L|216:88,1,123.750004720688
268,68,39603,2,0,L|290:174,1,82.5000031471254,8|0,0:0|0:0,0:0:0:0:
312,292,39876,1,0,0:0:0:0:
160,196,40012,1,0,0:0:0:0:
352,196,40148,2,0,L|496:196,1,123.750004720688,8|0,0:0|0:0,0:0:0:0:
512,272,40421,6,0,L|384:272,1,123.750004720688
312,292,40694,2,0,P|336:328|372:347,1,82.5000031471254,8|0,0:0|0:0,0:0:0:0:
475,196,40967,1,0,0:0:0:0:
280,148,41103,2,0,B|280:219|217:231|230:320,1,165.000006294251
280,148,41512,6,0,L|152:125,1,123.750004720688
103,70,41785,2,0,P|83:110|91:178,1,82.5000031471254,8|0,0:0|0:0,0:0:0:0:
280,148,42058,1,0,0:0:0:0:
144,8,42194,1,0,0:0:0:0:
68,248,42330,2,0,L|189:226,1,123.750004720688,8|0,0:0|0:0,0:0:0:0:
272,224,42603,6,0,P|256:280|176:312,1,123.750004720688,4|0,0:0|0:0,0:0:0:0:
124,324,42876,2,0,L|15:346,1,82.5000031471254,8|0,0:0|0:0,0:0:0:0:
81,147,43148,1,0,0:0:0:0:
180,44,43285,1,0,0:0:0:0:
180,250,43421,1,8,0:0:0:0:
81,147,43558,1,0,0:0:0:0:
280,148,43694,6,0,L|432:148,1,123.750004720688
384,224,43967,2,0,L|301:224,1,82.5000031471254,8|0,0:0|0:0,0:0:0:0:
205,187,44239,1,0,0:0:0:0:
470,189,44376,1,0,0:0:0:0:
385,68,44512,2,0,L|303:68,1,82.5000031471254,8|0,0:0|0:0,0:0:0:0:
180,271,44785,6,0,L|180:139,1,123.750004720688
140,79,45058,2,0,P|181:70|240:91,1,82.5000031471254,8|0,0:0|0:0,0:0:0:0:
332,355,45330,1,0,0:0:0:0:
256,152,45467,1,0,0:0:0:0:
180,355,45603,1,8,0:0:0:0:
360,256,45739,1,0,0:0:0:0:
152,256,45876,5,4,0:0:0:0:
152,256,45944,1,0,0:0:0:0:
152,256,46012,1,0,0:0:0:0:
256,56,46148,1,8,0:0:0:0:
401,128,46285,2,0,B|366:111|334:139|334:139|334:199|334:199|294:235|256:232,1,220,0|2,0:0|0:0,0:0:0:0:
111,128,46694,2,0,B|150:116|178:140|178:140|178:178,1,110,8|0,0:0|0:0,0:0:0:0:
256,342,46967,6,0,L|256:232,1,110
420,200,47239,1,8,0:0:0:0:
362,347,47376,2,0,P|302:355|234:327,1,110
92,200,47648,1,2,0:0:0:0:
148,347,47785,2,0,P|208:355|276:327,1,110,8|0,0:0|0:0,0:0:0:0:
332,112,48058,6,0,B|256:148|256:148|176:108,1,165
256,36,48330,2,0,L|256:172,1,110,8|0,0:0|0:0,0:0:0:0:
84,328,48603,5,0,0:0:0:0:
132,80,48739,1,0,0:0:0:0:
428,328,48876,5,8,0:0:0:0:
380,80,49012,1,2,0:0:0:0:
256,308,49148,5,8,0:0:0:0:
256,308,49694,6,0,B|260:296|260:296|252:292|252:292|260:288|260:288|248:284|248:284|260:272|260:272|248:268|248:268|256:260|256:260|248:252|248:252|264:244|264:244|236:216|260:160,1,192.5
320,112,50239,6,0,B|370:93|370:93|448:92,1,110,4|0,0:0|0:0,0:0:0:0:
512,304,50512,1,8,0:0:0:0:
316,200,50648,1,0,0:0:0:0:
456,188,50785,1,2,0:0:0:0:
368,32,50921,1,2,0:0:0:0:
292,344,51058,2,0,P|352:352|436:324,1,110,8|0,0:0|0:0,0:0:0:0:
208,108,51330,6,0,B|208:185|264:189|260:265,1,165,2|0,0:0|0:0,0:0:0:0:
196,312,51603,2,0,P|146:288|92:282,1,110,8|0,0:0|0:0,0:0:0:0:
336,264,51876,1,2,0:0:0:0:
139,191,52012,1,2,0:0:0:0:
116,364,52148,1,8,0:0:0:0:
344,168,52285,1,0,0:0:0:0:
137,82,52421,6,0,B|185:110|185:110|305:102,1,165,2|0,0:0|0:0,0:0:0:0:
320,24,52694,2,0,B|184:32,1,110,8|0,0:0|0:0,0:0:0:0:
60,140,52967,1,2,0:0:0:0:
256,264,53103,1,2,0:0:0:0:
210,30,53239,1,8,0:0:0:0:
88,244,53376,1,0,0:0:0:0:
400,224,53512,6,0,B|412:180|412:180|268:180,1,165,2|0,0:0|0:0,0:0:0:0:
220,180,53785,1,8,0:0:0:0:
400,344,53921,1,0,0:0:0:0:
112,344,54058,1,2,0:0:0:0:
256,112,54194,2,0,L|256:0,1,110,2|8,0:0|0:0,0:0:0:0:
112,224,54467,6,0,B|100:180|100:180|244:180,1,165
292,180,54739,1,0,0:0:0:0:
256,336,54876,1,8,0:0:0:0:
36,152,55012,1,0,0:0:0:0:
2,330,55148,2,0,L|130:346,1,110,2|2,0:0|0:0,0:0:0:0:
360,280,55421,1,8,0:0:0:0:
112,224,55558,1,0,0:0:0:0:
323,97,55694,6,0,B|272:128|224:128|224:128|160:84,1,165,2|0,0:0|0:0,0:0:0:0:
244,44,55967,2,0,B|292:24|292:24|319:12|368:24,1,110,8|0,0:0|0:0,0:0:0:0:
352,264,56239,1,2,0:0:0:0:
174,94,56376,1,2,0:0:0:0:
184,336,56512,1,8,0:0:0:0:
349,20,56648,1,0,0:0:0:0:
184,336,56785,6,0,B|287:374|287:374|319:354|343:310,1,165,2|0,0:0|0:0,0:0:0:0:
352,264,57058,2,0,L|231:224,1,110,8|0,0:0|0:0,0:0:0:0:
88,176,57330,1,2,0:0:0:0:
376,112,57467,1,2,1:1:0:0:
252,300,57603,1,8,0:0:0:0:
192,4,57739,1,0,0:0:0:0:
424,176,57876,6,0,B|448:200|448:200|452:248|424:304,1,110,2|0,0:0|0:0,0:0:0:0:
88,176,58148,2,0,B|64:200|64:200|60:248|88:304,1,110,8|0,0:0|0:0,0:0:0:0:
256,362,58421,5,2,0:0:0:0:
256,332,58489,1,0,0:0:0:0:
256,305,58558,1,2,0:0:0:0:
256,275,58626,1,0,0:0:0:0:
256,248,58694,1,8,0:0:0:0:
256,219,58762,1,0,0:0:0:0:
256,192,58830,1,8,0:0:0:0:
256,162,58898,1,0,0:0:0:0:
256,135,58967,6,0,B|245:114|245:114|266:98|266:98|252:56|260:16,1,110,4|0,0:0|0:0,0:0:0:0:
433,282,59239,2,0,L|324:248,1,110,8|0,0:0|0:0,0:0:0:0:
152,248,59512,1,2,0:0:0:0:
332,128,59648,1,2,0:0:0:0:
388,368,59785,2,0,P|440:376|504:352,1,110,8|0,0:0|0:0,0:0:0:0:
448,72,60058,6,0,L|500:254,1,165,2|0,0:0|0:0,0:0:0:0:
433,282,60330,2,0,L|324:248,1,110,8|0,0:0|0:0,0:0:0:0:
104,100,60603,1,2,0:0:0:0:
288,168,60739,1,2,0:0:0:0:
0,264,60876,1,8,0:0:0:0:
72,16,61012,1,0,0:0:0:0:
148,296,61148,6,0,L|336:244,1,165,2|0,0:0|0:0,0:0:0:0:
383,226,61421,2,0,P|383:158|343:106,1,110,8|0,0:0|0:0,0:0:0:0:
184,8,61694,1,2,0:0:0:0:
252,196,61830,1,2,0:0:0:0:
300,68,61967,1,8,0:0:0:0:
136,136,62103,1,0,0:0:0:0:
366,16,62239,6,0,P|374:80|346:148,1,110,2|0,0:0|0:0,0:0:0:0:
71,166,62512,1,8,0:0:0:0:
383,226,62648,2,0,P|383:158|343:106,1,110,0|2,0:0|0:0,0:0:0:0:
8,208,62921,2,0,L|152:192,1,110,2|8,0:0|0:0,0:0:0:0:
502,35,63194,6,0,L|351:129,1,165
308,184,63467,2,0,L|196:172,1,110,0|8,0:0|0:0,0:0:0:0:
368,12,63739,1,0,0:0:0:0:
382,226,63876,1,2,0:0:0:0:
80,100,64012,1,2,0:0:0:0:
362,123,64148,2,0,P|386:171|383:226,1,110,8|2,0:0|0:0,0:0:0:0:
208,337,64421,6,0,L|197:146,1,165,2|0,0:0|0:0,0:0:0:0:
124,148,64694,2,0,L|130:264,1,110,8|0,0:0|0:0,0:0:0:0:
310,298,64967,1,0,0:0:0:0:
116,52,65103,1,2,0:0:0:0:
136,360,65239,1,8,0:0:0:0:
297,86,65376,1,0,0:0:0:0:
310,298,65512,6,0,L|486:294,1,165,2|0,0:0|0:0,0:0:0:0:
508,216,65785,2,0,L|364:220,1,110,8|0,0:0|0:0,0:0:0:0:
256,197,66058,1,2,0:0:0:0:
116,52,66194,1,2,0:0:0:0:
368,140,66330,2,0,L|500:140,1,110,8|0,0:0|0:0,0:0:0:0:
256,352,66603,6,0,B|264:340|264:340|248:324|248:324|256:308|256:308|256:152,1,165,2|0,0:0|0:0,0:0:0:0:
192,140,66876,2,0,L|82:140,1,110,8|0,0:0|0:0,0:0:0:0:
108,328,67148,1,2,0:0:0:0:
404,328,67285,1,8,0:0:0:0:
256,64,67421,1,8,0:0:0:0:
256,352,67558,1,8,0:0:0:0:
256,64,67694,5,4,0:0:0:0:
488,104,67830,1,0,0:0:0:0:
424,256,67967,2,0,L|312:252,1,110,8|0,0:0|0:0,0:0:0:0:
192,140,68239,1,2,0:0:0:0:
440,24,68376,1,2,0:0:0:0:
448,208,68512,2,0,L|336:204,1,110,8|0,0:0|0:0,0:0:0:0:
65,211,68785,6,0,L|180:204,1,110,2|0,0:0|0:0,0:0:0:0:
256,64,69058,1,8,0:0:0:0:
24,104,69194,1,2,0:0:0:0:
172,296,69330,1,0,0:0:0:0:
136,84,69467,1,2,0:0:0:0:
60,324,69603,1,8,0:0:0:0:
288,272,69739,1,0,0:0:0:0:
177,4,69876,6,0,P|122:0|72:20,1,110,2|0,0:0|0:0,0:0:0:0:
130,371,70148,2,0,P|185:375|236:356,1,110,8|0,0:0|0:0,0:0:0:0:
420,104,70421,1,2,0:0:0:0:
252,4,70558,1,2,0:0:0:0:
256,284,70694,1,8,0:0:0:0:
96,184,70830,1,0,0:0:0:0:
416,184,70967,5,2,0:0:0:0:
256,84,71103,1,0,0:0:0:0:
200,268,71239,2,0,B|256:284|256:284|316:264,1,110,8|2,0:0|0:0,0:0:0:0:
256,116,71512,1,0,0:0:0:0:
256,364,71648,1,2,0:0:0:0:
96,184,71785,1,8,0:0:0:0:
416,184,71921,1,0,0:0:0:0:
256,44,72058,6,0,L|72:16,1,165,4|0,0:0|0:0,0:0:0:0:
56,88,72330,2,0,L|176:108,1,110,8|0,0:0|0:0,0:0:0:0:
332,252,72603,1,2,0:0:0:0:
120,192,72739,1,2,0:0:0:0:
316,164,72876,2,0,P|384:180|432:240,1,110,8|0,0:0|0:0,0:0:0:0:
216,376,73148,6,0,L|196:196,1,165,2|0,0:0|0:0,0:0:0:0:
120,192,73421,2,0,L|135:324,1,110,8|2,0:0|0:0,0:0:0:0:
216,376,73694,1,0,0:0:0:0:
36,172,73830,1,2,0:0:0:0:
276,256,73967,1,8,0:0:0:0:
96,52,74103,1,0,0:0:0:0:
22,326,74239,6,0,L|142:298,1,110,2|0,0:0|0:0,0:0:0:0:
320,136,74512,2,0,B|340:192|340:192|316:260,1,110,8|0,0:0|0:0,0:0:0:0:
22,58,74785,6,0,L|142:86,1,110,2|2,0:0|0:0,0:0:0:0:
372,240,75058,2,0,B|388:192|388:192|368:136,1,110,8|0,0:0|0:0,0:0:0:0:
22,326,75330,6,0,L|142:298,1,110,2|0,0:0|0:0,0:0:0:0:
416,136,75603,2,0,B|436:192|436:192|419:239,1,110,8|2,0:0|0:0,0:0:0:0:
22,58,75876,6,0,L|142:86,1,110,0|2,0:0|0:0,0:0:0:0:
400,312,76148,1,8,0:0:0:0:
400,72,76285,1,0,0:0:0:0:
256,192,76421,6,0,B|144:192|144:192|72:236,1,165,4|0,0:0|0:0,0:0:0:0:
56,292,76694,2,0,P|124:300|164:272,1,110,8|0,0:0|0:0,0:0:0:0:
360,56,76967,1,2,0:0:0:0:
256,344,77103,1,2,0:0:0:0:
180,107,77239,2,0,P|241:77|288:90,1,110,8|0,0:0|0:0,0:0:0:0:
500,152,77512,6,0,P|408:152|296:116,1,165,2|0,0:0|0:0,0:0:0:0:
279,85,77785,2,0,P|240:40|176:16,1,110,8|2,0:0|0:0,0:0:0:0:
40,296,78058,1,0,0:0:0:0:
180,107,78194,1,2,0:0:0:0:
256,344,78330,2,0,P|312:352|372:332,1,110,8|0,0:0|0:0,0:0:0:0:
368,88,78603,6,0,B|376:164|432:168|432:264,1,165,2|0,0:0|0:0,0:0:0:0:
430,238,78876,2,0,P|372:208|312:204,1,110,8|0,0:0|0:0,0:0:0:0:
192,172,79148,1,2,0:0:0:0:
362,337,79285,1,2,0:0:0:0:
469,123,79421,2,0,P|411:93|351:89,1,110,8|0,0:0|0:0,0:0:0:0:
192,172,79694,6,0,L|64:172,1,110,2|2,0:0|0:0,0:0:0:0:
116,284,79967,1,8,0:0:0:0:
396,284,80103,1,2,0:0:0:0:
145,87,80239,1,0,0:0:0:0:
367,87,80376,1,2,0:0:0:0:
256,320,80512,2,0,L|256:196,1,110,8|0,0:0|0:0,0:0:0:0:
304,36,80785,6,0,B|256:12|256:12|192:44,1,110,4|0,0:0|0:0,0:0:0:0:
120,216,81058,1,8,0:0:0:0:
392,216,81194,1,0,0:0:0:0:
256,152,81330,1,2,0:0:0:0:
256,376,81467,1,2,0:0:0:0:
392,100,81603,5,8,0:0:0:0:
120,100,81739,1,0,0:0:0:0:
172,280,81876,6,0,L|352:280,1,165,2|0,0:0|0:0,0:0:0:0:
312,204,82148,2,0,L|184:204,1,110,2|0,0:0|0:0,0:0:0:0:
365,64,82421,6,0,B|371:127|371:127|363:180|311:203,1,165,2|0,0:0|0:0,0:0:0:0:
144,152,82694,2,0,B|137:88|137:88|145:35|197:12,1,165,2|0,0:0|0:0,0:0:0:0:
256,104,82967,1,4,0:0:0:0:
116,80,90271,5,8,0:0:0:0:
116,312,90401,1,0,0:0:0:0:
96,200,90532,1,8,0:0:0:0:
96,200,90793,6,0,B|136:200|136:200|168:184|168:184|224:184,1,110,8|0,0:0|0:0,0:0:0:0:
236,212,90988,1,8,0:0:0:0:
272,236,91053,2,0,B|312:236|312:236|344:220|344:220|378:220,1,110,8|0,0:0|0:0,0:0:0:0:
420,200,91249,1,8,0:0:0:0:
452,172,91314,6,0,P|468:112|436:56,1,110,4|0,0:0|0:0,0:0:0:0:
105,77,91575,2,0,L|215:87,1,110,8|0,0:0|0:0,0:0:0:0:
328,264,91836,1,2,0:0:0:0:
276,40,91966,1,2,0:0:0:0:
224,192,92097,1,8,0:0:0:0:
392,120,92227,1,0,0:0:0:0:
148,144,92358,6,0,B|135:207|135:207|148:260|220:281,1,165,2|0,0:0|0:0,0:0:0:0:
224,192,92619,2,0,B|236:132|236:132|208:72,1,110,8|0,0:0|0:0,0:0:0:0:
60,92,92880,1,2,0:0:0:0:
203,275,93010,1,2,0:0:0:0:
321,95,93140,2,0,B|275:77|275:77|197:91,1,110,8|0,0:0|0:0,0:0:0:0:
56,176,93401,6,0,B|55:294|55:294|114:350,1,165,2|0,0:0|0:0,0:0:0:0:
159,362,93662,2,0,P|163:306|119:252,1,110,8|0,0:0|0:0,0:0:0:0:
116,40,93923,1,2,0:0:0:0:
300,144,94053,1,2,0:0:0:0:
135,262,94184,1,8,0:0:0:0:
116,40,94314,1,0,0:0:0:0:
264,224,94445,6,0,P|348:216|384:128,1,165,2|0,0:0|0:0,0:0:0:0:
328,100,94706,2,0,B|268:100|268:100|240:180,1,110,8|0,0:0|0:0,0:0:0:0:
392,288,94966,1,2,0:0:0:0:
440,80,95097,1,2,0:0:0:0:
179,243,95227,1,8,0:0:0:0:
224,28,95358,1,0,0:0:0:0:
344,240,95488,6,0,L|152:244,1,165,4|0,0:0|0:0,0:0:0:0:
204,320,95749,2,0,L|325:317,1,110,8|0,0:0|0:0,0:0:0:0:
328,72,96010,1,2,0:0:0:0:
24,184,96140,1,2,0:0:0:0:
140,60,96271,1,8,0:0:0:0:
212,224,96401,1,0,0:0:0:0:
287,8,96532,6,0,P|205:12|139:60,1,165,2|0,0:0|0:0,0:0:0:0:
184,124,96793,2,0,P|128:136|64:88,1,110,8|0,0:0|0:0,0:0:0:0:
16,24,97053,1,2,0:0:0:0:
256,88,97184,1,2,0:0:0:0:
144,328,97314,2,0,L|121:221,1,110,8|0,0:0|0:0,0:0:0:0:
287,8,97575,6,0,L|325:191,1,165,2|0,0:0|0:0,0:0:0:0:
256,212,97836,1,8,0:0:0:0:
388,120,97966,2,0,L|364:-4,1,110,0|2,0:0|0:0,0:0:0:0:
156,92,98227,1,2,0:0:0:0:
188,248,98358,1,8,0:0:0:0:
88,44,98488,1,0,0:0:0:0:
256,296,98619,6,0,L|324:292,2,55,8|0|0,0:0|0:0|0:0,0:0:0:0:
80,124,98880,1,8,0:0:0:0:
80,124,98945,1,0,0:0:0:0:
80,124,99010,1,0,0:0:0:0:
308,88,99140,1,8,0:0:0:0:
320,64,99206,1,0,0:0:0:0:
332,40,99271,1,0,0:0:0:0:
444,212,99401,2,0,P|400:252|292:244,1,165,8|0,0:0|0:0,0:0:0:0:
261,346,99662,6,0,P|267:292|299:247,1,110,4|0,0:0|0:0,0:0:0:0:
505,50,99923,2,0,P|467:89|416:108,1,110,8|0,0:0|0:0,0:0:0:0:
256,52,100184,1,2,0:0:0:0:
216,216,100314,1,2,0:0:0:0:
97,107,100445,1,8,0:0:0:0:
384,168,100575,1,0,0:0:0:0:
72,28,100706,6,0,P|40:48|40:168,1,165,2|0,0:0|0:0,0:0:0:0:
104,188,100966,2,0,P|164:156|168:76,1,110,8|0,0:0|0:0,0:0:0:0:
8,260,101227,1,2,0:0:0:0:
280,84,101358,1,2,0:0:0:0:
220,252,101488,1,10,0:0:0:0:
97,107,101619,1,0,0:0:0:0:
28,353,101749,6,0,L|212:329,1,165,2|0,0:0|0:0,0:0:0:0:
220,252,102010,2,0,L|96:268,1,110,8|0,0:0|0:0,0:0:0:0:
4,200,102271,1,2,0:0:0:0:
288,160,102401,1,2,0:0:0:0:
110,266,102532,1,8,0:0:0:0:
88,32,102662,1,0,0:0:0:0:
298,62,102793,6,0,L|476:40,1,165,2|0,0:0|0:0,0:0:0:0:
496,108,103053,2,0,B|512:164|512:164|482:217,1,110,8|0,0:0|0:0,0:0:0:0:
257,143,103314,1,2,0:0:0:0:
365,293,103445,1,2,0:0:0:0:
137,206,103575,1,8,0:0:0:0:
401,100,103706,1,0,0:0:0:0:
137,206,103836,6,0,B|217:238|217:238|265:250|317:202,1,165,2|0,0:0|0:0,0:0:0:0:
257,143,104097,2,0,P|248:88|204:44,1,110,8|0,0:0|0:0,0:0:0:0:
88,104,104358,1,2,0:0:0:0:
3,375,104488,1,2,0:0:0:0:
168,312,104619,2,0,L|136:200,1,110,8|0,0:0|0:0,0:0:0:0:
8,271,104880,6,0,L|180:315,1,165,2|0,0:0|0:0,0:0:0:0:
236,280,105140,2,0,B|248:344|248:344|200:384,1,110,8|0,0:0|0:0,0:0:0:0:
20,184,105401,1,2,0:0:0:0:
268,184,105532,1,2,0:0:0:0:
82,330,105662,1,10,0:0:0:0:
160,0,105793,1,0,0:0:0:0:
120,128,105923,6,0,B|184:116|184:116|252:52|360:60,1,220,4|0,0:0|0:0,0:0:0:0:
376,80,106249,1,0,0:0:0:0:
404,128,106314,1,0,0:0:0:0:
376,176,106380,1,0,0:0:0:0:
324,196,106445,6,0,B|260:184|260:184|192:120|84:128,1,220,4|0,0:0|0:0,0:0:0:0:
68,148,106771,1,0,0:0:0:0:
48,200,106836,1,0,0:0:0:0:
68,252,106901,1,0,0:0:0:0:
120,264,106966,6,0,B|184:252|184:252|252:188|360:196,1,220,4|0,0:0|0:0,0:0:0:0:
376,216,107293,1,0,0:0:0:0:
396,268,107358,1,0,0:0:0:0:
376,320,107423,1,0,0:0:0:0:
324,332,107488,6,0,B|260:320|260:320|192:256|84:264,1,220,4|0,0:0|0:0,0:0:0:0:
100,276,107814,1,0,0:0:0:0:
88,300,107880,1,0,0:0:0:0:
100,324,107945,1,0,0:0:0:0:
91,347,108010,6,0,B|113:373|113:373|152:380|192:344,1,110,4|0,0:0|0:0,0:0:0:0:
376,216,108532,2,0,B|354:190|354:190|315:183|275:219,1,110,2|0,0:0|0:0,0:0:0:0:
328,276,108923,1,0,0:0:0:0:
376,216,109053,2,0,L|360:92,1,110,2|0,0:0|0:0,0:0:0:0:
136,216,109575,2,0,L|152:92,1,110,2|0,0:0|0:0,0:0:0:0:
200,40,109966,1,2,0:0:0:0:
264,4,110097,6,0,P|276:52|236:108,1,110,2|0,0:0|0:0,0:0:0:0:
72,48,110488,2,0,P|96:40|140:36,1,55,2|0,0:0|0:0,0:0:0:0:
344,173,110749,6,0,P|320:165|276:161,1,55,2|0,0:0|0:0,0:0:0:0:
140,252,111010,2,0,L|188:128,1,110,2|2,0:0|0:0,0:0:0:0:
371,127,111401,2,0,P|355:164|332:180,1,55,2|0,0:0|0:0,0:0:0:0:
270,181,111662,1,2,0:0:0:0:
140,252,111923,1,0,0:0:0:0:
317,243,112053,5,0,0:0:0:0:
317,243,112119,1,0,0:0:0:0:
317,243,112184,2,0,P|297:199|245:175,1,82.5000031471254,4|0,0:0|0:0,0:0:0:0:
144,332,112445,2,0,P|188:312|212:260,1,82.5000031471254,2|0,0:0|0:0,0:0:0:0:
128,128,112706,2,0,P|148:172|200:196,1,82.5000031471254,2|0,0:0|0:0,0:0:0:0:
209,115,112966,5,2,0:0:0:0:
380,160,113097,1,0,0:0:0:0:
420,93,113227,6,0,P|448:121|457:163,1,82.5000031471254,2|0,0:0|0:0,0:0:0:0:
345,63,113488,2,0,P|370:30|408:16,1,82.5000031471254,2|0,0:0|0:0,0:0:0:0:
303,139,113749,2,0,P|270:114|255:76,1,82.5000031471254,2|0,0:0|0:0,0:0:0:0:
380,160,114010,5,2,0:0:0:0:
128,88,114140,1,0,0:0:0:0:
55,141,114271,6,0,P|88:166|128:176,1,82.5000031471254,2|0,0:0|0:0,0:0:0:0:
256,77,114532,1,2,0:0:0:0:
452,124,114662,2,0,P|419:149|380:159,1,82.5000031471254,0|2,0:0|0:0,0:0:0:0:
216,324,114923,2,0,L|304:324,1,82.5000031471254,0|2,0:0|0:0,0:0:0:0:
256,192,115184,1,0,0:0:0:0:
136,260,115314,6,0,P|134:283|128:300,1,41.2500015735627,8|0,0:0|0:0,0:0:0:0:
64,176,115445,2,0,P|65:151|72:136,1,41.2500015735627,8|0,0:0|0:0,0:0:0:0:
180,80,115575,2,0,L|163:160,1,82.5000031471254,4|0,0:0|0:0,0:0:0:0:
376,259,115836,6,0,P|377:280|384:300,1,41.2500015735627,8|0,0:0|0:0,0:0:0:0:
448,175,115966,2,0,P|448:155|440:136,1,41.2500015735627,8|0,0:0|0:0,0:0:0:0:
332,80,116097,1,0,0:0:0:0:
332,80,116358,6,0,L|356:192,1,110,4|0,0:0|0:0,0:0:0:0:
256,276,116619,1,8,0:0:0:0:
156,187,116749,2,0,L|180:80,1,110,2|8,0:0|0:0,0:0:0:0:
416,28,117010,5,2,0:0:0:0:
256,152,117140,1,8,0:0:0:0:
96,28,117271,1,2,0:0:0:0:
256,152,117401,2,0,L|256:32,1,110,8|8,0:0|0:0,0:0:0:0:
255,14,117597,1,0,0:0:0:0:
255,14,117662,2,0,L|202:28,1,55,8|0,0:0|0:0,0:0:0:0:
136,112,117793,2,0,L|190:121,1,55,8|0,0:0|0:0,0:0:0:0:
340,152,117923,5,8,0:0:0:0:
136,200,118053,1,2,0:0:0:0:
355,251,118184,2,0,L|419:275,2,55,8|0|2,0:0|0:0|0:0,0:0:0:0:
80,268,118445,1,4,0:0:0:0:
435,192,118706,5,0,0:0:0:0:
256,152,118836,2,0,B|236:96|236:96|308:96,1,110,2|0,0:0|0:0,0:0:0:0:
355,251,119097,2,0,B|375:307|375:307|303:307,1,110,2|0,0:0|0:0,0:0:0:0:
180,230,119358,1,0,0:0:0:0:
360,136,119488,6,0,L|512:88,1,110,4|0,0:0|0:0,0:0:0:0:
228,48,119749,5,8,0:0:0:0:
256,44,119814,1,8,0:0:0:0:
284,40,119880,2,0,B|272:96|272:96|204:116,1,110
44,200,120140,5,8,2:0:0:0:
72,208,120206,1,8,2:0:0:0:
100,216,120271,1,0,0:0:0:0:
92,92,120401,1,0,0:0:0:0:
148,300,120532,6,0,L|276:328,1,110,12|0,0:0|0:0,0:0:0:0:
336,204,120793,2,0,P|316:220|264:228,1,55,8|0,0:0|0:0,0:0:0:0:
204,232,120923,2,0,L|175:125,1,110,0|2,0:0|0:0,0:0:0:0:
64,296,121184,5,0,2:0:0:0:
68,328,121249,1,0,2:0:0:0:
72,356,121314,2,0,P|99:306|147:282,1,110,8|0,0:0|0:0,0:0:0:0:
452,296,121575,5,8,2:0:0:0:
444,324,121640,1,8,2:0:0:0:
436,352,121706,2,0,P|409:302|361:278,1,110,8|0,0:0|0:0,0:0:0:0:
216,352,121966,5,8,0:0:0:0:
255,367,122032,1,8,0:0:0:0:
292,352,122097,2,0,B|255:313|255:313|216:352,1,110
196,192,122358,5,8,0:0:0:0:
232,160,122424,1,0,0:0:0:0:
280,160,122489,1,0,0:0:0:0:
316,192,122554,1,0,0:0:0:0:
256,232,122619,5,8,0:0:0:0:
256,19,123140,5,0,0:0:0:0:
256,48,123206,1,0,0:0:0:0:
256,78,123271,1,0,0:0:0:0:
256,109,123336,1,0,0:0:0:0:
256,138,123401,1,0,0:0:0:0:
256,169,123466,1,0,0:0:0:0:
256,198,123532,1,0,0:0:0:0:
256,228,123597,1,0,0:0:0:0:
256,259,123662,6,0,L|256:391,1,110,4|0,0:0|0:0,0:0:0:0:
460,192,123923,2,0,P|400:168|356:172,1,110,8|0,0:0|0:0,0:0:0:0:
169,220,124184,1,2,0:0:0:0:
388,268,124314,1,2,0:0:0:0:
160,336,124445,1,8,0:0:0:0:
320,100,124575,1,0,0:0:0:0:
460,352,124706,6,0,L|296:332,1,165,2|0,0:0|0:0,0:0:0:0:
278,253,124966,2,0,L|388:268,1,110,8|0,0:0|0:0,0:0:0:0:
236,368,125227,1,2,0:0:0:0:
42,141,125358,1,2,0:0:0:0:
280,167,125488,1,8,0:0:0:0:
4,332,125619,1,0,0:0:0:0:
148,228,125749,6,0,L|181:66,1,165,2|0,0:0|0:0,0:0:0:0:
236,12,126010,2,0,P|184:-8|128:16,1,110,8|0,0:0|0:0,0:0:0:0:
48,256,126271,1,2,0:0:0:0:
256,180,126401,1,2,0:0:0:0:
204,372,126532,2,0,L|94:382,1,110,8|0,0:0|0:0,0:0:0:0:
278,253,126793,6,0,L|387:242,1,110,2|0,0:0|0:0,0:0:0:0:
452,368,127053,1,8,0:0:0:0:
128,184,127184,2,0,L|256:172,1,110,0|2,0:0|0:0,0:0:0:0:
13,107,127445,2,0,L|141:95,1,110,2|8,0:0|0:0,0:0:0:0:
428,136,127706,6,0,L|447:315,1,165
452,368,127966,1,0,0:0:0:0:
188,180,128097,1,8,0:0:0:0:
420,64,128227,1,0,0:0:0:0:
336,328,128358,2,0,P|282:340|228:331,1,110,2|2,0:0|0:0,0:0:0:0:
352,136,128619,5,8,0:0:0:0:
72,192,128749,1,0,0:0:0:0:
256,89,128880,2,0,L|280:269,1,165,2|0,0:0|0:0,0:0:0:0:
188,180,129140,2,0,L|172:56,1,110,8|0,0:0|0:0,0:0:0:0:
328,36,129401,5,2,0:0:0:0:
277,252,129532,1,2,0:0:0:0:
450,104,129662,1,8,0:0:0:0:
170,293,129793,1,0,0:0:0:0:
400,288,129923,6,0,P|408:208|376:172,1,110,2|0,0:0|0:0,0:0:0:0:
328,156,130119,1,0,0:0:0:0:
260,120,130184,2,0,P|312:84|372:88,1,110,8|0,0:0|0:0,0:0:0:0:
256,343,130445,5,2,0:0:0:0:
124,192,130575,1,2,0:0:0:0:
388,192,130706,1,8,0:0:0:0:
256,40,130836,1,0,0:0:0:0:
256,288,130966,6,0,L|256:360,1,55,2|0,0:0|0:0,0:0:0:0:
168,320,131097,2,0,L|92:320,1,55
344,320,131227,2,0,L|472:320,1,110,8|0,0:0|0:0,0:0:0:0:
256,71,131488,6,0,L|256:-1,1,55,2|0,0:0|0:0,0:0:0:0:
168,39,131619,2,0,L|92:39,1,55,2|0,0:0|0:0,0:0:0:0:
256,196,131749,1,8,0:0:0:0:
399,39,131880,1,0,0:0:0:0:
36,40,132010,6,0,B|18:81|18:81|10:109|38:165,1,110,4|0,0:0|0:0,0:0:0:0:
168,320,132271,2,0,B|186:284|178:256|178:256|160:215,1,110,8|0,0:0|0:0,0:0:0:0:
40,256,132532,1,2,0:0:0:0:
366,224,132662,1,2,0:0:0:0:
144,136,132793,1,8,0:0:0:0:
256,336,132923,1,0,0:0:0:0:
40,256,133053,6,0,L|216:200,1,165,2|0,0:0|0:0,0:0:0:0:
220,136,133314,2,0,P|196:76|144:56,1,110,8|0,0:0|0:0,0:0:0:0:
168,320,133575,1,2,0:0:0:0:
471,119,133706,1,2,0:0:0:0:
220,136,133836,1,8,0:0:0:0:
404,318,133966,1,0,0:0:0:0:
354,57,134097,6,0,P|308:84|304:192,1,165,2|0,0:0|0:0,0:0:0:0:
366,224,134358,2,0,L|472:256,1,110,8|0,0:0|0:0,0:0:0:0:
224,44,134619,1,2,0:0:0:0:
288,316,134749,1,2,0:0:0:0:
132,208,134880,1,10,0:0:0:0:
384,144,135010,1,0,0:0:0:0:
132,208,135140,6,0,L|104:68,1,110,2|0,0:0|0:0,0:0:0:0:
354,57,135401,1,8,0:0:0:0:
192,264,135532,2,0,B|148:296|148:296|68:276,1,110,0|2,0:0|0:0,0:0:0:0:
384,144,135793,2,0,L|405:251,1,110,2|8,0:0|0:0,0:0:0:0:
28,60,136053,6,0,B|89:12|89:12|202:40,1,165
110,100,136314,2,0,L|132:208,1,110,0|8,0:0|0:0,0:0:0:0:
168,368,136575,1,0,0:0:0:0:
110,100,136706,1,2,0:0:0:0:
4,264,136836,1,2,0:0:0:0:
280,192,136966,2,0,L|168:236,1,110,8|0,0:0|0:0,0:0:0:0:
16,152,137227,6,0,B|56:176|56:176|108:176|196:132,1,165,2|0,0:0|0:0,0:0:0:0:
153,78,137488,1,8,0:0:0:0:
4,264,137619,1,0,0:0:0:0:
108,16,137749,2,0,B|160:8|160:8|228:32,1,110,2|2,0:0|0:0,0:0:0:0:
240,320,138010,1,8,0:0:0:0:
16,152,138140,1,0,0:0:0:0:
360,216,138271,6,0,L|328:52,1,165,2|0,0:0|0:0,0:0:0:0:
408,64,138532,2,0,L|432:184,1,110,8|0,0:0|0:0,0:0:0:0:
82,171,138793,1,2,0:0:0:0:
429,171,138923,1,2,0:0:0:0:
183,54,139053,2,0,L|152:216,1,165,8|0,0:0|0:0,0:0:0:0:
82,171,139314,2,0,L|104:64,1,110,2|0,0:0|0:0,0:0:0:0:
256,317,139575,5,8,0:0:0:0:
390,259,139706,1,0,0:0:0:0:
390,259,139771,1,0,0:0:0:0:
390,259,139836,2,0,P|380:234|359:215,1,55,8|0,0:0|0:0,0:0:0:0:
152,215,139966,2,0,P|131:234|121:259,1,55,8|0,0:0|0:0,0:0:0:0:
327,132,140097,2,0,P|350:116|376:111,1,55,8|0,0:0|0:0,0:0:0:0:
184,132,140227,2,0,P|161:116|135:111,1,55,8|0,0:0|0:0,0:0:0:0:
256,207,140358,6,0,L|256:339,1,110,4|0,0:0|0:0,0:0:0:0:
452,152,140619,2,0,P|456:92|428:44,1,110,8|0,0:0|0:0,0:0:0:0:
256,52,140880,1,2,0:0:0:0:
256,317,141010,1,2,0:0:0:0:
376,111,141140,1,8,0:0:0:0:
135,111,141271,1,0,0:0:0:0:
368,272,141401,6,0,P|413:270|470:217,1,110,2|0,0:0|0:0,0:0:0:0:
256,52,141662,1,8,0:0:0:0:
256,244,141793,1,2,0:0:0:0:
452,152,141923,2,0,L|452:28,1,110,0|2,0:0|0:0,0:0:0:0:
60,152,142184,2,0,L|60:42,1,110,8|0,0:0|0:0,0:0:0:0:
256,244,142445,5,2,0:0:0:0:
256,52,142575,1,0,0:0:0:0:
0,256,142706,2,0,P|56:236|136:248,1,110,8|0,0:0|0:0,0:0:0:0:
148,376,142966,1,2,0:0:0:0:
0,256,143097,1,2,0:0:0:0:
248,216,143227,1,8,0:0:0:0:
100,100,143358,1,0,0:0:0:0:
248,344,143488,6,0,P|308:336|356:300,1,110,2|0,0:0|0:0,0:0:0:0:
256,38,143749,1,8,0:0:0:0:
256,264,143880,1,2,0:0:0:0:
87,151,144010,1,0,0:0:0:0:
425,151,144140,1,2,0:0:0:0:
116,272,144271,1,8,0:0:0:0:
374,46,144401,1,0,0:0:0:0:
268,224,144532,6,0,L|436:240,1,165,6|0,0:0|0:0,0:0:0:0:
457,319,144793,2,0,L|333:307,1,110,8|0,0:0|0:0,0:0:0:0:
228,136,145053,1,2,0:0:0:0:
432,239,145184,1,2,0:0:0:0:
220,323,145314,2,0,L|272:215,1,110,8|0,0:0|0:0,0:0:0:0:
72,32,145575,6,0,B|44:80|44:80|80:192,1,165,2|0,0:0|0:0,0:0:0:0:
175,211,145836,2,0,L|140:107,1,110,8|2,0:0|0:0,0:0:0:0:
104,272,146097,1,0,0:0:0:0:
268,64,146227,1,2,0:0:0:0:
77,184,146358,1,8,0:0:0:0:
312,140,146488,1,0,0:0:0:0:
72,32,146619,6,0,P|92:80|148:108,1,110,2|0,0:0|0:0,0:0:0:0:
440,31,146880,2,0,P|418:81|371:107,1,110,8|0,0:0|0:0,0:0:0:0:
104,340,147140,1,2,0:0:0:0:
408,340,147271,1,2,0:0:0:0:
256,160,147401,2,0,L|256:28,1,110,8|0,0:0|0:0,0:0:0:0:
60,272,147662,6,0,B|24:232|24:232|16:200|28:160,1,110,2|0,0:0|0:0,0:0:0:0:
452,272,147923,2,0,B|488:232|488:232|496:200|484:160,1,110,8|2,0:0|0:0,0:0:0:0:
136,216,148184,1,0,0:0:0:0:
376,216,148314,1,2,0:0:0:0:
92,352,148445,1,8,0:0:0:0:
420,352,148575,1,0,0:0:0:0:
256,308,148706,6,0,L|256:136,1,165,4|0,0:0|0:0,0:0:0:0:
285,68,148966,2,0,P|325:107|329:164,1,110,8|0,0:0|0:0,0:0:0:0:
256,308,149227,1,2,0:0:0:0:
176,52,149358,1,2,0:0:0:0:
92,288,149488,2,0,B|56:236|56:236|72:168,1,110,8|0,0:0|0:0,0:0:0:0:
297,231,149749,6,0,P|181:231|105:199,1,165,2|0,0:0|0:0,0:0:0:0:
124,140,150010,2,0,P|72:112|0:140,1,110,8|2,0:0|0:0,0:0:0:0:
172,312,150271,1,0,0:0:0:0:
388,140,150401,1,2,0:0:0:0:
340,312,150532,1,8,0:0:0:0:
124,140,150662,1,0,0:0:0:0:
336,52,150793,6,0,B|376:32|420:32|420:32|492:92,1,165,2|0,0:0|0:0,0:0:0:0:
480,180,151053,2,0,L|377:99,1,110,8|0,0:0|0:0,0:0:0:0:
256,32,151314,1,2,0:0:0:0:
144,240,151445,1,2,0:0:0:0:
368,240,151575,2,0,L|300:112,1,110,8|0,0:0|0:0,0:0:0:0:
336,384,151836,6,0,L|266:234,1,165,2|0,0:0|0:0,0:0:0:0:
240,164,152097,1,8,0:0:0:0:
136,336,152227,1,2,0:0:0:0:
368,240,152358,2,0,B|400:216|400:216|424:176|400:132,1,110,0|2,0:0|0:0,0:0:0:0:
244,0,152619,1,8,0:0:0:0:
96,164,152749,1,0,0:0:0:0:
255,314,152880,6,0,P|276:236|240:164,1,165,4|0,0:0|0:0,0:0:0:0:
170,123,153140,2,0,P|214:90|268:93,1,110,8|0,0:0|0:0,0:0:0:0:
188,240,153401,1,2,0:0:0:0:
352,140,153532,1,2,0:0:0:0:
16,208,153662,1,8,0:0:0:0:
170,123,153793,1,0,0:0:0:0:
151,330,153923,6,0,B|211:340|211:340|236:390|299:381,1,165,4|0,0:0|0:0,0:0:0:0:
280,304,154184,2,0,B|298:243|298:243|281:200,1,110,8|2,0:0|0:0,0:0:0:0:
48,178,154445,5,8,0:0:0:0:
337,97,154575,1,8,0:0:0:0:
151,330,154706,1,8,0:0:0:0:
163,32,154836,1,10,0:0:0:0:
329,280,154966,6,0,B|315:189|248:183|248:183|316:178|337:96|337:96|247:82|220:143|220:143|234:77|162:32|162:32|122:112|171:157|171:157|113:123|48:177|48:177|114:241|170:206|170:206|119:251|151:330|151:330|234:286|218:222|218:222|245:281|319:276,1,1331.0000406189
56,160,158619,5,0,0:0:0:0:
4,240,158880,1,0,0:0:0:0:
96,252,159140,6,0,P|132:220|148:172,1,82.5000031471254,4|0,0:0|0:0,0:0:0:0:
4,240,159390,2,0,L|4:344,1,82.5000031471254
56,160,159640,2,0,L|56:56,1,82.5000031471254,2|0,0:0|0:0,0:0:0:0:
200,40,159890,2,0,P|180:76|120:104,1,82.5000031471254
268,115,160140,6,0,L|124:95,1,123.750004720688,2|0,0:0|0:0,0:0:0:0:
152,172,160390,2,0,L|264:188,1,82.5000031471254
312,40,160640,1,2,0:0:0:0:
160,24,160765,1,0,0:0:0:0:
312,40,160890,2,0,L|408:56,1,82.5000031471254,2|2,0:0|0:0,0:0:0:0:
472,192,161140,6,0,P|491:227|464:312,1,123.750004720688,2|0,0:0|0:0,0:0:0:0:
411,248,161390,2,0,B|372:256|372:256|316:220,1,82.5000031471254
393,53,161640,1,2,0:0:0:0:
388,148,161765,1,0,0:0:0:0:
312,96,161890,2,0,P|276:76|235:78,1,82.5000031471254
472,109,162140,6,0,L|472:192,1,82.5000031471254,2|0,0:0|0:0,0:0:0:0:
224,184,162390,1,0,0:0:0:0:
312,96,162515,1,0,0:0:0:0:
335,230,162640,2,0,P|323:270|295:314,1,82.5000031471254,2|0,0:0|0:0,0:0:0:0:
169,227,162890,1,2,0:0:0:0:
296,168,163015,1,2,0:0:0:0:
302,304,163140,6,0,L|168:300,1,123.750004720688,2|0,0:0|0:0,0:0:0:0:
169,227,163390,2,0,P|120:244|100:296,1,82.5000031471254
335,230,163640,2,0,L|431:218,1,82.5000031471254,2|0,0:0|0:0,0:0:0:0:
324,132,163890,2,0,L|228:144,1,82.5000031471254
392,272,164140,6,0,L|488:260,1,82.5000031471254,2|0,0:0|0:0,0:0:0:0:
424,88,164390,2,0,P|400:128|404:180,1,82.5000031471254
424,88,164640,2,0,L|272:112,1,123.750004720688,2|0,0:0|0:0,0:0:0:0:
264,40,164890,2,0,L|360:24,1,82.5000031471254,2|2,0:0|0:0,0:0:0:0:
248,344,165140,6,0,L|152:360,1,82.5000031471254,2|0,0:0|0:0,0:0:0:0:
32,296,165390,2,0,L|113:282,1,82.5000031471254,2|0,0:0|0:0,0:0:0:0:
289,227,165640,2,0,L|193:243,1,82.5000031471254,2|0,0:0|0:0,0:0:0:0:
73,179,165890,2,0,L|154:165,1,82.5000031471254,2|0,0:0|0:0,0:0:0:0:
328,124,166140,2,0,L|232:140,1,82.5000031471254,2|0,0:0|0:0,0:0:0:0:
73,179,166390,5,2,0:0:0:0:
207,240,166515,1,2,0:0:0:0:
32,296,166640,2,0,L|76:172,1,123.750004720688,4|0,0:0|0:0,0:0:0:0:
73,179,166890,2,0,L|168:164,1,82.5000031471254
439,179,167140,6,0,L|357:165,1,82.5000031471254,4|0,0:0|0:0,0:0:0:0:
484,248,167390,1,8,0:0:0:0:
254,153,167515,1,0,0:0:0:0:
492,108,167640,2,0,B|408:96|408:96|372:64|364:44,1,123.750004720688
344,24,167890,2,0,P|388:20|456:52,1,82.5000031471254
280,232,168140,6,0,L|248:132,1,82.5000031471254,4|0,0:0|0:0,0:0:0:0:
212,296,168390,1,8,0:0:0:0:
287,78,168515,1,0,0:0:0:0:
372,256,168640,2,0,L|335:134,1,123.750004720688
287,78,168890,2,0,L|212:44,1,82.5000031471254
204,266,169140,6,0,L|279:232,1,82.5000031471254,4|0,0:0|0:0,0:0:0:0:
152,196,169390,1,8,0:0:0:0:
352,232,169515,1,0,0:0:0:0:
79,149,169640,2,0,P|124:114|210:135,1,123.750004720688
254,153,169890,2,0,L|287:78,1,82.5000031471254
512,256,170140,6,0,P|460:292|408:288,1,82.5000031471254,4|0,0:0|0:0,0:0:0:0:
254,153,170390,2,0,L|224:75,1,82.5000031471254,8|0,0:0|0:0,0:0:0:0:
0,256,170640,2,0,P|30:283|69:294,1,82.5000031471254
357,123,170890,1,4,0:0:0:0:
154,123,171015,1,0,0:0:0:0:
256,272,171140,6,0,B|256:320|256:320|248:348|224:356,1,82.5000031471254,4|0,0:0|0:0,0:0:0:0:
136,200,171390,2,0,B|136:152|136:152|144:124|168:116,1,82.5000031471254
357,123,171640,2,0,B|368:124|376:152|376:152|376:200,1,82.5000031471254,8|0,0:0|0:0,0:0:0:0:
172,288,171890,1,0,0:0:0:0:
340,288,172015,1,0,0:0:0:0:
256,197,172140,2,0,B|256:101,1,82.5000031471254,2|0,0:0|0:0,0:0:0:0:
360,32,172390,6,0,L|442:32,1,82.5000031471254,2|0,0:0|0:0,0:0:0:0:
152,32,172640,2,0,L|69:32,1,82.5000031471254,8|0,0:0|0:0,0:0:0:0:
256,114,172890,2,0,L|256:214,1,82.5000031471254
256,304,173140,6,0,P|207:320|149:309,1,110,2|0,0:0|0:0,0:0:0:0:
360,32,173390,2,0,P|413:54|446:94,1,110,2|0,0:0|0:0,0:0:0:0:
84,208,173640,2,0,P|58:156|62:100,1,110,8|0,0:0|0:0,0:0:0:0:
420,216,173890,2,0,P|411:274|381:316,1,110
152,32,174140,5,8,0:0:0:0:
360,32,174265,1,8,0:0:0:0:
256,114,174390,1,2,0:0:0:0:
256,114,174640,6,0,B|260:126|260:126|252:130|252:130|260:134|260:134|248:138|248:138|260:150|260:150|248:154|248:154|256:162|256:162|248:170|248:170|264:178|264:178|232:208|252:264,1,192.5,0|0,1:1|0:0,0:0:0:0:
320,272,175140,6,0,B|370:291|370:291|448:292,1,110,4|0,0:0|0:0,0:0:0:0:
344,112,175390,1,8,0:0:0:0:
252,340,175515,1,0,0:0:0:0:
384,196,175640,1,2,0:0:0:0:
139,193,175765,1,2,0:0:0:0:
376,28,175890,2,0,P|419:67|425:164,1,110,8|0,0:0|0:0,0:0:0:0:
208,276,176140,6,0,B|208:199|264:195|260:119,1,165,2|0,0:0|0:0,0:0:0:0:
196,72,176390,2,0,P|146:96|92:102,1,110,8|0,0:0|0:0,0:0:0:0:
336,120,176640,1,2,0:0:0:0:
139,193,176765,1,2,0:0:0:0:
344,216,176890,1,8,0:0:0:0:
116,20,177015,1,0,0:0:0:0:
137,302,177140,6,0,B|185:274|185:274|305:282,1,165,2|0,0:0|0:0,0:0:0:0:
320,360,177390,2,0,B|184:352,1,110,8|0,0:0|0:0,0:0:0:0:
60,244,177640,1,2,0:0:0:0:
256,120,177765,1,2,0:0:0:0:
210,354,177890,1,8,0:0:0:0:
88,140,178015,1,0,0:0:0:0:
400,160,178140,6,0,B|412:204|412:204|268:204,1,165,2|0,0:0|0:0,0:0:0:0:
220,204,178390,1,8,0:0:0:0:
400,40,178515,1,0,0:0:0:0:
112,40,178640,1,2,0:0:0:0:
256,272,178765,2,0,L|256:384,1,110,2|8,0:0|0:0,0:0:0:0:
112,160,179015,6,0,B|100:204|100:204|244:204,1,165
292,204,179265,1,0,0:0:0:0:
256,48,179390,1,8,0:0:0:0:
36,232,179515,1,0,0:0:0:0:
2,54,179640,2,0,L|130:38,1,110,2|2,0:0|0:0,0:0:0:0:
352,120,179890,1,8,0:0:0:0:
112,160,180015,1,0,0:0:0:0:
323,287,180140,6,0,B|272:256|224:256|224:256|160:300,1,165,2|0,0:0|0:0,0:0:0:0:
244,340,180390,2,0,B|292:360|292:360|319:372|368:360,1,110,8|0,0:0|0:0,0:0:0:0:
352,120,180640,1,2,0:0:0:0:
174,290,180765,1,2,0:0:0:0:
184,48,180890,1,8,0:0:0:0:
349,364,181015,1,0,0:0:0:0:
184,48,181140,6,0,B|287:10|287:10|319:30|343:74,1,165,2|0,0:0|0:0,0:0:0:0:
352,120,181390,2,0,L|231:160,1,110,8|0,0:0|0:0,0:0:0:0:
88,208,181640,1,2,0:0:0:0:
336,288,181765,1,2,1:1:0:0:
256,48,181890,1,8,0:0:0:0:
176,288,182015,1,0,0:0:0:0:
424,208,182140,6,0,B|448:184|448:184|452:136|424:80,1,110,2|0,0:0|0:0,0:0:0:0:
88,208,182390,2,0,B|64:184|64:184|60:136|88:80,1,110,8|0,0:0|0:0,0:0:0:0:
256,14,182640,5,2,0:0:0:0:
256,43,182702,1,0,0:0:0:0:
256,70,182765,1,2,0:0:0:0:
256,99,182827,1,0,0:0:0:0:
256,126,182890,1,8,0:0:0:0:
256,155,182952,1,0,0:0:0:0:
256,182,183015,1,8,0:0:0:0:
256,211,183077,1,0,0:0:0:0:
256,239,183140,6,0,B|245:259|245:259|266:275|266:275|248:304|260:360,1,110,4|0,0:0|0:0,0:0:0:0:
172,200,183390,2,0,L|63:234,1,110,8|0,0:0|0:0,0:0:0:0:
364,152,183640,1,2,0:0:0:0:
132,64,183765,1,2,0:0:0:0:
388,16,183890,2,0,P|440:8|504:32,1,110,8|0,0:0|0:0,0:0:0:0:
448,312,184140,6,0,L|500:130,1,165,2|0,0:0|0:0,0:0:0:0:
433,102,184390,2,0,L|324:136,1,110,8|0,0:0|0:0,0:0:0:0:
328,328,184640,1,2,0:0:0:0:
168,178,184765,1,2,0:0:0:0:
404,200,184890,1,8,0:0:0:0:
220,0,185015,1,0,0:0:0:0:
168,178,185140,6,0,L|356:126,1,165,2|0,0:0|0:0,0:0:0:0:
396,168,185390,2,0,P|396:236|356:288,1,110,8|0,0:0|0:0,0:0:0:0:
156,320,185640,1,2,0:0:0:0:
276,64,185765,1,2,0:0:0:0:
300,320,185890,1,8,0:0:0:0:
72,208,186015,1,0,0:0:0:0:
379,377,186140,6,0,P|387:313|359:245,1,110,2|0,0:0|0:0,0:0:0:0:
76,160,186390,1,8,0:0:0:0:
395,167,186515,2,0,P|395:235|355:287,1,110,0|2,0:0|0:0,0:0:0:0:
8,176,186765,2,0,L|152:192,1,110,2|8,0:0|0:0,0:0:0:0:
498,364,187015,6,0,P|446:295|347:270,1,165
308,200,187265,2,0,L|196:212,1,110,0|8,0:0|0:0,0:0:0:0:
368,372,187515,1,0,0:0:0:0:
364,136,187640,1,2,0:0:0:0:
80,284,187765,1,2,0:0:0:0:
264,384,187890,2,0,P|288:332|296:264,1,110,8|0,0:0|0:0,0:0:0:0:
208,47,188140,6,0,L|197:238,1,165,2|0,0:0|0:0,0:0:0:0:
124,236,188390,2,0,L|130:120,1,110,8|0,0:0|0:0,0:0:0:0:
288,184,188640,1,2,0:0:0:0:
12,164,188765,1,2,0:0:0:0:
188,300,188890,1,8,0:0:0:0:
124,32,189015,1,0,0:0:0:0:
312,36,189140,6,0,L|488:40,1,165,2|0,0:0|0:0,0:0:0:0:
510,118,189390,2,0,L|366:114,1,110,8|0,0:0|0:0,0:0:0:0:
256,164,189640,1,2,0:0:0:0:
88,308,189765,1,2,0:0:0:0:
304,384,189890,2,0,L|436:384,1,110,8|0,0:0|0:0,0:0:0:0:
256,164,190140,6,0,B|264:176|264:176|248:192|248:192|256:208|256:208|256:364,1,165,2|0,0:0|0:0,0:0:0:0:
208,384,190390,2,0,L|98:384,1,110,8|0,0:0|0:0,0:0:0:0:
84,172,190640,6,0,L|100:244,1,55,8|0,0:0|0:0,0:0:0:0:
184,260,190765,2,0,L|172:206,1,55,8|0,0:0|0:0,0:0:0:0:
244,110,190890,2,0,L|260:182,1,55,8|0,0:0|0:0,0:0:0:0:
356,256,191015,2,0,L|344:202,1,55,8|0,0:0|0:0,0:0:0:0:
404,56,191140,6,0,L|430:185,1,131.99999597168,4|0,0:0|0:0,0:0:0:0:
168,80,191390,2,0,P|224:32|296:40,1,131.99999597168,8|0,0:0|0:0,0:0:0:0:
432,296,191640,1,2,0:0:0:0:
284,152,191765,1,0,0:0:0:0:
216,348,191890,1,10,0:0:0:0:
496,104,192015,1,0,0:0:0:0:
328,236,192140,6,0,B|264:264|212:216|212:216|140:244,1,197.99999395752,2|0,0:0|0:0,0:0:0:0:
136,320,192390,2,0,B|68:300|68:300|72:212,1,131.99999597168,8|0,0:0|0:0,0:0:0:0:
284,152,192640,1,2,0:0:0:0:
252,344,192765,1,2,0:0:0:0:
112,144,192890,1,8,0:0:0:0:
452,184,193015,1,0,0:0:0:0:
112,144,193140,6,0,B|46:130|46:130|0:63|36:4,1,197.99999395752,2|0,0:0|0:0,0:0:0:0:
112,55,193390,2,0,L|241:83,1,131.99999597168,8|0,0:0|0:0,0:0:0:0:
404,248,193640,1,2,0:0:0:0:
324,40,193765,1,2,0:0:0:0:
208,228,193890,2,0,B|256:232|296:208|296:208|316:152,1,131.99999597168,8|0,0:0|0:0,0:0:0:0:
112,56,194140,6,0,L|224:256,1,197.99999395752,2|0,0:0|0:0,0:0:0:0:
243,303,194390,1,8,0:0:0:0:
239,91,194515,2,0,L|112:56,1,131.99999597168,0|2,0:0|0:0,0:0:0:0:
113,325,194765,2,0,L|257:301,1,131.99999597168,2|8,0:0|0:0,0:0:0:0:
448,108,195015,6,0,B|492:146|499:192|499:192|492:236|451:279,1,197.99999395752,2|0,0:0|0:0,0:0:0:0:
372,296,195265,1,2,0:0:0:0:
372,88,195390,2,0,P|412:38|476:33,1,131.99999597168,10|0,0:0|0:0,0:0:0:0:
396,176,195640,1,2,0:0:0:0:
56,208,195765,1,2,0:0:0:0:
224,8,195890,2,0,L|244:144,1,131.99999597168,8|0,0:0|0:0,0:0:0:0:
195,327,196140,6,0,L|163:111,1,197.99999395752,2|0,0:0|0:0,0:0:0:0:
256,216,196390,2,0,L|274:346,1,131.99999597168,8|0,0:0|0:0,0:0:0:0:
96,268,196640,1,2,0:0:0:0:
164,40,196765,1,2,0:0:0:0:
344,272,196890,1,8,0:0:0:0:
88,156,197015,1,0,0:0:0:0:
344,272,197140,6,0,B|358:217|358:217|350:177|310:133,1,131.99999597168,2|0,0:0|0:0,0:0:0:0:
72,37,197390,2,0,B|52:97|52:97|64:137|88:156,1,131.99999597168,8|0,0:0|0:0,0:0:0:0:
432,188,197640,5,2,0:0:0:0:
216,36,197765,1,2,0:0:0:0:
100,274,197890,2,0,L|225:233,1,131.99999597168,8|0,0:0|0:0,0:0:0:0:
504,96,198140,6,0,P|480:64|452:52,1,65.9999979858399,2|0,0:0|0:0,0:0:0:0:
344,12,198265,2,0,P|355:42|376:68,1,65.9999979858399
387,240,198390,2,0,P|430:192|428:128,1,131.99999597168,8|0,0:0|0:0,0:0:0:0:
174,221,198640,2,0,L|310:177,1,131.99999597168,2|2,0:0|0:0,0:0:0:0:
152,16,198890,1,8,0:0:0:0:
24,296,199015,1,0,0:0:0:0:
250,313,199140,6,0,B|238:253|238:253|174:221,1,131.99999597168,4|0,0:0|0:0,0:0:0:0:
16,208,199390,1,8,0:0:0:0:
260,132,199515,1,0,0:0:0:0:
90,360,199640,2,0,P|78:300|110:232,1,131.99999597168,2|2,0:0|0:0,0:0:0:0:
422,360,199890,2,0,P|434:300|402:232,1,131.99999597168,8|0,0:0|0:0,0:0:0:0:
59,44,200140,6,0,L|111:264,1,197.99999395752,2|0,0:0|0:0,0:0:0:0:
156,300,200390,1,8,0:0:0:0:
332,164,200515,2,0,P|392:168|464:200,1,131.99999597168,0|2,0:0|0:0,0:0:0:0:
284,300,200765,1,2,0:0:0:0:
129,143,200890,1,8,0:0:0:0:
308,368,201015,1,0,0:0:0:0:
318,84,201140,6,0,L|129:144,1,197.99999395752,2|0,0:0|0:0,0:0:0:0:
136,60,201390,2,0,L|271:16,1,131.99999597168,8|0,0:0|0:0,0:0:0:0:
316,176,201640,1,2,0:0:0:0:
96,272,201765,1,2,0:0:0:0:
256,332,201890,1,8,0:0:0:0:
136,60,202015,1,0,0:0:0:0:
256,332,202140,6,0,B|200:356|200:356|140:352|104:340,1,131.99999597168,2|0,0:0|0:0,0:0:0:0:
56,120,202390,1,8,0:0:0:0:
316,176,202515,2,0,B|380:156|380:156|404:132|408:88,1,131.99999597168,0|2,0:0|0:0,0:0:0:0:
97,160,202765,1,2,0:0:0:0:
318,84,202890,1,8,0:0:0:0:
97,160,203015,6,0,B|115:189|148:199|148:199|214:187,1,131.99999597168,0|2,0:0|0:0,0:0:0:0:
492,44,203265,2,0,B|464:20|424:16|424:16|357:28,1,131.99999597168,0|8,0:0|0:0,0:0:0:0:
208,312,203515,1,0,0:0:0:0:
391,373,203640,1,2,0:0:0:0:
340,108,203765,1,2,0:0:0:0:
208,312,203890,2,0,P|192:248|216:184,1,131.99999597168,8|0,0:0|0:0,0:0:0:0:
391,373,204140,6,0,P|315:329|159:317,1,197.99999395752,2|0,0:0|0:0,0:0:0:0:
94,369,204390,2,0,P|157:354|207:311,1,131.99999597168,8|0,0:0|0:0,0:0:0:0:
367,26,204640,5,2,0:0:0:0:
404,240,204765,1,2,0:0:0:0:
108,240,204890,1,8,0:0:0:0:
145,26,205015,1,0,0:0:0:0:
444,315,205140,6,0,B|479:267|479:267|479:195,1,131.99999597168,2|0,0:0|0:0,0:0:0:0:
33,196,205390,2,0,B|33:268|33:268|68:316,1,131.99999597168,8|0,0:0|0:0,0:0:0:0:
404,240,205640,1,2,0:0:0:0:
108,240,205765,1,2,0:0:0:0:
256,96,205890,1,8,0:0:0:0:
256,360,206015,1,0,0:0:0:0:
196,38,206140,2,0,B|232:20|232:20|256:28|280:20|280:20|344:50,1,131.99999597168,2|0,0:0|0:0,0:0:0:0:
231,257,206390,6,0,B|256:276|256:276|284:256,3,65.9999979858399,10|0|2|0,0:0|0:0|0:0|0:0,0:0:0:0:
256,192,206640,1,8,0:0:0:0:
124,88,206765,1,8,0:0:0:0:
256,360,206890,1,8,0:0:0:0:
388,88,207015,1,8,0:0:0:0:
447,223,207140,6,0,L|315:207,1,131.99999597168,4|0,0:0|0:0,0:0:0:0:
45,228,207390,2,0,L|161:124,1,131.99999597168,8|0,0:0|0:0,0:0:0:0:
364,287,207640,1,2,0:0:0:0:
256,60,207765,1,2,0:0:0:0:
148,287,207890,2,0,P|85:278|45:228,1,131.99999597168,8|0,0:0|0:0,0:0:0:0:
7,33,208140,6,0,L|55:285,1,197.99999395752,2|0,0:0|0:0,0:0:0:0:
112,168,208390,2,0,L|84:24,1,131.99999597168,8|2,0:0|0:0,0:0:0:0:
44,227,208640,1,0,0:0:0:0:
168,40,208765,1,2,0:0:0:0:
236,252,208890,2,0,P|228:316|160:372,1,131.99999597168,8|0,0:0|0:0,0:0:0:0:
17,304,209140,6,0,L|169:284,1,131.99999597168,2|0,0:0|0:0,0:0:0:0:
360,65,209390,1,8,0:0:0:0:
112,168,209515,1,0,0:0:0:0:
320,232,209640,2,0,B|237:128|237:128|208:108|160:116,1,197.99999395752,2|0,0:0|0:0,0:0:0:0:
196,204,209890,2,0,L|288:316,1,131.99999597168,8|0,0:0|0:0,0:0:0:0:
400,216,210140,5,2,0:0:0:0:
288,40,210265,1,0,0:0:0:0:
224,344,210390,1,10,0:0:0:0:
112,168,210515,1,2,0:0:0:0:
480,90,210640,2,0,B|454:67|424:56|424:56|392:52|360:65,1,131.99999597168,0|2,0:0|0:0,0:0:0:0:
240,256,210890,1,8,0:0:0:0:
4,244,211015,1,0,0:0:0:0:
140,49,211140,6,0,P|205:58|255:99,1,131.99999597168,4|0,0:0|0:0,0:0:0:0:
408,260,211390,1,8,0:0:0:0:
104,260,211515,1,0,0:0:0:0:
256,100,211640,2,0,L|256:308,1,197.99999395752,2|0,0:0|0:0,0:0:0:0:
195,354,211890,2,0,B|256:384|256:384|332:344,1,131.99999597168,8|0,0:0|0:0,0:0:0:0:
140,49,212140,5,2,0:0:0:0:
104,260,212265,1,0,0:0:0:0:
0,44,212390,1,8,0:0:0:0:
264,28,212515,1,2,0:0:0:0:
184,196,212640,2,0,B|104:260|104:260|24:172,1,197.99999395752
112,156,212890,2,0,B|120:88|120:88|136:56|180:36,1,131.99999597168,8|0,0:0|0:0,0:0:0:0:
312,120,213140,5,2,0:0:0:0:
200,264,213265,1,0,0:0:0:0:
347,340,213390,2,0,B|376:328|392:296|392:296|400:228,1,131.99999597168,8|0,0:0|0:0,0:0:0:0:
312,88,213640,5,2,0:0:0:0:
200,296,213765,1,2,0:0:0:0:
80,140,213890,2,0,B|88:72|88:72|104:40|132:27,1,131.99999597168,8|0,0:0|0:0,0:0:0:0:
312,56,214140,5,2,0:0:0:0:
200,328,214265,1,0,0:0:0:0:
380,360,214390,2,0,B|408:347|424:315|424:315|432:247,1,131.99999597168,8|8,0:0|0:0,0:0:0:0:
312,24,214640,5,2,0:0:0:0:
200,360,214765,1,8,0:0:0:0:
60,160,214890,1,2,0:0:0:0:
452,224,215015,1,10,0:0:0:0:
144,320,215140,6,0,B|120:212|120:212|120:160|172:124,1,197.99999395752,4|0,0:0|0:0,0:0:0:0:
203,207,215390,2,0,L|233:335,1,131.99999597168,8|8,0:0|0:0,0:0:0:0:
408,148,215640,5,2,0:0:0:0:
221,82,215765,1,2,0:0:0:0:
400,48,215890,2,0,P|464:60|496:132,1,131.99999597168,8|8,0:0|0:0,0:0:0:0:
408,256,216140,1,0,0:0:0:0:
221,82,216265,6,0,B|277:-2|277:-2|293:102,1,197.99999395752,6|0,0:3|0:0,0:0:0:0:
273,218,216515,2,0,B|217:302|217:302|201:198,1,197.99999395752,6|0,0:3|0:0,0:0:0:0:
249,150,216765,1,6,0:0:0:0:
380,168,216890,2,0,L|510:187,1,131.99999597168,4|0,0:0|0:0,0:0:0:0:
368,328,217140,5,2,0:0:0:0:
249,150,217265,1,2,0:0:0:0:
94,284,217390,1,8,0:0:0:0:
94,284,217452,1,8,0:0:0:0:
94,284,217515,2,0,B|94:208|94:208|114:176|158:152,1,131.99999597168,0|2,0:0|0:0,0:0:0:0:
418,283,217765,1,8,0:0:0:0:
418,283,217827,1,8,0:0:0:0:
418,283,217890,2,0,B|418:207|418:207|398:175|379:166,1,131.99999597168,0|2,0:0|0:0,0:0:0:0:
88,84,218140,5,4,0:0:0:0:
256,236,218265,1,0,0:0:0:0:
322,47,218390,2,0,B|256:24|256:24|184:52,1,131.99999597168,8|2,0:0|0:0,0:0:0:0:
256,344,218640,1,8,0:0:0:0:
424,84,218890,5,2,0:0:0:0:
88,84,219015,1,2,0:0:0:0:
190,297,219140,2,0,P|256:316|319:294,1,131.99999597168,4|0,0:0|0:0,0:0:0:0:
256,96,219390,5,8,0:0:0:0:
256,128,219452,1,8,0:0:0:0:
256,160,219515,1,8,0:0:0:0:
256,192,219577,1,8,0:0:0:0:
256,224,219640,2,0,B|208:200|208:200|176:216|176:216|128:184,1,131.99999597168,2|2,0:0|0:0,0:0:0:0:
256,24,219890,5,2,0:0:0:0:
372,192,220015,1,8,0:0:0:0:
140,192,220140,1,2,0:0:0:0:
314,99,220640,6,0,B|308:71|308:71|284:78|263:71|263:71|253:51|253:51|242:71|242:71|215:75|194:71|194:71|188:96,1,192.5
257,149,221140,6,0,B|249:159|249:159|261:159|261:159|249:167|249:167|261:167|261:167|249:175|249:175|261:175|261:175|249:183|249:183|261:183|261:183|249:191|249:191|261:191|261:191|249:199|249:199|261:199|261:199|256:216|256:216|256:232|256:232|301:255|301:255|269:271|269:271|269:327,1,330.000012588501,4|0,0:0|0:0,0:0:0:0:
