osu file format v14

[General]
AudioFilename: audio.mp3
AudioLeadIn: 0
PreviewTime: 49537
Countdown: 1
SampleSet: Soft
StackLeniency: 0.7
Mode: 0
LetterboxInBreaks: 0
WidescreenStoryboard: 0

[Editor]
Bookmarks: 2219,10946,20764,38219,50219,67673,82946,91293,99641,107989,116337,123641,140337,159119,167119,175119,191119,207119,221119,221619
DistanceSpacing: 2
BeatDivisor: 4
GridSize: 4
TimelineZoom: 4.299998

[Metadata]
Title:Chiisana Koi no Uta (Synth Rock Cover)
TitleUnicode:小さな恋のうた (Synth Rock Cover)
Artist:Omoi
ArtistUnicode:Omoi
Creator:rui
Version:2017
Source:
Tags:
BeatmapID:1287467
BeatmapSetID:609669

[Difficulty]
HPDrainRate:5
CircleSize:4
OverallDifficulty:8
ApproachRate:9.5
SliderMultiplier:1.8
SliderTickRate:1

[Events]
//Background and Video events
0,0,"57165609_p0.jpg",0,0
//Break Periods
//Storyboard Layer 0 (Background)
//Storyboard Layer 1 (Fail)
//Storyboard Layer 2 (Pass)
//Storyboard Layer 3 (Foreground)
//Storyboard Sound Samples

[TimingPoints]
1673,272.727272727273,4,2,0,15,1,0
1673,-133.333333333333,4,2,0,15,0,0
2219,272.727272727273,4,2,0,30,1,0
2219,-133.333333333333,4,2,0,30,0,0
10946,-117.647058823529,4,2,0,30,0,0
17491,-153.846153846153,4,2,0,30,0,0
18446,-117.647058823529,4,2,0,30,0,0
19673,-133.333333333333,4,2,0,30,0,0
20764,-100,4,2,0,30,0,0
50219,-90.9090909090909,4,2,0,30,0,1
81855,-200,4,2,0,30,0,1
82400,-166.666666666667,4,2,0,30,0,1
82946,260.869565217391,4,1,2,15,1,0
83467,-250,4,1,2,15,0,0
83989,-100,4,1,2,15,0,0
84511,-250,4,1,2,15,0,0
85032,-100,4,1,2,15,0,0
85554,-250,4,1,2,15,0,0
86076,-100,4,1,2,15,0,0
86598,-250,4,1,2,15,0,0
87119,-100,4,1,2,15,0,0
87641,-250,4,1,2,15,0,0
88163,-100,4,1,2,15,0,0
88685,-250,4,1,2,15,0,0
89206,-100,4,1,2,15,0,0
123641,-100,4,1,2,15,0,1
159119,250,4,2,1,60,1,0
175119,-100,4,2,1,60,0,1
221119,-100,4,2,1,60,0,0
221619,-100,4,2,1,60,0,0

[Colours]
Combo1 : 255,128,64
Combo2 : 0,128,255
Combo3 : 255,255,0
Combo4 : 0,128,128

[HitObjects]
28,84,1673,6,0,B|92:56|92:56|156:68,1,135.000005149842
424,24,2218,6,0,P|396:40|372:71,1,67.5000025749208
308,12,2491,2,0,P|291:40|286:79,1,67.5000025749208
200,56,2764,2,0,P|200:88|215:125,1,67.5000025749208
128,148,3037,2,0,P|144:175|175:200,1,67.5000025749208
224,320,3309,2,0,L|84:292,1,135.000005149842
60,208,3719,1,0,0:0:0:0:
224,320,3855,2,0,P|280:272|304:216,1,135.000005149842
412,32,4400,6,0,P|380:39|341:32,1,67.5000025749208
335,119,4673,2,0,P|304:109|273:83,1,67.5000025749208
226,161,4946,2,0,P|204:137|190:99,1,67.5000025749208
110,143,5219,2,0,P|102:111|109:72,1,67.5000025749208
40,208,5491,2,0,B|104:232|104:232|172:220,1,135.000005149842
256,208,5900,1,0,0:0:0:0:
418,103,6037,2,0,B|389:100|352:107|352:107|323:85|292:76,1,135.000005149842
488,340,6582,6,0,P|456:333|417:340,1,67.5000025749208
411,253,6855,2,0,P|380:263|349:289,1,67.5000025749208
302,211,7128,2,0,P|280:235|266:273,1,67.5000025749208
186,229,7400,2,0,P|178:261|185:300,1,67.5000025749208
305,117,7673,2,0,B|272:128|245:142|245:142|173:147,1,135.000005149842
96,104,8082,1,0,0:0:0:0:
272,28,8219,2,0,B|324:28|368:44|368:44|392:80,1,135.000005149842
460,216,8764,6,0,L|469:149,1,67.5000025749208
356,204,9037,2,0,P|360:240|372:276,2,67.5000025749208
272,28,9446,2,0,P|268:64|256:100,1,67.5000025749208
244,200,9719,2,0,B|192:184|192:184|160:152|148:104,1,135.000005149842
132,28,10128,2,0,P|96:44|68:68,1,67.5000025749208
258,93,10400,2,0,B|294:77|316:56|316:56|360:68,1,101.250003862381
384,44,10673,2,0,L|396:116,1,67.5000025749208
460,184,10946,6,0,P|460:224|452:260,1,76.5000014591217
360,344,11219,2,0,P|339:311|326:275,1,76.5000014591217
292,160,11491,2,0,P|257:180|230:204,1,76.5000014591217
150,372,11764,2,0,P|183:353|212:328,1,76.5000014591217
380,164,12037,2,0,P|369:125|352:92,1,76.5000014591217
171,145,12309,2,0,P|153:179|144:216,1,76.5000014591217
268,228,12582,2,0,L|340:256,1,76.5000014591217
236,84,12855,2,0,L|164:56,1,76.5000014591217
76,164,13128,6,0,P|64:200|65:256,1,76.5000014591217
254,302,13400,2,0,P|265:265|264:209,1,76.5000014591217
296,20,13673,2,0,P|312:48|324:96,1,76.5000014591217
399,258,13946,2,0,P|381:225|372:188,1,76.5000014591217
438,29,14219,2,0,P|427:66|420:104,1,76.5000014591217
272,224,14491,2,0,P|261:187|253:149,1,76.5000014591217
371,187,14764,2,0,L|464:204,1,76.5000014591217
296,312,15037,2,0,L|203:295,1,76.5000014591217
184,96,15309,6,0,P|220:72|260:64,1,76.5000014591217
432,96,15582,2,0,P|399:67|381:30,1,76.5000014591217
364,212,15855,2,0,P|396:240|414:277,1,76.5000014591217
296,312,16128,2,0,P|256:312|216:296,1,76.5000014591217
101,238,16400,5,0,0:0:0:0:
260,220,16537,1,0,0:0:0:0:
260,220,16605,1,0,0:0:0:0:
260,220,16673,1,0,0:0:0:0:
132,100,16809,1,0,0:0:0:0:
60,156,16946,1,0,0:0:0:0:
216,136,17082,1,0,0:0:0:0:
260,220,17219,1,0,0:0:0:0:
344,256,17355,1,0,0:0:0:0:
416,200,17491,6,0,B|476:200|516:160|516:160|460:160|416:200|340:176|312:152|312:152|340:140,1,350.999983932496
232,20,18446,1,0,0:0:0:0:
232,20,18514,1,0,0:0:0:0:
232,20,18582,5,0,0:0:0:0:
164,192,18719,1,0,0:0:0:0:
164,192,18787,1,0,0:0:0:0:
164,192,18855,1,0,0:0:0:0:
340,140,18991,1,0,0:0:0:0:
160,92,19128,1,0,0:0:0:0:
312,221,19264,1,0,0:0:0:0:
84,260,19400,1,0,0:0:0:0:
164,44,19537,1,0,0:0:0:0:
268,269,19673,6,0,B|286:312|293:359|293:359|304:319|304:319|286:265|315:214,1,236.250009012223
400,204,20219,6,0,L|379:218,1,19.1250003647804
394,184,20287,6,0,L|370:194,1,19.1250003647804
390,164,20355,6,0,L|365:170,1,19.1250003647804
390,143,20423,6,0,L|364:145,1,19.1250003647804
394,123,20491,6,0,L|368:120,1,19.1250003647804
401,104,20559,6,0,L|376:97,1,19.1250003647804
411,86,20628,6,0,L|388:75,1,19.1250003647804
425,70,20696,6,0,L|404:55,1,19.1250003647804
441,57,20764,6,0,B|412:24|412:24|320:12,1,135
240,52,21037,2,0,L|140:44,1,90,0|0,1:0|0:0,0:0:0:0:
0,144,21309,1,0,0:0:0:0:
176,124,21446,1,0,0:0:0:0:
48,224,21582,2,0,P|56:272|72:312,1,90,0|0,1:0|0:0,0:0:0:0:
236,178,21855,6,0,B|260:134|260:134|236:38,1,135
316,4,22128,2,0,L|337:91,1,90,0|0,1:0|0:0,0:0:0:0:
296,264,22400,1,0,0:0:0:0:
428,140,22537,1,0,0:0:0:0:
400,316,22673,2,0,L|379:229,1,90,0|0,1:0|0:0,0:0:0:0:
307,83,22946,6,0,P|371:103|427:139,1,135
378,228,23219,2,0,P|332:208|280:172,1,90
204,32,23491,1,0,0:0:0:0:
36,96,23628,1,0,0:0:0:0:
128,180,23764,2,0,P|120:132|128:88,1,90,0|0,1:0|0:0,0:0:0:0:
77,263,24037,6,0,B|144:268|144:268|205:231,1,135
280,160,24309,2,0,P|300:204|312:256,1,90,0|0,1:0|0:0,0:0:0:0:
316,72,24582,1,0,0:0:0:0:
144,148,24719,1,0,0:0:0:0:
252,0,24855,2,0,P|228:36|220:84,1,90,0|0,1:0|0:0,0:0:0:0:
256,240,25128,6,0,L|160:224,1,90
392,164,25400,2,0,L|488:180,1,90,0|0,1:0|0:0,0:0:0:0:
332,80,25673,1,0,0:0:0:0:
352,256,25809,1,0,0:0:0:0:
420,80,25946,2,0,L|488:12,1,90
308,180,26219,6,0,B|276:216|276:216|264:256|264:256|228:288,1,135
184,208,26491,2,0,L|172:112,1,90,0|0,1:0|0:0,0:0:0:0:
220,368,26764,2,0,P|268:356|304:320,1,90
481,109,27037,2,0,P|438:119|404:148,1,90,0|0,1:0|0:0,0:0:0:0:
232,280,27309,6,0,P|204:212|216:136,1,135
244,64,27582,1,0,0:0:0:0:
92,160,27719,1,0,0:0:0:0:
308,204,27855,1,0,0:0:0:0:
92,296,27991,1,0,0:0:0:0:
144,39,28128,2,0,P|166:109|224:159,1,135
318,293,28400,6,0,P|315:252|302:181,1,90
346,34,28673,2,0,P|318:69|296:109,1,90
208,276,28946,1,0,0:0:0:0:
209,151,29082,1,0,0:0:0:0:
336,220,29219,1,0,0:0:0:0:
324,364,29355,1,0,0:0:0:0:
144,352,29491,6,0,P|116:291|124:223,1,135
200,176,29764,2,0,L|164:82,1,90
4,12,30037,1,0,0:0:0:0:
184,16,30173,1,0,0:0:0:0:
32,120,30309,2,0,B|32:168|52:212,1,90
264,264,30582,6,0,B|288:224|281:170|281:170|308:136,1,135
352,60,30855,2,0,P|380:92|396:148,1,90
456,328,31128,1,0,0:0:0:0:
484,152,31264,1,0,0:0:0:0:
368,344,31400,2,0,P|340:312|324:256,1,90
304,140,31673,6,0,B|266:122|266:122|210:130|210:130|174:110,1,135
92,156,31946,2,0,L|176:200,1,90
384,172,32219,1,0,0:0:0:0:
260,40,32355,1,0,0:0:0:0:
328,252,32491,2,0,P|295:216|284:176,1,90
452,104,32764,6,0,B|483:150|481:188|481:188|457:226,1,135
356,328,33037,2,0,P|308:328|268:308,1,90
448,336,33309,1,0,0:0:0:0:
380,168,33446,1,0,0:0:0:0:
270,310,33582,2,0,P|248:264|248:224,1,90
340,72,33855,6,0,P|282:103|205:98,1,135
168,24,34128,2,0,P|212:16|268:32,1,90
360,172,34400,1,0,0:0:0:0:
436,8,34537,1,0,0:0:0:0:
276,176,34673,2,0,B|288:220|288:220|324:248,1,90
312,96,34946,6,0,B|278:93|252:92|252:92|212:112|212:112|172:108,1,135
100,184,35219,2,0,L|189:190,1,90
364,156,35491,1,0,0:0:0:0:
224,268,35628,1,0,0:0:0:0:
400,236,35764,2,0,L|310:229,1,90
116,96,36037,6,0,L|252:72,1,135
336,56,36309,1,0,0:0:0:0:
204,192,36446,1,0,0:0:0:0:
384,144,36582,1,0,0:0:0:0:
252,280,36719,1,0,0:0:0:0:
452,212,36855,2,0,P|472:168|476:120,1,90
248,72,37128,6,0,P|280:128|304:200,1,135
324,280,37400,1,0,0:0:0:0:
176,176,37537,1,0,0:0:0:0:
176,176,37605,1,0,0:0:0:0:
176,176,37673,1,0,0:0:0:0:
136,380,37809,1,0,0:0:0:0:
344,368,37946,1,0,0:0:0:0:
112,272,38082,1,0,0:0:0:0:
302,194,38219,6,0,P|370:206|442:206,1,135
482,110,38491,2,0,L|386:122,1,90
240,28,38764,1,0,0:0:0:0:
302,194,38900,1,0,0:0:0:0:
240,28,39037,1,0,0:0:0:0:
302,194,39173,1,0,0:0:0:0:
140,272,39309,6,0,P|80:296|12:284,1,135
68,212,39582,2,0,P|112:196|152:176,1,90
280,52,39855,1,0,0:0:0:0:
224,224,39991,1,0,0:0:0:0:
280,52,40128,1,0,0:0:0:0:
224,224,40264,1,0,0:0:0:0:
384,24,40400,6,0,B|396:72|364:120|364:120|404:108,1,135
460,176,40673,2,0,L|368:207,1,90
200,248,40946,1,0,0:0:0:0:
348,352,41082,1,0,0:0:0:0:
200,248,41219,1,0,0:0:0:0:
348,352,41355,1,0,0:0:0:0:
272,188,41491,6,0,B|212:164|212:164|132:180,1,135
111,264,41764,2,0,L|205:247,1,90
376,212,42037,2,0,P|375:169|359:121,1,90
173,95,42309,2,0,P|153:127|142:181,1,90
309,324,42582,5,0,0:0:0:0:
431,295,42719,1,0,0:0:0:0:
291,237,42855,1,0,0:0:0:0:
437,206,42991,1,0,0:0:0:0:
273,150,43128,1,0,0:0:0:0:
443,118,43264,1,0,0:0:0:0:
255,63,43400,1,0,0:0:0:0:
449,30,43537,1,0,0:0:0:0:
356,176,43673,5,0,0:0:0:0:
312,20,43809,1,0,0:0:0:0:
256,188,43946,1,0,0:0:0:0:
213,42,44082,1,0,0:0:0:0:
160,212,44219,1,0,0:0:0:0:
115,53,44355,1,0,0:0:0:0:
68,248,44491,1,0,0:0:0:0:
16,50,44628,1,0,0:0:0:0:
172,116,44764,5,0,0:0:0:0:
136,312,44900,1,0,0:0:0:0:
64,112,45037,1,0,0:0:0:0:
236,272,45173,1,0,0:0:0:0:
372,64,45309,1,0,0:0:0:0:
344,252,45446,1,0,0:0:0:0:
480,68,45582,1,0,0:0:0:0:
268,172,45719,1,0,0:0:0:0:
448,232,45855,6,0,B|468:272|468:272|452:320,1,90
284,372,46128,1,0,0:0:0:0:
268,172,46264,1,0,0:0:0:0:
268,172,46332,1,0,0:0:0:0:
268,172,46400,1,0,0:0:0:0:
188,336,46537,1,0,0:0:0:0:
376,160,46673,2,0,B|420:144|420:144|464:136,1,90
284,80,46946,6,0,B|240:84|240:84|192:108,1,90
256,304,47219,2,0,B|300:300|300:300|348:276,1,90
396,100,47491,1,0,0:0:0:0:
476,300,47628,1,0,0:0:0:0:
272,192,47764,2,0,P|228:196|180:212,1,90
16,128,48037,5,0,0:0:0:0:
16,128,48105,2,0,P|28:172|36:216,1,90
80,300,48309,2,0,P|124:296|172:280,1,90
280,96,48582,1,0,0:0:0:0:
380,288,48719,1,0,0:0:0:0:
408,40,48855,1,0,0:0:0:0:
272,220,48991,1,0,0:0:0:0:
72,24,49128,5,0,0:0:0:0:
72,24,50219,6,0,B|132:44|132:44|196:32|196:32|264:56,1,198.000006042481
368,224,50628,1,0,0:0:0:0:
184,168,50764,1,0,0:0:0:0:
380,32,50900,1,0,0:0:0:0:
463,243,51037,2,0,P|411:239|367:223,1,99.0000030212403
73,197,51309,6,0,P|145:193|209:121,1,148.50000453186
272,76,51582,2,0,P|288:104|292:172,1,99.0000030212403
224,356,51855,1,0,0:0:0:0:
199,143,51991,1,0,0:0:0:0:
324,296,52128,2,0,B|361:282|381:253|381:253|422:273|458:268,1,148.50000453186
480,152,52400,6,0,P|431:155|384:168,1,99.0000030212403
152,224,52673,2,0,P|201:220|248:207,1,99.0000030212403
392,68,52946,1,0,0:0:0:0:
324,296,53082,1,0,0:0:0:0:
288,104,53219,2,0,P|220:76|153:102,1,148.50000453186
35,34,53491,6,0,P|107:44|153:101,1,148.50000453186
220,176,53764,1,0,0:0:0:0:
372,52,53900,1,0,0:0:0:0:
208,288,54037,1,0,0:0:0:0:
424,128,54173,2,0,P|476:184|484:256,1,148.50000453186
384,224,54446,6,0,B|296:276,1,99.0000030212403
140,280,54719,1,0,0:0:0:0:
137,120,54855,2,0,B|181:105|181:105|229:114|229:114|277:92,1,148.50000453186
368,48,55128,1,0,0:0:0:0:
188,204,55264,1,0,0:0:0:0:
400,328,55400,2,0,L|252:348,1,148.50000453186
136,286,55673,6,0,P|91:202|136:118,1,198.000006042481
308,20,56082,1,0,0:0:0:0:
188,204,56219,2,0,B|228:228|228:228|284:224|284:224|330:242|330:242|380:228,1,198.000006042481
480,64,56628,1,0,0:0:0:0:
448,308,56764,6,0,L|348:340,1,99.0000030212403
139,192,57037,2,0,L|196:205,1,49.5000015106202
416,156,57173,2,0,L|359:143,1,49.5000015106202
220,24,57309,1,0,0:0:0:0:
304,248,57446,1,0,0:0:0:0:
76,128,57582,2,0,P|52:168|52:220,1,99.0000030212403
220,329,57855,6,0,B|261:317|261:317|309:329|309:329|361:309,1,148.50000453186
396,213,58128,2,0,L|299:249,1,99.0000030212403
124,332,58400,1,0,0:0:0:0:
264,160,58537,1,0,0:0:0:0:
48,128,58673,1,0,0:0:0:0:
172,228,58809,1,0,0:0:0:0:
287,21,58946,6,0,B|299:96|299:96|263:161,1,148.50000453186
164,180,59219,2,0,P|184:224|228:256,1,99.0000030212403
416,304,59491,1,0,0:0:0:0:
263,159,59628,1,0,0:0:0:0:
388,32,59764,2,0,P|408:76|448:104,1,99.0000030212403
236,300,60037,6,0,B|216:256|181:231|181:231|116:244,1,148.50000453186
54,170,60309,2,0,L|152:152,1,99.0000030212403
292,12,60582,1,0,0:0:0:0:
232,204,60719,1,0,0:0:0:0:
70,73,60855,2,0,P|54:120|54:170,1,99.0000030212403
256,104,61128,6,0,P|324:124|404:116,1,148.50000453186
292,12,61400,2,0,P|244:8|188:32,1,99.0000030212403
54,170,61673,1,0,0:0:0:0:
232,256,61809,1,0,0:0:0:0:
197,25,61946,2,0,P|164:68|152:120,1,99.0000030212403
384,348,62219,6,0,B|392:276|440:208,1,148.50000453186
384,74,62491,2,0,B|392:146|437:210,1,148.50000453186
496,292,62764,1,0,0:0:0:0:
312,224,62900,1,0,0:0:0:0:
468,100,63037,1,0,0:0:0:0:
276,140,63173,6,0,B|220:176|220:176|196:260,1,148.50000453186
252,340,63446,2,0,L|283:242,1,99.0000030212403
344,100,63719,1,0,0:0:0:0:
200,36,63855,2,0,L|99:58,1,99.0000030212403
128,280,64128,2,0,P|200:320|264:312,1,148.50000453186
344,368,64400,6,0,B|368:332|356:272|356:272|304:180,1,198.000006042481
128,280,64809,1,0,0:0:0:0:
228,108,64946,2,0,P|324:76|400:128,1,198.000006042481
452,316,65355,1,0,0:0:0:0:
307,186,65491,6,0,P|279:230|267:278,1,99.0000030212403
60,348,65764,2,0,L|52:300,1,49.5000015106202
232,120,65900,2,0,L|224:168,1,49.5000015106202
192,360,66037,1,0,0:0:0:0:
108,124,66173,1,0,0:0:0:0:
267,274,66309,2,0,B|299:233|299:233|308:184,1,99.0000030212403
492,32,66582,6,0,L|461:182,1,148.50000453186
436,276,66855,1,0,0:0:0:0:
332,64,66991,1,0,0:0:0:0:
332,64,67059,1,0,0:0:0:0:
332,64,67128,1,0,0:0:0:0:
192,256,67264,1,0,0:0:0:0:
444,140,67400,1,0,0:0:0:0:
188,28,67537,1,0,0:0:0:0:
56,266,67673,6,0,P|128:286|196:250,1,148.50000453186
268,188,67946,1,0,0:0:0:0:
380,343,68082,1,0,0:0:0:0:
380,151,68219,1,0,0:0:0:0:
267,306,68355,1,0,0:0:0:0:
450,247,68491,2,0,L|460:144,1,99.0000030212403
254,46,68764,6,0,P|279:113|267:189,1,148.50000453186
232,280,69037,1,0,0:0:0:0:
108,108,69173,1,0,0:0:0:0:
107,320,69309,1,0,0:0:0:0:
230,148,69446,1,0,0:0:0:0:
30,214,69582,2,0,L|122:271,1,99.0000030212403
364,337,69855,6,0,B|310:303|310:303|269:301|269:301|230:278,1,148.50000453186
140,236,70128,1,0,0:0:0:0:
302,68,70264,1,0,0:0:0:0:
72,107,70400,1,0,0:0:0:0:
282,207,70537,1,0,0:0:0:0:
173,3,70673,2,0,P|176:56|184:104,1,99.0000030212403
348,368,70946,6,0,P|345:299|361:219,1,148.50000453186
420,144,71219,1,0,0:0:0:0:
176,217,71355,1,0,0:0:0:0:
328,11,71491,1,0,0:0:0:0:
322,268,71628,1,0,0:0:0:0:
174,58,71764,2,0,P|156:104|144:156,1,99.0000030212403
244,328,72037,6,0,B|316:352|316:352|392:340,1,148.50000453186
484,324,72309,1,0,0:0:0:0:
296,256,72446,1,0,0:0:0:0:
440,124,72582,1,0,0:0:0:0:
388,292,72719,1,0,0:0:0:0:
248,64,72855,2,0,P|220:104|204:156,1,99.0000030212403
360,336,73128,6,0,B|284:348|284:348|212:320,1,148.50000453186
124,296,73400,1,0,0:0:0:0:
330,221,73537,1,0,0:0:0:0:
172,75,73673,1,0,0:0:0:0:
228,260,73809,1,0,0:0:0:0:
383,9,73946,2,0,P|376:60|376:112,1,99.0000030212403
302,355,74219,6,0,P|272:288|256:216,1,148.50000453186
280,120,74491,1,0,0:0:0:0:
43,81,74628,1,0,0:0:0:0:
117,307,74764,1,0,0:0:0:0:
160,100,74900,1,0,0:0:0:0:
360,352,75037,2,0,P|368:304|384:248,1,99.0000030212403
452,72,75309,5,0,0:0:0:0:
292,168,75446,1,0,0:0:0:0:
292,168,75446,1,0,0:0:0:0:
292,168,75514,1,0,0:0:0:0:
292,168,75582,1,0,0:0:0:0:
432,172,75719,1,0,0:0:0:0:
224,48,75855,1,0,0:0:0:0:
220,284,75991,1,0,0:0:0:0:
80,28,76128,2,0,P|88:76|96:136,1,99.0000030212403
219,283,76400,6,0,L|244:137,1,148.50000453186
320,56,76673,2,0,P|336:104|344:152,1,99.0000030212403
272,336,76946,1,0,0:0:0:0:
244,136,77082,1,0,0:0:0:0:
464,216,77219,2,0,P|426:249|395:287,1,99.0000030212403
192,216,77491,6,0,P|152:152|168:76,1,148.50000453186
256,44,77764,2,0,P|308:52|356:64,1,99.0000030212403
496,204,78037,1,0,0:0:0:0:
288,136,78173,1,0,0:0:0:0:
472,308,78309,2,0,P|430:275|395:240,1,99.0000030212403
204,48,78582,6,0,P|186:119|188:193,1,148.50000453186
116,264,78855,2,0,P|94:219|90:170,1,99.0000030212403
280,104,79128,2,0,L|292:160,1,49.5000015106202
370,284,79264,2,0,L|402:236,1,49.5000015106202
460,56,79400,2,0,P|429:95|396:132,1,99.0000030212403
184,280,79673,6,0,B|136:248|136:248|116:152,1,148.50000453186
224,92,79946,2,0,P|212:144|208:196,1,99.0000030212403
316,280,80219,1,0,0:0:0:0:
502,110,80355,1,0,0:0:0:0:
408,44,80491,2,0,P|396:96|392:148,1,99.0000030212403
152,348,80764,6,0,B|136:306|129:263|129:263|172:217,1,148.50000453186
244,152,81037,2,0,P|260:196|268:260,1,99.0000030212403
272,360,81309,1,0,0:0:0:0:
112,240,81446,1,0,0:0:0:0:
380,168,81582,1,0,0:0:0:0:
80,80,81719,1,0,0:0:0:0:
432,44,81855,5,0,0:0:0:0:
432,44,82400,6,0,B|340:42|340:95|248:76,1,188.999994232178
156,100,82946,6,0,P|204:152|268:168,1,135
324,236,83206,2,0,L|188:248,1,135
112,196,83467,6,0,P|59:186|5:202,1,108
7,200,83989,6,0,P|64:232|136:228,1,135
180,152,84250,2,0,P|220:206|212:272,1,135
312,256,84511,6,0,P|306:312|340:358,1,108
333,353,85032,6,0,P|371:299|363:233,1,135
300,168,85293,2,0,B|364:144|364:144|432:164,1,135
496,104,85554,6,0,L|512:216,1,108
511,210,86076,6,0,B|476:192|476:192|460:96,1,135
412,20,86337,2,0,B|380:52|380:52|368:104|368:104|336:128,1,135
264,184,86598,6,0,L|372:216,1,108
367,214,87119,6,0,L|232:224,1,135
196,308,87380,2,0,B|154:314|154:314|117:295|117:295|65:298,1,135
16,220,87641,6,0,P|-4:176|12:120,1,108
11,122,88163,6,0,L|146:112,1,135
184,28,88424,2,0,B|219:49|219:49|237:87|237:87|278:117,1,135
352,68,88685,6,0,P|368:116|352:176,1,108
355,170,89206,6,0,L|220:152,1,135
48,216,89467,2,0,L|181:233,1,135
272,228,89728,2,0,B|356:272|356:220|412:240|440:256|440:296|440:296|412:276|412:240|436:188,1,315
476,112,90250,5,0,0:0:0:0:
356,328,90380,1,0,0:0:0:0:
272,16,90511,1,0,0:0:0:0:
