osu file format v14

[General]
AudioFilename: audio.mp3
AudioLeadIn: 0
PreviewTime: 174619
Countdown: 0
SampleSet: Normal
StackLeniency: 0.7
Mode: 0
LetterboxInBreaks: 0
WidescreenStoryboard: 0

[Editor]
Bookmarks: 13400,91293,115032
DistanceSpacing: 1.3
BeatDivisor: 4
GridSize: 4
TimelineZoom: 2.099999

[Metadata]
Title:Chiisana Koi no Uta (Synth Rock Cover)
TitleUnicode:小さな恋のうた
Artist:Omoi
ArtistUnicode:Omoi
Creator:SnowNiNo_
Version:Advanced
Source:
Tags:akitoshi gaia [C u r i] left Deppyforce vocaloid hatsune_miku miku song of a small love
BeatmapID:1269500
BeatmapSetID:599444

[Difficulty]
HPDrainRate:4
CircleSize:3
OverallDifficulty:5
ApproachRate:7
SliderMultiplier:1.4
SliderTickRate:1

[Events]
//Background and Video events
0,0,"61961488_p0.png",0,0
//Break Periods
2,108189,111263
2,159119,166219
//Storyboard Layer 0 (Background)
//Storyboard Layer 1 (Fail)
//Storyboard Layer 2 (Pass)
//Storyboard Layer 3 (Foreground)
//Storyboard Sound Samples

[TimingPoints]
1673,272.727272727273,4,2,0,15,1,0
2219,-100,4,1,2,70,0,0
2286,-100,4,2,0,30,0,0
10673,-100,4,2,0,80,0,0
10946,-100,4,2,1,50,0,0
16400,-100,4,2,0,50,0,0
18446,-100,4,1,1,50,0,0
19673,-100,4,2,0,50,0,0
20764,-100,4,1,2,60,0,0
22059,-100,4,1,2,5,0,0
22128,-100,4,1,2,60,0,0
22332,-100,4,1,2,5,0,0
22400,-100,4,1,2,60,0,0
24241,-100,4,1,2,5,0,0
24309,-100,4,1,2,60,0,0
24514,-100,4,1,2,5,0,0
24582,-100,4,1,2,60,0,0
26423,-100,4,1,2,5,0,0
26491,-100,4,1,2,60,0,0
26696,-100,4,1,2,5,0,0
26764,-100,4,1,2,60,0,0
28605,-100,4,1,2,5,0,0
28673,-100,4,1,2,60,0,0
28878,-100,4,1,2,5,0,0
28946,-100,4,1,2,60,0,0
30787,-100,4,1,2,5,0,0
30855,-100,4,1,2,60,0,0
31059,-100,4,1,2,5,0,0
31128,-100,4,1,2,60,0,0
32969,-100,4,1,2,5,0,0
33037,-100,4,1,2,60,0,0
33241,-100,4,1,2,5,0,0
33309,-100,4,1,2,60,0,0
35150,-100,4,1,2,5,0,0
35219,-100,4,1,2,60,0,0
35423,-100,4,1,2,5,0,0
35491,-100,4,1,2,60,0,0
49673,-100,4,2,0,60,0,0
50218,-100,4,1,1,80,0,1
67673,-100,4,1,1,80,0,0
82946,260.869565217391,4,1,2,60,1,0
123641,-100,4,1,1,80,0,1
140337,-100,4,1,1,80,0,0
154945,-100,4,1,2,80,0,0
157032,-100,4,2,0,80,0,0
159119,250,4,2,1,60,1,0
166369,-100,4,2,0,60,0,0
167119,-100,4,1,2,60,0,0
174619,-100,4,2,0,60,0,0
175119,-100,4,1,1,80,0,1
207119,-100,4,1,1,80,0,0
216431,-100,4,1,1,5,0,0
216494,-100,4,1,1,80,0,0
218306,-100,4,1,1,5,0,0
218369,-100,4,1,1,80,0,0
218556,-100,4,1,1,5,0,0
218619,-100,4,1,1,80,0,0
218806,-100,4,1,1,5,0,0
218869,-100,4,1,1,80,0,0
220119,-100,4,1,2,80,0,0
221619,-100,4,2,0,40,0,0

[Colours]
Combo1 : 0,0,64
Combo2 : 0,255,255
Combo3 : 18,124,255
Combo4 : 0,0,181

[HitObjects]
454,207,2218,6,0,P|404:197|353:112,1,140,2|0,0:0|0:0,0:0:0:0:
344,36,2628,1,0,0:0:0:0:
344,36,2764,2,0,L|258:28,1,70,2|0,0:0|0:0,0:0:0:0:
237,113,3037,2,0,L|151:121,1,70,0|0,0:0|0:0,0:0:0:0:
103,55,3309,6,0,P|83:86|107:187,1,140,2|0,0:0|0:0,0:0:0:0:
188,211,3719,1,0,0:0:0:0:
188,211,3855,2,0,P|208:242|184:343,1,140,2|0,0:0|0:0,0:0:0:0:
9,367,4400,6,0,L|26:207,1,140,2|0,0:0|0:0,0:0:0:0:
37,137,4809,1,0,0:0:0:0:
37,137,4946,2,0,P|79:115|113:113,1,70,2|0,0:0|0:0,0:0:0:0:
170,52,5219,2,0,P|212:74|246:76,1,70,0|0,0:0|0:0,0:0:0:0:
315,37,5491,6,0,P|278:61|256:164,1,140,2|0,0:0|0:0,0:0:0:0:
329,196,5900,1,0,0:0:0:0:
329,196,6037,2,0,P|366:172|388:69,1,140,2|0,0:0|0:0,0:0:0:0:
463,251,6582,6,0,B|447:305|447:305|358:321,1,140,2|0,0:0|0:0,0:0:0:0:
286,367,6991,1,0,0:0:0:0:
286,367,7128,2,0,L|211:355,1,70,2|0,0:0|0:0,0:0:0:0:
150,293,7400,2,0,L|75:305,1,70,0|0,0:0|0:0,0:0:0:0:
33,225,7673,6,0,P|5:166|41:74,1,140,2|0,0:0|0:0,0:0:0:0:
113,95,8082,1,0,0:0:0:0:
113,95,8219,2,0,P|141:157|124:224,1,140,2|0,0:0|0:0,0:0:0:0:
245,359,8764,6,0,P|268:307|354:285,1,140,2|0,0:0|0:0,0:0:0:0:
427,317,9173,2,0,P|433:273|423:242,1,70,2|0,0:0|0:0,0:0:0:0:
355,191,9446,2,0,P|349:147|359:116,1,70,2|0,0:0|0:0,0:0:0:0:
408,48,9719,6,0,P|378:83|273:93,1,140,2|0,0:0|0:0,0:0:0:0:
208,56,10128,2,0,L|202:145,1,70,0|0,0:0|0:0,0:0:0:0:
121,164,10400,2,0,L|127:253,1,70,2|0,0:0|0:0,0:0:0:0:
172,312,10673,5,4,3:0:0:0:
319,204,10946,2,0,L|326:351,2,140,2|2|2,0:0|0:0|0:0,0:0:0:0:
461,90,11764,1,2,0:0:0:0:
284,43,12037,2,0,L|137:50,1,140,2|2,0:0|0:0,0:0:0:0:
33,194,12582,2,0,P|70:215|104:220,1,70,2|0,0:0|0:0,0:0:0:0:
187,215,12855,2,0,P|228:203|255:183,1,70,2|0,0:0|0:0,0:0:0:0:
323,133,13128,6,0,P|289:178|298:272,1,140,2|2,0:0|0:0,0:0:0:0:
452,343,13673,2,0,P|475:301|477:273,1,70,2|0,0:0|0:0,0:0:0:0:
477,188,13946,2,0,P|463:142|445:120,1,70,2|0,0:0|0:0,0:0:0:0:
382,63,14219,2,0,P|343:37|245:26,1,140,2|2,0:0|0:0,0:0:0:0:
158,180,14764,2,0,P|227:175|287:141,1,140,2|2,0:0|0:0,0:0:0:0:
145,28,15309,6,0,B|58:40|58:40|25:96,1,140,2|2,0:0|0:0,0:0:0:0:
30,267,15855,2,0,P|78:260|106:233,1,70,2|0,0:0|0:0,0:0:0:0:
158,180,16128,2,0,P|186:141|187:102,1,70,2|0,0:0|0:0,0:0:0:0:
239,44,16400,2,0,P|274:74|371:89,1,140,2|2,0:0|0:0,0:0:0:0:
453,70,16809,1,2,0:0:0:0:
453,70,16946,2,0,L|466:215,1,140,2|2,0:0|0:0,0:0:0:0:
347,347,17491,5,4,0:0:0:0:
347,347,18582,6,0,L|353:246,1,70,2|8,0:0|0:0,0:0:0:0:
425,223,18855,2,0,L|419:122,1,70,8|8,0:0|0:0,0:0:0:0:
421,61,19128,2,0,P|382:35|281:39,2,140,2|2|4,0:0|0:0|0:0,0:0:0:0:
123,136,20764,6,0,L|111:281,1,140,2|8,0:0|0:0,0:0:0:0:
273,359,21309,2,0,L|279:275,1,70,2|2,0:0|0:0,0:0:0:0:
330,214,21582,2,0,L|323:130,1,70,8|0,0:0|0:0,0:0:0:0:
298,56,21855,2,0,P|252:85|165:93,2,140,2|8|2,0:0|0:0|0:0,0:0:0:0:
380,17,22537,1,2,0:0:0:0:
380,17,22673,2,0,P|397:55|404:93,1,70,8|0,0:0|0:0,0:0:0:0:
482,127,22946,6,0,P|458:174|448:282,1,140,2|8,0:0|0:0,0:0:0:0:
289,354,23491,2,0,L|281:270,1,70,2|2,0:0|0:0,0:0:0:0:
193,263,23764,2,0,L|201:179,1,70,8|0,0:0|0:0,0:0:0:0:
239,110,24037,2,0,P|206:76|108:68,2,140,2|8|2,0:0|0:0|0:0,0:0:0:0:
289,186,24719,1,2,0:0:0:0:
289,186,24855,2,0,P|321:153|325:119,1,70,8|2,0:0|0:0,0:0:0:0:
303,42,25128,6,0,L|465:30,1,140,2|8,0:0|0:0,0:0:0:0:
492,206,25673,2,0,L|401:212,1,70,2|2,0:0|0:0,0:0:0:0:
367,284,25946,2,0,L|276:277,1,70,8|0,0:0|0:0,0:0:0:0:
232,214,26219,2,0,L|72:225,2,140,2|8|2,0:0|0:0|0:0,0:0:0:0:
310,169,26900,1,2,0:0:0:0:
310,169,27037,2,0,P|324:124|319:89,1,70,8|0,0:0|0:0,0:0:0:0:
279,21,27309,6,0,P|233:48|133:60,1,140,2|8,0:0|0:0,0:0:0:0:
61,31,27719,2,0,P|106:52|149:152,2,140,0|2|0,0:0|0:0|0:0,0:0:0:0:
25,114,28400,2,0,L|16:194,1,70,2|0,0:0|0:0,0:0:0:0:
105,208,28673,2,0,L|114:288,1,70,8|0,0:0|0:0,0:0:0:0:
138,365,28946,2,0,P|181:345|290:337,1,140,2|8,0:0|0:0,0:0:0:0:
431,245,29491,6,0,L|435:93,1,140,2|8,0:0|0:0,0:0:0:0:
274,17,30037,2,0,L|271:115,1,70,2|2,0:0|0:0,0:0:0:0:
344,142,30309,2,0,L|346:240,1,70,8|0,0:0|0:0,0:0:0:0:
306,294,30582,2,0,P|259:254|174:251,1,140,2|8,0:0|0:0,0:0:0:0:
16,323,31128,2,0,L|25:238,1,70,2|2,0:0|0:0,0:0:0:0:
91,193,31400,2,0,L|82:108,1,70,8|0,0:0|0:0,0:0:0:0:
116,38,31673,6,0,P|182:33|267:84,1,140,2|8,0:0|0:0,0:0:0:0:
382,186,32219,2,0,L|390:107,2,70,2|2|8,0:0|0:0|0:0,0:0:0:0:
386,277,32628,1,0,0:0:0:0:
386,277,32764,2,0,P|354:305|240:318,1,140,2|8,0:0|0:0,0:0:0:0:
78,336,33309,2,0,L|90:250,1,70,2|2,0:0|0:0,0:0:0:0:
25,199,33582,2,0,L|37:113,1,70,8|2,0:0|0:0,0:0:0:0:
31,38,33855,6,0,P|100:10|194:17,1,140,2|8,0:0|0:0,0:0:0:0:
286,144,34400,2,0,L|205:133,1,70,2|2,0:0|0:0,0:0:0:0:
161,207,34673,2,0,L|80:218,1,70,8|0,0:0|0:0,0:0:0:0:
141,293,34946,2,0,L|279:274,2,140,2|8|2,0:0|0:0|0:0,0:0:0:0:
91,216,35628,1,2,0:0:0:0:
91,216,35764,2,0,P|75:169|76:128,1,70,8|0,0:0|0:0,0:0:0:0:
63,58,36037,6,0,P|114:36|215:32,1,140,2|8,0:0|0:0,0:0:0:0:
249,104,36446,2,0,P|300:126|401:130,1,140,0|2,0:0|0:0,0:0:0:0:
466,94,36855,2,0,P|476:139|468:173,1,70,8|0,0:0|0:0,0:0:0:0:
458,252,37128,6,0,P|432:280|325:308,1,140,2|8,0:0|0:0,0:0:0:0:
270,247,37537,1,8,0:0:0:0:
270,247,37673,2,0,P|219:229|181:231,1,70,8|8,0:0|0:0,0:0:0:0:
173,314,37946,2,0,P|122:332|84:330,1,70,2|2,0:0|0:0,0:0:0:0:
16,317,38219,6,0,L|36:154,1,140,6|8,0:0|0:0,0:0:0:0:
161,49,38764,2,0,L|178:187,1,140,2|8,0:0|0:0,0:0:0:0:
137,365,39309,2,0,P|180:308|263:304,1,140,2|8,0:0|0:0,0:0:0:0:
417,356,39855,2,0,P|433:307|434:275,1,70,2|2,0:0|0:0,0:0:0:0:
493,218,40128,2,0,P|477:169|476:137,1,70,8|0,0:0|0:0,0:0:0:0:
487,60,40400,6,0,P|455:33|332:31,1,140,2|8,0:0|0:0,0:0:0:0:
314,98,40809,2,0,P|262:113|235:111,1,70,0|2,0:0|0:0,0:0:0:0:
180,49,41082,2,0,P|128:34|101:36,1,70,2|8,0:0|0:0,0:0:0:0:
45,96,41355,2,0,P|56:135|69:252,1,140,0|0,0:0|0:0,0:0:0:0:
32,317,41764,2,0,P|77:339|178:348,2,140,8|2|8,0:0|0:0|0:0,0:0:0:0:
195,236,42582,6,0,P|238:257|280:345,1,140,2|8,0:0|0:0,0:0:0:0:
367,362,42991,2,0,L|374:287,1,70,0|2,0:0|0:0,0:0:0:0:
452,245,43264,2,0,L|445:170,1,70,2|8,0:0|0:0,0:0:0:0:
464,85,43537,2,0,P|433:49|323:34,1,140,0|0,0:0|0:0,0:0:0:0:
289,99,43946,2,0,L|139:117,2,140,8|2|8,0:0|0:0|0:0,0:0:0:0:
146,212,44764,6,0,P|102:199|56:112,1,140,2|8,0:0|0:0,0:0:0:0:
65,35,45173,2,0,L|205:19,2,140,0|2|0,0:0|0:0|0:0,0:0:0:0:
55,121,45855,6,0,L|65:191,1,70,6|0,0:0|0:0,0:0:0:0:
71,281,46128,2,0,L|140:271,1,70,8|0,0:0|0:0,0:0:0:0:
229,255,46400,2,0,L|220:186,1,70,2|2,0:0|0:0,0:0:0:0:
217,94,46673,2,0,L|147:103,1,70,8|0,0:0|0:0,0:0:0:0:
55,121,46946,6,0,L|77:278,1,140,2|8,0:0|0:0,0:0:0:0:
117,340,47355,1,0,0:0:0:0:
117,340,47491,2,0,L|201:351,2,70,2|2|8,0:0|0:0|0:0,0:0:0:0:
286,272,48037,6,0,L|443:293,1,140,2|8,0:0|0:0,0:0:0:0:
459,206,48446,1,0,0:0:0:0:
459,206,48582,2,0,L|389:196,1,70,2|2,0:0|0:0,0:0:0:0:
314,145,48855,2,0,L|244:154,1,70,8|2,0:0|0:0,0:0:0:0:
169,204,49128,5,6,0:0:0:0:
105,184,50219,6,0,L|126:30,2,140,2|8|2,0:0|0:0|0:0,0:0:0:0:
91,273,50900,1,2,0:0:0:0:
91,273,51037,2,0,P|131:301|162:305,1,70,8|0,0:0|0:0,0:0:0:0:
241,313,51309,2,0,P|231:254|259:174,1,140,2|8,0:0|0:0,0:0:0:0:
296,96,51719,2,0,P|262:57|178:31,1,140,0|2,0:0|0:0,0:0:0:0:
102,79,52128,2,0,L|114:154,1,70,8|0,0:0|0:0,0:0:0:0:
50,213,52400,6,0,L|23:377,2,140,2|8|2,0:0|0:0|0:0,0:0:0:0:
113,148,53082,1,2,0:0:0:0:
113,148,53219,2,0,P|152:169|198:174,1,70,8|0,0:0|0:0,0:0:0:0:
256,130,53491,2,0,P|313:113|404:118,1,140,2|8,0:0|0:0,0:0:0:0:
482,134,53900,2,0,P|499:187|499:287,1,140,0|2,0:0|0:0,0:0:0:0:
489,361,54309,2,0,L|401:354,1,70
328,366,54582,6,0,L|177:353,2,140,2|8|2,0:0|0:0|0:0,0:0:0:0:
361,280,55264,1,2,0:0:0:0:
361,280,55400,2,0,P|350:229|353:206,1,70,8|0,0:0|0:0,0:0:0:0:
366,121,55673,2,0,B|310:69|240:107|240:107|172:146|95:98,1,280,2|2,0:0|0:0,0:0:0:0:
60,23,56355,1,2,0:0:0:0:
60,23,56491,2,0,P|107:11|137:20,1,70,8|0,0:0|0:0,0:0:0:0:
103,103,56764,6,0,L|86:256,2,140,2|8|2,0:0|0:0|0:0,0:0:0:0:
256,8,57582,1,8,0:0:0:0:
409,103,57854,2,0,L|426:256,2,140,2|8|2,0:0|0:0|0:0,0:0:0:0:
438,15,58537,1,2,0:0:0:0:
438,15,58673,2,0,P|400:6|364:17,1,70,10|0,0:0|0:0,0:0:0:0:
310,82,58946,6,0,P|263:103|169:108,2,140,6|8|2,0:0|0:0|0:0,0:0:0:0:
370,13,59628,1,2,0:0:0:0:
370,13,59764,2,0,P|393:43|402:84,1,70,8|0,0:0|0:0,0:0:0:0:
475,127,60037,2,0,P|454:160|444:265,1,140,2|8,0:0|0:0,0:0:0:0:
475,343,60446,2,0,L|307:327,1,140,0|2,0:0|0:0,0:0:0:0:
244,322,60854,2,0,L|251:238,1,70,0|2,0:0|0:0,0:0:0:0:
313,185,61128,6,0,P|260:183|187:119,2,140,2|8|2,0:0|0:0|0:0,0:0:0:0:
385,130,61809,1,2,0:0:0:0:
385,130,61946,2,0,P|405:176|402:206,1,70,8|0,0:0|0:0,0:0:0:0:
450,275,62219,2,0,P|403:292|342:367,1,140,2|8,0:0|0:0,0:0:0:0:
254,367,62628,2,0,L|244:216,1,140,0|2,0:0|0:0,0:0:0:0:
242,136,63036,2,0,L|157:124,1,70,8|0,0:0|0:0,0:0:0:0:
92,170,63309,6,0,L|82:309,2,140,2|8|2,0:0|0:0|0:0,0:0:0:0:
37,96,63991,1,2,0:0:0:0:
37,96,64128,2,0,P|73:76|115:79,1,70,8|0,0:0|0:0,0:0:0:0:
177,26,64400,2,0,B|236:73|311:43|311:43|388:7|464:61,1,280,2|2,0:0|0:0,0:0:0:0:
479,131,65082,1,2,0:0:0:0:
479,131,65219,2,0,L|472:211,1,70,8|0,0:0|0:0,0:0:0:0:
466,291,65491,6,0,P|439:325|342:344,2,140,2|8|2,0:0|0:0|0:0,0:0:0:0:
472,200,66173,1,2,0:0:0:0:
472,200,66309,2,0,L|383:191,1,70,8|0,0:0|0:0,0:0:0:0:
371,106,66582,2,0,L|203:122,1,140,2|8,0:0|0:0,0:0:0:0:
226,211,66991,1,8,0:0:0:0:
226,211,67127,2,0,L|137:202,1,70,8|8,0:0|0:0,0:0:0:0:
127,117,67400,2,0,L|38:126,1,70,8|8,0:0|0:0,0:0:0:0:
33,212,67673,6,0,P|12:254|4:369,1,140,6|8,0:0|0:0,0:0:0:0:
179,308,68219,2,0,L|187:237,2,70,2|2|8,0:0|0:0|0:0,0:0:0:0:
253,360,68628,1,0,0:0:0:0:
253,360,68764,2,0,P|321:332|402:345,1,140,2|8,0:0|0:0,0:0:0:0:
489,188,69309,2,0,L|414:178,1,70,2|2,0:0|0:0,0:0:0:0:
375,98,69582,2,0,L|300:108,1,70,8|0,0:0|0:0,0:0:0:0:
273,192,69855,6,0,P|235:164|228:60,1,140,2|8,0:0|0:0,0:0:0:0:
44,27,70400,2,0,L|33:112,1,70,2|2,0:0|0:0,0:0:0:0:
105,154,70673,2,0,L|124:300,2,140,8|2|8,0:0|0:0|0:0,0:0:0:0:
211,7,71491,2,0,L|222:92,1,70,2|0,0:0|0:0,0:0:0:0:
293,131,71764,2,0,L|282:216,1,70,8|0,0:0|0:0,0:0:0:0:
273,291,72037,6,0,P|323:282|373:203,1,140,2|8,0:0|0:0,0:0:0:0:
400,32,72582,2,0,L|482:21,2,70,2|2|8,0:0|0:0|0:0,0:0:0:0:
324,83,72991,1,0,0:0:0:0:
324,83,73128,2,0,L|165:61,1,140,2|8,0:0|0:0,0:0:0:0:
33,165,73673,2,0,L|102:174,1,70,2|2,0:0|0:0,0:0:0:0:
135,259,73946,2,0,L|204:249,1,70,8|0,0:0|0:0,0:0:0:0:
282,202,74219,6,0,P|239:259|239:346,2,140,2|8|2,0:0|0:0|0:0,0:0:0:0:
372,192,74900,1,2,0:0:0:0:
372,192,75037,2,0,L|381:114,1,70,8|0,0:0|0:0,0:0:0:0:
390,32,75309,2,0,P|351:23|252:63,1,140,2|8,0:0|0:0,0:0:0:0:
132,186,75855,2,0,L|126:110,1,70,2|2,0:0|0:0,0:0:0:0:
216,132,76128,2,0,L|221:201,1,70,8|0,0:0|0:0,0:0:0:0:
211,292,76400,6,0,P|258:324|354:337,1,140,6|10,0:0|0:0,0:0:0:0:
498,249,76946,2,0,L|493:324,2,70,2|0|10,0:0|0:0|0:0,0:0:0:0:
495,157,77355,1,0,0:0:0:0:
495,157,77491,2,0,P|449:118|348:111,1,140,2|10,0:0|0:0,0:0:0:0:
224,213,78037,2,0,L|296:221,1,70,2|0,0:0|0:0,0:0:0:0:
345,294,78309,2,0,L|414:286,1,70,10|0,0:0|0:0,0:0:0:0:
498,249,78582,6,0,P|513:203|498:103,2,140,2|10|2,0:0|0:0|0:0,0:0:0:0:
414,286,79264,1,0,0:0:0:0:
414,286,79400,2,0,P|392:332|390:374,1,70,10|0,0:0|0:0,0:0:0:0:
300,372,79673,2,0,P|242:331|166:330,1,140,2|10,0:0|0:0,0:0:0:0:
47,196,80219,2,0,L|124:183,1,70,2|0,0:0|0:0,0:0:0:0:
161,105,80491,2,0,L|238:118,1,70,10|0,0:0|0:0,0:0:0:0:
282,191,80764,6,0,P|264:155|309:46,2,140,2|10|2,0:0|0:0|0:0,0:0:0:0:
361,235,81446,1,0,0:0:0:0:
361,235,81582,2,0,P|370:264|366:329,1,70,10|0,0:0|0:0,0:0:0:0:
300,361,81855,2,0,B|227:327|227:327|136:376|136:376|36:331,1,280,2|0,0:0|0:0,0:0:0:0:
68,116,82946,6,0,L|221:101,2,140,2|2|8,0:0|0:0|0:0,0:0:0:0:
282,285,83859,1,8,0:0:0:0:
355,232,83989,2,0,L|361:81,2,140,2|2|8,0:0|0:0|0:0,0:0:0:0:
105,342,84902,5,8,0:0:0:0:
32,289,85032,2,0,L|26:138,2,140,2|2|8,0:0|0:0|0:0,0:0:0:0:
302,245,85946,1,8,0:0:0:0:
375,192,86076,2,0,L|381:41,2,140,2|2|8,0:0|0:0|0:0,0:0:0:0:
163,364,86989,5,8,0:0:0:0:
221,294,87119,2,0,L|379:280,2,140,2|2|8,0:0|0:0|0:0,0:0:0:0:
158,27,88032,1,8,0:0:0:0:
216,97,88163,2,0,L|374:111,2,140,2|2|8,0:0|0:0|0:0,0:0:0:0:
56,319,89076,5,8,0:0:0:0:
137,279,89206,2,0,L|131:128,2,140,2|2|8,0:0|0:0|0:0,0:0:0:0:
137,279,90250,2,0,L|139:348,2,70,2|10|10,0:0|0:0|0:0,0:0:0:0:
137,279,91293,6,0,P|181:246|277:247,1,140,2|8,0:0|0:0,0:0:0:0:
412,347,91815,2,0,L|425:260,1,70,2|2,0:0|0:0,0:0:0:0:
488,214,92076,2,0,L|475:127,1,70,8|0,0:0|0:0,0:0:0:0:
433,64,92337,2,0,P|392:40|290:37,2,140,2|8|2,0:0|0:0|0:0,0:0:0:0:
477,144,92989,1,2,0:0:0:0:
477,144,93119,2,0,L|488:214,1,70,8|0,0:0|0:0,0:0:0:0:
475,304,93380,6,0,P|431:333|328:345,1,140,2|8,0:0|0:0,0:0:0:0:
163,337,93902,2,0,L|172:258,1,70,2|2,0:0|0:0,0:0:0:0:
84,239,94163,2,0,L|93:160,1,70,8|0,0:0|0:0,0:0:0:0:
44,91,94424,2,0,P|94:54|190:43,1,140,2|8,0:0|0:0,0:0:0:0:
351,51,94945,2,0,L|348:130,2,70,2|2|8,0:0|0:0|0:0,0:0:0:0:
439,25,95337,1,0,0:0:0:0:
439,25,95467,6,0,L|433:173,1,140,2|8,0:0|0:0,0:0:0:0:
475,342,95989,2,0,P|437:325|393:322,1,70,2|2,0:0|0:0,0:0:0:0:
333,269,96250,2,0,P|295:286|251:289,1,70,8|0,0:0|0:0,0:0:0:0:
175,283,96511,2,0,L|182:116,2,140,2|8|2,0:0|0:0|0:0,0:0:0:0:
116,353,97163,1,2,0:0:0:0:
116,353,97293,2,0,P|93:326|90:266,1,70,8|0,0:0|0:0,0:0:0:0:
16,232,97554,6,0,P|38:191|47:87,1,140,2|8,0:0|0:0,0:0:0:0:
109,30,97945,2,0,P|152:45|190:44,1,70,0|2,0:0|0:0,0:0:0:0:
220,125,98206,2,0,P|263:110|301:111,1,70,2|8,0:0|0:0,0:0:0:0:
366,153,98467,1,0,0:0:0:0:
366,153,98598,2,0,L|361:307,2,140,10|10|10,0:0|0:0|0:0,0:0:0:0:
406,70,99250,1,10,0:0:0:0:
406,70,99380,2,0,P|441:97|456:133,1,70,10|0,0:0|0:0,0:0:0:0:
471,208,99641,6,0,L|466:362,1,140,6|8,0:0|0:0,0:0:0:0:
283,357,100163,2,0,L|203:346,1,70,2|2,0:0|0:0,0:0:0:0:
173,265,100424,2,0,L|93:254,1,70,8|0,0:0|0:0,0:0:0:0:
33,196,100685,2,0,P|60:142|160:105,2,140,2|8|2,0:0|0:0|0:0,0:0:0:0:
103,255,101337,1,2,0:0:0:0:
103,255,101467,2,0,L|109:344,1,70,8|0,0:0|0:0,0:0:0:0:
196,345,101728,6,0,L|185:183,1,140,2|8,0:0|0:0,0:0:0:0:
272,43,102250,2,0,P|313:22|350:20,1,70,2|2,0:0|0:0,0:0:0:0:
398,86,102511,2,0,P|439:107|476:109,1,70,8|0,0:0|0:0,0:0:0:0:
498,193,102772,2,0,P|460:212|432:309,1,140,2|8,0:0|0:0,0:0:0:0:
257,357,103293,2,0,L|269:279,1,70,2|2,0:0|0:0,0:0:0:0:
333,224,103554,2,0,L|321:146,1,70,8|0,0:0|0:0,0:0:0:0:
284,71,103815,6,0,L|131:58,2,140,2|8|2,0:0|0:0|0:0,0:0:0:0:
374,81,104467,1,2,0:0:0:0:
374,81,104598,2,0,P|368:35|350:10,1,70,8|0,0:0|0:0,0:0:0:0:
284,71,104859,2,0,L|273:231,1,140,2|8,0:0|0:0,0:0:0:0:
99,261,105380,2,0,L|104:182,1,70,2|2,0:0|0:0,0:0:0:0:
186,229,105641,2,0,L|181:298,1,70,8|0,0:0|0:0,0:0:0:0:
254,354,105902,5,8,0:0:0:0:
254,354,106032,2,0,L|416:361,1,140,2|0,0:0|0:0,0:0:0:0:
485,367,106424,1,8,0:0:0:0:
485,367,106554,2,0,L|492:205,1,140,2|0,0:0|0:0,0:0:0:0:
493,135,106945,1,8,0:0:0:0:
493,135,107076,2,0,L|331:128,1,140,2|0,0:0|0:0,0:0:0:0:
262,122,107467,2,0,L|258:202,1,70,8|0,0:0|0:0,0:0:0:0:
177,232,107728,2,0,L|180:312,1,70,0|0,0:0|0:0,0:0:0:0:
254,354,107989,5,6,0:0:0:0:
120,189,112163,6,0,B|49:175|49:175|5:117,2,140,2|2|2,0:0|0:0|0:0,0:0:0:0:
256,68,112945,1,2,0:0:0:0:
293,246,113206,2,0,B|316:314|316:314|288:381,2,140,2|2|2,0:0|0:0|0:0,0:0:0:0:
120,189,113989,1,2,0:0:0:0:
256,68,114250,6,0,B|303:13|303:13|375:4,2,140,2|2|2,0:0|0:0|0:0,0:0:0:0:
293,246,115032,1,2,0:0:0:0:
120,189,115293,2,0,L|29:200,2,70,2|2|2,0:0|0:0|0:0,0:0:0:0:
273,90,115815,1,2,0:0:0:0:
273,90,115945,1,2,0:0:0:0:
273,90,116337,6,0,L|185:86,1,70,2|2,0:0|0:0,0:0:0:0:
242,169,116598,2,0,L|176:228,1,70,8|2,0:0|0:0,0:0:0:0:
276,247,116859,2,0,L|272:335,1,70,8|0,0:0|0:0,0:0:0:0:
354,276,117119,2,0,L|413:341,1,70,8|0,0:0|0:0,0:0:0:0:
444,247,117380,2,0,L|396:195,2,70,2|8|8,0:0|0:0|0:0,0:0:0:0:
477,161,117772,1,8,0:0:0:0:
477,161,117902,2,0,P|445:121|358:115,1,140,8|8,0:0|0:0,0:0:0:0:
270,272,118424,5,4,0:0:0:0:
270,272,119467,5,0,0:0:0:0:
251,90,119728,2,0,L|100:112,1,140,8|0,0:0|0:0,0:0:0:0:
116,201,120119,2,0,L|254:180,1,140,8|0,0:0|0:0,0:0:0:0:
251,90,120511,2,0,B|99:113|99:113|38:128|20:171|11:217|26:261|72:297|126:289,1,420,8|8,0:0|0:0,0:0:0:0:
300,325,121554,6,0,L|311:185,2,140,8|2|2,0:0|0:0|0:0,0:0:0:0:
426,192,122337,2,0,L|414:331,1,140,8|8,0:0|0:0,0:0:0:0:
148,138,123641,6,0,P|199:125|256:49,2,140,2|8|2,0:0|0:0|0:0,0:0:0:0:
75,81,124293,1,2,0:0:0:0:
75,81,124424,2,0,P|58:118|59:159,1,70,8|0,0:0|0:0,0:0:0:0:
48,237,124685,2,0,P|90:263|187:265,1,140,2|8,0:0|0:0,0:0:0:0:
256,316,125076,2,0,P|298:290|395:288,1,140,0|2,0:0|0:0,0:0:0:0:
464,333,125467,2,0,P|478:299|476:262,1,70,8|0,0:0|0:0,0:0:0:0:
414,199,125728,6,0,P|402:141|425:60,2,140,2|8|2,0:0|0:0|0:0,0:0:0:0:
386,285,126380,1,2,0:0:0:0:
386,285,126511,2,0,P|346:264|327:235,1,70,8|0,0:0|0:0,0:0:0:0:
314,155,126772,2,0,P|299:206|207:243,1,140,2|8,0:0|0:0,0:0:0:0:
223,153,127163,2,0,P|208:102|116:65,1,140,0|2,0:0|0:0,0:0:0:0:
133,154,127554,2,0,L|124:225,1,70,8|0,0:0|0:0,0:0:0:0:
33,236,127815,6,0,L|51:382,2,140,2|8|2,0:0|0:0|0:0,0:0:0:0:
30,144,128467,1,2,0:0:0:0:
30,144,128598,2,0,P|69:132|105:137,1,70,8|0,0:0|0:0,0:0:0:0:
124,223,128859,2,0,P|173:233|263:214,2,140,2|8|2,0:0|0:0|0:0,0:0:0:0:
97,134,129511,1,2,0:0:0:0:
97,134,129641,2,0,L|103:50,1,70,8|0,0:0|0:0,0:0:0:0:
188,35,129902,6,0,P|248:17|327:41,2,140,2|10|2,0:0|0:0|0:0,0:0:0:0:
290,188,130685,1,10,0:0:0:0:
188,341,130945,2,0,P|248:359|327:335,2,140,10|10|10,0:0|0:0|0:0,0:0:0:0:
75,197,131728,1,10,0:0:0:0:
166,39,131989,6,0,L|315:58,2,140,6|8|2,0:0|0:0|0:0,0:0:0:0:
75,28,132641,1,2,0:0:0:0:
75,28,132772,2,0,P|77:73|94:100,1,70,8|0,0:0|0:0,0:0:0:0:
172,129,133032,2,0,P|145:177|133:266,1,140,2|8,0:0|0:0,0:0:0:0:
137,352,133424,2,0,P|199:333|285:332,1,140,0|2,0:0|0:0,0:0:0:0:
360,357,133815,2,0,P|400:366|436:363,1,70,8|0,0:0|0:0,0:0:0:0:
473,284,134076,6,0,L|477:136,2,140,2|8|2,0:0|0:0|0:0,0:0:0:0:
386,253,134728,1,2,0:0:0:0:
386,253,134859,2,0,L|388:164,1,70,8|0,0:0|0:0,0:0:0:0:
388,92,135119,2,0,P|358:55|250:53,1,140,2|8,0:0|0:0,0:0:0:0:
304,128,135511,2,0,P|274:165|166:167,1,140,0|2,0:0|0:0,0:0:0:0:
156,91,135902,2,0,P|111:77|77:84,1,70,8|0,0:0|0:0,0:0:0:0:
23,143,136163,6,0,L|13:294,2,140,2|8|2,0:0|0:0|0:0,0:0:0:0:
89,79,136815,1,2,0:0:0:0:
89,79,136945,2,0,L|83:-11,1,70,8|0,0:0|0:0,0:0:0:0:
175,17,137206,2,0,P|209:37|312:32,1,140,2|8,0:0|0:0,0:0:0:0:
489,30,137728,2,0,L|479:106,1,70,2|2,0:0|0:0,0:0:0:0:
404,151,137989,2,0,L|413:220,1,70,8|0,0:0|0:0,0:0:0:0:
324,240,138250,6,0,L|304:90,2,140,2|10|2,0:0|0:0|0:0,0:0:0:0:
310,330,138902,1,2,0:0:0:0:
310,330,139032,2,0,P|256:305|239:275,1,70,10|0,0:0|0:0,0:0:0:0:
238,207,139293,2,0,P|180:181|88:185,1,140,2|8,0:0|0:0,0:0:0:0:
25,227,139685,1,8,0:0:0:0:
25,227,139815,2,0,L|13:154,1,70,8|8,0:0|0:0,0:0:0:0:
79,94,140076,2,0,L|91:21,1,70,8|8,0:0|0:0,0:0:0:0:
181,32,140337,6,0,P|237:64|331:63,1,140,6|8,0:0|0:0,0:0:0:0:
489,28,140859,2,0,L|481:104,1,70,2|2,0:0|0:0,0:0:0:0:
394,121,141119,2,0,L|402:197,1,70,8|0,0:0|0:0,0:0:0:0:
451,267,141380,2,0,P|413:304|306:320,1,140,2|8,0:0|0:0,0:0:0:0:
149,350,141902,2,0,L|164:273,1,70,2|2,0:0|0:0,0:0:0:0:
79,243,142163,2,0,L|64:166,1,70,8|0,0:0|0:0,0:0:0:0:
40,86,142424,6,0,P|82:84|156:154,1,140,2|8,0:0|0:0,0:0:0:0:
288,266,142945,2,0,L|206:278,1,70,2|2,0:0|0:0,0:0:0:0:
171,354,143206,2,0,L|89:342,1,70,8|0,0:0|0:0,0:0:0:0:
11,359,143467,2,0,P|28:288|20:205,1,140,2|8,0:0|0:0,0:0:0:0:
30,38,143989,2,0,L|110:47,1,70,2|2,0:0|0:0,0:0:0:0:
133,130,144250,2,0,L|213:121,1,70,8|0,0:0|0:0,0:0:0:0:
268,59,144511,6,0,L|434:77,1,140,2|8,0:0|0:0,0:0:0:0:
446,252,145032,2,0,L|436:330,1,70,2|2,0:0|0:0,0:0:0:0:
351,288,145293,2,0,L|359:218,1,70,8|0,0:0|0:0,0:0:0:0:
275,182,145554,2,0,L|256:327,2,140,2|8|2,0:0|0:0|0:0,0:0:0:0:
299,93,146206,1,2,0:0:0:0:
299,93,146337,2,0,P|253:90|221:109,1,70,8|0,0:0|0:0,0:0:0:0:
188,180,146598,6,0,P|142:199|42:214,1,140,2|8,0:0|0:0,0:0:0:0:
176,348,147119,2,0,P|218:339|262:337,1,70,2|2,0:0|0:0,0:0:0:0:
268,248,147380,2,0,P|304:271|336:301,1,70,8|0,0:0|0:0,0:0:0:0:
403,242,147641,2,0,B|430:264|433:305|433:305|461:276|510:284,2,140,2|8|2,0:0|0:0|0:0,0:0:0:0:
357,162,148293,1,2,0:0:0:0:
357,162,148424,2,0,P|391:145|430:154,1,70,8|0,0:0|0:0,0:0:0:0:
487,86,148685,6,0,P|459:54|348:31,1,140,2|10,0:0|0:0,0:0:0:0:
186,36,149206,2,0,L|195:108,1,70,2|0,0:0|0:0,0:0:0:0:
109,139,149467,2,0,L|100:211,1,70,10|0,0:0|0:0,0:0:0:0:
180,252,149728,2,0,P|148:286|58:289,2,140,2|10|2,0:0|0:0|0:0,0:0:0:0:
243,185,150380,1,0,0:0:0:0:
243,185,150511,2,0,P|265:222|268:258,1,70,10|0,0:0|0:0,0:0:0:0:
228,330,150772,6,0,P|276:338|349:286,1,140,2|10,0:0|0:0,0:0:0:0:
459,145,151293,2,0,L|388:138,1,70,2|0,0:0|0:0,0:0:0:0:
349,55,151554,2,0,L|293:100,1,70,10|0,0:0|0:0,0:0:0:0:
210,65,151815,2,0,L|195:210,2,140,2|10|2,0:0|0:0|0:0,0:0:0:0:
125,29,152467,1,0,0:0:0:0:
125,29,152598,2,0,L|117:101,1,70,10|0,0:0|0:0,0:0:0:0:
41,147,152859,6,0,L|55:292,1,140,2|10,0:0|0:0,0:0:0:0:
220,360,153380,2,0,L|229:262,1,70,2|0,0:0|0:0,0:0:0:0:
312,257,153641,2,0,L|302:159,1,70,10|0,0:0|0:0,0:0:0:0:
254,111,153902,1,10,0:0:0:0:
151,261,154163,6,0,L|69:272,1,70,10|10,0:0|0:0,0:0:0:0:
104,181,154424,2,0,L|27:149,1,70,10|10,0:0|0:0,0:0:0:0:
101,87,154685,2,0,L|50:21,1,70,10|10,0:0|0:0,0:0:0:0:
144,4,154945,5,14,0:0:0:0:
256,192,155076,12,0,157032,0:0:0:0:
74,203,167119,6,0,L|85:59,2,140,2|2|8,0:0|0:0|0:0,0:0:0:0:
337,272,167994,1,8,0:0:0:0:
396,202,168119,2,0,L|385:58,2,140,2|2|8,0:0|0:0|0:0,0:0:0:0:
169,354,168994,1,8,0:0:0:0:
138,268,169119,2,0,L|-17:252,2,140,2|2|8,0:0|0:0|0:0,0:0:0:0:
374,130,169994,1,8,0:0:0:0:
449,180,170119,2,0,L|460:326,2,140,2|2|8,0:0|0:0|0:0,0:0:0:0:
329,41,170869,2,0,L|258:33,1,70,2|0,0:0|0:0,0:0:0:0:
167,34,171119,6,0,P|131:56|98:159,2,140,6|2|8,0:0|0:0|0:0,0:0:0:0:
345,350,172119,2,0,P|381:328|414:225,2,140,2|2|8,0:0|0:0|0:0,0:0:0:0:
167,34,173119,2,0,P|131:56|98:159,2,140,2|2|8,0:0|0:0|0:0,0:0:0:0:
345,350,174119,6,0,L|355:270,2,70,8|8|8,0:0|0:0|0:0,0:0:0:0:
385,49,175119,6,0,L|238:30,2,140,2|8|2,0:0|0:0|0:0,0:0:0:0:
474,34,175744,1,2,0:0:0:0:
474,34,175869,2,0,P|470:81|454:109,1,70,8|0,0:0|0:0,0:0:0:0:
378,141,176119,2,0,P|359:178|343:284,1,140,2|8,0:0|0:0,0:0:0:0:
319,362,176494,2,0,P|271:339|159:335,1,140,0|2,0:0|0:0,0:0:0:0:
96,351,176869,2,0,P|106:294|99:263,1,70,8|0,0:0|0:0,0:0:0:0:
184,240,177119,6,0,P|225:212|245:109,2,140,2|8|2,0:0|0:0|0:0,0:0:0:0:
104,282,177744,1,2,0:0:0:0:
104,282,177869,2,0,P|90:235|101:202,1,70,8|0,0:0|0:0,0:0:0:0:
145,139,178119,2,0,P|102:124|17:165,1,140,2|8,0:0|0:0,0:0:0:0:
9,252,178494,2,0,P|25:320|81:377,1,140,0|2,0:0|0:0,0:0:0:0:
162,373,178869,2,0,P|199:354|242:353,1,70,8|0,0:0|0:0,0:0:0:0:
293,288,179119,6,0,P|345:305|433:310,2,140,2|8|2,0:0|0:0|0:0,0:0:0:0:
204,263,179744,1,2,0:0:0:0:
204,263,179869,2,0,P|228:220|255:206,1,70,8|0,0:0|0:0,0:0:0:0:
335,206,180119,2,0,P|321:155|224:123,2,140,2|8|2,0:0|0:0|0:0,0:0:0:0:
293,288,180744,1,2,0:0:0:0:
293,288,180869,2,0,P|333:300|370:289,1,70,8|0,0:0|0:0,0:0:0:0:
424,229,181119,6,0,L|438:70,2,140,2|10|2,0:0|0:0|0:0,0:0:0:0:
256,300,181869,1,10,0:0:0:0:
88,229,182119,2,0,L|74:70,2,140,10|10|10,0:0|0:0|0:0,0:0:0:0:
256,300,182869,1,10,0:0:0:0:
270,118,183119,6,0,P|309:83|413:86,2,140,6|8|2,0:0|0:0|0:0,0:0:0:0:
259,208,183744,1,2,0:0:0:0:
259,208,183869,2,0,P|213:192|189:160,1,70,8|0,0:0|0:0,0:0:0:0:
190,86,184119,2,0,P|156:41|58:39,1,140,2|8,0:0|0:0,0:0:0:0:
105,117,184494,2,0,P|60:147|41:234,1,140,0|2,0:0|0:0,0:0:0:0:
51,317,184869,2,0,P|96:335|126:334,1,70,8|0,0:0|0:0,0:0:0:0:
187,277,185119,6,0,P|226:262|334:262,2,140,2|8|2,0:0|0:0|0:0,0:0:0:0:
116,335,185744,1,2,0:0:0:0:
116,335,185869,2,0,P|99:296|100:260,1,70,8|0,0:0|0:0,0:0:0:0:
152,194,186119,2,0,P|164:149|146:48,1,140,2|8,0:0|0:0,0:0:0:0:
228,10,186494,2,0,P|260:42|357:77,1,140,0|2,0:0|0:0,0:0:0:0:
302,156,186869,2,0,P|262:179|235:207,1,70,8|0,0:0|0:0,0:0:0:0:
152,194,187119,6,0,P|136:234|125:347,2,140,2|8|2,0:0|0:0|0:0,0:0:0:0:
127,105,187744,1,2,0:0:0:0:
127,105,187869,2,0,P|92:121|70:155,1,70,8|0,0:0|0:0,0:0:0:0:
152,194,188119,2,0,L|315:205,2,140,2|8|2,0:0|0:0|0:0,0:0:0:0:
127,105,188744,1,2,0:0:0:0:
127,105,188869,2,0,L|45:110,1,70,8|0,0:0|0:0,0:0:0:0:
26,23,189119,6,0,L|165:13,2,140,2|8|2,0:0|0:0|0:0,0:0:0:0:
96,192,189869,1,8,0:0:0:0:
26,361,190119,2,0,L|165:370,2,140,2|8|8,0:0|0:0|0:0,0:0:0:0:
96,192,190869,1,8,0:0:0:0:
277,209,191119,6,0,P|343:236|370:299,2,140,6|8|2,0:0|0:0|0:0,0:0:0:0:
212,145,191744,1,2,0:0:0:0:
212,145,191869,2,0,P|252:120|277:118,1,70,8|0,0:0|0:0,0:0:0:0:
357,79,192119,2,0,P|324:41|214:50,1,140,2|8,0:0|0:0,0:0:0:0:
273,117,192494,2,0,P|306:155|416:146,1,140,0|2,0:0|0:0,0:0:0:0:
469,115,192869,2,0,L|482:209,1,70,8|0,0:0|0:0,0:0:0:0:
416,251,193119,6,0,B|409:336|409:336|460:375,2,140,2|8|2,0:0|0:0|0:0,0:0:0:0:
391,161,193744,1,2,0:0:0:0:
391,161,193869,2,0,P|351:179|331:214,1,70,8|8,0:0|0:0,0:0:0:0:
328,290,194119,2,0,P|295:316|192:321,1,140,2|8,0:0|0:0,0:0:0:0:
116,289,194494,2,0,P|139:219|109:140,1,140,0|2,0:0|0:0,0:0:0:0:
43,111,194869,2,0,P|73:78|115:69,1,70,8|0,0:0|0:0,0:0:0:0:
182,40,195119,6,0,P|255:40|337:74,2,140,2|8|2,0:0|0:0|0:0,0:0:0:0:
96,69,195744,1,2,0:0:0:0:
96,69,195869,2,0,P|121:110|160:126,1,70,8|0,0:0|0:0,0:0:0:0:
230,121,196119,2,0,L|241:272,2,140,2|8|2,0:0|0:0|0:0,0:0:0:0:
139,120,196744,1,2,0:0:0:0:
139,120,196869,2,0,L|144:195,1,70,8|0,0:0|0:0,0:0:0:0:
170,276,197119,6,0,P|128:298|31:291,2,140,2|10|2,0:0|0:0|0:0,0:0:0:0:
332,192,197869,1,10,0:0:0:0:
170,108,198119,2,0,P|128:86|31:93,2,140,10|10|10,0:0|0:0|0:0,0:0:0:0:
332,192,198869,1,10,0:0:0:0:
170,276,199119,6,0,L|315:301,2,140,6|8|2,0:0|0:0|0:0,0:0:0:0:
89,232,199744,1,2,0:0:0:0:
89,232,199869,2,0,P|119:197|152:189,1,70,8|0,0:0|0:0,0:0:0:0:
230,202,200119,2,0,P|245:151|213:58,1,140,2|8,0:0|0:0,0:0:0:0:
305,32,200494,2,0,L|455:41,1,140,0|2,0:0|0:0,0:0:0:0:
475,126,200869,2,0,L|377:120,1,70,8|0,0:0|0:0,0:0:0:0:
375,208,201119,6,0,P|402:245|420:352,2,140,2|8|2,0:0|0:0|0:0,0:0:0:0:
315,138,201744,1,2,0:0:0:0:
315,138,201869,2,0,P|286:174|283:214,1,70,8|0,0:0|0:0,0:0:0:0:
319,279,202119,2,0,P|268:287|197:226,1,140,2|8,0:0|0:0,0:0:0:0:
207,144,202494,2,0,P|176:114|80:124,1,140,0|2,0:0|0:0,0:0:0:0:
5,164,202869,2,0,L|15:245,1,70,8|0,0:0|0:0,0:0:0:0:
104,229,203119,6,0,L|85:373,2,140,2|8|2,0:0|0:0|0:0,0:0:0:0:
190,257,203744,1,2,0:0:0:0:
190,257,203869,2,0,P|219:225|225:192,1,70,8|0,0:0|0:0,0:0:0:0:
312,172,204119,2,0,P|282:120|285:27,2,140,2|8|2,0:0|0:0|0:0,0:0:0:0:
309,263,204744,1,2,0:0:0:0:
309,263,204869,2,0,P|361:252|382:228,1,70,8|0,0:0|0:0,0:0:0:0:
421,164,205119,6,0,P|459:220|447:293,2,140,2|8|2,0:0|0:0|0:0,0:0:0:0:
256,88,205869,1,8,0:0:0:0:
91,164,206119,2,0,P|53:220|65:293,2,140,2|8|8,0:0|0:0|0:0,0:0:0:0:
256,88,206869,1,8,0:0:0:0:
378,224,207119,6,0,L|393:54,1,140,6|8,0:0|0:0,0:0:0:0:
252,203,207619,2,0,L|245:272,1,70,2|0,0:0|0:0,0:0:0:0:
159,244,207869,2,0,L|165:174,1,70,8|0,0:0|0:0,0:0:0:0:
80,141,208119,2,0,L|67:280,1,140,2|8,0:0|0:0,0:0:0:0:
245,272,208619,2,0,L|252:203,1,70,2|2,0:0|0:0,0:0:0:0:
333,162,208869,2,0,L|326:92,1,70,8|0,0:0|0:0,0:0:0:0:
416,74,209119,6,0,L|428:213,1,140,2|8,0:0|0:0,0:0:0:0:
318,358,209619,2,0,P|283:337|242:331,1,70,2|2,0:0|0:0,0:0:0:0:
201,257,209869,2,0,P|166:278|125:284,1,70,8|0,0:0|0:0,0:0:0:0:
48,266,210119,2,0,P|28:222|40:105,1,140,2|8,0:0|0:0,0:0:0:0:
199,65,210619,2,0,L|209:141,1,70,2|2,0:0|0:0,0:0:0:0:
298,152,210869,2,0,L|251:212,1,70,8|0,0:0|0:0,0:0:0:0:
301,286,211119,6,0,L|150:305,1,140,2|8,0:0|0:0,0:0:0:0:
138,125,211619,2,0,L|213:134,1,70,2|2,0:0|0:0,0:0:0:0:
243,49,211869,2,0,L|303:95,1,70,8|0,0:0|0:0,0:0:0:0:
374,41,212119,2,0,L|432:181,1,140,2|8,0:0|0:0,0:0:0:0:
336,327,212619,2,0,P|308:301|290:264,1,70,2|2,0:0|0:0,0:0:0:0:
204,298,212869,2,0,P|202:259|216:220,1,70,8|0,0:0|0:0,0:0:0:0:
132,182,213119,6,0,L|146:15,1,140,2|8,0:0|0:0,0:0:0:0:
313,108,213619,2,0,L|318:177,1,70,2|2,0:0|0:0,0:0:0:0:
405,207,213869,2,0,L|399:276,1,70,8|0,0:0|0:0,0:0:0:0:
338,344,214119,2,0,P|298:318|186:305,1,140,2|8,0:0|0:0,0:0:0:0:
26,302,214619,2,0,P|45:248|45:218,1,70,2|2,0:0|0:0,0:0:0:0:
116,178,214869,2,0,P|135:232|135:262,1,70,8|0,0:0|0:0,0:0:0:0:
208,301,215119,6,0,P|240:268|332:249,1,140,2|8,0:0|0:0,0:0:0:0:
462,123,215619,2,0,L|369:105,1,70,0|0,0:0|0:0,0:0:0:0:
302,94,215869,1,0,0:0:0:0:
239,264,216119,1,0,0:0:0:0:
329,248,216244,2,0,L|476:276,2,140,2|2|2,0:0|0:0|0:0,0:0:0:0:
239,264,216869,2,0,P|241:222|262:184,1,70,8|0,0:0|0:0,0:0:0:0:
335,159,217119,6,0,P|335:115|265:31,1,140,0|0,0:0|0:0,0:0:0:0:
191,22,217494,2,0,P|152:44|115:146,1,140,0|0,0:0|0:0,0:0:0:0:
185,183,217869,2,0,P|233:198|278:187,1,70,0|0,0:0|0:0,0:0:0:0:
335,159,218119,2,0,L|348:322,2,140,8|8|8,0:0|0:0|0:0,0:0:0:0:
465,32,218869,1,8,0:0:0:0:
281,39,219119,6,0,P|226:63|137:65,1,140,4|0,0:0|0:0,0:0:0:0:
60,37,219494,1,0,0:0:0:0:
60,37,219619,2,0,P|41:73|32:114,1,70,0|0,0:0|0:0,0:0:0:0:
33,192,219869,2,0,P|45:230|67:266,1,70,0|0,0:0|0:0,0:0:0:0:
133,309,220119,2,0,P|169:322|280:321,2,140,0|0|0,0:0|0:0|0:0,0:0:0:0:
133,309,221119,5,2,0:0:0:0:
