osu file format v14

[General]
AudioFilename: audio.mp3
AudioLeadIn: 0
PreviewTime: 2488
Countdown: 0
SampleSet: Normal
StackLeniency: 0.7
Mode: 1
LetterboxInBreaks: 0
WidescreenStoryboard: 1

[Editor]
Bookmarks: 2558
DistanceSpacing: 1.1
BeatDivisor: 1
GridSize: 32
TimelineZoom: 2.4

[Metadata]
Title:Koro Funk!
TitleUnicode:Koro Funk!
Artist:Omiya Club
ArtistUnicode:Omiyaクラブ
Creator:Horiiizon
Version:closed's Kantan
Source:
Tags:korone inugami 戌神ころね remix jpop j-pop pop japanese electronic hololive vtuber ホロライブ バーチャル ユーチューバー virtual youtuber the bros 3 genjuro ulqui closed
BeatmapID:2688197
BeatmapSetID:1291782

[Difficulty]
HPDrainRate:6.5
CircleSize:5
OverallDifficulty:3
ApproachRate:5
SliderMultiplier:1.9
SliderTickRate:1

[Events]
//Background and Video events
0,0,"koro ange.jpg",0,70
//Break Periods
//Storyboard Layer 0 (Background)
//Storyboard Layer 1 (Fail)
//Storyboard Layer 2 (Pass)
//Storyboard Layer 3 (Foreground)
//Storyboard Layer 4 (Overlay)
//Storyboard Sound Samples

[TimingPoints]
320,559.701492537313,4,1,0,50,1,0
2465,-100,4,1,0,60,0,0
2558,559.701492537313,4,1,0,60,1,0

[HitObjects]
256,192,1439,5,0,0:0:0:0:
256,192,1999,1,8,0:0:0:0:
256,192,2558,1,8,0:0:0:0:
256,192,3117,1,0,0:0:0:0:
256,192,3677,1,8,0:0:0:0:
256,192,4796,1,0,0:0:0:0:
256,192,6475,1,8,0:0:0:0:
256,192,7035,1,0,0:0:0:0:
256,192,7595,1,8,0:0:0:0:
256,192,8155,1,8,0:0:0:0:
256,192,9274,1,0,0:0:0:0:
256,192,9834,1,8,0:0:0:0:
256,192,10393,1,0,0:0:0:0:
256,192,11513,1,8,0:0:0:0:
256,192,12072,1,0,0:0:0:0:
256,192,12632,1,0,0:0:0:0:
256,192,13752,1,0,0:0:0:0:
256,192,15431,1,8,0:0:0:0:
256,192,15990,1,0,0:0:0:0:
256,192,16550,1,8,0:0:0:0:
256,192,17110,1,8,0:0:0:0:
256,192,18229,1,8,0:0:0:0:
256,192,18789,1,8,0:0:0:0:
256,192,19349,1,0,0:0:0:0:
256,192,20468,1,8,0:0:0:0:
256,192,21027,1,0,0:0:0:0:
256,192,21587,1,8,0:0:0:0:
256,192,22706,1,0,0:0:0:0:
256,192,24385,1,8,0:0:0:0:
256,192,24945,1,0,0:0:0:0:
256,192,25505,1,8,0:0:0:0:
256,192,26065,1,8,0:0:0:0:
256,192,27184,1,0,0:0:0:0:
256,192,27744,1,8,0:0:0:0:
256,192,28303,1,0,0:0:0:0:
256,192,29423,1,8,0:0:0:0:
256,192,29982,1,0,0:0:0:0:
256,192,30542,1,0,0:0:0:0:
256,192,31662,1,0,0:0:0:0:
256,192,33341,1,8,0:0:0:0:
256,192,33900,1,0,0:0:0:0:
256,192,34460,1,8,0:0:0:0:
256,192,35020,1,8,0:0:0:0:
256,192,36139,5,8,0:0:0:0:
256,192,37259,1,0,0:0:0:0:
256,192,38378,1,0,0:0:0:0:
256,192,39498,1,0,0:0:0:0:
256,192,40617,1,8,0:0:0:0:
256,192,41177,1,0,0:0:0:0:
256,192,41737,5,0,0:0:0:0:
256,192,42856,5,0,0:0:0:0:
256,192,43976,1,0,0:0:0:0:
256,192,45095,1,8,0:0:0:0:
256,192,45655,1,0,0:0:0:0:
256,192,46214,5,0,0:0:0:0:
256,192,47334,1,0,0:0:0:0:
256,192,48454,1,0,0:0:0:0:
256,192,49573,1,8,0:0:0:0:
256,192,50133,1,0,0:0:0:0:
256,192,50693,1,0,0:0:0:0:
256,192,51811,1,0,0:0:0:0:
256,192,52931,1,0,0:0:0:0:
256,192,55169,1,0,0:0:0:0:
256,192,55729,1,8,0:0:0:0:
256,192,56289,1,8,0:0:0:0:
256,192,56848,1,0,0:0:0:0:
256,192,57408,1,8,0:0:0:0:
256,192,58527,1,0,0:0:0:0:
256,192,60206,1,8,0:0:0:0:
256,192,60766,1,0,0:0:0:0:
256,192,61326,1,8,0:0:0:0:
256,192,61886,1,8,0:0:0:0:
256,192,63005,1,0,0:0:0:0:
256,192,63565,1,8,0:0:0:0:
256,192,64124,1,0,0:0:0:0:
256,192,65244,1,8,0:0:0:0:
256,192,65803,1,0,0:0:0:0:
256,192,66363,1,0,0:0:0:0:
256,192,67483,1,0,0:0:0:0:
256,192,69162,1,8,0:0:0:0:
256,192,69721,1,0,0:0:0:0:
256,192,70281,1,8,0:0:0:0:
256,192,70841,1,8,0:0:0:0:
256,192,71960,1,8,0:0:0:0:
256,192,72520,1,8,0:0:0:0:
256,192,73080,1,0,0:0:0:0:
256,192,74199,1,8,0:0:0:0:
256,192,74758,1,0,0:0:0:0:
256,192,75318,1,8,0:0:0:0:
256,192,76437,1,0,0:0:0:0:
256,192,78116,1,8,0:0:0:0:
256,192,78676,1,0,0:0:0:0:
256,192,79236,1,8,0:0:0:0:
256,192,79796,1,8,0:0:0:0:
256,192,80915,1,0,0:0:0:0:
256,192,81475,1,8,0:0:0:0:
256,192,82034,1,0,0:0:0:0:
256,192,83154,1,8,0:0:0:0:
256,192,83713,1,0,0:0:0:0:
256,192,84273,1,0,0:0:0:0:
256,192,85393,1,0,0:0:0:0:
256,192,87072,1,8,0:0:0:0:
256,192,87631,1,0,0:0:0:0:
256,192,88191,1,8,0:0:0:0:
256,192,88751,1,8,0:0:0:0:
256,192,89870,5,8,0:0:0:0:
256,192,90990,1,0,0:0:0:0:
256,192,93229,12,0,93789,0:0:0:0:
256,192,94349,5,0,0:0:0:0:
