osu file format v14

[General]
AudioFilename: audio.mp3
AudioLeadIn: 0
PreviewTime: 2488
Countdown: 0
SampleSet: Normal
StackLeniency: 0.7
Mode: 1
LetterboxInBreaks: 0
WidescreenStoryboard: 1

[Editor]
Bookmarks: 2558,31663,56290,80777
DistanceSpacing: 1.1
BeatDivisor: 8
GridSize: 8
TimelineZoom: 2.3

[Metadata]
Title:Koro Funk!
TitleUnicode:Koro Funk!
Artist:Omiya Club
ArtistUnicode:Omiyaクラブ
Creator:Horiiizon
Version:Yubi Yubi
Source:
Tags:korone inugami 戌神ころね remix jpop j-pop pop japanese electronic hololive vtuber ホロライブ バーチャル ユーチューバー virtual youtuber the bros 3 genjuro ulqui closed
BeatmapID:2681177
BeatmapSetID:1291782

[Difficulty]
HPDrainRate:5
CircleSize:5
OverallDifficulty:6
ApproachRate:5
SliderMultiplier:1.9
SliderTickRate:1

[Events]
//Background and Video events
0,0,"korone.jpg",0,0
//Break Periods
//Storyboard Layer 0 (Background)
//Storyboard Layer 1 (Fail)
//Storyboard Layer 2 (Pass)
//Storyboard Layer 3 (Foreground)
//Storyboard Layer 4 (Overlay)
//Storyboard Sound Samples

[TimingPoints]
320,559.701492537313,4,1,0,50,1,0
2465,-100,4,1,0,60,0,0
2558,559.701492537313,4,1,0,60,1,0
93789,-90.9090909090909,4,1,0,60,0,0

[HitObjects]
233,189,1439,5,0,0:0:0:0:
217,122,1614,1,8,0:0:0:0:
217,122,1719,1,8,0:0:0:0:
241,111,1894,1,8,0:0:0:0:
245,131,1999,1,0,0:0:0:0:
214,194,2174,1,8,0:0:0:0:
245,132,2278,1,8,0:0:0:0:
244,143,2558,1,12,0:0:0:0:
251,224,3012,1,8,0:0:0:0:
261,207,3117,1,0,0:0:0:0:
307,155,3292,1,0,0:0:0:0:
303,160,3397,1,0,0:0:0:0:
244,185,3677,1,0,0:0:0:0:
239,170,3957,1,8,0:0:0:0:
234,165,4132,1,0,0:0:0:0:
234,164,4237,1,8,0:0:0:0:
238,171,4516,1,0,0:0:0:0:
242,183,4796,1,0,0:0:0:0:
211,127,5076,1,8,0:0:0:0:
221,126,5251,1,8,0:0:0:0:
221,126,5356,1,0,0:0:0:0:
279,203,5531,1,0,0:0:0:0:
209,113,5636,1,8,0:0:0:0:
217,162,5916,1,0,0:0:0:0:
231,178,6091,1,0,0:0:0:0:
250,151,6196,1,8,0:0:0:0:
212,146,6475,1,8,0:0:0:0:
205,114,6755,1,8,0:0:0:0:
241,158,6930,1,8,0:0:0:0:
205,114,7035,1,0,0:0:0:0:
227,147,7490,1,8,0:0:0:0:
186,140,7595,1,8,0:0:0:0:
246,172,7770,1,8,0:0:0:0:
186,140,7875,1,0,0:0:0:0:
187,114,8155,1,8,0:0:0:0:
258,154,8434,1,8,0:0:0:0:
196,190,8609,1,0,0:0:0:0:
209,173,8714,1,0,0:0:0:0:
287,220,8889,1,8,0:0:0:0:
294,200,8994,1,0,0:0:0:0:
206,148,9274,1,0,0:0:0:0:
190,180,9554,1,8,0:0:0:0:
190,180,9729,1,0,0:0:0:0:
190,180,9834,1,8,0:0:0:0:
190,124,10113,1,8,0:0:0:0:
205,123,10288,1,8,0:0:0:0:
205,123,10393,1,0,0:0:0:0:
205,123,10673,1,8,0:0:0:0:
217,134,10848,1,0,0:0:0:0:
216,130,10953,1,0,0:0:0:0:
216,138,11128,1,8,0:0:0:0:
202,109,11233,1,0,0:0:0:0:
221,142,11408,1,0,0:0:0:0:
202,110,11513,1,12,0:0:0:0:
251,224,11967,1,8,0:0:0:0:
261,207,12072,1,0,0:0:0:0:
307,155,12247,1,0,0:0:0:0:
303,160,12352,1,0,0:0:0:0:
244,185,12632,1,0,0:0:0:0:
239,170,12912,1,8,0:0:0:0:
234,165,13087,1,0,0:0:0:0:
234,164,13192,1,8,0:0:0:0:
238,171,13472,1,0,0:0:0:0:
245,187,13752,1,0,0:0:0:0:
247,191,14206,1,8,0:0:0:0:
247,191,14311,1,0,0:0:0:0:
226,159,14486,1,0,0:0:0:0:
235,146,14591,1,8,0:0:0:0:
228,155,14871,1,0,0:0:0:0:
221,164,15046,1,8,0:0:0:0:
229,166,15151,1,8,0:0:0:0:
208,164,15431,1,0,0:0:0:0:
227,160,15710,1,8,0:0:0:0:
213,170,15885,1,8,0:0:0:0:
227,160,15990,1,0,0:0:0:0:
227,147,16445,1,8,0:0:0:0:
186,140,16550,1,8,0:0:0:0:
246,172,16725,1,8,0:0:0:0:
186,140,16830,1,0,0:0:0:0:
187,114,17110,1,8,0:0:0:0:
225,205,17390,1,8,0:0:0:0:
196,190,17564,1,0,0:0:0:0:
209,173,17669,1,0,0:0:0:0:
287,220,17844,1,8,0:0:0:0:
294,200,17949,1,0,0:0:0:0:
190,180,18229,1,8,0:0:0:0:
211,142,18509,1,0,0:0:0:0:
197,143,18789,1,0,0:0:0:0:
205,147,19069,1,8,0:0:0:0:
212,199,19244,1,8,0:0:0:0:
205,123,19349,1,8,0:0:0:0:
215,172,19628,1,8,0:0:0:0:
215,172,19803,1,0,0:0:0:0:
215,172,19908,1,8,0:0:0:0:
236,198,20188,1,0,0:0:0:0:
244,143,20468,1,12,0:0:0:0:
251,224,20923,1,8,0:0:0:0:
261,207,21028,1,0,0:0:0:0:
307,155,21203,1,0,0:0:0:0:
303,160,21307,1,0,0:0:0:0:
244,185,21587,1,0,0:0:0:0:
239,170,21867,1,8,0:0:0:0:
234,165,22042,1,0,0:0:0:0:
234,164,22147,1,8,0:0:0:0:
286,219,22322,1,8,0:0:0:0:
318,230,22427,1,8,0:0:0:0:
230,172,22602,1,8,0:0:0:0:
230,172,22707,1,0,0:0:0:0:
211,127,22987,1,8,0:0:0:0:
221,126,23162,1,8,0:0:0:0:
221,126,23266,1,0,0:0:0:0:
279,203,23441,1,0,0:0:0:0:
209,113,23546,1,8,0:0:0:0:
217,162,23826,1,0,0:0:0:0:
231,178,24001,1,0,0:0:0:0:
250,151,24106,1,8,0:0:0:0:
212,146,24386,1,8,0:0:0:0:
205,114,24666,1,8,0:0:0:0:
241,158,24841,1,8,0:0:0:0:
205,114,24946,1,0,0:0:0:0:
227,147,25400,1,8,0:0:0:0:
186,140,25505,1,8,0:0:0:0:
246,172,25680,1,8,0:0:0:0:
186,140,25785,1,0,0:0:0:0:
187,114,26065,1,8,0:0:0:0:
258,154,26345,1,8,0:0:0:0:
196,190,26520,1,0,0:0:0:0:
209,173,26625,1,0,0:0:0:0:
287,220,26800,1,8,0:0:0:0:
294,200,26905,1,0,0:0:0:0:
265,227,27079,1,8,0:0:0:0:
201,120,27184,1,8,0:0:0:0:
190,180,27464,1,8,0:0:0:0:
190,180,27639,1,0,0:0:0:0:
190,180,27744,1,8,0:0:0:0:
190,124,28024,1,8,0:0:0:0:
205,123,28199,1,8,0:0:0:0:
205,123,28304,1,0,0:0:0:0:
205,123,28584,1,8,0:0:0:0:
217,134,28759,1,0,0:0:0:0:
216,130,28863,1,0,0:0:0:0:
216,138,29038,1,8,0:0:0:0:
202,109,29143,1,0,0:0:0:0:
221,142,29318,1,0,0:0:0:0:
244,143,29423,1,12,0:0:0:0:
251,224,29878,1,8,0:0:0:0:
261,207,29983,1,0,0:0:0:0:
307,155,30158,1,0,0:0:0:0:
303,160,30263,1,0,0:0:0:0:
244,185,30543,1,0,0:0:0:0:
239,170,30822,1,8,0:0:0:0:
234,165,30997,1,0,0:0:0:0:
234,164,31102,1,8,0:0:0:0:
286,219,31277,1,8,0:0:0:0:
318,230,31382,1,8,0:0:0:0:
230,172,31557,1,8,0:0:0:0:
245,187,31662,1,0,0:0:0:0:
247,191,32117,1,8,0:0:0:0:
247,191,32222,1,0,0:0:0:0:
226,159,32397,1,0,0:0:0:0:
235,146,32502,1,8,0:0:0:0:
228,155,32781,1,0,0:0:0:0:
221,164,32956,1,8,0:0:0:0:
229,166,33061,1,8,0:0:0:0:
208,164,33341,1,0,0:0:0:0:
227,160,33621,1,8,0:0:0:0:
213,170,33796,1,8,0:0:0:0:
227,160,33901,1,0,0:0:0:0:
227,147,34356,1,8,0:0:0:0:
186,140,34460,1,8,0:0:0:0:
246,172,34635,1,8,0:0:0:0:
186,140,34740,1,0,0:0:0:0:
187,114,35020,1,8,0:0:0:0:
225,205,35300,1,8,0:0:0:0:
196,190,35475,1,0,0:0:0:0:
209,173,35580,1,0,0:0:0:0:
287,220,35755,1,8,0:0:0:0:
294,200,35860,1,0,0:0:0:0:
294,211,36035,1,8,0:0:0:0:
296,213,36140,1,8,0:0:0:0:
222,114,36419,1,8,0:0:0:0:
236,132,36594,1,0,0:0:0:0:
214,128,36699,1,8,0:0:0:0:
205,147,36979,1,8,0:0:0:0:
212,199,37154,1,8,0:0:0:0:
205,123,37259,1,8,0:0:0:0:
215,172,37539,1,8,0:0:0:0:
215,172,37714,1,0,0:0:0:0:
215,107,37819,1,0,0:0:0:0:
233,156,38099,1,8,0:0:0:0:
234,157,38273,1,8,0:0:0:0:
212,132,38378,1,4,0:0:0:0:
212,113,38658,1,8,0:0:0:0:
203,130,38833,1,0,0:0:0:0:
194,139,38938,1,8,0:0:0:0:
196,87,39218,1,8,0:0:0:0:
188,73,39393,1,8,0:0:0:0:
196,131,39498,1,0,0:0:0:0:
213,118,39778,1,0,0:0:0:0:
221,123,39953,1,8,0:0:0:0:
221,123,40057,1,8,0:0:0:0:
204,119,40337,1,0,0:0:0:0:
217,106,40512,1,0,0:0:0:0:
250,186,40617,1,8,0:0:0:0:
213,193,40897,1,8,0:0:0:0:
247,191,41072,1,8,0:0:0:0:
247,191,41177,1,0,0:0:0:0:
213,193,41457,1,0,0:0:0:0:
225,175,41632,1,8,0:0:0:0:
228,155,41737,1,0,0:0:0:0:
229,166,42016,1,8,0:0:0:0:
201,172,42191,1,0,0:0:0:0:
201,172,42296,1,8,0:0:0:0:
193,164,42576,1,0,0:0:0:0:
320,222,42751,1,0,0:0:0:0:
221,149,42856,1,12,0:0:0:0:
212,113,43136,1,8,0:0:0:0:
203,130,43311,1,0,0:0:0:0:
194,139,43416,1,8,0:0:0:0:
196,87,43696,1,8,0:0:0:0:
188,73,43870,1,8,0:0:0:0:
196,131,43975,1,0,0:0:0:0:
213,118,44255,1,0,0:0:0:0:
221,123,44430,1,8,0:0:0:0:
221,123,44535,1,8,0:0:0:0:
204,119,44815,1,0,0:0:0:0:
217,106,44990,1,0,0:0:0:0:
250,186,45095,1,8,0:0:0:0:
226,147,45375,1,8,0:0:0:0:
247,191,45550,1,8,0:0:0:0:
247,191,45655,1,0,0:0:0:0:
235,146,45934,1,8,0:0:0:0:
226,139,46109,1,0,0:0:0:0:
228,155,46214,1,0,0:0:0:0:
226,141,46389,1,8,0:0:0:0:
226,141,46494,1,0,0:0:0:0:
226,141,46774,1,8,0:0:0:0:
244,145,46949,1,8,0:0:0:0:
218,128,47054,1,8,0:0:0:0:
205,120,47229,1,8,0:0:0:0:
198,117,47334,1,4,0:0:0:0:
212,113,47613,1,8,0:0:0:0:
203,130,47788,1,0,0:0:0:0:
194,139,47893,1,8,0:0:0:0:
196,87,48173,1,8,0:0:0:0:
188,73,48348,1,8,0:0:0:0:
196,131,48453,1,0,0:0:0:0:
213,118,48733,1,0,0:0:0:0:
221,123,48908,1,8,0:0:0:0:
221,123,49013,1,8,0:0:0:0:
204,119,49293,1,0,0:0:0:0:
217,106,49467,1,0,0:0:0:0:
250,186,49572,1,8,0:0:0:0:
213,193,49852,1,8,0:0:0:0:
247,191,50027,1,8,0:0:0:0:
247,191,50132,1,0,0:0:0:0:
213,193,50412,1,0,0:0:0:0:
225,175,50587,1,8,0:0:0:0:
228,155,50692,1,0,0:0:0:0:
229,166,50972,1,8,0:0:0:0:
201,172,51147,1,0,0:0:0:0:
201,172,51252,1,8,0:0:0:0:
193,164,51531,1,0,0:0:0:0:
211,196,51706,1,0,0:0:0:0:
221,149,51811,1,12,0:0:0:0:
201,172,52091,1,8,0:0:0:0:
203,130,52266,1,0,0:0:0:0:
194,139,52371,1,8,0:0:0:0:
196,87,52651,1,8,0:0:0:0:
188,73,52826,1,8,0:0:0:0:
196,131,52931,1,0,0:0:0:0:
213,118,53210,1,0,0:0:0:0:
221,123,53385,1,8,0:0:0:0:
221,123,53490,1,8,0:0:0:0:
196,119,53665,1,0,0:0:0:0:
204,119,53770,1,0,0:0:0:0:
250,186,54050,1,8,0:0:0:0:
213,131,54610,1,0,0:0:0:0:
210,133,55169,1,8,0:0:0:0:
213,131,55344,1,0,0:0:0:0:
182,157,55449,1,0,0:0:0:0:
200,143,55624,1,8,0:0:0:0:
198,140,55729,1,8,0:0:0:0:
244,143,56289,1,12,0:0:0:0:
251,224,56744,1,8,0:0:0:0:
261,207,56849,1,0,0:0:0:0:
307,155,57023,1,0,0:0:0:0:
303,160,57128,1,0,0:0:0:0:
244,185,57408,1,0,0:0:0:0:
239,170,57688,1,8,0:0:0:0:
234,165,57863,1,0,0:0:0:0:
234,164,57968,1,8,0:0:0:0:
286,219,58143,1,8,0:0:0:0:
318,230,58248,1,8,0:0:0:0:
230,172,58423,1,8,0:0:0:0:
230,172,58528,1,0,0:0:0:0:
211,127,58807,1,8,0:0:0:0:
221,126,58982,1,8,0:0:0:0:
221,126,59087,1,0,0:0:0:0:
279,203,59262,1,0,0:0:0:0:
209,113,59367,1,8,0:0:0:0:
217,162,59647,1,0,0:0:0:0:
231,178,59822,1,0,0:0:0:0:
250,151,59927,1,8,0:0:0:0:
212,146,60207,1,8,0:0:0:0:
205,114,60487,1,8,0:0:0:0:
241,158,60662,1,8,0:0:0:0:
205,114,60766,1,0,0:0:0:0:
227,147,61221,1,8,0:0:0:0:
186,140,61326,1,8,0:0:0:0:
246,172,61501,1,8,0:0:0:0:
186,140,61606,1,0,0:0:0:0:
187,114,61886,1,8,0:0:0:0:
258,154,62166,1,8,0:0:0:0:
196,190,62341,1,0,0:0:0:0:
209,173,62446,1,0,0:0:0:0:
287,220,62620,1,8,0:0:0:0:
294,200,62725,1,0,0:0:0:0:
215,152,62900,1,8,0:0:0:0:
184,113,63005,1,8,0:0:0:0:
190,180,63285,1,8,0:0:0:0:
190,180,63460,1,0,0:0:0:0:
190,180,63565,1,8,0:0:0:0:
222,177,63740,1,8,0:0:0:0:
222,177,63845,1,0,0:0:0:0:
241,169,64020,1,0,0:0:0:0:
215,115,64125,1,8,0:0:0:0:
205,123,64405,1,8,0:0:0:0:
217,134,64579,1,0,0:0:0:0:
216,130,64684,1,0,0:0:0:0:
216,138,64859,1,8,0:0:0:0:
202,109,64964,1,0,0:0:0:0:
221,142,65139,1,0,0:0:0:0:
244,143,65244,1,12,0:0:0:0:
251,224,65699,1,8,0:0:0:0:
261,207,65804,1,0,0:0:0:0:
307,155,65979,1,0,0:0:0:0:
303,160,66084,1,0,0:0:0:0:
244,185,66363,1,0,0:0:0:0:
239,170,66643,1,8,0:0:0:0:
234,165,66818,1,0,0:0:0:0:
234,164,66923,1,8,0:0:0:0:
286,219,67098,1,8,0:0:0:0:
318,230,67203,1,8,0:0:0:0:
230,172,67378,1,8,0:0:0:0:
245,187,67483,1,0,0:0:0:0:
247,191,67938,1,8,0:0:0:0:
247,191,68043,1,0,0:0:0:0:
226,159,68217,1,0,0:0:0:0:
235,146,68322,1,8,0:0:0:0:
228,155,68602,1,0,0:0:0:0:
221,164,68777,1,8,0:0:0:0:
229,166,68882,1,8,0:0:0:0:
208,164,69162,1,0,0:0:0:0:
227,160,69442,1,8,0:0:0:0:
213,170,69617,1,8,0:0:0:0:
227,160,69722,1,0,0:0:0:0:
227,147,70176,1,8,0:0:0:0:
186,140,70281,1,8,0:0:0:0:
246,172,70456,1,8,0:0:0:0:
186,140,70561,1,0,0:0:0:0:
187,114,70841,1,8,0:0:0:0:
225,205,71121,1,8,0:0:0:0:
196,190,71296,1,0,0:0:0:0:
209,173,71401,1,0,0:0:0:0:
287,220,71576,1,8,0:0:0:0:
294,200,71681,1,0,0:0:0:0:
190,180,71960,1,8,0:0:0:0:
211,142,72240,1,0,0:0:0:0:
190,180,72520,1,8,0:0:0:0:
222,177,72695,1,8,0:0:0:0:
222,177,72800,1,0,0:0:0:0:
241,169,72975,1,0,0:0:0:0:
215,115,73080,1,8,0:0:0:0:
225,217,73360,1,0,0:0:0:0:
241,219,73535,1,8,0:0:0:0:
205,123,73640,1,8,0:0:0:0:
216,130,73919,1,0,0:0:0:0:
244,143,74199,1,12,0:0:0:0:
251,224,74654,1,8,0:0:0:0:
261,207,74759,1,0,0:0:0:0:
307,155,74934,1,0,0:0:0:0:
303,160,75039,1,0,0:0:0:0:
244,185,75319,1,0,0:0:0:0:
239,170,75599,1,8,0:0:0:0:
234,165,75773,1,0,0:0:0:0:
234,164,75878,1,8,0:0:0:0:
286,219,76053,1,8,0:0:0:0:
318,230,76158,1,8,0:0:0:0:
230,172,76333,1,8,0:0:0:0:
230,172,76438,1,0,0:0:0:0:
211,127,76718,1,8,0:0:0:0:
221,126,76893,1,8,0:0:0:0:
221,126,76998,1,0,0:0:0:0:
279,203,77173,1,0,0:0:0:0:
209,113,77278,1,8,0:0:0:0:
217,162,77557,1,0,0:0:0:0:
231,178,77732,1,0,0:0:0:0:
250,151,77837,1,8,0:0:0:0:
212,146,78117,1,8,0:0:0:0:
205,114,78397,1,8,0:0:0:0:
241,158,78572,1,8,0:0:0:0:
205,114,78678,1,0,0:0:0:0:
227,147,79132,1,8,0:0:0:0:
186,140,79237,1,8,0:0:0:0:
246,172,79412,1,8,0:0:0:0:
186,140,79516,1,0,0:0:0:0:
187,114,79796,1,8,0:0:0:0:
258,154,80076,1,8,0:0:0:0:
196,190,80251,1,0,0:0:0:0:
209,173,80356,1,0,0:0:0:0:
287,220,80531,1,8,0:0:0:0:
294,200,80636,1,0,0:0:0:0:
224,166,80811,1,8,0:0:0:0:
224,166,80916,1,8,0:0:0:0:
190,180,81196,1,8,0:0:0:0:
190,180,81370,1,0,0:0:0:0:
190,180,81475,1,8,0:0:0:0:
190,124,81755,1,8,0:0:0:0:
205,123,81930,1,8,0:0:0:0:
205,123,82035,1,0,0:0:0:0:
205,123,82315,1,8,0:0:0:0:
217,134,82490,1,0,0:0:0:0:
216,130,82595,1,0,0:0:0:0:
216,138,82770,1,8,0:0:0:0:
202,109,82875,1,0,0:0:0:0:
221,142,83050,1,0,0:0:0:0:
244,143,83155,1,12,0:0:0:0:
251,224,83609,1,8,0:0:0:0:
261,207,83714,1,0,0:0:0:0:
307,155,83889,1,0,0:0:0:0:
303,160,83994,1,0,0:0:0:0:
244,185,84274,1,0,0:0:0:0:
239,170,84554,1,8,0:0:0:0:
234,165,84729,1,0,0:0:0:0:
234,164,84834,1,8,0:0:0:0:
286,219,85009,1,8,0:0:0:0:
318,230,85113,1,8,0:0:0:0:
230,172,85288,1,8,0:0:0:0:
245,187,85393,1,0,0:0:0:0:
247,191,85848,1,8,0:0:0:0:
247,191,85953,1,0,0:0:0:0:
226,159,86128,1,0,0:0:0:0:
235,146,86233,1,8,0:0:0:0:
228,155,86513,1,0,0:0:0:0:
221,164,86688,1,8,0:0:0:0:
229,166,86793,1,8,0:0:0:0:
208,164,87072,1,0,0:0:0:0:
227,160,87352,1,8,0:0:0:0:
213,170,87527,1,8,0:0:0:0:
227,160,87632,1,0,0:0:0:0:
227,147,88087,1,8,0:0:0:0:
186,140,88192,1,8,0:0:0:0:
246,172,88367,1,8,0:0:0:0:
186,140,88472,1,0,0:0:0:0:
187,114,88752,1,8,0:0:0:0:
225,205,89031,1,8,0:0:0:0:
196,190,89206,1,0,0:0:0:0:
209,173,89311,1,0,0:0:0:0:
287,220,89486,1,8,0:0:0:0:
294,200,89591,1,0,0:0:0:0:
206,138,89871,1,0,0:0:0:0:
222,114,90151,1,8,0:0:0:0:
236,132,90326,1,0,0:0:0:0:
214,128,90431,1,8,0:0:0:0:
205,147,90710,1,8,0:0:0:0:
212,199,90885,1,8,0:0:0:0:
205,123,90990,1,8,0:0:0:0:
215,172,91270,1,8,0:0:0:0:
215,172,91445,1,0,0:0:0:0:
215,107,91550,1,0,0:0:0:0:
235,199,91725,1,0,0:0:0:0:
233,156,91830,1,8,0:0:0:0:
234,157,92005,1,8,0:0:0:0:
212,132,92110,1,0,0:0:0:0:
204,221,93229,2,0,L|351:219,1,142.5
338,221,93789,1,4,0:0:0:0:
338,221,94069,1,4,0:0:0:0:
338,221,94349,1,12,0:0:0:0:
