osu file format v14

[General]
AudioFilename: audio.mp3
AudioLeadIn: 0
PreviewTime: 2488
Countdown: 0
SampleSet: Normal
StackLeniency: 0.2
Mode: 1
LetterboxInBreaks: 0
WidescreenStoryboard: 0

[Editor]
Bookmarks: 2558,38379,56290,74200,92111
DistanceSpacing: 1.1
BeatDivisor: 4
GridSize: 32
TimelineZoom: 2.4

[Metadata]
Title:Koro Funk!
TitleUnicode:Koro Funk!
Artist:Omiya Club
ArtistUnicode:Omiyaクラブ
Creator:Horiiizon
Version:Genjuro's Futsuu
Source:
Tags:korone inugami 戌神ころね remix jpop j-pop pop japanese electronic hololive vtuber ホロライブ バーチャル ユーチューバー virtual youtuber the bros 3 genjuro ulqui closed
BeatmapID:2681216
BeatmapSetID:1291782

[Difficulty]
HPDrainRate:6
CircleSize:2
OverallDifficulty:4
ApproachRate:10
SliderMultiplier:1.4
SliderTickRate:1

[Events]
//Background and Video events
0,0,"korone genju.jpg",0,140
//Break Periods
//Storyboard Layer 0 (Background)
//Storyboard Layer 1 (Fail)
//Storyboard Layer 2 (Pass)
//Storyboard Layer 3 (Foreground)
//Storyboard Layer 4 (Overlay)
//Storyboard Sound Samples

[TimingPoints]
320,559.701492537313,4,1,0,80,1,0
2558,559.701492537313,4,1,0,80,1,0

[HitObjects]
256,192,1439,5,0,0:0:0:0:
256,192,1719,1,8,0:0:0:0:
256,192,1999,1,0,0:0:0:0:
256,192,2278,1,8,0:0:0:0:
256,192,2558,1,4,0:0:0:0:
256,192,3117,1,0,0:0:0:0:
256,192,3677,1,0,0:0:0:0:
256,192,4796,1,8,0:0:0:0:
256,192,5076,1,8,0:0:0:0:
256,192,5356,1,0,0:0:0:0:
256,192,5636,1,0,0:0:0:0:
256,192,5916,1,8,0:0:0:0:
256,192,6475,1,0,0:0:0:0:
256,192,6755,1,8,0:0:0:0:
256,192,7035,1,0,0:0:0:0:
256,192,7595,1,8,0:0:0:0:
256,192,7875,1,8,0:0:0:0:
256,192,8155,1,8,0:0:0:0:
256,192,8714,1,0,0:0:0:0:
256,192,9274,1,0,0:0:0:0:
256,192,9554,1,8,0:0:0:0:
256,192,10113,1,8,0:0:0:0:
256,192,10673,1,8,0:0:0:0:
256,192,10953,1,8,0:0:0:0:
256,192,11233,1,8,0:0:0:0:
256,192,11513,1,0,0:0:0:0:
256,192,12072,1,0,0:0:0:0:
256,192,12632,1,0,0:0:0:0:
256,192,13752,1,8,0:0:0:0:
256,192,14311,1,8,0:0:0:0:
256,192,14591,1,8,0:0:0:0:
256,192,14871,1,0,0:0:0:0:
256,192,15431,1,0,0:0:0:0:
256,192,15710,1,8,0:0:0:0:
256,192,15990,1,0,0:0:0:0:
256,192,16550,1,8,0:0:0:0:
256,192,16830,1,8,0:0:0:0:
256,192,17110,1,8,0:0:0:0:
256,192,17669,1,0,0:0:0:0:
256,192,18229,1,0,0:0:0:0:
256,192,18509,1,8,0:0:0:0:
256,192,18789,1,0,0:0:0:0:
256,192,19069,1,8,0:0:0:0:
256,192,19349,1,0,0:0:0:0:
256,192,19628,1,8,0:0:0:0:
256,192,19908,1,0,0:0:0:0:
256,192,20468,1,4,0:0:0:0:
256,192,21028,1,0,0:0:0:0:
256,192,21587,1,0,0:0:0:0:
256,192,22707,1,8,0:0:0:0:
256,192,22987,1,8,0:0:0:0:
256,192,23266,1,0,0:0:0:0:
256,192,23546,1,0,0:0:0:0:
256,192,23826,1,8,0:0:0:0:
256,192,24386,1,0,0:0:0:0:
256,192,24666,1,8,0:0:0:0:
256,192,24946,1,0,0:0:0:0:
256,192,25505,1,8,0:0:0:0:
256,192,25785,1,8,0:0:0:0:
256,192,26065,1,8,0:0:0:0:
256,192,26625,1,0,0:0:0:0:
256,192,27184,1,0,0:0:0:0:
256,192,27464,1,8,0:0:0:0:
256,192,28024,1,8,0:0:0:0:
256,192,28584,1,8,0:0:0:0:
256,192,28863,1,8,0:0:0:0:
256,192,29143,1,8,0:0:0:0:
256,192,29423,1,0,0:0:0:0:
256,192,29983,1,0,0:0:0:0:
256,192,30543,1,0,0:0:0:0:
256,192,31662,1,8,0:0:0:0:
256,192,32222,1,8,0:0:0:0:
256,192,32502,1,8,0:0:0:0:
256,192,32781,1,0,0:0:0:0:
256,192,33341,1,0,0:0:0:0:
256,192,33621,1,8,0:0:0:0:
256,192,33901,1,0,0:0:0:0:
256,192,34460,1,8,0:0:0:0:
256,192,34740,1,8,0:0:0:0:
256,192,35020,1,8,0:0:0:0:
256,192,35580,1,0,0:0:0:0:
256,192,36140,1,0,0:0:0:0:
256,192,36419,1,8,0:0:0:0:
256,192,36699,1,0,0:0:0:0:
256,192,36979,1,8,0:0:0:0:
256,192,37259,1,0,0:0:0:0:
256,192,37819,1,8,0:0:0:0:
256,192,38099,1,8,0:0:0:0:
256,192,38378,1,4,0:0:0:0:
256,192,38938,1,8,0:0:0:0:
256,192,39498,1,0,0:0:0:0:
256,192,40057,1,8,0:0:0:0:
256,192,40617,1,0,0:0:0:0:
256,192,41177,1,0,0:0:0:0:
256,192,41457,1,8,0:0:0:0:
256,192,41737,1,0,0:0:0:0:
256,192,42856,1,0,0:0:0:0:
256,192,43416,1,8,0:0:0:0:
256,192,43975,1,0,0:0:0:0:
256,192,44535,1,8,0:0:0:0:
256,192,45095,1,0,0:0:0:0:
256,192,45655,1,0,0:0:0:0:
256,192,45934,1,8,0:0:0:0:
256,192,46214,1,8,0:0:0:0:
256,192,47334,1,0,0:0:0:0:
256,192,47893,1,8,0:0:0:0:
256,192,48453,1,0,0:0:0:0:
256,192,49013,1,8,0:0:0:0:
256,192,49572,1,0,0:0:0:0:
256,192,50132,1,0,0:0:0:0:
256,192,50412,1,8,0:0:0:0:
256,192,50692,1,0,0:0:0:0:
256,192,51811,1,0,0:0:0:0:
256,192,52371,1,8,0:0:0:0:
256,192,52931,1,0,0:0:0:0:
256,192,53490,1,8,0:0:0:0:
256,192,54050,1,0,0:0:0:0:
256,192,55729,1,8,0:0:0:0:
256,192,56289,1,4,0:0:0:0:
256,192,56849,1,0,0:0:0:0:
256,192,57408,1,0,0:0:0:0:
256,192,58528,1,8,0:0:0:0:
256,192,58807,1,8,0:0:0:0:
256,192,59087,1,0,0:0:0:0:
256,192,59367,1,0,0:0:0:0:
256,192,59647,1,8,0:0:0:0:
256,192,60207,1,0,0:0:0:0:
256,192,60487,1,8,0:0:0:0:
256,192,60766,1,0,0:0:0:0:
256,192,61326,1,8,0:0:0:0:
256,192,61606,1,8,0:0:0:0:
256,192,61886,1,8,0:0:0:0:
256,192,62446,1,0,0:0:0:0:
256,192,63005,1,0,0:0:0:0:
256,192,63285,1,8,0:0:0:0:
256,192,63845,1,8,0:0:0:0:
256,192,64405,1,8,0:0:0:0:
256,192,64684,1,8,0:0:0:0:
256,192,64964,1,8,0:0:0:0:
256,192,65244,1,0,0:0:0:0:
256,192,65804,1,0,0:0:0:0:
256,192,66363,1,0,0:0:0:0:
256,192,67483,1,8,0:0:0:0:
256,192,68043,1,8,0:0:0:0:
256,192,68322,1,8,0:0:0:0:
256,192,68602,1,0,0:0:0:0:
256,192,69162,1,0,0:0:0:0:
256,192,69442,1,8,0:0:0:0:
256,192,69722,1,0,0:0:0:0:
256,192,70281,1,8,0:0:0:0:
256,192,70561,1,8,0:0:0:0:
256,192,70841,1,8,0:0:0:0:
256,192,71401,1,0,0:0:0:0:
256,192,71960,1,0,0:0:0:0:
256,192,72240,1,8,0:0:0:0:
256,192,72520,1,0,0:0:0:0:
256,192,72800,1,8,0:0:0:0:
256,192,73080,1,0,0:0:0:0:
256,192,73640,1,8,0:0:0:0:
256,192,74199,1,4,0:0:0:0:
256,192,74759,1,0,0:0:0:0:
256,192,75319,1,0,0:0:0:0:
256,192,76438,1,8,0:0:0:0:
256,192,76718,1,8,0:0:0:0:
256,192,76998,1,0,0:0:0:0:
256,192,77278,1,0,0:0:0:0:
256,192,77557,1,8,0:0:0:0:
256,192,78117,1,0,0:0:0:0:
256,192,78397,1,8,0:0:0:0:
256,192,78677,1,0,0:0:0:0:
256,192,79237,1,8,0:0:0:0:
256,192,79516,1,8,0:0:0:0:
256,192,79796,1,8,0:0:0:0:
256,192,80356,1,0,0:0:0:0:
256,192,80916,1,0,0:0:0:0:
256,192,81196,1,8,0:0:0:0:
256,192,81755,1,8,0:0:0:0:
256,192,82315,1,8,0:0:0:0:
256,192,82595,1,8,0:0:0:0:
256,192,82875,1,8,0:0:0:0:
256,192,83155,1,0,0:0:0:0:
256,192,83714,1,0,0:0:0:0:
256,192,84274,1,0,0:0:0:0:
256,192,85393,1,8,0:0:0:0:
256,192,85953,1,8,0:0:0:0:
256,192,86233,1,8,0:0:0:0:
256,192,86513,1,0,0:0:0:0:
256,192,87072,1,0,0:0:0:0:
256,192,87352,1,8,0:0:0:0:
256,192,87632,1,0,0:0:0:0:
256,192,88192,1,8,0:0:0:0:
256,192,88472,1,8,0:0:0:0:
256,192,88752,1,8,0:0:0:0:
256,192,89311,1,0,0:0:0:0:
256,192,89871,1,0,0:0:0:0:
256,192,90151,1,8,0:0:0:0:
256,192,90431,1,0,0:0:0:0:
256,192,90710,1,8,0:0:0:0:
256,192,90990,1,0,0:0:0:0:
256,192,91550,1,8,0:0:0:0:
256,192,91830,1,8,0:0:0:0:
256,192,92110,1,0,0:0:0:0:
256,192,93789,1,0,0:0:0:0:
256,192,94069,1,0,0:0:0:0:
256,192,94349,1,12,0:0:0:0:
