osu file format v14

[General]
AudioFilename: audio.mp3
AudioLeadIn: 0
PreviewTime:58614
Countdown: 0
SampleSet: Soft
StackLeniency: 0.7
Mode: 0
LetterboxInBreaks: 0
WidescreenStoryboard: 1

[Editor]
Bookmarks: 31,21364,42697,53364,58697,80030
DistanceSpacing: 1.1
BeatDivisor: 4
GridSize: 32
TimelineZoom: 1.4

[Metadata]
Title:Namer HaKesef
TitleUnicode:נמר הכסף
Artist:Omer Rabinovitz
ArtistUnicode: 'עומר רבינוביץ
Creator:hehe
Version:Normal
Source:
Tags:タイガーマスク tigermask tiger mask hebrew remix novelty anime silver rock handsome
BeatmapID:3933989
BeatmapSetID:1888803

[Difficulty]
HPDrainRate:3
CircleSize:3.5
OverallDifficulty:5
ApproachRate:6
SliderMultiplier:1
SliderTickRate:1

[Events]
//Background and Video events
0,0,"tigeru.jpg",0,0
//Break Periods
//Storyboard Layer 0 (Background)
//Storyboard Layer 1 (Fail)
//Storyboard Layer 2 (Pass)
//Storyboard Layer 3 (Foreground)
//Storyboard Layer 4 (Overlay)
//Storyboard Sound Samples

[TimingPoints]
31,333.333333333333,4,2,1,40,1,0
16030,-100,4,2,1,45,0,0
16697,-100,4,2,1,50,0,0
17364,-100,4,2,1,55,0,0
18030,-100,4,2,1,60,0,0
18697,-100,4,2,1,65,0,0
19530,-100,4,2,1,70,0,0
20364,-100,4,2,1,75,0,0
21364,-100,4,2,1,80,0,1
42697,-100,4,2,1,60,0,0
53364,-100,4,2,1,40,0,0
54697,-100,4,2,1,45,0,0
55030,-100,4,2,1,50,0,0
55364,-100,4,2,1,55,0,0
55697,-100,4,2,1,60,0,0
56030,-100,4,2,1,65,0,0
56364,-100,4,2,1,70,0,0
56864,-100,4,2,1,75,0,0
57364,-100,4,2,1,80,0,0
58697,-100,4,2,1,80,0,1
80030,-100,4,2,1,80,0,0

[Colours]
Combo1 : 18,124,255
Combo2 : 24,185,255
Combo3 : 223,223,223
Combo4 : 143,143,143
Combo5 : 255,202,0
Combo6 : 255,157,31
Combo7 : 255,75,22
Combo8 : 255,28,28

[HitObjects]
217,75,31,6,0,P|188:109|200:211,2,150,6|2|2,0:0|0:0|0:0,0:0:0:0:
306,117,1364,2,0,L|464:95,2,150,2|2|2,0:0|0:0|0:0,0:0:0:0:
261,205,2697,102,0,P|304:240|408:223,2,150,2|2|2,0:0|0:0|0:0,0:0:0:0:
162,210,4030,2,0,L|175:101,1,100,2|0,0:0|0:0,0:0:0:0:
214,82,4530,2,0,P|186:38|133:33,1,100,2|0,0:0|0:0,0:0:0:0:
94,49,5030,1,2,0:0:0:0:
34,129,5364,6,0,L|57:280,2,150,2|2|2,0:0|0:0|0:0,0:0:0:0:
132,133,6697,2,0,P|141:79|57:31,2,150,2|2|2,0:0|0:0|0:0,0:0:0:0:
193,211,8030,102,0,B|101:224|141:244|45:259,2,150,2|2|2,0:0|0:0|0:0,0:0:0:0:
260,283,9364,2,0,L|368:299,1,100,2|0,0:0|0:0,0:0:0:0:
401,321,9864,2,0,P|458:298|477:265,1,100,2|0,0:0|0:0,0:0:0:0:
476,218,10364,1,0,0:0:0:0:
390,170,10697,6,0,L|404:20,2,150,6|2|2,0:0|0:0|0:0,0:0:0:0:
300,211,12030,2,0,L|314:361,2,150,2|2|2,0:0|0:0|0:0,0:0:0:0:
231,139,13364,102,0,P|247:104|349:79,2,150,2|2|2,0:0|0:0|0:0,0:0:0:0:
132,144,14697,2,0,L|154:246,1,100,2|0,0:0|0:0,0:0:0:0:
124,281,15197,2,0,P|187:293|222:333,1,100,2|0,0:0|0:0,0:0:0:0:
235,359,15697,1,2,0:0:0:0:
331,338,16030,22,0,L|338:231,1,100,2|0,3:0|3:0,0:0:0:0:
436,220,16697,2,0,L|428:113,1,100,0|2,3:0|3:0,0:0:0:0:
464,84,17197,1,0,3:0:0:0:
445,37,17364,2,0,P|392:18|342:34,1,100,0|0,3:0|3:0,0:0:0:0:
283,102,18030,1,0,3:0:0:0:
216,27,18364,1,0,3:0:0:0:
145,98,18697,6,0,L|136:199,1,100,0|0,3:0|3:0,0:0:0:0:
92,222,19197,1,0,3:0:0:0:
120,317,19530,2,0,P|181:320|227:341,1,100,0|0,3:0|3:0,0:0:0:0:
247,374,20030,2,0,L|346:347,1,100,0|0,3:0|3:0,0:0:0:0:
438,316,20697,1,0,3:0:0:0:
386,230,21030,2,0,L|393:157,1,50,0|0,3:0|3:0,0:0:0:0:
398,130,21364,6,0,P|343:90|303:97,1,100,4|8,3:2|0:0,0:0:0:0:
264,89,21864,1,4,0:0:0:0:
168,60,22197,2,0,L|155:170,1,100,4|0,3:2|0:0,0:0:0:0:
107,172,22697,2,0,P|136:210|151:274,1,100,4|8,3:2|0:0,0:0:0:0:
125,302,23197,1,4,0:2:0:0:
204,362,23530,2,0,L|312:342,1,100,4|0,3:2|0:0,0:0:0:0:
327,300,24030,6,0,P|381:303|428:349,1,100,2|10,3:2|0:0,0:0:0:0:
454,362,24530,2,0,L|470:253,1,100,2|2,0:0|3:2,0:0:0:0:
478,214,25030,1,10,0:0:0:0:
496,115,25364,2,0,P|441:97|394:119,1,100,2|10,3:2|0:0,0:0:0:0:
385,157,25864,2,0,L|278:190,1,100,2|2,0:0|3:2,0:0:0:0:
243,206,26364,1,10,0:0:0:0:
206,112,26697,6,0,L|190:8,1,100,4|8,3:2|0:0,0:0:0:0:
144,6,27197,1,4,0:0:0:0:
51,39,27530,2,0,P|13:78|14:141,1,100,4|0,3:2|0:0,0:0:0:0:
21,169,28030,2,0,L|120:151,1,100,4|8,3:2|0:0,0:0:0:0:
169,145,28530,1,4,0:2:0:0:
210,236,28864,2,0,P|249:239|290:291,1,100,4|0,3:2|0:0,0:0:0:0:
329,310,29364,6,0,L|346:200,1,100,2|10,3:2|0:0,0:0:0:0:
394,208,29864,2,0,L|381:103,1,100,2|2,0:0|3:2,0:0:0:0:
372,59,30364,1,10,0:0:0:0:
279,22,30697,2,0,L|208:38,1,50,2|2,3:2|3:2,0:0:0:0:
197,70,31030,2,0,L|135:59,1,50,10|2,0:2|0:2,0:2:0:0:
99,48,31364,2,0,P|53:61|31:118,1,100,2|10,3:2|0:2,0:0:0:0:
58,146,31864,1,2,0:2:0:0:
35,190,32030,70,0,L|150:205,1,100,4|8,3:2|0:0,0:0:0:0:
184,205,32530,1,4,0:0:0:0:
249,281,32864,2,0,P|293:257|364:257,1,100,4|0,3:2|0:0,0:0:0:0:
385,277,33364,2,0,L|376:167,1,100,4|8,3:2|0:0,0:0:0:0:
373,127,33864,1,4,0:2:0:0:
460,79,34197,2,0,P|483:116|481:190,1,100,4|0,3:2|0:0,0:0:0:0:
505,217,34697,6,0,L|479:320,1,100,2|10,3:2|0:0,0:0:0:0:
467,362,35197,2,0,P|411:343|355:358,1,100,2|2,0:0|3:2,0:0:0:0:
333,316,35697,1,10,0:0:0:0:
246,365,36030,2,0,L|136:375,1,100,2|10,3:2|0:0,0:0:0:0:
106,343,36530,2,0,P|89:292|123:240,1,100,2|2,0:0|3:2,0:0:0:0:
154,234,37030,1,10,0:0:0:0:
188,139,37364,6,0,L|298:123,1,100,4|8,3:2|0:0,0:0:0:0:
335,112,37864,1,4,0:0:0:0:
371,19,38197,2,0,P|429:24|466:70,1,100,4|0,3:2|0:0,0:0:0:0:
507,55,38697,2,0,L|491:176,1,100,4|8,3:2|0:0,0:0:0:0:
486,203,39197,1,4,0:2:0:0:
399,253,39530,2,0,P|332:240|289:260,1,100,4|0,3:2|0:0,0:0:0:0:
262,278,40030,6,0,L|247:172,1,100,2|10,3:2|0:0,0:0:0:0:
197,176,40530,2,0,L|205:69,1,100,2|2,0:0|3:2,0:0:0:0:
205,26,41030,1,10,0:0:0:0:
106,5,41364,2,0,P|52:13|14:56,1,100,2|10,3:2|0:2,0:2:0:0:
9,92,41864,1,2,0:2:0:0:
51,117,42030,1,0,3:2:0:0:
42,216,42364,2,0,L|102:225,1,50,8|8,3:0|3:0,0:0:0:0:
131,253,42697,38,0,P|196:223|282:226,2,150,4|4|6,0:0|0:0|0:0,0:0:0:0:
80,339,44030,2,0,L|293:361,1,200,8|4,0:0|0:0,0:0:0:0:
379,363,45030,1,2,0:0:0:0:
463,308,45364,6,0,P|483:244|470:202,1,100,0|2,0:0|0:0,0:0:0:0:
423,128,46030,1,8,0:0:0:0:
376,146,46197,2,0,L|271:152,1,100,0|0,3:0|0:0,0:0:0:0:
226,160,46697,2,0,P|205:111|239:20,2,150,4|4|12,0:0|0:0|0:0,0:0:0:0:
278,245,48030,101,4,3:2:0:0:
162,341,48530,1,0,3:0:0:0:
31,267,49030,1,2,0:0:0:0:
92,188,49364,2,0,P|72:126|168:41,1,200,12|4,0:2|0:0,0:0:0:0:
234,106,50364,1,2,0:0:0:0:
308,39,50697,6,0,L|419:23,1,100,0|6,3:0|0:0,0:0:0:0:
505,6,51364,1,8,0:0:0:0:
481,49,51530,2,0,P|486:87|511:146,1,100,4|0,3:2|0:0,0:0:0:0:
475,180,52030,2,0,P|464:225|361:271,2,150,4|4|4,3:2|0:0|3:2,0:0:0:0:
256,192,53364,12,4,57364,3:2:0:0:
114,254,58697,6,0,P|169:294|209:287,1,100,4|8,3:2|0:0,0:0:0:0:
248,295,59197,1,4,0:0:0:0:
344,324,59530,2,0,L|357:214,1,100,4|0,3:2|0:0,0:0:0:0:
405,212,60030,2,0,P|376:174|361:110,1,100,4|8,3:2|0:0,0:0:0:0:
387,82,60530,1,4,0:2:0:0:
308,22,60863,2,0,L|200:42,1,100,4|0,3:2|0:0,0:0:0:0:
185,84,61363,6,0,P|131:81|84:35,1,100,2|10,3:2|0:0,0:0:0:0:
58,22,61863,2,0,L|42:131,1,100,2|2,0:0|3:2,0:0:0:0:
34,170,62363,1,10,0:0:0:0:
16,269,62697,2,0,P|71:287|118:265,1,100,2|10,3:2|0:0,0:0:0:0:
127,227,63197,2,0,L|234:194,1,100,2|2,0:0|3:2,0:0:0:0:
269,178,63697,1,10,0:0:0:0:
302,272,64030,6,0,L|318:376,1,100,4|8,3:2|0:0,0:0:0:0:
367,375,64530,1,4,0:0:0:0:
461,345,64863,2,0,P|499:306|498:243,1,100,4|0,3:2|0:0,0:0:0:0:
491,215,65363,2,0,L|392:233,1,100,4|8,3:2|0:0,0:0:0:0:
343,239,65863,1,4,0:2:0:0:
302,148,66197,2,0,P|263:145|222:93,1,100,4|0,3:2|0:0,0:0:0:0:
183,74,66697,6,0,L|166:184,1,100,2|10,3:2|0:0,0:0:0:0:
118,176,67197,2,0,L|131:281,1,100,2|2,0:0|3:2,0:0:0:0:
140,325,67697,1,10,0:0:0:0:
233,362,68030,2,0,L|304:346,1,50,2|2,3:2|3:2,0:0:0:0:
315,314,68363,2,0,L|377:325,1,50,10|2,0:2|0:2,0:2:0:0:
413,336,68697,2,0,P|459:323|481:266,1,100,2|10,3:2|0:2,0:0:0:0:
454,238,69197,1,2,0:2:0:0:
477,194,69363,70,0,L|362:179,1,100,4|8,3:2|0:0,0:0:0:0:
328,179,69863,1,4,0:0:0:0:
263,103,70197,2,0,P|219:127|148:127,1,100,4|0,3:2|0:0,0:0:0:0:
127,107,70697,2,0,L|136:217,1,100,4|8,3:2|0:0,0:0:0:0:
139,257,71197,1,4,0:2:0:0:
52,305,71530,2,0,P|29:268|31:194,1,100,4|0,3:2|0:0,0:0:0:0:
7,167,72030,6,0,L|33:64,1,100,2|10,3:2|0:0,0:0:0:0:
45,22,72530,2,0,P|101:41|157:26,1,100,2|2,0:0|3:2,0:0:0:0:
179,68,73030,1,10,0:0:0:0:
266,19,73363,2,0,L|376:9,1,100,2|10,3:2|0:0,0:0:0:0:
406,41,73863,2,0,P|423:92|389:144,1,100,2|2,0:0|3:2,0:0:0:0:
358,150,74363,1,10,0:0:0:0:
324,245,74697,6,0,L|214:261,1,100,4|8,3:2|0:0,0:0:0:0:
177,272,75197,1,4,0:0:0:0:
141,365,75530,2,0,P|83:360|46:314,1,100,4|0,3:2|0:0,0:0:0:0:
5,329,76030,2,0,L|21:208,1,100,4|8,3:2|0:0,0:0:0:0:
26,181,76530,1,4,0:2:0:0:
113,131,76863,2,0,P|180:144|223:124,1,100,4|0,3:2|0:0,0:0:0:0:
250,106,77363,6,0,L|265:212,1,100,2|10,3:2|0:0,0:0:0:0:
315,208,77863,2,0,L|307:315,1,100,2|2,0:0|3:2,0:0:0:0:
307,358,78363,1,10,0:0:0:0:
406,379,78697,2,0,P|460:371|498:328,1,100,2|10,3:2|0:2,0:2:0:0:
503,292,79197,1,2,0:2:0:0:
461,267,79363,1,0,3:2:0:0:
470,168,79697,2,0,L|410:159,1,50,8|8,3:0|3:0,0:0:0:0:
371,150,80030,37,4,3:2:0:0:
342,191,80197,2,0,L|233:213,1,100,4|4,3:2|3:2,0:0:0:0:
171,141,80864,2,0,L|62:163,1,100,4|4,3:2|3:2,0:0:0:0:
12,240,81530,1,0,3:0:0:0:
44,278,81697,2,0,B|204:246|143:363|333:334,1,300,6|2,0:0|0:0,0:0:0:0:
368,363,82864,38,0,L|377:257,1,100,2|2,3:2|3:2,0:0:0:0:
301,197,83530,1,6,3:2:0:0:
291,147,83697,1,6,3:2:0:0:
281,97,83864,1,6,3:2:0:0:
