osu file format v14

[General]
AudioFilename: audio.mp3
AudioLeadIn: 0
PreviewTime:58614
Countdown: 0
SampleSet: Soft
StackLeniency: 0.7
Mode: 0
LetterboxInBreaks: 0
WidescreenStoryboard: 0

[Editor]
Bookmarks:31,21364,42697,53364,58697,80030
DistanceSpacing: 1.1
BeatDivisor: 4
GridSize: 32
TimelineZoom: 1.4

[Metadata]
Title:Namer HaKesef
TitleUnicode:נמר הכסף
Artist:Omer Rabinovitz
ArtistUnicode: 'עומר רבינוביץ
Creator:hehe
Version:Insane
Source:
Tags:タイガーマスク tigermask tiger mask hebrew remix novelty anime silver rock handsome
BeatmapID:3889983
BeatmapSetID:1888803

[Difficulty]
HPDrainRate:5
CircleSize:4
OverallDifficulty:8
ApproachRate:9
SliderMultiplier:1.4
SliderTickRate:1

[Events]
//Background and Video events
0,0,"tigeru.jpg",0,0
//Break Periods
//Storyboard Layer 0 (Background)
//Storyboard Layer 1 (Fail)
//Storyboard Layer 2 (Pass)
//Storyboard Layer 3 (Foreground)
//Storyboard Layer 4 (Overlay)
//Storyboard Sound Samples

[TimingPoints]
31,333.333333333333,4,2,1,40,1,0
16030,-100,4,2,1,45,0,0
16697,-100,4,2,1,50,0,0
17364,-100,4,2,1,55,0,0
18030,-100,4,2,1,60,0,0
18697,-71.4285714285714,4,2,1,65,0,0
19530,-71.4285714285714,4,2,1,70,0,0
20364,-71.4285714285714,4,2,1,75,0,0
21364,-62.5,4,2,1,80,0,1
42697,-100,4,2,1,60,0,0
53364,-100,4,2,1,40,0,0
54697,-100,4,2,1,45,0,0
55030,-100,4,2,1,50,0,0
55364,-100,4,2,1,55,0,0
55697,-100,4,2,1,60,0,0
56030,-71.4285714285714,4,2,1,65,0,0
56364,-71.4285714285714,4,2,1,70,0,0
56864,-71.4285714285714,4,2,1,75,0,0
57364,-62.5,4,2,1,80,0,0
58697,-62.5,4,2,1,80,0,1
80030,-83.3333333333333,4,2,1,80,0,0

[Colours]
Combo1 : 18,124,255
Combo2 : 24,185,255
Combo3 : 223,223,223
Combo4 : 143,143,143
Combo5 : 255,202,0
Combo6 : 255,157,31
Combo7 : 255,75,22
Combo8 : 255,28,28

[HitObjects]
340,284,31,6,0,P|286:275|195:296,1,140,6|0,0:0|0:0,0:0:0:0:
152,348,530,1,2,0:0:0:0:
107,201,697,101,0,0:0:0:0:
77,330,863,1,0,0:0:0:0:
204,292,1030,1,2,0:0:0:0:
129,274,1196,1,0,0:0:0:0:
107,201,1364,5,2,0:0:0:0:
55,257,1530,1,0,0:0:0:0:
77,330,1697,1,0,0:0:0:0:
129,274,1864,1,2,0:0:0:0:
182,219,2030,101,0,0:0:0:0:
203,291,2196,1,0,0:0:0:0:
152,348,2363,1,2,0:0:0:0:
129,274,2530,1,0,0:0:0:0:
324,301,2697,6,0,P|343:229|395:159,1,140
328,118,3197,1,2,0:0:0:0:
400,103,3364,101,0,0:0:0:0:
379,175,3530,1,0,0:0:0:0:
453,158,3697,1,2,0:0:0:0:
430,232,3864,1,0,0:0:0:0:
305,192,4030,5,2,0:0:0:0:
328,118,4197,1,0,0:0:0:0:
400,103,4364,1,0,0:0:0:0:
358,247,4530,1,2,0:0:0:0:
453,158,4697,101,0,0:0:0:0:
430,232,4864,1,0,0:0:0:0:
358,247,5031,1,2,0:0:0:0:
400,103,5197,1,0,0:0:0:0:
239,232,5364,6,0,P|222:168|186:101,1,140
210,31,5863,1,2,0:0:0:0:
166,177,6030,101,0,0:0:0:0:
136,48,6196,1,0,0:0:0:0:
263,86,6363,1,2,0:0:0:0:
188,104,6529,1,0,0:0:0:0:
210,31,6697,5,2,0:0:0:0:
263,86,6864,1,0,0:0:0:0:
113,122,7030,1,0,0:0:0:0:
136,48,7197,1,2,0:0:0:0:
166,177,7364,101,0,0:0:0:0:
113,122,7530,1,0,0:0:0:0:
263,86,7697,1,2,0:0:0:0:
240,160,7864,1,0,0:0:0:0:
496,54,8030,5,2,0:0:0:0:
420,41,8197,1,0,0:0:0:0:
407,117,8364,1,0,0:0:0:0:
483,130,8530,1,2,0:0:0:0:
496,54,8697,101,0,0:0:0:0:
344,28,8864,1,0,0:0:0:0:
318,180,9031,1,2,0:0:0:0:
470,206,9197,1,0,0:0:0:0:
407,117,9364,5,2,0:0:0:0:
331,104,9531,1,0,0:0:0:0:
318,180,9698,1,0,0:0:0:0:
394,193,9864,1,2,0:0:0:0:
259,229,10030,102,0,L|182:219,1,70
407,117,10364,2,0,P|437:157|421:220,1,105
421,220,10697,5,6,0:0:0:0:
438,294,10863,1,0,0:0:0:0:
493,241,11030,1,0,0:0:0:0:
364,271,11197,1,2,0:0:0:0:
455,368,11364,101,0,0:0:0:0:
438,294,11530,1,0,0:0:0:0:
383,347,11697,1,2,0:0:0:0:
512,317,11864,1,0,0:0:0:0:
421,220,12030,5,2,0:0:0:0:
364,271,12197,1,0,0:0:0:0:
455,368,12364,1,0,0:0:0:0:
512,317,12530,1,2,0:0:0:0:
463,159,12697,102,0,P|468:198|475:232,1,70
393,236,13030,2,0,P|388:197|381:163,1,70,2|0,0:0|0:0,0:0:0:0:
267,35,13364,5,2,0:0:0:0:
306,160,13530,1,0,0:0:0:0:
250,109,13697,1,0,0:0:0:0:
233,183,13864,1,2,0:0:0:0:
322,87,14030,101,0,0:0:0:0:
195,57,14197,1,0,0:0:0:0:
250,109,14364,1,2,0:0:0:0:
177,131,14530,1,0,0:0:0:0:
322,87,14697,5,2,0:0:0:0:
306,160,14864,1,0,0:0:0:0:
266,35,15030,1,0,0:0:0:0:
233,183,15197,1,2,0:0:0:0:
107,9,15364,102,0,P|118:63|120:93,1,70
28,21,15697,2,0,P|39:75|41:105,1,70,2|0,0:0|0:0,0:0:0:0:
89,152,16030,21,2,3:0:0:0:
28,215,16197,1,0,3:0:0:0:
54,300,16364,1,0,3:0:0:0:
137,317,16530,1,2,3:0:0:0:
89,152,16697,5,0,3:0:0:0:
171,169,16863,1,0,3:0:0:0:
198,254,17030,1,2,3:0:0:0:
137,317,17197,1,0,3:0:0:0:
89,152,17363,101,0,3:0:0:0:
54,300,17530,1,0,3:0:0:0:
198,254,17697,1,0,3:0:0:0:
28,215,17864,1,0,3:0:0:0:
137,317,18030,5,0,3:0:0:0:
171,169,18197,1,0,3:0:0:0:
28,215,18364,1,0,3:0:0:0:
198,254,18531,1,0,3:0:0:0:
231,114,18697,102,0,L|201:10,1,97.9999970092774,0|0,3:0|0:0,0:0:0:0:
203,19,19030,1,0,3:0:0:0:
310,134,19197,2,0,P|292:192|290:251,1,97.9999970092774,0|0,3:0|0:0,0:0:0:0:
177,176,19530,6,0,L|70:156,1,97.9999970092774,0|0,3:0|0:0,0:0:0:0:
372,74,19864,2,0,L|389:130,1,48.9999985046387,0|0,3:0|0:0,0:0:0:0:
460,149,20030,101,0,3:0:0:0:
426,220,20197,1,0,3:0:0:0:
391,230,20280,1,0,3:0:0:0:
355,221,20363,1,0,3:0:0:0:
330,195,20446,1,0,3:0:0:0:
320,160,20530,6,0,P|298:185|274:194,1,48.9999985046387,0|0,3:0|0:0,0:0:0:0:
271,268,20697,2,0,L|169:249,1,97.9999970092774,0|0,3:0|3:0,0:0:0:0:
174,250,20947,1,0,3:0:0:0:
174,250,21030,101,0,3:0:0:0:
143,368,21197,2,0,L|125:312,1,48.9999985046387,0|0,3:0|0:0,0:0:0:0:
137,190,21364,22,0,P|84:201|57:314,1,168,4|0,3:2|0:0,0:0:0:0:
49,299,21697,1,8,0:0:0:0:
201,139,21864,2,0,B|249:151|249:151|264:187|314:201,1,112,4|0,0:0|3:0,0:0:0:0:
177,67,22197,5,4,3:2:0:0:
138,271,22364,2,0,P|123:204|80:104,1,168,8|0,0:0|0:0,0:0:0:0:
84,112,22697,5,4,3:2:0:0:
85,197,22864,1,0,3:0:0:0:
217,229,23030,1,8,0:0:0:0:
256,38,23197,2,0,B|326:43|290:65|360:72,1,112,4|0,0:2|3:0,0:0:0:0:
208,99,23530,5,4,3:2:0:0:
419,23,23697,2,0,P|490:43|498:140,1,168,8|0,0:0|0:0,0:0:0:0:
505,127,24030,70,0,L|424:148,1,56,2|0,3:2|0:0,0:0:0:0:
430,119,24197,2,0,P|410:138|401:164,1,56,2|0,0:0|0:0,0:0:0:0:
414,242,24364,5,10,0:0:0:0:
225,203,24530,2,0,P|216:147|178:30,1,168,2|0,0:0|0:0,0:0:0:0:
182,40,24864,2,0,B|151:51|138:74|138:74|112:63|79:73,2,112,2|10|2,3:2|0:0|0:0,0:0:0:0:
294,98,25364,6,0,L|357:107,1,56,2|0,3:2|0:0,0:0:0:0:
285,18,25530,2,0,P|263:55|261:104,1,56,2|0,0:0|0:0,0:0:0:0:
270,172,25697,5,10,0:0:0:0:
473,182,25864,2,0,P|439:137|437:82,1,112,2|0,0:0|3:0,0:0:0:0:
503,252,26197,2,0,L|472:359,2,112,2|10|2,3:2|0:0|0:0,0:0:0:0:
341,117,26697,70,0,P|273:146|290:249,1,168,4|0,3:2|0:0,0:0:0:0:
272,232,27030,1,8,0:0:0:0:
176,364,27197,2,0,B|177:313|204:277|204:277|192:241,1,112,4|0,0:0|3:0,0:0:0:0:
315,307,27530,5,4,3:2:0:0:
210,181,27697,2,0,L|43:216,1,168,8|0,0:0|0:0,0:0:0:0:
45,215,28030,5,4,3:2:0:0:
112,169,28197,1,0,3:0:0:0:
249,273,28364,1,8,0:0:0:0:
249,273,28530,1,4,0:2:0:0:
182,315,28697,6,0,P|152:321|106:337,1,56,0|0,3:0|0:0,0:0:0:0:
305,216,28864,2,0,P|335:210|381:194,1,56,4|0,3:2|0:0,0:0:0:0:
197,210,29030,2,0,P|171:142|201:46,1,168,8|0,0:0|0:0,0:0:0:0:
195,53,29364,70,0,L|216:128,1,56,2|0,3:2|0:0,0:0:0:0:
239,112,29530,2,0,P|269:103|298:108,1,56,2|0,0:0|0:0,0:0:0:0:
366,77,29697,5,10,0:0:0:0:
296,286,29864,2,0,B|278:260|278:260|286:218|270:181,1,112,2|0,0:0|0:0,0:0:0:0:
242,346,30197,2,0,L|127:374,2,112,2|10|2,3:2|0:0|0:0,0:0:0:0:
393,368,30697,53,2,3:2:0:0:
433,374,30780,1,2,0:2:0:0:
464,347,30863,1,2,3:2:0:0:
463,307,30946,1,2,0:2:0:0:
432,281,31030,2,0,L|376:296,3,56,10|2|2|2,0:2|0:2|0:2|0:2,0:2:0:0:
303,258,31364,101,2,3:2:0:0:
266,239,31447,1,2,0:2:0:0:
258,199,31530,1,2,3:2:0:0:
285,168,31613,1,2,0:2:0:0:
325,169,31697,1,10,0:2:0:0:
367,176,31780,1,2,0:2:0:0:
408,183,31863,1,2,0:2:0:0:
450,189,31946,1,2,0:2:0:0:
491,196,32030,54,0,B|486:156|501:137|501:137|475:24,1,168,4|0,3:2|0:0,0:0:0:0:
477,33,32364,1,8,0:0:0:0:
316,100,32530,2,0,L|196:73,1,112,4|0,0:0|3:0,0:0:0:0:
329,182,32864,5,4,3:2:0:0:
292,18,33030,2,0,P|372:20|409:118,1,168,8|0,0:0|0:0,0:0:0:0:
413,89,33364,5,4,3:2:0:0:
410,175,33530,1,0,3:0:0:0:
238,252,33697,1,8,0:0:0:0:
189,67,33864,2,0,P|167:120|186:191,1,112,4|0,0:2|3:0,0:0:0:0:
270,54,34197,5,4,3:2:0:0:
312,276,34364,2,0,P|339:222|318:111,1,168,8|0,0:0|0:0,0:0:0:0:
323,118,34697,70,0,L|392:143,1,56,2|0,3:2|0:0,0:0:0:0:
397,108,34864,2,0,P|409:89|397:36,1,56,2|0,0:0|0:0,0:0:0:0:
342,16,35030,5,10,0:0:0:0:
266,175,35197,2,0,L|97:204,1,168,2|0,0:0|0:0,0:0:0:0:
100,203,35530,2,0,B|53:240|42:280|42:280|5:298,2,112,2|10|2,3:2|0:0|0:0,0:0:0:0:
132,52,36030,6,0,L|160:119,1,56,2|0,3:2|0:0,0:0:0:0:
193,107,36197,2,0,P|177:138|173:189,1,56,2|0,0:0|0:0,0:0:0:0:
209,226,36364,5,10,0:0:0:0:
6,203,36530,2,0,P|22:150|17:94,1,112,2|0,0:0|3:0,0:0:0:0:
79,379,36864,2,0,L|48:242,2,112,2|10|2,3:2|0:0|0:0,0:0:0:0:
92,200,37364,70,0,B|198:165|160:206|277:167,1,168,4|0,3:2|0:0,0:0:0:0:
256,173,37697,1,8,0:0:0:0:
345,268,37864,2,0,P|406:281|469:307,1,112,4|0,0:0|3:0,0:0:0:0:
314,122,38197,5,4,3:2:0:0:
293,330,38364,2,0,B|259:352|259:352|185:334|200:237,1,168,8|0,0:0|0:0,0:0:0:0:
197,254,38697,5,4,3:2:0:0:
191,348,38864,1,0,3:0:0:0:
355,384,39030,1,8,0:0:0:0:
392,223,39197,2,0,L|268:253,1,112,4|0,0:2|3:0,0:0:0:0:
446,288,39530,5,4,3:2:0:0:
197,254,39697,2,0,B|166:204|209:153|209:153|232:174|283:177,1,168,8|0,0:0|0:0,0:0:0:0:
261,174,40030,70,0,L|246:104,1,56,2|0,3:2|0:0,0:0:0:0:
273,100,40197,2,0,P|284:82|338:62,1,56,2|0,0:0|0:0,0:0:0:0:
381,103,40364,5,10,0:0:0:0:
194,6,40530,2,0,B|176:108|176:108|140:127|123:164,1,168,2|0,0:0|0:0,0:0:0:0:
129,151,40864,1,2,3:2:0:0:
4,85,41030,2,0,P|-2:35|57:4,1,112,10|2,0:0|0:0,0:0:0:0:
57,183,41364,6,0,L|-10:208,1,56,2|0,3:2|0:2,0:2:0:0:
5,238,41530,2,0,P|14:257|52:285,1,56,2|0,0:2|0:2,0:2:0:0:
170,326,41697,6,0,L|186:256,1,56,10|0,0:2|0:2,0:2:0:0:
253,229,41864,2,0,P|229:171|226:105,1,112,2|0,0:2|3:2,0:2:0:0:
268,57,42114,1,0,3:2:0:0:
268,57,42197,69,0,3:2:0:0:
295,61,42280,1,0,3:2:0:0:
323,66,42363,1,8,3:0:0:0:
350,71,42447,1,8,3:0:0:0:
378,76,42530,1,8,3:0:0:0:
405,81,42613,1,8,3:0:0:0:
433,86,42697,86,0,P|451:151|431:232,1,140,4|2,0:0|0:0,0:0:0:0:
257,268,43197,2,0,P|239:203|259:122,1,140,4|0,0:0|0:0,0:0:0:0:
200,325,43697,2,0,L|104:314,1,70,6|0,0:0|0:0,0:0:0:0:
51,312,44030,5,8,0:0:0:0:
29,231,44197,1,0,3:0:0:0:
29,231,44530,101,0,3:0:0:0:
204,142,44697,2,0,P|275:150|323:226,1,140,4|2,0:0|0:0,0:0:0:0:
396,189,45197,5,0,0:0:0:0:
349,269,45364,1,0,0:0:0:0:
396,189,45530,2,0,L|381:109,1,70,0|2,0:0|0:0,0:0:0:0:
314,75,45864,101,0,0:0:0:0:
510,6,46030,2,0,L|498:69,1,35,8|0,0:0|0:0,0:0:0:0:
377,26,46197,2,0,P|320:34|234:-5,1,140,0|0,3:0|0:0,0:0:0:0:
245,211,46697,6,0,B|208:74|195:156|160:7,2,210,4|4|12,0:0|0:0|0:0,0:0:0:0:
245,211,48030,101,4,3:2:0:0:
126,256,48197,2,0,P|88:267|53:282,1,70,0|2,0:0|0:0,0:0:0:0:
170,187,48530,5,0,3:0:0:0:
236,321,48697,2,0,P|268:334|348:346,1,105
337,345,49030,2,0,L|354:259,1,70,2|0,0:0|0:0,0:0:0:0:
427,240,49364,101,12,0:2:0:0:
463,170,49530,1,0,0:0:0:0:
434,98,49697,1,2,0:0:0:0:
360,74,49864,1,0,0:0:0:0:
427,240,50030,5,4,0:0:0:0:
294,217,50197,2,0,P|286:181|269:147,1,70,0|2,0:0|0:0,0:0:0:0:
356,269,50530,102,0,P|379:228|378:129,1,140,4|0,0:0|0:0,0:0:0:0:
278,300,51030,1,6,0:0:0:0:
278,300,51197,2,0,L|259:221,1,70,0|8,0:0|0:0,0:0:0:0:
133,321,51530,1,4,3:2:0:0:
184,194,51697,2,0,P|187:243|183:284,1,70,2|0,0:0|0:0,0:0:0:0:
67,367,52030,6,0,P|46:322|55:214,1,140,4|0,3:2|0:0,0:0:0:0:
11,83,52530,1,4,0:0:0:0:
65,144,52697,1,0,0:0:0:0:
157,114,52864,1,0,0:0:0:0:
259,207,53030,101,4,3:2:0:0:
237,18,53197,2,0,P|186:18|129:159,1,210
155,218,53864,5,0,3:0:0:0:
155,218,54030,1,0,3:0:0:0:
238,233,54197,1,0,3:0:0:0:
238,233,54364,1,0,3:0:0:0:
439,72,54864,101,0,3:0:0:0:
441,65,55030,1,0,3:0:0:0:
434,43,55197,1,0,3:0:0:0:
392,22,55364,1,0,3:0:0:0:
331,41,55530,1,0,3:0:0:0:
319,112,55697,1,0,3:0:0:0:
377,167,55864,1,0,3:0:0:0:
395,251,56030,1,0,3:0:0:0:
331,317,56197,1,0,3:0:0:0:
221,317,56364,1,0,3:0:0:0:
154,224,56530,1,0,3:0:0:0:
166,102,56697,1,0,3:0:0:0:
298,24,56864,1,0,3:0:0:0:
439,103,57030,1,0,3:0:0:0:
461,253,57197,1,0,3:0:0:0:
298,335,57364,5,4,3:2:0:0:
298,335,57447,1,0,3:0:0:0:
298,335,57530,2,0,B|221:331|260:309|183:302,1,112,0|0,3:0|0:0,0:0:0:0:
330,195,57864,101,4,3:2:0:0:
330,195,57947,1,0,3:0:0:0:
330,195,58030,2,0,B|255:114|317:130|246:45,1,168,0|0,3:0|3:0,3:0:0:0:
250,50,58364,2,0,L|181:68,3,56,0|0|0|0,3:0|3:0|3:0|3:0,3:0:0:0:
153,131,58697,22,0,P|77:127|44:13,1,168,4|0,3:2|0:0,0:0:0:0:
34,53,59030,1,8,0:0:0:0:
220,167,59197,2,0,B|201:232|201:232|211:255|206:285,1,112,4|0,0:0|3:0,0:0:0:0:
335,351,59530,5,4,3:2:0:0:
139,331,59697,2,0,P|223:294|316:279,1,168,8|0,0:0|0:0,0:0:0:0:
297,280,60030,5,4,3:2:0:0:
284,203,60197,1,0,3:0:0:0:
461,158,60364,1,8,0:0:0:0:
444,329,60530,2,0,L|328:352,1,112,4|0,0:2|3:0,0:0:0:0:
181,254,60864,5,4,3:2:0:0:
11,381,61030,2,0,P|5:303|108:252,1,168,8|0,0:0|0:0,0:0:0:0:
69,250,61364,70,0,L|78:187,1,56,2|0,3:2|0:0,0:0:0:0:
109,183,61530,2,0,P|97:146|46:125,1,56,2|0,0:0|0:0,0:0:0:0:
9,152,61697,5,10,0:0:0:0:
190,198,61864,2,0,P|214:147|196:63,1,112,2|0,0:0|0:0,0:0:0:0:
44,17,62197,2,0,B|155:29,2,112,2|10|2,3:2|0:0|0:0,0:0:0:0:
229,122,62697,6,0,L|293:100,1,56,2|0,3:2|0:0,0:0:0:0:
309,118,62864,2,0,P|330:96|329:45,1,56,2|0,0:0|0:0,0:0:0:0:
236,40,63030,5,10,0:0:0:0:
161,174,63197,2,0,L|46:154,1,112,2|0,0:0|3:0,0:0:0:0:
220,232,63530,2,0,B|237:247|237:247|232:290|265:342,2,112,2|10|2,3:2|0:0|0:0,0:0:0:0:
35,330,64030,70,0,P|104:369|226:354,1,168,4|0,3:2|0:0,0:0:0:0:
190,368,64364,1,8,0:0:0:0:
347,257,64530,2,0,L|469:272,1,112,4|0,0:0|3:0,0:0:0:0:
333,336,64864,5,4,3:2:0:0:
161,203,65030,2,0,P|226:202|266:301,1,168,8|0,0:0|0:0,0:0:0:0:
270,284,65364,5,4,3:2:0:0:
199,308,65530,1,0,3:0:0:0:
84,186,65697,1,8,0:0:0:0:
309,102,65864,2,0,P|334:160|334:212,1,112,4|0,0:2|3:0,0:0:0:0:
226,86,66197,5,4,3:2:0:0:
169,232,66364,2,0,P|99:213|-15:215,1,168,8|0,0:0|0:0,0:0:0:0:
4,211,66697,70,0,L|25:268,1,56,2|0,3:2|0:0,0:0:0:0:
13,290,66864,2,0,P|47:294|81:334,1,56,2|0,0:0|0:0,0:0:0:0:
142,308,67030,5,10,0:0:0:0:
230,176,67197,2,0,L|201:62,1,112,2|0,0:0|0:0,0:0:0:0:
304,209,67530,2,0,B|321:183|321:183|358:166|402:132,2,112,2|10|2,3:2|0:0|0:0,0:0:0:0:
252,0,68030,53,2,3:2:0:0:
258,41,68113,1,2,0:2:0:0:
264,83,68196,1,2,3:2:0:0:
271,124,68279,1,2,0:2:0:0:
277,166,68364,2,0,L|203:146,3,56,10|2|2|2,0:2|0:2|0:2|0:2,0:2:0:0:
181,223,68697,101,2,3:2:0:0:
149,248,68780,1,2,0:2:0:0:
107,250,68863,1,2,3:2:0:0:
73,227,68946,1,2,0:2:0:0:
58,188,69030,1,10,0:2:0:0:
67,147,69113,1,2,0:2:0:0:
75,106,69196,1,2,0:2:0:0:
83,64,69279,1,2,0:2:0:0:
92,23,69364,54,0,P|173:2|277:28,1,168,4|0,3:2|0:0,0:0:0:0:
254,16,69697,1,8,0:0:0:0:
215,187,69864,2,0,B|205:145|194:126|194:126|206:73,1,112,4|0,0:0|3:0,0:0:0:0:
329,58,70197,5,4,3:2:0:0:
395,206,70364,2,0,P|333:217|243:288,1,168,8|0,0:0|0:0,0:0:0:0:
249,278,70697,5,4,3:2:0:0:
292,217,70864,1,0,3:0:0:0:
467,246,71030,1,8,0:0:0:0:
381,373,71197,2,0,P|311:359|245:358,1,112,4|0,0:2|3:0,0:0:0:0:
448,324,71530,5,4,3:2:0:0:
300,139,71697,2,0,B|331:158|331:158|321:221|369:288,1,168,8|0,0:0|0:0,0:0:0:0:
364,281,72030,70,0,L|373:212,1,56,2|0,3:2|0:0,0:0:0:0:
352,201,72197,2,0,P|375:176|419:176,1,56,2|0,0:0|0:0,0:0:0:0:
475,185,72364,5,10,0:0:0:0:
512,37,72530,2,0,P|436:34|331:-8,1,168,2|0,0:0|0:0,0:0:0:0:
349,3,72864,2,0,B|367:35|367:62|367:62|394:69|425:101,2,112,2|10|2,3:2|0:0|0:0,0:0:0:0:
306,111,73364,6,0,L|301:174,1,56,2|0,3:2|0:0,0:0:0:0:
234,73,73530,2,0,P|269:90|282:130,1,56,2|0,0:0|0:0,0:0:0:0:
185,140,73697,5,10,0:0:0:0:
333,297,73864,2,0,B|329:249|360:214|360:214|399:204,1,112,2|0,0:0|3:0,0:0:0:0:
507,155,74197,2,0,L|394:132,2,112,2|10|2,3:2|0:0|0:0,0:0:0:0:
269,225,74697,70,0,L|241:17,1,168,4|0,3:2|0:0,0:0:0:0:
246,58,75030,1,8,0:0:0:0:
349,241,75197,2,0,P|328:295|315:363,1,112,4|0,0:0|3:0,0:0:0:0:
197,253,75530,5,4,3:2:0:0:
342,164,75697,2,0,B|255:130|285:179|165:133,1,168,8|0,0:0|0:0,0:0:0:0:
178,137,76030,5,4,3:2:0:0:
168,58,76197,1,0,3:0:0:0:
17,15,76364,1,8,0:0:0:0:
3,205,76530,2,0,B|73:222|73:222|88:211|136:212,1,112,4|0,0:2|3:0,0:0:0:0:
233,328,76864,5,4,3:2:0:0:
204,163,77030,2,0,P|140:198|151:302,1,168,8|0,0:0|0:0,0:0:0:0:
137,285,77364,70,0,L|76:307,1,56,2|0,3:2|0:0,0:0:0:0:
57,290,77530,2,0,P|36:314|38:367,1,56,2|0,0:0|0:0,0:0:0:0:
101,384,77697,5,10,0:0:0:0:
292,281,77864,1,2,0:0:0:0:
292,281,78030,2,0,L|276:215,1,56
297,152,78197,5,2,3:2:0:0:
238,345,78364,2,0,P|300:364|369:399,1,112,10|2,0:0|0:0,0:0:0:0:
388,192,78697,6,0,L|381:248,1,56,2|0,3:2|0:2,0:2:0:0:
394,326,78864,2,0,P|374:288|332:269,1,56,2|0,0:2|0:2,0:2:0:0:
189,111,79030,70,0,L|203:184,1,56,10|0,0:2|0:2,0:2:0:0:
221,265,79197,2,0,P|153:272|115:313,1,112,2|0,0:2|3:2,0:2:0:0:
53,340,79447,1,0,3:2:0:0:
53,340,79530,5,0,3:2:0:0:
46,303,79613,1,0,3:2:0:0:
40,266,79696,1,8,3:0:0:0:
34,229,79779,1,8,3:0:0:0:
28,192,79863,1,8,3:0:0:0:
21,155,79946,1,8,3:0:0:0:
15,119,80029,69,4,3:2:0:0:
138,41,80197,2,0,L|228:70,1,83.9999974365235,4|0,3:2|0:0,0:0:0:0:
197,244,80530,2,0,B|146:149|145:208|91:103,2,167.999994873047,4|4|4,3:2|3:2|3:2,0:0:0:0:
431,309,81530,5,0,3:0:0:0:
431,309,81697,2,0,L|440:251,1,41.9999987182618,4|2,3:2|0:0,0:0:0:0:
451,191,81864,85,2,0:0:0:0:
431,186,81947,1,2,0:0:0:0:
445,170,82030,1,2,0:0:0:0:
425,165,82114,1,2,0:0:0:0:
440,150,82197,1,2,0:0:0:0:
420,145,82281,1,2,0:0:0:0:
435,129,82363,1,2,0:0:0:0:
415,124,82448,1,2,0:0:0:0:
430,109,82530,1,2,0:0:0:0:
410,104,82614,1,2,0:0:0:0:
425,89,82697,1,2,0:0:0:0:
405,84,82781,1,2,0:0:0:0:
419,68,82863,53,2,3:2:0:0:
313,46,83030,1,2,3:2:0:0:
185,140,83197,5,2,3:2:0:0:
224,295,83364,1,2,3:2:0:0:
419,68,83530,5,6,3:2:0:0:
182,18,83697,1,6,3:2:0:0:
112,247,83864,1,6,3:2:0:0:
