osu file format v14

[General]
AudioFilename: audio.mp3
AudioLeadIn: 0
PreviewTime: 58614
Countdown: 0
SampleSet: Soft
StackLeniency: 0.7
Mode: 0
LetterboxInBreaks: 0
WidescreenStoryboard: 1

[Editor]
Bookmarks: 31,21364,42697,53364,58697,80030
DistanceSpacing: 1.1
BeatDivisor: 4
GridSize: 32
TimelineZoom: 1.4

[Metadata]
Title:Namer HaKesef
TitleUnicode:נמר הכסף
Artist:Omer Rabinovitz
ArtistUnicode:'עומר רבינוביץ
Creator:hehe
Version:Hard
Source:
Tags:タイガーマスク tigermask tiger mask hebrew remix novelty anime silver rock handsome
BeatmapID:3933988
BeatmapSetID:1888803

[Difficulty]
HPDrainRate:4
CircleSize:4
OverallDifficulty:6
ApproachRate:8
SliderMultiplier:1.3
SliderTickRate:1

[Events]
//Background and Video events
0,0,"tigeru.jpg",0,0
//Break Periods
//Storyboard Layer 0 (Background)
//Storyboard Layer 1 (Fail)
//Storyboard Layer 2 (Pass)
//Storyboard Layer 3 (Foreground)
//Storyboard Layer 4 (Overlay)
//Storyboard Sound Samples

[TimingPoints]
31,333.333333333333,4,2,1,40,1,0
16030,-100,4,2,1,45,0,0
16697,-100,4,2,1,50,0,0
17364,-100,4,2,1,55,0,0
18030,-100,4,2,1,60,0,0
18697,-100,4,2,1,65,0,0
19530,-100,4,2,1,70,0,0
20364,-100,4,2,1,75,0,0
21364,-83.3333333333333,4,2,1,80,0,1
42697,-100,4,2,1,60,0,0
53364,-100,4,2,1,40,0,0
54697,-100,4,2,1,45,0,0
55030,-100,4,2,1,50,0,0
55364,-100,4,2,1,55,0,0
55697,-100,4,2,1,60,0,0
56030,-100,4,2,1,65,0,0
56364,-100,4,2,1,70,0,0
56864,-100,4,2,1,75,0,0
57364,-100,4,2,1,80,0,0
58697,-83.3333333333333,4,2,1,80,0,1
80030,-83.3333333333333,4,2,1,80,0,0

[Colours]
Combo1 : 18,124,255
Combo2 : 24,185,255
Combo3 : 223,223,223
Combo4 : 143,143,143
Combo5 : 255,202,0
Combo6 : 255,157,31
Combo7 : 255,75,22
Combo8 : 255,28,28

[HitObjects]
74,129,31,6,0,L|82:64,1,65,6|0,0:0|0:0,0:0:0:0:
154,119,364,2,0,L|162:54,1,65,0|2,0:0|0:0,0:0:0:0:
229,154,697,2,0,L|237:89,1,65
309,144,1030,2,0,L|317:79,1,65,2|0,0:0|0:0,0:0:0:0:
360,208,1364,102,0,L|352:273,1,65,2|0,0:0|0:0,0:0:0:0:
280,218,1697,2,0,L|272:283,1,65,0|2,0:0|0:0,0:0:0:0:
205,183,2030,2,0,L|197:248,1,65
125,193,2363,2,0,L|117:258,1,65,2|0,0:0|0:0,0:0:0:0:
60,312,2697,6,0,P|18:277|23:182,1,130,2|0,0:0|0:0,0:0:0:0:
61,145,3197,2,0,L|215:169,1,130,2|0,0:0|0:0,0:0:0:0:
189,165,3697,1,2,0:0:0:0:
316,74,4030,102,0,P|346:123|339:211,1,130,2|0,0:0|0:0,0:0:0:0:
271,219,4530,2,0,L|257:362,1,130,2|0,0:0|0:0,0:0:0:0:
329,381,5030,1,2,0:0:0:0:
446,278,5364,6,0,L|519:264,1,65,2|0,0:0|0:0,0:0:0:0:
411,202,5697,2,0,L|484:188,1,65,0|2,0:0|0:0,0:0:0:0:
432,115,6030,2,0,L|505:101,1,65
397,39,6363,2,0,L|470:25,1,65,2|0,0:0|0:0,0:0:0:0:
313,33,6697,102,0,L|240:47,1,65,2|0,0:0|0:0,0:0:0:0:
348,109,7030,2,0,L|275:123,1,65,0|2,0:0|0:0,0:0:0:0:
327,196,7363,2,0,L|254:210,1,65
362,272,7696,2,0,L|289:286,1,65,2|0,0:0|0:0,0:0:0:0:
244,341,8030,6,0,P|194:304|99:288,1,130,2|0,0:0|0:0,0:0:0:0:
62,327,8530,2,0,L|31:181,1,130,2|0,0:0|0:0,0:0:0:0:
14,124,9030,1,2,0:0:0:0:
122,10,9364,102,0,B|207:20|154:46|266:63,1,130,2|0,0:0|0:0,0:0:0:0:
307,18,9864,2,0,P|334:54|302:144,1,130,2|0,0:0|0:0,0:0:0:0:
248,169,10364,2,0,L|235:252,1,65
219,309,10697,6,0,P|264:334|281:355,1,65,6|0,0:0|0:0,0:0:0:0:
379,316,11030,2,0,P|334:291|317:270,1,65,0|2,0:0|0:0,0:0:0:0:
299,173,11364,2,0,P|344:198|361:219,1,65
459,180,11697,2,0,P|414:155|397:134,1,65,2|0,0:0|0:0,0:0:0:0:
346,93,12030,102,0,P|301:68|284:47,1,65,2|0,0:0|0:0,0:0:0:0:
186,86,12363,2,0,P|231:111|248:132,1,65,0|2,0:0|0:0,0:0:0:0:
266,229,12697,2,0,P|221:204|204:183,1,65
106,222,13030,2,0,P|151:247|168:268,1,65,2|0,0:0|0:0,0:0:0:0:
139,332,13364,6,0,L|282:353,1,130,2|0,0:0|0:0,0:0:0:0:
341,377,13864,2,0,P|381:317|457:299,1,130,2|0,0:0|0:0,0:0:0:0:
502,334,14364,1,2,0:0:0:0:
492,178,14697,102,0,L|356:165,1,130,2|0,0:0|0:0,0:0:0:0:
299,119,15197,2,0,P|235:152|159:127,1,130,2|0,0:0|0:0,0:0:0:0:
123,87,15697,2,0,L|36:105,1,65,2|0,0:0|0:0,0:0:0:0:
24,170,16030,22,0,L|16:248,1,65,2|0,3:0|3:0,0:0:0:0:
74,296,16364,1,0,3:0:0:0:
74,296,16530,1,2,3:0:0:0:
134,247,16697,2,0,L|224:232,1,65,0|0,3:0|3:0,0:0:0:0:
246,297,17030,2,0,L|336:312,1,65,2|0,3:0|3:0,0:0:0:0:
387,319,17364,5,0,3:0:0:0:
455,285,17530,1,0,3:0:0:0:
489,217,17697,1,0,3:0:0:0:
474,142,17864,1,0,3:0:0:0:
415,92,18030,2,0,L|339:108,1,65,0|0,3:0|3:0,0:0:0:0:
398,177,18364,2,0,L|321:192,1,65,0|0,3:0|3:0,0:0:0:0:
257,204,18697,102,0,P|242:246|242:283,2,65,0|0|0,3:0|0:0|3:0,0:0:0:0:
202,147,19197,2,0,L|190:58,1,65,0|0,3:0|0:0,0:0:0:0:
113,194,19530,2,0,L|125:105,1,65,0|0,3:0|0:0,0:0:0:0:
53,90,19864,1,0,3:0:0:0:
85,19,20030,6,0,P|155:5|203:47,1,130,0|0,3:0|3:0,0:0:0:0:
261,120,20530,1,0,3:0:0:0:
261,120,20614,1,0,3:0:0:0:
261,120,20697,2,0,L|213:137,3,32.5,0|0|0|0,3:0|3:0|3:0|3:0,3:0:0:0:
249,165,21030,2,0,L|201:182,3,32.5,0|0|0|0,3:0|3:0|3:0|0:0,0:0:0:0:
235,208,21364,6,0,P|255:260|246:360,1,155.999995239258,4|8,3:2|0:0,0:0:0:0:
172,333,21864,2,0,L|86:349,1,77.999997619629,4|0,0:0|3:0,0:0:0:0:
30,249,22197,2,0,L|116:265,1,77.999997619629,4|8,3:2|0:0,0:0:0:0:
161,208,22530,1,0,0:0:0:0:
231,242,22697,6,0,B|266:154|286:207|322:107,1,155.999995239258,4|8,3:2|0:0,0:0:0:0:
266,57,23197,2,0,L|180:70,1,77.999997619629,4|0,0:2|3:0,0:0:0:0:
324,0,23530,2,0,L|410:13,1,77.999997619629,4|8,3:2|0:0,0:0:0:0:
478,27,23864,1,0,0:0:0:0:
505,99,24030,6,0,P|491:140|489:182,2,77.999997619629,2|2|10,3:2|0:0|0:0,0:0:0:0:
417,209,24530,2,0,P|367:177|248:179,1,155.999995239258,2|2,0:0|3:2,0:0:0:0:
206,212,25030,1,10,0:0:0:0:
206,212,25197,1,2,0:0:0:0:
149,157,25364,6,0,L|158:71,2,77.999997619629,2|2|10,3:2|0:0|0:0,0:0:0:0:
77,188,25864,2,0,L|105:345,1,155.999995239258,2|2,0:0|3:2,0:0:0:0:
178,378,26364,1,10,0:0:0:0:
178,378,26530,1,2,0:0:0:0:
226,315,26697,70,0,P|280:300|373:338,1,155.999995239258,4|8,3:2|0:0,0:0:0:0:
440,289,27197,2,0,L|456:387,1,77.999997619629,4|0,0:0|3:0,0:0:0:0:
375,242,27530,2,0,L|391:144,1,77.999997619629,4|8,3:2|0:0,0:0:0:0:
464,148,27864,1,0,0:0:0:0:
483,72,28030,6,0,P|432:41|328:49,1,155.999995239258,4|8,3:2|0:0,0:0:0:0:
268,9,28530,2,0,P|262:60|278:99,1,77.999997619629,4|0,0:2|3:0,0:0:0:0:
192,175,28864,2,0,P|198:124|182:85,1,77.999997619629,4|8,3:2|0:0,0:0:0:0:
117,71,29197,1,0,0:0:0:0:
42,93,29364,6,0,L|27:3,2,77.999997619629,2|2|10,3:2|0:0|0:0,0:0:0:0:
5,162,29864,2,0,P|28:223|122:247,1,155.999995239258,2|2,0:0|3:2,0:0:0:0:
158,189,30364,2,0,L|252:175,1,77.999997619629,10|2,0:0|0:0,0:0:0:0:
315,167,30697,37,2,3:2:0:0:
315,167,30864,1,2,3:2:0:0:
335,241,31030,2,0,P|318:279|316:330,1,77.999997619629,10|2,0:2|0:2,0:2:0:0:
232,288,31364,101,2,3:2:0:0:
171,348,31530,1,2,3:2:0:0:
106,291,31697,1,10,0:2:0:0:
49,356,31864,1,2,0:2:0:0:
49,356,31947,1,2,0:2:0:0:
49,356,32030,54,0,L|66:180,1,155.999995239258,4|8,3:2|0:0,0:0:0:0:
132,115,32530,2,0,L|145:204,1,77.999997619629,4|0,0:0|3:0,0:0:0:0:
220,259,32864,2,0,L|233:170,1,77.999997619629,4|8,3:2|0:0,0:0:0:0:
285,125,33197,1,0,0:0:0:0:
260,50,33364,6,0,B|296:26|296:26|364:39|372:118,1,155.999995239258,4|8,3:2|0:0,0:0:0:0:
440,133,33864,2,0,P|431:187|401:221,1,77.999997619629,4|0,0:2|3:0,0:0:0:0:
339,234,34197,2,0,P|330:180|300:146,1,77.999997619629,4|8,3:2|0:0,0:0:0:0:
239,154,34530,1,0,0:0:0:0:
177,105,34697,6,0,L|184:15,2,77.999997619629,2|2|10,3:2|0:0|0:0,0:0:0:0:
121,159,35197,2,0,P|45:157|16:64,1,155.999995239258,2|2,0:0|3:2,0:0:0:0:
42,21,35697,1,10,0:0:0:0:
42,21,35864,1,2,0:0:0:0:
113,52,36030,6,0,P|169:40|208:20,2,77.999997619629,2|2|10,3:2|0:0|0:0,0:0:0:0:
237,97,36530,2,0,P|281:99|372:177,1,155.999995239258,2|2,0:0|3:2,0:0:0:0:
326,232,37030,1,10,0:0:0:0:
326,232,37197,1,2,0:0:0:0:
399,258,37364,70,0,L|236:292,1,155.999995239258,4|8,3:2|0:0,0:0:0:0:
170,307,37864,2,0,P|171:355|180:389,1,77.999997619629,4|0,0:0|3:0,0:0:0:0:
109,251,38197,2,0,P|108:203|99:169,1,77.999997619629,4|8,3:2|0:0,0:0:0:0:
27,147,38530,1,0,0:0:0:0:
19,69,38697,6,0,P|66:31|168:43,1,155.999995239258,4|8,3:2|0:0,0:0:0:0:
228,69,39197,2,0,L|217:151,1,77.999997619629,4|0,0:2|3:0,0:0:0:0:
288,179,39530,2,0,L|299:261,1,77.999997619629,4|8,3:2|0:0,0:0:0:0:
257,323,39864,1,0,0:0:0:0:
315,374,40030,6,0,P|363:338|464:342,1,155.999995239258,2|10,3:2|0:0,0:0:0:0:
504,276,40530,1,2,0:0:0:0:
441,229,40697,2,0,L|454:142,1,77.999997619629,0|2,0:0|3:2,0:0:0:0:
368,258,41030,1,10,0:0:0:0:
311,204,41197,1,2,0:0:0:0:
244,244,41364,6,0,P|199:246|154:260,1,77.999997619629,2|2,3:2|0:2,0:2:0:0:
108,203,41697,2,0,P|36:176|33:89,1,155.999995239258,10|0,0:2|3:2,0:2:0:0:
94,64,42197,1,0,3:2:0:0:
94,64,42280,1,0,3:2:0:0:
94,64,42364,2,0,L|82:-2,3,38.9999988098145,8|8|8|8,3:0|3:0|3:0|3:0,0:0:0:0:
113,6,42697,38,0,P|179:9|228:75,1,130,4|2,0:0|0:0,0:0:0:0:
198,127,43197,1,4,0:0:0:0:
198,127,43364,2,0,L|194:203,1,65
270,209,43697,2,0,L|274:133,1,65,6|0,0:0|0:0,0:0:0:0:
335,96,44030,2,0,P|419:84|513:220,1,260,8|4,0:0|0:0,0:0:0:0:
412,330,45030,1,2,0:0:0:0:
271,260,45364,6,0,L|127:283,1,130,0|2,0:0|0:0,0:0:0:0:
65,294,45864,1,0,0:0:0:0:
65,294,46030,2,0,P|42:246|44:209,1,65,8|0,0:0|3:0,0:0:0:0:
110,197,46364,2,0,P|127:146|155:122,1,65
211,152,46697,2,0,B|229:271|251:215|272:345,2,195,4|4|12,0:0|0:0|0:0,0:0:0:0:
307,29,48030,102,0,P|368:39|401:118,1,130,4|2,3:2|0:0,0:0:0:0:
461,144,48530,1,0,3:0:0:0:
461,144,48697,2,0,L|452:224,1,65
378,230,49030,2,0,L|385:294,1,65,2|0,0:0|0:0,0:0:0:0:
450,337,49364,2,0,L|179:305,1,260,12|4,0:2|0:0,0:0:0:0:
35,294,50364,1,2,0:0:0:0:
8,140,50697,6,0,P|72:126|129:178,1,130,0|6,3:0|0:0,0:0:0:0:
202,159,51197,1,0,0:0:0:0:
202,159,51364,2,0,L|213:73,1,65,8|4,0:0|3:2,0:0:0:0:
282,65,51697,2,0,L|290:129,1,65,2|0,0:0|0:0,0:0:0:0:
364,154,52030,2,0,B|344:265|382:227|362:354,2,195,4|4|4,3:2|0:0|3:2,0:0:0:0:
213,76,53864,102,0,L|201:0,2,65,0|0|0,3:0|3:0|3:0,0:0:0:0:
284,107,54364,2,0,P|236:97|156:205,1,195,0|0,3:0|3:0,0:0:0:0:
223,236,55030,6,0,L|236:318,1,65,0|0,3:0|3:0,0:0:0:0:
317,316,55364,2,0,L|306:251,1,65,0|0,3:0|3:0,0:0:0:0:
382,210,55697,2,0,L|395:292,1,65,0|0,3:0|3:0,0:0:0:0:
462,308,56030,102,0,P|495:251|459:171,1,130,0|0,3:0|3:0,0:0:0:0:
500,116,56530,1,0,3:0:0:0:
431,80,56696,1,0,3:0:0:0:
354,86,56863,1,0,3:0:0:0:
292,131,57029,1,0,3:0:0:0:
264,203,57196,1,0,3:0:0:0:
277,279,57364,6,0,B|193:298|240:308|146:332,1,130,4|0,3:2|0:0,0:0:0:0:
99,277,57864,2,0,B|117:192|127:239|151:145,1,130,4|0,3:2|0:0,0:0:0:0:
99,97,58364,2,0,L|57:106,3,32.5,0|0|0|0,3:0|3:0|3:0|3:0,3:0:0:0:
31,73,58697,6,0,P|69:24|171:23,1,155.999995239258,4|8,3:2|0:0,0:0:0:0:
235,7,59197,2,0,L|244:93,1,77.999997619629,4|0,0:0|3:0,0:0:0:0:
317,108,59530,2,0,L|308:194,1,77.999997619629,4|8,3:2|0:0,0:0:0:0:
297,263,59864,1,0,0:0:0:0:
222,286,60030,6,0,P|189:252|75:241,1,155.999995239258,4|8,3:2|0:0,0:0:0:0:
18,197,60530,2,0,P|22:140|41:108,1,77.999997619629,4|0,0:2|3:0,0:0:0:0:
107,68,60864,2,0,P|111:125|130:157,1,77.999997619629,4|8,3:2|0:0,0:0:0:0:
196,159,61197,1,0,0:0:0:0:
250,103,61364,6,0,L|343:95,2,77.999997619629,2|2|10,3:2|0:0|0:0,0:0:0:0:
356,25,61864,2,0,P|416:46|447:142,1,155.999995239258,2|2,0:0|3:2,0:0:0:0:
509,185,62364,1,10,0:0:0:0:
509,185,62530,1,2,0:0:0:0:
456,242,62697,6,0,L|366:253,2,77.999997619629,2|2|10,3:2|0:0|0:0,0:0:0:0:
495,309,63197,2,0,P|468:351|342:347,1,155.999995239258,2|2,0:0|3:2,0:0:0:0:
323,302,63697,1,10,0:0:0:0:
323,302,63864,1,2,0:0:0:0:
255,340,64030,70,0,B|171:317|196:363|98:335,1,155.999995239258,4|8,3:2|0:0,0:0:0:0:
25,353,64530,2,0,P|27:302|44:265,1,77.999997619629,4|0,0:0|3:0,0:0:0:0:
187,230,64864,2,0,P|185:281|168:318,1,77.999997619629,4|8,3:2|0:0,0:0:0:0:
112,259,65197,1,0,0:0:0:0:
59,201,65364,6,0,L|50:42,1,155.999995239258,4|8,3:2|0:0,0:0:0:0:
118,6,65864,2,0,L|209:23,1,77.999997619629,4|0,0:2|3:0,0:0:0:0:
323,70,66197,2,0,L|232:87,1,77.999997619629,4|8,3:2|0:0,0:0:0:0:
197,145,66530,1,0,0:0:0:0:
251,200,66697,6,0,P|256:245|242:288,2,77.999997619629,2|2|10,3:2|0:0|0:0,0:0:0:0:
179,318,67197,2,0,P|156:259|69:207,1,155.999995239258,2|2,0:0|3:2,0:0:0:0:
4,191,67697,2,0,L|-3:96,1,77.999997619629,10|2,0:0|0:0,0:0:0:0:
62,67,68030,37,2,3:2:0:0:
62,67,68197,1,2,3:2:0:0:
121,117,68364,2,0,P|164:125|220:122,1,77.999997619629,10|2,0:2|0:2,0:2:0:0:
260,65,68697,101,2,3:2:0:0:
287,146,68864,1,2,3:2:0:0:
371,159,69030,1,10,0:2:0:0:
397,250,69197,1,2,0:2:0:0:
397,250,69280,1,2,0:2:0:0:
397,250,69364,54,0,L|211:237,1,155.999995239258,4|8,3:2|0:0,0:0:0:0:
209,310,69864,2,0,P|162:298|118:298,1,77.999997619629,4|0,0:0|3:0,0:0:0:0:
80,240,70197,2,0,P|33:252|-11:252,1,77.999997619629,4|8,3:2|0:0,0:0:0:0:
119,169,70530,1,0,0:0:0:0:
189,206,70697,6,0,P|246:195|318:279,1,155.999995239258,4|8,3:2|0:0,0:0:0:0:
388,280,71197,2,0,L|395:203,1,77.999997619629,4|0,0:2|3:0,0:0:0:0:
470,161,71530,2,0,L|477:238,1,77.999997619629,4|8,3:2|0:0,0:0:0:0:
486,316,71864,1,0,0:0:0:0:
419,355,72030,6,0,P|361:361|328:376,2,77.999997619629,2|2|10,3:2|0:0|0:0,0:0:0:0:
304,302,72530,2,0,L|144:283,1,155.999995239258,2|2,0:0|3:2,0:0:0:0:
71,275,73030,1,10,0:0:0:0:
71,275,73197,1,2,0:0:0:0:
67,196,73364,6,0,P|45:152|49:103,2,77.999997619629,2|2|10,3:2|0:0|0:0,0:0:0:0:
144,190,73864,2,0,B|178:196|178:196|226:149|293:164,1,155.999995239258,2|2,0:0|3:2,0:0:0:0:
357,212,74364,1,10,0:0:0:0:
357,212,74530,1,2,0:0:0:0:
420,165,74697,70,0,P|482:163|509:76,1,155.999995239258,4|8,3:2|0:0,0:0:0:0:
456,28,75197,2,0,L|364:42,1,77.999997619629,4|0,0:0|3:0,0:0:0:0:
323,94,75530,2,0,L|231:80,1,77.999997619629,4|8,3:2|0:0,0:0:0:0:
198,19,75864,1,0,0:0:0:0:
120,22,76030,6,0,L|96:191,1,155.999995239258,4|8,3:2|0:0,0:0:0:0:
28,211,76530,2,0,P|40:258|41:307,1,77.999997619629,4|0,0:2|3:0,0:0:0:0:
135,363,76864,2,0,P|123:316|122:267,1,77.999997619629,4|8,3:2|0:0,0:0:0:0:
169,225,77197,1,0,0:0:0:0:
235,265,77364,6,0,L|334:275,2,77.999997619629,2|2|10,3:2|0:0|0:0,0:0:0:0:
362,332,77864,2,0,P|423:297|432:195,1,155.999995239258,2|2,0:0|3:2,0:0:0:0:
512,184,78364,2,0,L|499:101,1,77.999997619629,10|2,0:0|0:0,0:0:0:0:
482,30,78697,5,2,3:2:0:0:
406,11,78864,1,2,0:2:0:0:
360,74,79030,1,10,0:2:0:0:
284,55,79197,1,2,0:2:0:0:
252,126,79364,2,0,L|160:118,1,77.999997619629,0|0,3:2|3:2,0:0:0:0:
326,163,79697,2,0,L|418:155,1,77.999997619629,8|8,3:0|3:0,0:0:0:0:
404,157,79947,1,8,3:0:0:0:
404,157,80030,37,4,3:2:0:0:
468,218,80197,2,0,B|446:322|446:322|419:327|391:365,2,155.999995239258,4|4|4,3:2|3:2|3:2,0:0:0:0:
504,66,81197,2,0,L|414:88,1,77.999997619629,4|0,3:2|0:0,0:0:0:0:
354,111,81530,5,0,3:0:0:0:
292,62,81697,1,4,3:2:0:0:
292,62,81780,1,2,0:0:0:0:
292,62,81864,2,0,L|299:16,11,38.9999988098145,2|2|2|2|2|2|2|2|2|2|2|2,0:0|0:0|0:0|0:0|0:0|0:0|0:0|0:0|0:0|0:0|0:0|0:0,0:0:0:0:
262,5,82864,22,0,L|168:19,1,77.999997619629,2|2,3:2|3:2,0:0:0:0:
149,85,83197,2,0,L|186:172,1,77.999997619629,2|2,3:2|3:2,0:0:0:0:
258,155,83530,5,6,3:2:0:0:
241,252,83696,1,6,3:2:0:0:
225,348,83863,1,6,3:2:0:0:
