osu file format v14

[General]
AudioFilename: audio.mp3
AudioLeadIn: 0
PreviewTime: 39804
Countdown: 0
SampleSet: Soft
StackLeniency: 0.7
Mode: 3
LetterboxInBreaks: 0
SpecialStyle: 0
WidescreenStoryboard: 1

[Editor]
DistanceSpacing: 1
BeatDivisor: 4
GridSize: 32
TimelineZoom: 1.8

[Metadata]
Title:Envy Baby
TitleUnicode:エンヴィーベイビー
Artist:Omaru Polka
ArtistUnicode:尾丸ポルカ
Creator:Ainer
Version:Paran's Normal
Source:
Tags:angki Paran Syadow- Japanese Pop Jpop J-pop Kanaria GUMI グミ Hololive ホロライブ hororaibu vtuber virtual youtuber バーチャルYouTuber バーチャルユーチューバー はまひろ Hamahiro おまる omarun omapol おまポル 座長 zachou カバー株式会社 cover corporation ロダクション Production 五期生 5th generation
BeatmapID:2872784
BeatmapSetID:1391279

[Difficulty]
HPDrainRate:7.5
CircleSize:4
OverallDifficulty:7.5
ApproachRate:5
SliderMultiplier:1.4
SliderTickRate:1

[Events]
//Background and Video events
0,0,"envy.jpg",0,0
//Break Periods
//Storyboard Layer 0 (Background)
//Storyboard Layer 1 (Fail)
//Storyboard Layer 2 (Pass)
//Storyboard Layer 3 (Foreground)
//Storyboard Layer 4 (Overlay)
//Storyboard Sound Samples

[TimingPoints]
1208,350.877192982456,4,2,1,70,1,0
40506,-100.0,4,2,1,70,0,1
49979,-100.0,4,2,1,70,0,0
52962,-100.0,4,2,1,70,0,1
57348,-100.0,4,2,1,70,0,0
58576,-100.0,4,2,1,70,0,1
61383,-100.0,4,2,1,70,0,0
96646,-100.0,4,2,1,70,0,1
106120,-100.0,4,2,1,70,0,0
109102,-100.0,4,2,1,70,0,1
113488,-100.0,4,2,1,70,0,0
114716,-100.0,4,2,1,70,0,1
117523,-100.0,4,2,1,70,0,0

[HitObjects]
448,192,1208,1,0,0:0:0:0:
320,192,1734,1,0,0:0:0:0:
64,192,1909,1,0,0:0:0:0:
448,192,2436,1,0,0:0:0:0:
192,192,2611,1,0,0:0:0:0:
64,192,3137,1,0,0:0:0:0:
320,192,3313,1,0,0:0:0:0:
192,192,3839,1,0,0:0:0:0:
448,192,4015,1,0,0:0:0:0:
320,192,4541,1,0,0:0:0:0:
64,192,4716,1,0,0:0:0:0:
448,192,5243,1,0,0:0:0:0:
64,192,5593,1,2,0:0:0:0:
192,192,5593,1,0,0:0:0:0:
320,192,5769,1,2,0:0:0:0:
448,192,5769,1,0,0:0:0:0:
64,192,5944,1,2,0:0:0:0:
192,192,5944,1,0,0:0:0:0:
320,192,6120,1,2,0:0:0:0:
448,192,6120,1,0,0:0:0:0:
192,192,6471,1,2,0:0:0:0:
320,192,6471,1,8,0:0:0:0:
64,192,6822,1,4,0:0:0:0:
448,192,6822,1,2,0:0:0:0:
64,192,7172,1,8,0:0:0:0:
192,192,7172,1,2,0:0:0:0:
320,192,7523,1,2,0:0:0:0:
192,192,7699,1,0,0:0:0:0:
64,192,7874,1,8,0:0:0:0:
448,192,7874,1,2,0:0:0:0:
320,192,8050,128,0,8400:0:0:0:0:
64,192,8400,1,0,0:0:0:0:
320,192,8576,1,8,0:0:0:0:
448,192,8576,1,2,0:0:0:0:
64,192,8751,128,0,8927:0:0:0:0:
448,192,8927,1,2,0:0:0:0:
320,192,9102,1,0,0:0:0:0:
192,192,9278,1,10,0:0:0:0:
64,192,9453,1,0,0:0:0:0:
320,192,9629,1,2,0:0:0:0:
448,192,9629,1,0,0:0:0:0:
192,192,9804,1,0,0:0:0:0:
64,192,9979,1,8,0:0:0:0:
448,192,9979,1,2,0:0:0:0:
320,192,10155,1,0,0:0:0:0:
64,192,10330,1,2,0:0:0:0:
192,192,10506,1,0,0:0:0:0:
320,192,10681,1,8,0:0:0:0:
448,192,10681,1,2,0:0:0:0:
64,192,10857,1,0,0:0:0:0:
64,192,11207,1,0,0:0:0:0:
320,192,11383,1,8,0:0:0:0:
448,192,11383,1,2,0:0:0:0:
192,192,11558,1,0,0:0:0:0:
448,192,11734,1,2,0:0:0:0:
320,192,11909,1,0,0:0:0:0:
64,192,12085,1,8,0:0:0:0:
192,192,12085,1,2,0:0:0:0:
448,192,12260,1,0,0:0:0:0:
64,192,12436,1,2,0:0:0:0:
192,192,12436,1,0,0:0:0:0:
320,192,12786,1,8,0:0:0:0:
448,192,12786,1,2,0:0:0:0:
192,192,13137,1,2,0:0:0:0:
320,192,13313,1,0,0:0:0:0:
64,192,13488,1,8,0:0:0:0:
448,192,13488,1,2,0:0:0:0:
192,192,13664,128,0,14015:0:0:0:0:
448,192,14015,1,0,0:0:0:0:
64,192,14190,1,8,0:0:0:0:
192,192,14190,1,2,0:0:0:0:
448,192,14365,128,0,14541:0:0:0:0:
64,192,14541,1,2,0:0:0:0:
192,192,14716,1,0,0:0:0:0:
320,192,14892,1,10,0:0:0:0:
448,192,15067,1,0,0:0:0:0:
64,192,15243,1,2,0:0:0:0:
192,192,15243,1,0,0:0:0:0:
320,192,15418,1,0,0:0:0:0:
64,192,15593,1,8,0:0:0:0:
448,192,15593,1,2,0:0:0:0:
192,192,15769,1,0,0:0:0:0:
448,192,15944,1,2,0:0:0:0:
320,192,16120,1,0,0:0:0:0:
64,192,16295,1,8,0:0:0:0:
192,192,16295,1,2,0:0:0:0:
448,192,16471,1,0,0:0:0:0:
448,192,16822,1,0,0:0:0:0:
64,192,16997,1,8,0:0:0:0:
192,192,16997,1,2,0:0:0:0:
320,192,17172,1,0,0:0:0:0:
64,192,17348,1,2,0:0:0:0:
192,192,17523,1,0,0:0:0:0:
320,192,17699,1,8,0:0:0:0:
448,192,17699,1,2,0:0:0:0:
192,192,17874,1,0,0:0:0:0:
64,192,18050,1,4,0:0:0:0:
448,192,18050,1,2,0:0:0:0:
320,192,18400,1,8,0:0:0:0:
448,192,18400,1,2,0:0:0:0:
192,192,18576,128,0,18751:0:0:0:0:
320,192,18751,1,2,0:0:0:0:
448,192,18751,128,0,18927:0:0:0:0:
192,192,19102,1,8,0:0:0:0:
320,192,19102,1,2,0:0:0:0:
64,192,19278,128,0,19453:0:0:0:0:
192,192,19453,1,2,0:0:0:0:
320,192,19453,128,0,19629:0:0:0:0:
64,192,19804,1,8,0:0:0:0:
192,192,19804,1,2,0:0:0:0:
448,192,19979,128,0,20155:0:0:0:0:
192,192,20155,128,2,20330:0:0:0:0:
320,192,20155,1,0,0:0:0:0:
64,192,20506,1,8,0:0:0:0:
448,192,20506,1,2,0:0:0:0:
320,192,20681,128,0,20857:0:0:0:0:
64,192,20857,128,2,21032:0:0:0:0:
192,192,20857,1,0,0:0:0:0:
320,192,21207,1,8,0:0:0:0:
448,192,21207,1,2,0:0:0:0:
192,192,21383,128,0,21558:0:0:0:0:
320,192,21558,1,2,0:0:0:0:
448,192,21558,128,0,21734:0:0:0:0:
64,192,21909,1,8,0:0:0:0:
192,192,21909,1,2,0:0:0:0:
448,192,22085,128,0,22260:0:0:0:0:
192,192,22260,1,2,0:0:0:0:
320,192,22436,128,0,22611:0:0:0:0:
64,192,22611,1,8,0:0:0:0:
448,192,22611,1,2,0:0:0:0:
192,192,22786,128,0,22962:0:0:0:0:
448,192,22962,1,2,0:0:0:0:
192,192,23313,1,8,0:0:0:0:
320,192,23313,1,2,0:0:0:0:
64,192,23664,1,2,0:0:0:0:
448,192,23664,1,0,0:0:0:0:
64,192,24015,1,8,0:0:0:0:
192,192,24015,1,2,0:0:0:0:
320,192,24190,128,0,24365:0:0:0:0:
64,192,24365,128,2,24541:0:0:0:0:
192,192,24365,1,0,0:0:0:0:
192,192,24716,1,8,0:0:0:0:
320,192,24716,1,2,0:0:0:0:
448,192,24892,128,0,25067:0:0:0:0:
192,192,25067,128,2,25243:0:0:0:0:
320,192,25067,1,0,0:0:0:0:
320,192,25418,1,8,0:0:0:0:
448,192,25418,1,2,0:0:0:0:
64,192,25593,128,0,25769:0:0:0:0:
192,192,25769,1,2,0:0:0:0:
320,192,25769,128,0,25944:0:0:0:0:
64,192,26120,1,8,0:0:0:0:
448,192,26120,1,2,0:0:0:0:
192,192,26295,128,0,26471:0:0:0:0:
320,192,26471,1,2,0:0:0:0:
448,192,26471,128,0,26646:0:0:0:0:
64,192,26822,1,8,0:0:0:0:
192,192,26822,1,2,0:0:0:0:
320,192,26997,128,0,27172:0:0:0:0:
64,192,27172,128,2,27348:0:0:0:0:
192,192,27172,1,0,0:0:0:0:
320,192,27523,1,8,0:0:0:0:
448,192,27523,1,2,0:0:0:0:
64,192,27699,128,0,27874:0:0:0:0:
320,192,27874,1,2,0:0:0:0:
192,192,28050,128,0,28225:0:0:0:0:
64,192,28225,1,8,0:0:0:0:
448,192,28225,1,2,0:0:0:0:
320,192,28400,128,0,28576:0:0:0:0:
64,192,28576,1,2,0:0:0:0:
192,192,28927,1,8,0:0:0:0:
320,192,28927,1,2,0:0:0:0:
64,192,29278,1,4,0:0:0:0:
448,192,29278,1,2,0:0:0:0:
192,192,29453,128,0,29804:0:0:0:0:
64,192,29804,1,2,0:0:0:0:
448,192,29979,1,2,0:0:0:0:
320,192,30155,1,0,0:0:0:0:
192,192,30330,1,0,0:0:0:0:
64,192,30506,1,0,0:0:0:0:
192,192,30681,1,2,0:0:0:0:
448,192,30681,128,0,31032:0:0:0:0:
64,192,31032,128,0,31207:0:0:0:0:
320,192,31207,1,2,0:0:0:0:
192,192,31383,1,2,0:0:0:0:
448,192,31383,128,0,31734:0:0:0:0:
64,192,31734,128,0,31909:0:0:0:0:
320,192,31909,1,2,0:0:0:0:
192,192,32085,1,2,0:0:0:0:
320,192,32260,128,0,32611:0:0:0:0:
448,192,32611,1,2,0:0:0:0:
64,192,32786,1,2,0:0:0:0:
192,192,32962,1,0,0:0:0:0:
320,192,33137,1,0,0:0:0:0:
448,192,33313,1,0,0:0:0:0:
64,192,33488,1,4,0:0:0:0:
192,192,33488,128,2,33839:0:0:0:0:
320,192,33839,1,4,0:0:0:0:
448,192,33839,128,2,34190:0:0:0:0:
64,192,34190,128,4,34541:0:0:0:0:
192,192,34190,1,2,0:0:0:0:
320,192,34541,128,4,34892:0:0:0:0:
448,192,34541,1,2,0:0:0:0:
64,192,34892,1,4,0:0:0:0:
192,192,34892,1,2,0:0:0:0:
320,192,35243,1,2,0:0:0:0:
448,192,35243,1,0,0:0:0:0:
64,192,35593,1,2,0:0:0:0:
192,192,35769,1,0,0:0:0:0:
320,192,35944,1,2,0:0:0:0:
448,192,36120,1,0,0:0:0:0:
64,192,36295,1,2,0:0:0:0:
192,192,36295,1,0,0:0:0:0:
320,192,36646,1,2,0:0:0:0:
448,192,36646,1,0,0:0:0:0:
64,192,36997,1,2,0:0:0:0:
192,192,36997,1,0,0:0:0:0:
320,192,37348,1,2,0:0:0:0:
448,192,37348,1,0,0:0:0:0:
64,192,37699,1,8,0:0:0:0:
448,192,37699,1,2,0:0:0:0:
64,192,39278,1,2,0:0:0:0:
448,192,39278,1,0,0:0:0:0:
192,192,39453,1,2,0:0:0:0:
320,192,39453,1,0,0:0:0:0:
64,192,39629,1,2,0:0:0:0:
448,192,39629,1,0,0:0:0:0:
64,192,40506,1,4,0:0:0:0:
448,192,40506,1,2,0:0:0:0:
64,192,40857,1,8,0:0:0:0:
448,192,40857,1,2,0:0:0:0:
320,192,41207,1,2,0:0:0:0:
192,192,41383,1,0,0:0:0:0:
64,192,41558,1,8,0:0:0:0:
448,192,41558,1,2,0:0:0:0:
320,192,41734,128,0,42085:0:0:0:0:
64,192,42085,1,0,0:0:0:0:
320,192,42260,1,8,0:0:0:0:
448,192,42260,1,2,0:0:0:0:
192,192,42436,128,0,42786:0:0:0:0:
448,192,42786,1,0,0:0:0:0:
64,192,42962,1,8,0:0:0:0:
192,192,42962,1,2,0:0:0:0:
320,192,43137,1,0,0:0:0:0:
64,192,43313,1,2,0:0:0:0:
448,192,43313,1,0,0:0:0:0:
192,192,43664,1,8,0:0:0:0:
320,192,43664,1,2,0:0:0:0:
192,192,44015,1,2,0:0:0:0:
320,192,44190,1,0,0:0:0:0:
64,192,44365,1,8,0:0:0:0:
448,192,44365,1,2,0:0:0:0:
192,192,44541,128,0,44716:0:0:0:0:
448,192,44716,1,2,0:0:0:0:
320,192,44892,1,0,0:0:0:0:
64,192,45067,1,8,0:0:0:0:
192,192,45067,1,2,0:0:0:0:
448,192,45243,128,0,45418:0:0:0:0:
64,192,45418,1,2,0:0:0:0:
192,192,45593,1,0,0:0:0:0:
320,192,45769,1,8,0:0:0:0:
448,192,45769,1,2,0:0:0:0:
192,192,45944,1,0,0:0:0:0:
64,192,46120,1,2,0:0:0:0:
448,192,46120,1,0,0:0:0:0:
64,192,46471,1,8,0:0:0:0:
448,192,46471,1,2,0:0:0:0:
192,192,46822,1,2,0:0:0:0:
320,192,46997,1,0,0:0:0:0:
64,192,47172,1,8,0:0:0:0:
448,192,47172,1,2,0:0:0:0:
192,192,47348,128,0,47699:0:0:0:0:
448,192,47699,1,0,0:0:0:0:
64,192,47874,1,8,0:0:0:0:
192,192,47874,1,2,0:0:0:0:
320,192,48050,128,0,48400:0:0:0:0:
64,192,48400,1,0,0:0:0:0:
320,192,48576,1,8,0:0:0:0:
448,192,48576,1,2,0:0:0:0:
192,192,48751,1,0,0:0:0:0:
64,192,48927,1,2,0:0:0:0:
448,192,48927,1,0,0:0:0:0:
192,192,49278,1,8,0:0:0:0:
320,192,49278,1,2,0:0:0:0:
64,192,49629,1,2,0:0:0:0:
192,192,49804,128,0,50155:0:0:0:0:
320,192,50155,128,2,50506:0:0:0:0:
448,192,50155,1,0,0:0:0:0:
64,192,50506,1,2,0:0:0:0:
192,192,50506,1,0,0:0:0:0:
320,192,50681,1,2,0:0:0:0:
448,192,50681,1,0,0:0:0:0:
64,192,50857,1,2,0:0:0:0:
192,192,50857,1,0,0:0:0:0:
320,192,51032,1,2,0:0:0:0:
448,192,51032,1,0,0:0:0:0:
192,192,51383,128,2,51734:0:0:0:0:
320,192,51383,1,0,0:0:0:0:
64,192,51734,1,2,0:0:0:0:
448,192,51734,1,0,0:0:0:0:
192,192,52085,1,2,0:0:0:0:
320,192,52085,1,0,0:0:0:0:
64,192,52436,1,2,0:0:0:0:
192,192,52436,1,0,0:0:0:0:
320,192,52611,1,2,0:0:0:0:
448,192,52611,1,0,0:0:0:0:
64,192,52962,1,4,0:0:0:0:
448,192,52962,1,2,0:0:0:0:
192,192,53313,1,0,0:0:0:0:
320,192,53488,1,10,0:0:0:0:
448,192,53664,1,0,0:0:0:0:
64,192,53839,1,2,0:0:0:0:
192,192,54015,1,0,0:0:0:0:
320,192,54190,1,10,0:0:0:0:
448,192,54365,1,0,0:0:0:0:
64,192,54541,128,2,54892:0:0:0:0:
192,192,54541,1,0,0:0:0:0:
320,192,54892,1,8,0:0:0:0:
448,192,54892,128,2,55243:0:0:0:0:
192,192,55243,1,2,0:0:0:0:
320,192,55418,1,0,0:0:0:0:
64,192,55593,1,8,0:0:0:0:
448,192,55593,1,2,0:0:0:0:
192,192,55769,1,0,0:0:0:0:
320,192,55944,1,2,0:0:0:0:
448,192,55944,1,0,0:0:0:0:
64,192,56295,1,8,0:0:0:0:
192,192,56295,1,2,0:0:0:0:
320,192,56646,1,2,0:0:0:0:
192,192,56822,1,0,0:0:0:0:
64,192,56997,1,8,0:0:0:0:
448,192,56997,1,2,0:0:0:0:
320,192,57172,1,0,0:0:0:0:
64,192,57348,1,2,0:0:0:0:
192,192,57348,1,0,0:0:0:0:
192,192,57699,1,2,0:0:0:0:
320,192,57699,1,0,0:0:0:0:
320,192,58050,1,2,0:0:0:0:
448,192,58050,1,0,0:0:0:0:
64,192,58225,1,2,0:0:0:0:
192,192,58225,1,0,0:0:0:0:
64,192,58576,1,4,0:0:0:0:
448,192,58576,1,2,0:0:0:0:
320,192,58927,1,0,0:0:0:0:
192,192,59102,1,10,0:0:0:0:
64,192,59278,1,0,0:0:0:0:
448,192,59453,1,2,0:0:0:0:
320,192,59629,1,0,0:0:0:0:
192,192,59804,1,10,0:0:0:0:
64,192,59979,1,0,0:0:0:0:
320,192,60155,1,2,0:0:0:0:
448,192,60155,1,0,0:0:0:0:
64,192,60506,1,8,0:0:0:0:
192,192,60506,1,2,0:0:0:0:
448,192,60857,1,2,0:0:0:0:
320,192,61032,1,0,0:0:0:0:
192,192,61207,1,10,0:0:0:0:
64,192,61383,1,2,0:0:0:0:
448,192,61383,1,0,0:0:0:0:
320,192,61734,1,2,0:0:0:0:
448,192,61734,1,0,0:0:0:0:
64,192,61909,1,2,0:0:0:0:
192,192,61909,1,0,0:0:0:0:
320,192,62085,1,2,0:0:0:0:
448,192,62085,1,0,0:0:0:0:
64,192,62260,1,2,0:0:0:0:
192,192,62260,1,0,0:0:0:0:
192,192,62611,1,2,0:0:0:0:
320,192,62611,1,8,0:0:0:0:
64,192,62962,1,4,0:0:0:0:
448,192,62962,1,2,0:0:0:0:
320,192,63313,1,8,0:0:0:0:
448,192,63313,1,2,0:0:0:0:
192,192,63664,1,2,0:0:0:0:
320,192,63839,1,0,0:0:0:0:
64,192,64015,1,8,0:0:0:0:
448,192,64015,1,2,0:0:0:0:
192,192,64190,128,0,64541:0:0:0:0:
448,192,64541,1,0,0:0:0:0:
64,192,64716,1,8,0:0:0:0:
192,192,64716,1,2,0:0:0:0:
448,192,64892,128,0,65067:0:0:0:0:
64,192,65067,1,2,0:0:0:0:
192,192,65243,1,0,0:0:0:0:
320,192,65418,1,10,0:0:0:0:
448,192,65593,1,0,0:0:0:0:
64,192,65769,1,2,0:0:0:0:
192,192,65769,1,0,0:0:0:0:
320,192,65944,1,0,0:0:0:0:
64,192,66120,1,8,0:0:0:0:
448,192,66120,1,2,0:0:0:0:
192,192,66295,1,0,0:0:0:0:
448,192,66471,1,2,0:0:0:0:
320,192,66646,1,0,0:0:0:0:
64,192,66822,1,8,0:0:0:0:
192,192,66822,1,2,0:0:0:0:
448,192,66997,1,0,0:0:0:0:
448,192,67348,1,0,0:0:0:0:
64,192,67523,1,8,0:0:0:0:
192,192,67523,1,2,0:0:0:0:
320,192,67699,1,0,0:0:0:0:
64,192,67874,1,2,0:0:0:0:
192,192,68050,1,0,0:0:0:0:
320,192,68225,1,8,0:0:0:0:
448,192,68225,1,2,0:0:0:0:
64,192,68400,1,0,0:0:0:0:
320,192,68576,1,2,0:0:0:0:
448,192,68576,1,0,0:0:0:0:
64,192,68927,1,8,0:0:0:0:
192,192,68927,1,2,0:0:0:0:
320,192,69278,1,2,0:0:0:0:
192,192,69453,1,0,0:0:0:0:
64,192,69629,1,8,0:0:0:0:
448,192,69629,1,2,0:0:0:0:
320,192,69804,128,0,70155:0:0:0:0:
64,192,70155,1,0,0:0:0:0:
320,192,70330,1,8,0:0:0:0:
448,192,70330,1,2,0:0:0:0:
64,192,70506,128,0,70681:0:0:0:0:
448,192,70681,1,2,0:0:0:0:
320,192,70857,1,0,0:0:0:0:
192,192,71032,1,10,0:0:0:0:
64,192,71207,1,0,0:0:0:0:
320,192,71383,1,2,0:0:0:0:
448,192,71383,1,0,0:0:0:0:
192,192,71558,1,0,0:0:0:0:
64,192,71734,1,8,0:0:0:0:
448,192,71734,1,2,0:0:0:0:
320,192,71909,1,0,0:0:0:0:
64,192,72085,1,2,0:0:0:0:
192,192,72260,1,0,0:0:0:0:
320,192,72436,1,8,0:0:0:0:
448,192,72436,1,2,0:0:0:0:
64,192,72611,1,2,0:0:0:0:
192,192,72611,1,0,0:0:0:0:
320,192,72962,1,2,0:0:0:0:
448,192,72962,1,0,0:0:0:0:
64,192,73137,1,2,0:0:0:0:
192,192,73137,1,0,0:0:0:0:
64,192,73488,1,2,0:0:0:0:
448,192,73488,1,0,0:0:0:0:
192,192,73839,1,8,0:0:0:0:
320,192,74190,1,2,0:0:0:0:
448,192,74190,128,0,74365:0:0:0:0:
192,192,74716,1,2,0:0:0:0:
448,192,74716,128,0,74892:0:0:0:0:
64,192,75243,1,2,0:0:0:0:
448,192,75243,128,0,75418:0:0:0:0:
64,192,75593,128,2,75769:0:0:0:0:
192,192,75593,1,0,0:0:0:0:
64,192,76120,128,2,76295:0:0:0:0:
320,192,76120,1,0,0:0:0:0:
192,192,76646,128,2,76822:0:0:0:0:
448,192,76646,1,0,0:0:0:0:
320,192,76997,128,2,77172:0:0:0:0:
448,192,76997,1,0,0:0:0:0:
192,192,77523,1,2,0:0:0:0:
320,192,77523,128,0,77699:0:0:0:0:
64,192,78050,1,2,0:0:0:0:
320,192,78050,128,0,78225:0:0:0:0:
64,192,78400,1,2,0:0:0:0:
192,192,78400,128,0,78576:0:0:0:0:
192,192,78927,128,2,79102:0:0:0:0:
320,192,78927,1,0,0:0:0:0:
64,192,79278,1,8,0:0:0:0:
192,192,79453,128,2,79629:0:0:0:0:
448,192,79453,1,8,0:0:0:0:
64,192,79804,1,2,0:0:0:0:
448,192,79804,128,0,79979:0:0:0:0:
192,192,80330,1,2,0:0:0:0:
448,192,80330,128,0,80506:0:0:0:0:
320,192,80857,1,2,0:0:0:0:
448,192,80857,128,0,81032:0:0:0:0:
64,192,81383,128,2,81558:0:0:0:0:
448,192,81383,1,0,0:0:0:0:
192,192,81734,1,2,0:0:0:0:
64,192,81909,128,2,82085:0:0:0:0:
320,192,81909,1,0,0:0:0:0:
192,192,82260,128,2,82436:0:0:0:0:
448,192,82260,1,0,0:0:0:0:
320,192,82611,1,2,0:0:0:0:
448,192,82611,128,0,83664:0:0:0:0:
64,192,83137,1,10,0:0:0:0:
64,192,83664,1,10,0:0:0:0:
448,192,84190,1,10,0:0:0:0:
64,192,84365,1,10,0:0:0:0:
448,192,84541,1,10,0:0:0:0:
64,192,84716,1,10,0:0:0:0:
320,192,84979,1,2,0:0:0:0:
192,192,85067,1,10,0:0:0:0:
448,192,85243,1,10,0:0:0:0:
64,192,85418,128,4,86822:0:0:0:0:
192,192,85418,1,2,0:0:0:0:
448,192,85944,1,2,0:0:0:0:
192,192,86120,1,2,0:0:0:0:
320,192,86822,1,2,0:0:0:0:
448,192,86822,128,0,88225:0:0:0:0:
64,192,87348,1,2,0:0:0:0:
320,192,87523,1,2,0:0:0:0:
192,192,88050,1,2,0:0:0:0:
64,192,88225,128,2,89629:0:0:0:0:
320,192,88225,1,0,0:0:0:0:
192,192,88751,1,2,0:0:0:0:
448,192,88927,1,2,0:0:0:0:
320,192,89629,1,4,0:0:0:0:
448,192,89629,128,2,89979:0:0:0:0:
64,192,89979,1,4,0:0:0:0:
192,192,89979,128,2,90330:0:0:0:0:
320,192,90330,128,4,90681:0:0:0:0:
448,192,90330,1,2,0:0:0:0:
64,192,90681,128,4,91032:0:0:0:0:
192,192,90681,1,2,0:0:0:0:
320,192,91032,1,4,0:0:0:0:
448,192,91032,1,2,0:0:0:0:
64,192,91383,1,2,0:0:0:0:
448,192,91383,1,0,0:0:0:0:
64,192,91734,1,2,0:0:0:0:
192,192,91734,1,0,0:0:0:0:
64,192,92085,1,2,0:0:0:0:
448,192,92085,1,0,0:0:0:0:
320,192,92436,1,2,0:0:0:0:
448,192,92436,1,0,0:0:0:0:
64,192,92786,1,2,0:0:0:0:
192,192,92786,1,0,0:0:0:0:
320,192,93137,1,2,0:0:0:0:
448,192,93137,1,0,0:0:0:0:
64,192,93488,1,2,0:0:0:0:
192,192,93488,1,0,0:0:0:0:
64,192,93839,1,8,0:0:0:0:
448,192,93839,1,2,0:0:0:0:
192,192,95418,1,2,0:0:0:0:
320,192,95418,1,0,0:0:0:0:
64,192,95593,1,2,0:0:0:0:
448,192,95593,1,0,0:0:0:0:
192,192,95769,1,2,0:0:0:0:
320,192,95769,1,0,0:0:0:0:
64,192,96646,1,4,0:0:0:0:
448,192,96646,1,2,0:0:0:0:
64,192,96997,1,8,0:0:0:0:
448,192,96997,1,2,0:0:0:0:
192,192,97348,1,2,0:0:0:0:
320,192,97523,1,0,0:0:0:0:
64,192,97699,1,8,0:0:0:0:
448,192,97699,1,2,0:0:0:0:
192,192,97874,128,0,98225:0:0:0:0:
448,192,98225,1,0,0:0:0:0:
64,192,98400,1,8,0:0:0:0:
192,192,98400,1,2,0:0:0:0:
320,192,98576,128,0,98927:0:0:0:0:
64,192,98927,1,0,0:0:0:0:
320,192,99102,1,8,0:0:0:0:
448,192,99102,1,2,0:0:0:0:
192,192,99278,1,0,0:0:0:0:
64,192,99453,1,2,0:0:0:0:
448,192,99453,1,0,0:0:0:0:
192,192,99804,1,8,0:0:0:0:
320,192,99804,1,2,0:0:0:0:
320,192,100155,1,2,0:0:0:0:
192,192,100330,1,0,0:0:0:0:
64,192,100506,1,8,0:0:0:0:
448,192,100506,1,2,0:0:0:0:
320,192,100681,128,0,100857:0:0:0:0:
64,192,100857,1,2,0:0:0:0:
192,192,101032,1,0,0:0:0:0:
320,192,101207,1,8,0:0:0:0:
448,192,101207,1,2,0:0:0:0:
64,192,101383,128,0,101558:0:0:0:0:
448,192,101558,1,2,0:0:0:0:
320,192,101734,1,0,0:0:0:0:
64,192,101909,1,8,0:0:0:0:
192,192,101909,1,2,0:0:0:0:
320,192,102085,1,0,0:0:0:0:
64,192,102260,1,2,0:0:0:0:
448,192,102260,1,0,0:0:0:0:
64,192,102611,1,8,0:0:0:0:
448,192,102611,1,2,0:0:0:0:
320,192,102962,1,2,0:0:0:0:
192,192,103137,1,0,0:0:0:0:
64,192,103313,1,8,0:0:0:0:
448,192,103313,1,2,0:0:0:0:
320,192,103488,128,0,103839:0:0:0:0:
64,192,103839,1,0,0:0:0:0:
320,192,104015,1,8,0:0:0:0:
448,192,104015,1,2,0:0:0:0:
192,192,104190,128,0,104541:0:0:0:0:
448,192,104541,1,0,0:0:0:0:
64,192,104716,1,8,0:0:0:0:
192,192,104716,1,2,0:0:0:0:
320,192,104892,1,0,0:0:0:0:
64,192,105067,1,2,0:0:0:0:
448,192,105067,1,0,0:0:0:0:
192,192,105418,1,8,0:0:0:0:
320,192,105418,1,2,0:0:0:0:
448,192,105769,1,2,0:0:0:0:
320,192,105944,128,0,106295:0:0:0:0:
64,192,106295,1,2,0:0:0:0:
192,192,106295,128,0,106646:0:0:0:0:
320,192,106646,1,2,0:0:0:0:
448,192,106646,1,0,0:0:0:0:
64,192,106822,1,2,0:0:0:0:
192,192,106822,1,0,0:0:0:0:
320,192,106997,1,2,0:0:0:0:
448,192,106997,1,0,0:0:0:0:
64,192,107172,1,2,0:0:0:0:
192,192,107172,1,0,0:0:0:0:
192,192,107523,1,2,0:0:0:0:
320,192,107523,128,0,107874:0:0:0:0:
64,192,107874,1,2,0:0:0:0:
448,192,107874,1,0,0:0:0:0:
192,192,108225,1,2,0:0:0:0:
320,192,108225,1,0,0:0:0:0:
320,192,108576,1,2,0:0:0:0:
448,192,108576,1,0,0:0:0:0:
64,192,108751,1,2,0:0:0:0:
192,192,108751,1,0,0:0:0:0:
64,192,109102,1,4,0:0:0:0:
448,192,109102,1,2,0:0:0:0:
320,192,109453,1,0,0:0:0:0:
192,192,109629,1,10,0:0:0:0:
64,192,109804,1,0,0:0:0:0:
448,192,109979,1,2,0:0:0:0:
320,192,110155,1,0,0:0:0:0:
192,192,110330,1,10,0:0:0:0:
64,192,110506,1,0,0:0:0:0:
320,192,110681,1,2,0:0:0:0:
448,192,110681,1,0,0:0:0:0:
64,192,111032,1,8,0:0:0:0:
192,192,111032,1,2,0:0:0:0:
320,192,111383,1,2,0:0:0:0:
192,192,111558,1,0,0:0:0:0:
64,192,111734,1,8,0:0:0:0:
448,192,111734,1,2,0:0:0:0:
320,192,111909,1,0,0:0:0:0:
64,192,112085,1,2,0:0:0:0:
192,192,112085,1,0,0:0:0:0:
320,192,112436,1,8,0:0:0:0:
448,192,112436,1,2,0:0:0:0:
192,192,112786,1,2,0:0:0:0:
320,192,112962,1,0,0:0:0:0:
64,192,113137,1,8,0:0:0:0:
448,192,113137,1,2,0:0:0:0:
192,192,113313,1,0,0:0:0:0:
320,192,113488,1,2,0:0:0:0:
448,192,113488,1,0,0:0:0:0:
192,192,113839,1,2,0:0:0:0:
320,192,113839,1,0,0:0:0:0:
64,192,114190,1,2,0:0:0:0:
192,192,114190,1,0,0:0:0:0:
320,192,114365,1,2,0:0:0:0:
448,192,114365,1,0,0:0:0:0:
64,192,114716,1,4,0:0:0:0:
448,192,114716,1,2,0:0:0:0:
192,192,115067,1,0,0:0:0:0:
320,192,115243,1,10,0:0:0:0:
448,192,115418,1,0,0:0:0:0:
64,192,115593,1,2,0:0:0:0:
192,192,115769,1,0,0:0:0:0:
320,192,115944,1,10,0:0:0:0:
448,192,116120,1,0,0:0:0:0:
64,192,116295,1,2,0:0:0:0:
192,192,116295,1,0,0:0:0:0:
320,192,116646,1,8,0:0:0:0:
448,192,116646,1,2,0:0:0:0:
64,192,116997,1,2,0:0:0:0:
192,192,117172,1,0,0:0:0:0:
320,192,117348,1,10,0:0:0:0:
64,192,117523,1,2,0:0:0:0:
448,192,117523,1,0,0:0:0:0:
64,192,117874,1,2,0:0:0:0:
192,192,117874,1,0,0:0:0:0:
320,192,118050,1,2,0:0:0:0:
448,192,118050,1,0,0:0:0:0:
64,192,118225,1,2,0:0:0:0:
192,192,118225,1,0,0:0:0:0:
320,192,118400,1,2,0:0:0:0:
448,192,118400,1,0,0:0:0:0:
192,192,118751,1,2,0:0:0:0:
320,192,118751,1,8,0:0:0:0:
64,192,119102,1,4,0:0:0:0:
448,192,119102,1,2,0:0:0:0:
64,192,119453,1,8,0:0:0:0:
448,192,119453,1,2,0:0:0:0:
192,192,119804,1,2,0:0:0:0:
320,192,119979,1,0,0:0:0:0:
64,192,120155,1,8,0:0:0:0:
448,192,120155,1,2,0:0:0:0:
192,192,120506,1,2,0:0:0:0:
320,192,120857,1,8,0:0:0:0:
448,192,120857,1,2,0:0:0:0:
192,192,121207,1,2,0:0:0:0:
320,192,121383,1,0,0:0:0:0:
64,192,121558,1,8,0:0:0:0:
448,192,121558,1,2,0:0:0:0:
192,192,121909,1,2,0:0:0:0:
448,192,122085,128,0,122260:0:0:0:0:
64,192,122260,128,8,122436:0:0:0:0:
320,192,122260,1,2,0:0:0:0:
192,192,122436,128,0,122611:0:0:0:0:
320,192,122611,128,2,122786:0:0:0:0:
448,192,122786,128,0,122962:0:0:0:0:
64,192,122962,1,10,0:0:0:0:
192,192,123137,128,0,123488:0:0:0:0:
448,192,123488,1,0,0:0:0:0:
64,192,123664,1,8,0:0:0:0:
192,192,123664,1,2,0:0:0:0:
320,192,123839,128,0,124190:0:0:0:0:
192,192,124190,1,0,0:0:0:0:
64,192,124365,128,8,124716:0:0:0:0:
448,192,124365,1,2,0:0:0:0:
320,192,124716,1,2,0:0:0:0:
64,192,125067,1,8,0:0:0:0:
320,192,125067,1,2,0:0:0:0:
192,192,125418,1,2,0:0:0:0:
320,192,125593,1,0,0:0:0:0:
64,192,125769,1,8,0:0:0:0:
448,192,125769,1,2,0:0:0:0:
192,192,126120,1,2,0:0:0:0:
192,192,126471,1,8,0:0:0:0:
448,192,126471,1,2,0:0:0:0:
320,192,126822,1,2,0:0:0:0:
192,192,126997,1,0,0:0:0:0:
64,192,127172,1,8,0:0:0:0:
448,192,127172,1,2,0:0:0:0:
320,192,127523,1,2,0:0:0:0:
64,192,127874,1,8,0:0:0:0:
448,192,127874,1,2,0:0:0:0:
192,192,128225,1,2,0:0:0:0:
448,192,128576,128,0,128751:0:0:0:0:
64,192,128751,1,2,0:0:0:0:
192,192,128751,1,0,0:0:0:0:
192,192,129102,1,2,0:0:0:0:
320,192,129102,1,0,0:0:0:0:
320,192,129453,1,2,0:0:0:0:
448,192,129453,1,0,0:0:0:0:
64,192,129804,1,2,0:0:0:0:
192,192,129804,1,0,0:0:0:0:
320,192,129979,1,8,0:0:0:0:
448,192,129979,1,2,0:0:0:0:
64,192,130155,1,2,0:0:0:0:
192,192,130155,1,0,0:0:0:0:
448,192,130330,128,0,133313:0:0:0:0:
