osu file format v14

[General]
AudioFilename: audio.mp3
AudioLeadIn: 0
PreviewTime: 32087
Countdown: 0
SampleSet: Soft
StackLeniency: 0.7
Mode: 0
LetterboxInBreaks: 0
WidescreenStoryboard: 1

[Editor]
DistanceSpacing: 0.9
BeatDivisor: 4
GridSize: 4
TimelineZoom: 1

[Metadata]
Title:That Girl
TitleUnicode:That Girl
Artist:Olly Murs
ArtistUnicode:Olly Murs
Creator:Regraz
Version:Normal
Source:
Tags:Claude Kelly Steve Robson T Collar Ash Howes Chris Gehringer Sony Music
BeatmapID:1766812
BeatmapSetID:844644

[Difficulty]
HPDrainRate:3
CircleSize:3.6
OverallDifficulty:4
ApproachRate:5
SliderMultiplier:1.8
SliderTickRate:1

[Events]
//Background and Video events
0,0,"Konachan.com - 268479.jpg",0,0
//Break Periods
//Storyboard Layer 0 (Background)
//Storyboard Layer 1 (Fail)
//Storyboard Layer 2 (Pass)
//Storyboard Layer 3 (Foreground)
//Storyboard Sound Samples

[TimingPoints]
1076,674.157303370787,4,2,1,25,1,0
1076,-142.857142857143,4,2,1,25,0,0
21188,-100,4,2,1,25,0,0
22649,-100,4,2,1,38,0,0
33435,-100,4,2,1,51,0,1
54334,-100,4,2,1,51,0,0
55008,-100,4,2,1,51,0,1
71188,-100,4,2,1,25,0,0
76581,-100,4,2,1,12,0,0

[Colours]
Combo1 : 221,132,34
Combo2 : 35,45,167
Combo3 : 72,154,255
Combo4 : 243,61,88

[HitObjects]
71,153,1076,6,0,P|123:133|190:177,1,125.999996154785,2|0,0:0|0:0,0:0:0:0:
256,248,2424,1,2,0:0:0:0:
329,163,3098,2,0,P|383:133|441:153,2,125.999996154785,0|2|0,0:0|0:0|0:0,0:0:0:0:
241,91,5120,2,0,L|100:100,1,125.999996154785,2|0,0:0|0:0,0:0:0:0:
58,197,6469,6,0,P|33:276|63:320,1,125.999996154785,2|0,0:0|0:0,0:0:0:0:
164,318,7817,2,0,L|298:302,1,125.999996154785,2|0,0:0|0:0,0:0:0:0:
398,334,9165,2,0,B|419:262|364:219|364:219|395:155|361:87,1,251.999992309571,2|2,0:0|0:0,0:0:0:0:
276,30,11188,1,0,0:0:0:0:
201,115,11862,6,0,P|131:121|93:72,2,125.999996154785,2|0|2,0:0|0:0|0:0,0:0:0:0:
302,166,13884,2,0,P|313:227|293:291,1,125.999996154785,0|2,0:0|0:0,0:0:0:0:
186,254,15233,1,0,0:0:0:0:
80,295,15907,2,0,P|62:235|73:173,1,125.999996154785,2|0,0:0|0:0,0:0:0:0:
114,68,17255,6,0,B|178:41|232:76|232:76|213:152|301:190,1,251.999992309571,2|2,0:0|0:0,0:0:0:0:
387,134,19278,1,0,0:0:0:0:
472,208,19952,2,0,P|478:274|431:321,1,125.999996154785,2|0,0:0|0:0,0:0:0:0:
287,263,21300,6,0,L|191:256,1,90,4|0,0:3|0:0,0:0:0:0:
124,292,21974,2,0,P|76:319|19:304,1,90,2|0,0:0|0:0,0:0:0:0:
36,235,22649,6,0,L|25:40,1,180,4|0,0:2|1:0,0:0:0:0:
102,30,23660,1,0,0:0:0:0:
174,65,23997,2,0,P|232:53|271:62,1,90,4|4,0:3|0:3,0:0:0:0:
307,125,24671,2,0,P|305:179|344:217,1,90,0|0,1:0|0:0,0:0:0:0:
406,201,25345,6,0,P|373:280|287:285,1,180,4|0,0:3|1:0,0:0:0:0:
221,239,26356,1,0,0:0:0:0:
169,301,26693,2,0,P|108:298|67:303,2,90,4|4|0,0:3|0:3|1:0,0:0:0:0:
241,338,27705,1,0,0:0:0:0:
241,257,28042,6,0,L|230:140,1,90,4|0,0:3|0:0,0:0:0:0:
313,164,28716,2,0,L|321:253,1,90,0|0,1:0|0:0,0:0:0:0:
364,321,29390,1,4,0:3:0:0:
444,322,29727,1,4,0:3:0:0:
497,261,30064,2,0,P|505:195|498:150,1,90,0|0,1:0|0:0,0:0:0:0:
479,93,30738,6,0,P|426:49|340:127,1,180,4|0,0:3|1:0,0:0:0:0:
306,173,31750,1,0,0:0:0:0:
242,122,32087,2,0,P|181:94|128:98,1,90,4|4,0:3|0:3,0:0:0:0:
80,114,32761,1,0,1:0:0:0:
78,194,33098,1,4,0:3:0:0:
150,229,33435,6,0,P|156:273|179:311,1,90,4|0,0:2|0:0,0:0:0:0:
259,284,34109,2,0,P|321:268|366:289,1,90,0|0,1:0|0:0,0:0:0:0:
425,268,34783,2,0,L|414:144,2,90,4|4|0,0:3|0:3|1:0,0:0:0:0:
486,321,35795,1,0,0:0:0:0:
411,352,36132,6,0,P|318:348|319:254,1,180,4|0,0:3|1:0,0:0:0:0:
346,206,37143,1,0,0:0:0:0:
303,137,37480,2,0,P|232:121|192:136,1,90,4|4,0:3|0:3,0:0:0:0:
157,179,38154,2,0,P|138:235|89:258,1,90,0|0,1:0|0:0,0:0:0:0:
34,261,38828,6,0,B|35:207|35:207|16:141|16:141|18:56,1,180,4|0,0:3|1:0,0:0:0:0:
98,87,39840,1,0,0:0:0:0:
173,57,40177,2,0,P|227:49|280:69,2,90,4|4|0,0:3|0:3|1:0,0:0:0:0:
98,87,41188,1,0,0:0:0:0:
21,59,41525,6,0,L|13:175,1,90,4|0,0:3|0:0,0:0:0:0:
33,227,42199,2,0,P|91:247|138:227,1,90,0|0,1:0|0:0,0:0:0:0:
172,178,42873,2,0,P|234:161|287:172,2,90,4|4|0,0:3|0:3|1:0,0:0:0:0:
194,255,43884,1,0,0:0:0:0:
263,296,44222,6,0,P|343:298|394:381,1,180,4|0,0:2|1:0,0:0:0:0:
481,351,45233,1,0,0:0:0:0:
480,269,45570,2,0,L|489:150,1,90,4|4,0:3|0:3,0:0:0:0:
487,98,46244,2,0,P|445:75|377:101,1,90,0|0,1:0|0:0,0:0:0:0:
358,146,46918,5,4,0:3:0:0:
280,160,47255,2,0,L|270:39,2,90,0|0|0,0:0|1:0|0:0,0:0:0:0:
203,186,48267,2,0,P|191:253|207:313,1,90,4|4,0:3|0:3,0:0:0:0:
250,331,48941,2,0,P|178:354|139:332,1,90,4|0,1:2|0:0,0:0:0:0:
112,291,49615,6,0,P|53:266|63:143,1,180,4|0,0:1|1:0,0:0:0:0:
90,93,50626,1,0,0:0:0:0:
146,151,50963,2,0,L|259:139,1,90,4|4,0:3|0:3,0:0:0:0:
297,194,51637,2,0,P|355:216|410:192,1,90,0|0,1:0|0:0,0:0:0:0:
403,133,52311,6,0,P|464:193|411:287,1,180,4|0,0:3|1:0,0:0:0:0:
378,330,53323,1,0,0:0:0:0:
303,297,53660,2,0,P|237:281|187:298,1,90,4|4,0:3|0:3,0:0:0:0:
160,343,54334,2,0,L|31:340,1,90,0|0,1:0|0:0,0:0:0:0:
33,268,55008,6,0,P|67:205|172:231,1,180,4|0,0:2|1:0,0:0:0:0:
232,177,56019,1,0,0:0:0:0:
300,220,56356,2,0,L|290:324,2,90,4|4|0,0:3|0:3|1:0,0:0:0:0:
371,181,57368,1,0,0:0:0:0:
423,119,57705,6,0,L|412:13,1,90,4|0,0:3|0:0,0:0:0:0:
332,29,58379,2,0,P|272:18|220:44,2,90,0|0|4,1:0|0:0|0:3,0:0:0:0:
413,29,59390,1,4,0:3:0:0:
480,74,59727,2,0,P|488:139|465:196,1,90,0|0,1:0|0:0,0:0:0:0:
410,199,60401,6,0,L|198:171,1,180,4|0,0:3|1:0,0:0:0:0:
168,227,61413,1,0,0:0:0:0:
95,190,61750,2,0,P|86:131|100:81,2,90,4|4|0,0:3|0:3|1:0,0:0:0:0:
168,227,62761,1,0,0:0:0:0:
106,279,63098,6,0,L|-12:266,1,90,4|0,0:3|0:0,0:0:0:0:
12,350,63772,2,0,L|101:359,1,90,0|0,1:0|0:0,0:0:0:0:
177,332,64446,2,0,P|230:287|330:332,1,180,4|0,0:3|1:0,0:0:0:0:
400,351,65458,1,0,0:0:0:0:
457,293,65795,6,0,B|466:248|466:248|449:174,1,90,4|0,0:2|0:0,0:0:0:0:
417,134,66469,2,0,L|298:150,1,90,0|0,1:0|0:0,0:0:0:0:
253,113,67143,2,0,L|127:101,2,90,4|4|0,0:3|0:3|1:0,0:0:0:0:
318,64,68154,1,0,0:0:0:0:
396,83,68491,6,0,B|425:92|460:66|460:66|478:134|440:204,1,180,4|0,0:3|1:0,0:0:0:0:
413,245,69502,1,0,0:0:0:0:
417,326,69840,2,0,L|297:315,1,90,4|4,0:3|0:3,0:0:0:0:
282,250,70514,1,0,1:0:0:0:
202,236,70851,1,0,0:0:0:0:
126,273,71188,6,0,P|52:230|119:83,1,270,2|0,0:0|0:0,0:0:0:0:
174,131,72536,2,0,P|281:178|381:72,1,270,2|0,0:0|0:0,0:0:0:0:
460,85,73884,5,2,0:0:0:0:
256,192,74053,12,0,76581,0:0:0:0:
