osu file format v14

[General]
AudioFilename: audio.mp3
AudioLeadIn: 0
PreviewTime: 32087
Countdown: 0
SampleSet: Soft
StackLeniency: 0.7
Mode: 0
LetterboxInBreaks: 0
WidescreenStoryboard: 0

[Editor]
DistanceSpacing: 1
BeatDivisor: 4
GridSize: 4
TimelineZoom: 1.8

[Metadata]
Title:That Girl
TitleUnicode:That Girl
Artist:Olly Murs
ArtistUnicode:Olly Murs
Creator:Regraz
Version:Hard
Source:
Tags:Claude Kelly Steve Robson T Collar Ash Howes Chris Gehringer Sony Music
BeatmapID:1766811
BeatmapSetID:844644

[Difficulty]
HPDrainRate:5
CircleSize:5
OverallDifficulty:6
ApproachRate:7
SliderMultiplier:2.1
SliderTickRate:1

[Events]
//Background and Video events
0,0,"Konachan.com - 268479.jpg",0,0
//Break Periods
//Storyboard Layer 0 (Background)
//Storyboard Layer 1 (Fail)
//Storyboard Layer 2 (Pass)
//Storyboard Layer 3 (Foreground)
//Storyboard Sound Samples

[TimingPoints]
1076,674.157303370787,4,2,1,25,1,0
1076,-142.857142857143,4,2,1,25,0,0
21188,-100,4,2,1,25,0,0
22649,-100,4,2,1,38,0,0
33435,-100,4,2,1,51,0,1
54334,-100,4,2,1,51,0,0
55008,-100,4,2,1,51,0,1
71188,-100,4,2,1,25,0,0
76581,-100,4,2,1,12,0,0

[Colours]
Combo1 : 221,132,34
Combo2 : 35,45,167
Combo3 : 72,154,255
Combo4 : 243,61,88

[HitObjects]
166,41,1076,6,0,P|144:101|201:161,1,146.999995513916,2|0,0:0|0:0,0:0:0:0:
257,124,2087,1,0,0:0:0:0:
323,155,2424,2,0,L|416:146,1,73.4999977569581,2|0,0:0|0:0,0:0:0:0:
400,221,3098,2,0,L|326:228,1,73.4999977569581
258,200,3772,6,0,P|234:295|287:327,1,146.999995513916,2|0,0:0|0:0,0:0:0:0:
325,283,4783,1,0,0:0:0:0:
383,327,5120,2,0,P|436:321|481:336,2,73.4999977569581,2|0|0,0:0|0:0|0:0,0:0:0:0:
320,366,6132,1,0,0:0:0:0:
258,325,6469,6,0,P|191:302|128:353,1,146.999995513916,2|0,0:0|0:0,0:0:0:0:
59,351,7480,1,0,0:0:0:0:
29,283,7817,2,0,P|14:238|32:194,1,73.4999977569581,2|0,0:0|0:0,0:0:0:0:
65,156,8491,2,0,L|153:160,1,73.4999977569581
186,103,9165,6,0,P|215:36|298:57,1,146.999995513916,2|0,0:0|0:0,0:0:0:0:
332,90,10177,1,0,0:0:0:0:
391,46,10514,2,0,P|448:44|480:59,1,73.4999977569581,2|0,0:0|0:0,0:0:0:0:
483,119,11188,2,0,L|471:208,1,73.4999977569581
400,201,11862,6,0,L|419:352,1,146.999995513916,2|0,0:0|0:0,0:0:0:0:
345,352,12873,1,0,0:0:0:0:
290,302,13210,2,0,P|226:295|198:310,1,73.4999977569581,2|0,0:0|0:0,0:0:0:0:
145,302,13884,2,0,P|168:245|197:228,1,73.4999977569581
240,203,14559,6,0,P|267:136|249:66,1,146.999995513916,2|0,0:0|0:0,0:0:0:0:
181,94,15570,1,0,0:0:0:0:
108,85,15907,2,0,L|99:0,2,73.4999977569581,2|0|0,0:0|0:0|0:0,0:0:0:0:
57,138,16918,1,0,0:0:0:0:
26,204,17255,6,0,P|48:269|117:270,1,146.999995513916,2|0,0:0|0:0,0:0:0:0:
190,258,18267,1,0,0:0:0:0:
248,213,18604,2,0,L|320:204,1,73.4999977569581,2|0,0:0|0:0,0:0:0:0:
309,131,19278,2,0,L|237:140,1,73.4999977569581
189,83,19952,5,2,0:0:0:0:
408,61,21188,5,4,0:3:0:0:
430,87,21300,2,0,P|370:105|324:82,1,105,4|0,0:3|0:0,0:0:0:0:
242,36,21974,2,0,P|180:13|133:41,1,105,2|0,0:0|0:0,0:0:0:0:
63,116,22649,5,4,0:2:0:0:
144,182,22986,1,0,0:0:0:0:
46,219,23323,2,0,L|58:332,1,105,0|0,1:0|0:0,0:0:0:0:
125,336,23884,1,4,0:3:0:0:
150,312,23997,2,0,P|208:304|252:344,1,105,4|4,0:3|0:3,0:0:0:0:
347,346,24671,2,0,L|473:332,1,105,0|0,1:0|0:0,0:0:0:0:
389,249,25345,5,4,0:3:0:0:
449,163,25682,1,0,0:0:0:0:
384,80,26019,2,0,L|275:96,1,105,0|0,1:0|0:0,0:0:0:0:
236,150,26581,1,4,0:3:0:0:
224,182,26693,2,0,P|170:172|156:113,1,105,4|4,0:3|0:3,0:0:0:0:
133,26,27368,2,0,L|9:35,1,105,0|0,1:0|0:0,0:0:0:0:
61,133,28042,6,0,P|44:216|58:253,2,105,4|0|0,0:3|0:0|1:0,0:0:0:0:
164,116,29053,1,0,0:0:0:0:
232,130,29278,1,4,0:3:0:0:
263,114,29390,2,0,L|251:234,1,105,4|4,0:3|0:3,0:0:0:0:
180,295,30064,2,0,P|230:328|289:313,1,105,0|0,1:0|0:0,0:0:0:0:
328,280,30626,1,4,0:3:0:0:
354,257,30738,6,0,L|344:368,1,105,4|0,0:3|0:0,0:0:0:0:
445,330,31413,1,0,1:0:0:0:
453,225,31750,1,0,0:0:0:0:
461,120,32087,2,0,L|470:4,1,105,4|4,0:3|0:3,0:0:0:0:
368,44,32761,6,0,P|308:61|277:49,1,70,0|0,1:0|0:0,0:0:0:0:
270,45,33098,2,0,P|227:30|186:41,1,70,4|0,0:3|0:0,0:0:0:0:
174,52,33435,5,4,0:2:0:0:
69,40,33772,1,0,0:0:0:0:
27,136,34109,2,0,L|37:246,1,105,0|0,1:0|0:0,0:0:0:0:
94,280,34671,1,4,0:3:0:0:
123,261,34783,2,0,P|117:306|156:354,1,105,4|4,0:3|0:3,0:0:0:0:
238,293,35458,2,0,P|292:275|342:301,1,105,0|0,1:0|0:0,0:0:0:0:
427,338,36132,5,4,0:3:0:0:
460,239,36469,1,0,0:0:0:0:
403,150,36806,2,0,L|288:159,1,105,0|0,1:0|0:0,0:0:0:0:
253,104,37368,1,4,0:3:0:0:
265,71,37480,2,0,P|207:78|169:130,1,105,4|4,0:3|0:3,0:0:0:0:
186,214,38154,2,0,P|133:254|72:231,1,105,0|0,1:0|0:0,0:0:0:0:
51,155,38828,5,4,0:3:0:0:
149,118,39165,2,0,L|137:7,2,105,0|0|0,0:0|1:0|0:0,0:0:0:0:
212,147,40064,1,4,0:3:0:0:
207,181,40177,2,0,P|251:185|291:126,1,105,4|4,0:3|0:3,0:0:0:0:
327,45,40851,2,0,L|458:51,1,105,0|0,1:0|0:0,0:0:0:0:
403,150,41525,5,4,0:3:0:0:
485,218,41862,2,0,L|476:296,1,70,0|0,0:0|0:0,0:0:0:0:
489,320,42199,2,0,B|435:305|385:332,1,105,0|0,1:0|0:0,0:0:0:0:
321,355,42761,1,4,0:3:0:0:
298,328,42873,2,0,L|193:337,1,105,4|4,0:3|0:3,0:0:0:0:
88,331,43547,1,0,1:0:0:0:
109,228,43884,1,0,0:0:0:0:
214,228,44222,6,0,P|250:207|257:129,1,105,4|0,0:2|0:0,0:0:0:0:
210,58,44896,1,0,1:0:0:0:
113,98,45233,1,0,0:0:0:0:
56,57,45458,1,4,0:3:0:0:
24,43,45570,2,0,L|38:159,1,105,4|4,0:3|0:3,0:0:0:0:
32,252,46244,2,0,P|85:222|150:240,1,105,0|0,1:0|0:0,0:0:0:0:
210,290,46918,5,4,0:3:0:0:
278,210,47255,1,0,0:0:0:0:
364,269,47592,2,0,P|407:291|482:256,1,105,0|0,1:0|0:0,0:0:0:0:
482,212,48154,1,4,0:3:0:0:
448,201,48267,2,0,L|454:89,1,105,4|4,0:3|0:3,0:0:0:0:
374,26,48941,2,0,P|326:56|270:37,1,105,4|0,1:2|0:0,0:0:0:0:
178,26,49615,5,4,0:1:0:0:
207,126,49952,1,0,0:0:0:0:
134,202,50289,2,0,L|6:192,1,105,0|0,1:0|0:0,0:0:0:0:
9,261,50851,1,4,0:3:0:0:
41,273,50963,2,0,P|28:326|48:370,1,105,4|4,0:3|0:3,0:0:0:0:
137,314,51637,2,0,P|185:296|245:319,1,105,0|0,1:0|0:0,0:0:0:0:
328,358,52311,5,4,0:3:0:0:
384,269,52649,2,0,L|501:279,2,105,0|0|0,0:0|1:0|0:0,0:0:0:0:
338,216,53547,1,4,0:3:0:0:
310,193,53660,2,0,P|307:240|261:281,1,105,4|4,0:3|0:3,0:0:0:0:
166,250,54334,2,0,L|83:240,1,70,0|0,1:0|0:0,0:0:0:0:
64,255,54671,1,0,0:0:0:0:
68,150,55008,6,0,P|51:108|90:44,1,105,4|0,0:2|0:0,0:0:0:0:
176,73,55682,2,0,L|260:67,1,70,0|0,1:0|0:0,0:0:0:0:
275,87,56019,2,0,L|355:94,1,70,0|4,0:0|0:3,0:0:0:0:
374,74,56356,1,4,0:3:0:0:
467,26,56693,1,4,0:3:0:0:
459,130,57031,2,0,P|467:188|456:239,1,105,0|0,1:0|0:0,0:0:0:0:
388,226,57592,1,0,0:0:0:0:
381,260,57705,6,0,L|296:253,1,70,4|0,0:3|0:0,0:0:0:0:
283,276,58042,2,0,L|190:284,1,70
182,265,58379,1,0,1:0:0:0:
235,174,58716,1,0,0:0:0:0:
210,108,58941,1,4,0:3:0:0:
177,121,59053,2,0,P|124:97|55:105,1,105,4|4,0:3|0:3,0:0:0:0:
42,196,59727,2,0,L|52:280,1,70,0|0,1:0|0:0,0:0:0:0:
33,296,60064,1,0,0:0:0:0:
130,333,60401,6,0,P|187:335|218:283,1,105,4|0,0:3|0:0,0:0:0:0:
246,200,61076,2,0,P|280:188|330:209,1,70,0|0,1:0|0:0,0:0:0:0:
337,220,61413,2,0,L|327:307,1,70,0|4,0:0|0:3,0:0:0:0:
347,319,61750,1,4,0:3:0:0:
444,357,62087,1,4,0:3:0:0:
474,256,62424,2,0,L|462:127,1,105,0|0,1:0|0:0,0:0:0:0:
458,81,62986,1,0,0:0:0:0:
452,46,63098,6,0,P|404:64|386:90,1,70,4|0,0:3|0:0,0:0:0:0:
382,110,63435,2,0,P|339:122|304:108,1,70,0|0,0:0|0:0,0:0:0:0:
302,82,63772,1,0,1:0:0:0:
216,20,64109,1,0,0:0:0:0:
154,53,64334,1,4,0:3:0:0:
124,33,64446,2,0,P|117:84|128:145,1,105,4|4,0:3|0:3,0:0:0:0:
144,239,65120,2,0,L|58:231,1,70,0|0,1:0|0:0,0:0:0:0:
41,246,65458,1,0,0:0:0:0:
98,333,65795,6,0,P|158:344|205:306,1,105,4|0,0:2|0:0,0:0:0:0:
264,245,66469,2,0,P|314:217|353:224,1,70,0|0,1:0|0:0,0:0:0:0:
351,240,66806,2,0,L|341:150,1,70,0|4,0:0|0:3,0:0:0:0:
342,135,67143,1,4,0:3:0:0:
413,58,67480,1,4,0:3:0:0:
472,144,67817,2,0,P|485:194|473:256,1,105,0|0,1:0|0:0,0:0:0:0:
399,317,68491,1,4,0:3:0:0:
313,255,68828,6,0,P|271:242|196:264,2,105,0|0|0,0:0|1:0|0:0,0:0:0:0:
320,324,69727,1,4,0:3:0:0:
347,345,69840,2,0,P|293:360|249:336,1,105,4|4,0:3|0:3,0:0:0:0:
210,242,70514,2,0,P|162:226|98:242,1,105,0|0,1:0|0:0,0:0:0:0:
37,312,71188,5,2,0:0:0:0:
42,336,72536,5,2,0:0:0:0:
46,354,73884,5,2,0:0:0:0:
256,192,74053,12,0,76581,0:0:0:0:
