osu file format v14

[General]
AudioFilename: audio.mp3
AudioLeadIn: 0
PreviewTime: 44986
Countdown: 0
SampleSet: Soft
StackLeniency: 0.4
Mode: 0
LetterboxInBreaks: 0
WidescreenStoryboard: 1

[Editor]
Bookmarks: 15164,22264,33625,44986,56566,68146,71037,73946,85306,96684,108257,119829,122716,125625,126361,127083,137209,148782,160364,171959,183511,186393,189286,192367
DistanceSpacing: 0.5
BeatDivisor: 4
GridSize: 4
TimelineZoom: 2.3

[Metadata]
Title:good 4 u
TitleUnicode:good 4 u
Artist:Olivia Rodrigo
ArtistUnicode:Olivia Rodrigo
Creator:hehe
Version:toybot's Extra
Source:
Tags:pop punk for sour isabel rock english marianna toybot vikala
BeatmapID:3046789
BeatmapSetID:1477257

[Difficulty]
HPDrainRate:6
CircleSize:4.2
OverallDifficulty:8.5
ApproachRate:9
SliderMultiplier:2
SliderTickRate:1

[Events]
//Background and Video events
0,0,"good.jpg",0,0
Video,0,"good4u.avi"
//Break Periods
2,68688,70437
2,120374,122116
2,184051,185793
//Storyboard Layer 0 (Background)
//Storyboard Layer 1 (Fail)
//Storyboard Layer 2 (Pass)
//Storyboard Layer 3 (Foreground)
//Storyboard Layer 4 (Overlay)
//Storyboard Sound Samples

[TimingPoints]
15164,355.029585798817,4,2,1,30,1,0
16229,-200,4,2,1,30,0,0
22264,-200,4,2,1,40,0,0
22619,-133.333333333333,4,2,1,40,0,0
25015,-133.333333333333,4,2,1,5,0,0
25104,-133.333333333333,4,2,1,40,0,0
27856,-133.333333333333,4,2,1,5,0,0
27945,-133.333333333333,4,2,1,40,0,0
32116,-133.333333333333,4,2,1,5,0,0
32205,-133.333333333333,4,2,1,40,0,0
32826,-133.333333333333,4,2,1,5,0,0
32915,-133.333333333333,4,2,1,40,0,0
33536,-133.333333333333,4,2,1,5,0,0
33625,-133.333333333333,4,2,1,50,0,0
33891,-133.333333333333,4,2,1,5,0,0
33980,-133.333333333333,4,2,1,50,0,0
36731,-133.333333333333,4,2,1,5,0,0
36820,-133.333333333333,4,2,1,50,0,0
39572,-133.333333333333,4,2,1,5,0,0
39661,-133.333333333333,4,2,1,50,0,0
44276,-100,4,2,1,50,0,0
44365,-100,4,2,1,50,0,0
44453,-100,4,2,1,50,0,0
44897,-100,4,2,1,5,0,0
44986,361.881785283474,4,2,1,70,1,1
48152,-100,4,2,1,5,0,1
48242,-100,4,2,1,70,0,1
53942,-100,4,2,1,5,0,1
54033,-100,4,2,1,70,0,1
56837,-100,4,2,1,5,0,1
56928,-100,4,2,1,70,0,1
58646,-100,4,2,1,5,0,1
58737,-100,4,2,1,70,0,1
59732,-100,4,2,1,70,0,1
59823,-100,4,2,1,70,0,1
60456,-100,4,2,1,5,0,1
60546,-100,4,2,1,70,0,1
61722,-100,4,2,1,5,0,1
61813,-100,4,2,1,70,0,1
65522,-100,4,2,1,5,0,1
65613,-100,4,2,1,70,0,1
68146,361.44578313253,4,2,1,50,1,0
71037,363.636363636364,4,2,1,70,1,1
73946,355.029585798817,4,2,1,70,1,0
73946,-200,4,2,1,70,0,0
74301,-200,4,2,1,30,0,0
75543,-100,4,2,1,40,0,0
76076,-200,4,2,1,40,0,0
76786,-133.333333333333,4,2,1,40,0,0
79537,-133.333333333333,4,2,1,5,0,0
79626,-133.333333333333,4,2,1,40,0,0
81756,-100,4,2,1,40,0,0
85039,-100,4,2,1,5,0,0
85129,-100,4,2,1,40,0,0
85306,-133.333333333333,4,2,1,50,0,0
85572,-133.333333333333,4,2,1,5,0,0
85661,-133.333333333333,4,2,1,50,0,0
88413,-133.333333333333,4,2,1,5,0,0
88502,-133.333333333333,4,2,1,50,0,0
90543,-133.333333333333,4,2,1,5,0,0
90632,-133.333333333333,4,2,1,50,0,0
93827,357.142857142857,4,2,1,60,1,0
96684,361.663652802893,4,2,1,70,1,1
99848,-100,4,2,1,5,0,1
99938,-100,4,2,1,70,0,1
105634,-100,4,2,1,5,0,1
105725,-100,4,2,1,70,0,1
108528,-100,4,2,1,5,0,1
108618,-100,4,2,1,70,0,1
110336,-100,4,2,1,5,0,1
110427,-100,4,2,1,70,0,1
112144,-100,4,2,1,5,0,1
112235,-100,4,2,1,70,0,1
113410,-100,4,2,1,5,0,1
113501,-100,4,2,1,70,0,1
117208,-100,4,2,1,5,0,1
117298,-100,4,2,1,70,0,1
119830,-100,4,2,1,50,0,1
119834,360.360360360361,4,2,1,50,1,0
122716,363.636363636364,4,2,1,70,1,1
125625,368.098159509203,4,2,1,50,1,0
125625,-200,4,2,1,50,0,0
126361,361.445783132531,4,2,1,50,1,0
127083,361.663652802893,4,2,1,50,1,0
130789,-100,4,2,1,5,0,0
130880,-100,4,2,1,50,0,0
137209,-200,4,2,1,50,0,0
148782,-133.333333333333,4,2,1,40,0,0
154569,-133.333333333333,4,2,1,50,0,0
159628,368.098159509202,4,2,1,50,1,0
159628,-133.333333333333,4,2,1,50,0,0
160364,361.44578313253,4,2,1,40,1,0
160364,-200,4,2,1,40,0,0
169400,-300.00000000003,4,2,1,40,0,0
170484,-300.00000000003,4,2,1,5,0,0
170845,400,4,2,1,40,1,0
171445,342.857142857143,4,2,1,40,1,0
171959,360.144057623049,4,2,1,80,1,1
172229,-100,4,2,1,5,0,1
172319,-100,4,2,1,80,0,1
174029,-100,4,2,1,5,0,1
174119,-100,4,2,1,80,0,1
175110,-100,4,2,1,5,0,1
175200,-100,4,2,1,80,0,1
175830,-100,4,2,1,5,0,1
175920,-100,4,2,1,80,0,1
177091,-100,4,2,1,5,0,1
177181,-100,4,2,1,80,0,1
177721,361.881785283474,4,2,1,80,1,1
180887,-100,4,2,1,5,0,1
180977,-100,4,2,1,80,0,1
183511,360.360360360361,4,2,1,50,1,0
186393,364.741641337386,4,2,1,80,1,1
189286,362.537764350454,4,2,1,50,1,0
189286,-200,4,2,1,50,0,0
191370,-200,4,2,1,5,0,0
191461,-200,4,2,1,50,0,0
192095,-200,4,2,1,5,0,0
192186,-200,4,2,1,50,0,0

[Colours]
Combo1 : 255,47,52
Combo2 : 174,85,255
Combo3 : 255,45,155
Combo4 : 181,255,81
Combo5 : 64,255,193
Combo6 : 250,255,47
Combo7 : 255,134,13
Combo8 : 79,132,255

[HitObjects]
368,252,16229,70,0,P|355:204|376:160,1,100,4|8,2:3|2:3,2:0:0:0:
376,161,16939,2,0,B|375:234|256:240|271:172|321:180|323:213,2,150,8|8|8,2:3|2:3|2:3,2:0:0:0:
143,131,19069,6,0,P|155:178|134:222,1,100,4|8,2:3|2:3,2:0:0:0:
134,222,19779,2,0,B|135:149|254:143|239:211|189:203|187:170,2,150,8|8|8,2:3|2:3|2:3,2:0:0:0:
255,346,21554,2,0,B|315:336|301:368|365:358,1,100,0|4,2:0|2:3,0:0:0:0:
353,360,22264,101,8,2:3:0:0:
353,360,22619,1,8,2:3:0:0:
335,289,22797,2,0,P|337:252|347:216,2,75.0000028610231,0|0|8,2:0|3:0|2:3,0:0:0:0:
430,338,23329,1,0,2:0:0:0:
430,338,23507,2,0,P|414:294|415:242,2,75.0000028610231,0|8|0,2:0|2:3|2:0,0:0:0:0:
492,284,24039,1,0,2:0:0:0:
492,284,24217,1,0,2:0:0:0:
464,211,24394,85,0,3:0:0:0:
335,289,24572,1,0,2:0:0:0:
405,167,24749,2,0,B|416:107|374:116|386:59,1,112.500004291535,4|0,2:3|0:0,2:0:0:0:
426,2,25104,2,0,P|454:37|446:89,1,75.0000028610231,8|0,2:3|0:0,0:0:0:0:
331,152,25459,5,8,2:3:0:0:
278,100,25637,2,0,P|244:83|207:79,2,75.0000028610231,0|0|8,2:0|3:0|2:3,0:0:0:0:
147,165,26169,1,0,2:0:0:0:
147,165,26347,2,0,P|182:153|220:153,2,75.0000028610231,0|8|0,2:0|2:3|2:0,0:0:0:0:
96,219,26879,1,0,2:0:0:0:
96,219,27057,1,0,2:0:0:0:
52,155,27235,101,0,3:0:0:0:
169,235,27412,1,0,2:0:0:0:
38,269,27590,2,0,B|20:276|20:276|51:315|120:296,1,112.500004291535,4|0,2:3|0:0,2:0:0:0:
121,367,27945,2,0,P|154:351|172:318,1,75.0000028610231,8|0,2:3|2:0,0:0:0:0:
248,220,28300,5,8,2:3:0:0:
230,149,28478,2,0,P|211:116|186:89,2,75.0000028610231,0|0|8,2:0|3:0|2:3,0:0:0:0:
169,235,29010,1,0,2:0:0:0:
169,235,29188,2,0,P|163:188|138:142,2,75.0000028610231,0|8|0,2:0|2:3|2:0,0:0:0:0:
96,219,29720,1,0,2:0:0:0:
96,219,29897,1,0,2:0:0:0:
209,306,30075,102,0,P|162:277|110:293,2,112.500004291535,0|0|0,3:0|2:0|2:0,2:0:0:0:
369,292,30785,2,0,B|366:336|310:361|275:340|275:340|281:328|281:314,1,150.000005722046,8|0,2:3|0:0,0:0:0:0:
281,315,31495,6,0,B|289:250|231:226|242:261|174:167|242:85|321:136|313:193,1,262.500010013581
310,169,32205,2,0,B|299:202|378:253|446:171|378:77|389:112|331:88|339:23,1,262.500010013581
338,33,32915,2,0,B|357:-56|524:-44|517:100|400:66|409:18,1,262.500010013581
510,97,33625,102,0,P|454:91|406:117,1,112.500004291535,8|0,2:3|0:0,0:0:0:0:
424,184,33980,2,0,P|386:185|354:164,1,75.0000028610231,8|0,2:3|2:0,0:0:0:0:
158,99,34335,2,0,L|60:109,1,75.0000028610231,8|8,3:2|2:3,2:0:0:0:
158,99,34868,5,0,2:0:0:0:
83,106,35045,2,0,P|140:120|186:204,1,150.000005722046,8|0,2:3|2:0,2:0:0:0:
75,290,35578,1,0,2:0:0:0:
129,342,35755,2,0,P|147:310|147:273,1,75.0000028610231,8|0,3:2|2:0,0:0:0:0:
20,237,36110,2,0,P|2:269|2:306,1,75.0000028610231,4|0,2:3|2:0,2:0:0:0:
129,343,36465,102,0,P|180:313|256:328,1,112.500004291535,8|0,2:3|0:0,2:0:0:0:
257,382,36820,2,0,P|288:361|301:327,1,75.0000028610231,8|0,2:3|2:0,0:0:0:0:
373,177,37175,2,0,L|357:75,1,75.0000028610231,8|8,3:2|2:3,2:0:0:0:
373,177,37708,5,0,2:0:0:0:
361,102,37885,2,0,P|392:155|487:183,1,150.000005722046,8|0,2:3|2:0,2:0:0:0:
439,24,38418,1,0,2:0:0:0:
502,58,38595,2,0,L|418:70,1,75.0000028610231,8|0,3:2|2:0,0:0:0:0:
228,7,38950,2,0,L|315:19,1,75.0000028610231,4|0,2:3|2:0,2:0:0:0:
373,177,39306,102,0,P|361:228|295:262,1,112.500004291535,8|0,2:3|0:0,2:0:0:0:
283,324,39661,2,0,P|252:301|247:245,1,75.0000028610231,8|0,2:3|2:0,0:0:0:0:
289,115,40016,2,0,L|300:206,1,75.0000028610231,8|8,3:2|2:3,2:0:0:0:
289,115,40548,5,0,2:0:0:0:
298,189,40726,2,0,P|259:131|158:125,1,150.000005722046,8|0,2:3|2:0,2:0:0:0:
17,171,41258,1,0,2:0:0:0:
70,225,41436,2,0,P|107:227|140:210,1,75.0000028610231,8|0,3:2|2:0,0:0:0:0:
348,70,41791,2,0,P|316:44|269:42,1,75.0000028610231,0|0,2:0|2:0,2:0:0:0:
459,287,42146,37,8,2:3:0:0:
474,252,42234,1,0,2:0:0:0:
482,216,42323,1,0,2:0:0:0:
483,178,42412,1,0,2:0:0:0:
477,142,42501,1,8,2:3:0:0:
464,107,42589,1,0,2:0:0:0:
444,75,42678,1,0,2:0:0:0:
419,47,42767,1,0,2:0:0:0:
440,8,42856,69,8,3:2:0:0:
470,45,42944,1,0,2:0:0:0:
493,87,43033,1,8,2:3:0:0:
507,133,43122,1,0,2:0:0:0:
512,181,43211,1,0,2:0:0:0:
507,229,43299,1,0,2:0:0:0:
494,275,43388,1,0,2:0:0:0:
472,318,43477,1,0,2:0:0:0:
412,356,43566,37,8,2:3:0:0:
412,356,44276,2,0,P|392:340|368:336,1,50,8|0,2:1|2:0,2:0:0:0:
298,358,44453,1,0,3:0:0:0:
416,276,44631,2,0,P|346:301|298:357,1,150,0|0,3:0|0:0,2:0:0:0:
297,357,44986,22,0,P|209:326|215:233,1,200,4|8,3:1|2:1,2:0:0:0:
357,195,45528,1,0,2:0:0:0:
272,284,45709,1,2,3:1:0:0:
170,153,45890,1,2,3:1:0:0:
357,195,46071,1,8,2:1:0:0:
95,319,46252,6,0,P|84:228|68:121,1,200,2|2,3:1|2:1,2:0:0:0:
0,296,46795,1,10,2:1:0:0:
170,153,46976,2,0,B|271:129|261:220|370:193,1,200,2|2,2:1|3:1,2:0:0:0:
505,56,47519,1,10,2:1:0:0:
333,112,47700,1,2,3:1:0:0:
432,351,47881,102,0,P|437:275|450:164,1,150,0|0,3:0|0:0,0:0:0:0:
433,130,48242,2,0,P|488:144|514:208,1,100,10|0,2:1|0:0,2:0:0:0:
246,42,48604,2,0,P|254:91|257:141,1,100,2|0,3:1|3:0,0:0:0:0:
324,285,48966,2,0,P|283:322|227:317,1,100,10|0,2:1|0:0,2:0:0:0:
62,215,49328,5,2,2:1:0:0:
258,253,49509,1,2,2:1:0:0:
77,337,49690,1,10,2:1:0:0:
174,162,49871,1,2,2:1:0:0:
8,51,50052,1,2,2:1:0:0:
83,27,50233,1,0,3:0:0:0:
65,104,50414,1,10,2:1:0:0:
136,282,50595,101,2,3:1:0:0:
136,282,50685,1,0,2:0:0:0:
136,282,50776,2,0,B|148:223|225:198|273:227|273:227|250:264,1,200,4|8,3:1|2:1,2:0:0:0:
257,252,51499,1,2,3:1:0:0:
299,64,51680,1,2,3:1:0:0:
168,193,51861,1,8,2:1:0:0:
309,346,52042,6,0,P|407:325|506:311,1,200,2|2,3:1|2:1,2:0:0:0:
349,234,52585,2,0,P|344:169|383:130,1,100,10|0,2:1|0:0,2:0:0:0:
455,192,52947,1,2,3:1:0:0:
260,118,53128,1,2,3:1:0:0:
310,344,53309,1,10,2:1:0:0:
493,116,53490,101,2,3:1:0:0:
493,116,53580,1,0,2:0:0:0:
493,116,53671,2,0,P|428:159|353:135,1,150,4|0,3:2|0:0,0:0:0:0:
297,117,54033,2,0,P|329:80|377:72,1,100,10|0,2:1|2:0,2:0:0:0:
281,274,54394,2,0,P|231:263|182:259,1,100,4|0,3:2|3:0,0:0:0:0:
0,313,54756,2,0,P|30:352|78:364,1,100,10|0,2:1|3:0,2:0:0:0:
224,166,55118,85,2,2:1:0:0:
71,291,55299,1,2,2:1:0:0:
264,362,55480,1,10,2:1:0:0:
108,183,55661,117,2,2:1:0:0:
95,111,55842,1,2,2:1:0:0:
297,143,56023,69,10,3:1:0:0:
34,58,56204,1,10,2:1:0:0:
386,10,56385,117,10,3:1:0:0:
386,10,56475,1,8,3:1:0:0:
386,10,56566,2,0,P|374:121|374:199,1,150,4|0,3:1|0:0,2:0:0:0:
386,232,56928,2,0,P|428:207|447:162,1,100,10|0,2:1|2:0,0:0:0:0:
233,274,57289,2,0,P|233:323|263:362,1,100,2|0,3:1|3:0,2:0:0:0:
273,120,57651,2,0,P|230:96|182:102,1,100,10|0,2:1|3:0,2:0:0:0:
303,302,58013,86,0,P|353:303|403:308,1,100,2|0,2:1|2:0,0:0:0:0:
161,182,58375,2,0,P|87:249|23:217,1,150,10|0,2:1|0:0,2:0:0:0:
0,181,58737,1,2,3:1:0:0:
181,102,58918,1,0,3:0:0:0:
154,309,59099,1,10,2:1:0:0:
290,250,59280,101,2,3:1:0:0:
256,328,59461,2,0,P|246:261|240:179,1,150,0|0,3:0|2:0,2:0:0:0:
289,126,59823,2,0,P|337:127|365:167,1,100,10|0,2:1|2:0,2:0:0:0:
164,30,60185,2,0,P|98:30|70:124,1,150,2|0,3:1|0:0,2:0:0:0:
119,143,60546,1,10,2:1:0:0:
100,258,60727,1,2,3:1:0:0:
259,104,60908,6,0,P|259:65|251:4,1,100,2|0,2:1|0:0,2:0:0:0:
41,188,61270,1,10,2:1:0:0:
173,211,61451,2,0,B|247:197|241:264|329:248,1,150,2|0,2:1|0:0,2:0:0:0:
394,224,61813,2,0,P|387:283|386:324,1,100,2|8,3:1|2:1,2:0:0:0:
167,365,62175,101,2,3:1:0:0:
167,365,62265,1,0,2:0:0:0:
167,365,62356,2,0,B|204:284|124:237|124:237|117:267|100:311,1,200,4|10,3:1|2:1,2:0:0:0:
26,335,62899,1,2,2:1:0:0:
248,259,63080,1,2,3:1:0:0:
90,134,63261,1,2,3:1:0:0:
26,335,63441,1,10,2:1:0:0:
23,82,63622,6,0,P|116:58|172:139,1,200,2|2,3:1|2:1,2:0:0:0:
110,283,64165,1,10,2:1:0:0:
335,161,64346,2,0,P|242:137|186:218,1,200,2|2,2:1|3:1,2:0:0:0:
231,364,64889,1,10,2:1:0:0:
43,255,65070,1,0,3:0:0:0:
271,287,65251,102,0,P|344:275|420:269,1,150,4|0,3:2|0:0,0:0:0:0:
464,328,65613,2,0,P|492:280|480:226,1,100,10|0,2:1|2:0,0:0:0:0:
309,178,65975,2,0,P|260:176|210:169,1,100,4|0,3:2|3:0,0:0:0:0:
352,1,66337,2,0,P|404:51|386:105,1,100,10|0,2:1|3:0,0:0:0:0:
144,203,66698,5,2,2:1:0:0:
382,153,66879,1,0,2:0:0:0:
144,203,67060,1,10,2:1:0:0:
382,153,67241,1,0,2:0:0:0:
73,157,67422,101,2,2:1:0:0:
453,199,67603,1,8,3:1:0:0:
271,103,67784,5,10,2:1:0:0:
255,262,67965,1,10,3:1:0:0:
255,262,68055,1,8,3:1:0:0:
255,262,68146,1,2,2:0:0:0:
255,262,71037,37,2,2:0:0:0:
253,225,71127,1,0,2:0:0:0:
238,192,71218,1,0,2:0:0:0:
213,166,71309,1,0,2:0:0:0:
180,151,71400,1,2,2:0:0:0:
143,149,71491,1,0,2:0:0:0:
109,160,71582,1,0,2:0:0:0:
80,183,71673,1,0,2:0:0:0:
62,214,71764,1,2,2:0:0:0:
56,250,71855,1,0,2:0:0:0:
64,286,71946,1,2,2:0:0:0:
84,316,72036,1,0,2:0:0:0:
114,337,72127,1,2,2:0:0:0:
149,347,72218,1,0,2:0:0:0:
185,342,72309,1,2,2:0:0:0:
218,326,72400,1,0,2:0:0:0:
234,347,72491,5,0,2:0:0:0:
183,366,72581,1,0,2:0:0:0:
130,364,72672,1,2,2:0:0:0:
82,338,72763,1,0,2:0:0:0:
49,296,72854,1,2,2:0:0:0:
38,243,72945,1,0,2:0:0:0:
48,192,73036,1,2,2:0:0:0:
80,148,73127,1,0,2:0:0:0:
129,132,73218,101,0,2:0:0:0:
174,160,73309,1,0,2:0:0:0:
225,145,73400,1,2,2:0:0:0:
270,174,73491,1,0,2:0:0:0:
323,163,73582,1,2,2:0:0:0:
369,192,73673,1,0,2:0:0:0:
420,176,73764,1,2,2:0:0:0:
465,205,73855,1,0,2:0:0:0:
465,205,73946,21,0,2:0:0:0:
465,205,74301,2,0,B|534:182|505:66|444:101|467:146|498:138,2,150,0|0|0,3:0|3:0|0:0,0:0:0:0:
396,230,75543,1,0,2:0:0:0:
396,230,75721,1,0,2:0:0:0:
396,230,75898,1,0,2:0:0:0:
453,279,76076,54,0,P|404:272|361:297,1,100,8|4,2:1|2:3,2:0:0:0:
362,298,76786,5,8,2:3:0:0:
362,298,77141,1,8,2:3:0:0:
309,241,77318,2,0,P|264:222|222:221,2,75.0000028610231,0|8|8,2:0|2:1|2:3,0:0:0:0:
241,143,77851,1,0,2:0:0:0:
241,143,78028,2,0,P|191:159|167:181,2,75.0000028610231,0|8|0,2:0|2:3|0:0,0:0:0:0:
288,83,78561,1,0,2:0:0:0:
288,83,78738,1,0,2:0:0:0:
222,39,78916,101,8,2:1:0:0:
355,123,79093,1,0,2:0:0:0:
174,172,79271,2,0,P|188:255|187:299,1,112.500004291535,4|0,2:3|0:0,2:0:0:0:
176,352,79626,2,0,P|141:340|120:310,1,75.0000028610231,8|0,2:3|0:0,0:0:0:0:
111,129,79981,5,8,2:3:0:0:
154,68,80159,2,0,P|185:49|221:38,2,75.0000028610231,0|8|8,2:0|2:1|2:3,0:0:0:0:
325,144,80691,1,0,2:0:0:0:
325,144,80869,2,0,P|286:113|240:106,2,75.0000028610231,0|8|0,2:0|2:3|0:0,0:0:0:0:
223,173,81401,1,4,2:3:0:0:
223,173,81579,1,0,2:0:0:0:
281,326,81756,54,2,B|234:302|230:244|230:244|235:302|202:336,2,200,8|0|8,2:1|0:0|2:3,2:1:0:0:
353,340,83176,1,8,2:3:0:0:
425,354,83886,1,8,2:3:0:0:
425,354,84596,54,0,B|514:335|502:168|359:186|392:292|455:278,1,250,8|0,2:1|0:0,2:0:0:0:
438,278,85129,1,8,2:1:0:0:
448,150,85306,102,0,P|406:185|351:186,1,112.500004291535,8|0,2:3|0:0,0:0:0:0:
309,243,85661,2,0,P|284:215|280:178,1,75.0000028610231,8|0,2:3|2:0,0:0:0:0:
390,40,86017,2,0,L|378:114,1,75.0000028610231,8|8,2:1|2:3,2:0:0:0:
390,40,86549,5,0,2:0:0:0:
378,114,86727,2,0,P|347:62|239:58,1,150.000005722046,8|0,2:3|2:0,2:0:0:0:
115,117,87259,1,0,2:0:0:0:
154,181,87437,1,8,2:1:0:0:
190,118,87614,1,0,2:0:0:0:
77,182,87792,2,0,P|84:218|88:256,1,75.0000028610231,4|0,2:3|0:0,2:0:0:0:
193,328,88147,102,0,P|254:313|303:306,1,112.500004291535,8|0,2:3|0:0,0:0:0:0:
352,358,88502,2,0,P|374:320|355:263,1,75.0000028610231,8|0,2:3|2:0,0:0:0:0:
221,142,88857,2,0,L|213:54,1,75.0000028610231,8|8,2:1|2:3,2:0:0:0:
214,67,89389,5,0,2:0:0:0:
221,142,89567,2,0,P|255:165|303:163,1,75.0000028610231,8|0,2:3|2:0,2:0:0:0:
418,52,89922,2,0,P|417:89|398:121,1,75.0000028610231,0|0,2:0|2:0,0:0:0:0:
210,231,90277,2,0,P|236:182|289:167,1,112.500004291535,8|0,2:1|0:0,2:0:0:0:
358,185,90632,2,0,P|352:235|350:259,1,75.0000028610231,4|0,2:3|0:0,2:0:0:0:
220,341,90987,101,8,2:3:0:0:
132,360,91164,1,0,2:0:0:0:
132,360,91253,1,0,2:0:0:0:
132,360,91342,1,8,2:3:0:0:
55,298,91519,1,0,2:0:0:0:
146,281,91697,5,8,2:1:0:0:
132,360,91874,2,0,B|136:280|82:302|86:216,1,150.000005722046,4|0,2:3|2:0,0:0:0:0:
262,101,92407,101,8,2:3:0:0:
47,147,92585,2,0,P|96:139|173:217,1,150.000005722046,0|0,0:0|2:0,0:0:0:0:
253,25,93117,5,8,2:1:0:0:
465,147,93295,2,0,P|416:139|339:217,1,150.000005722046,0|0,2:0|2:0,0:0:0:0:
245,304,93827,37,8,2:3:0:0:
262,101,94005,1,0,2:0:0:0:
334,276,94184,69,8,2:3:0:0:
167,197,94362,1,0,2:0:0:0:
347,125,94541,1,8,2:1:0:0:
146,76,94719,37,8,2:3:0:0:
411,215,94898,1,0,2:0:0:0:
131,305,95077,1,8,2:3:0:0:
256,192,95255,69,2,2:0:0:0:
259,194,95434,1,2,0:0:0:0:
257,198,95612,1,2,0:0:0:0:
253,195,95791,1,2,0:0:0:0:
265,117,95969,37,0,3:0:0:0:
311,137,96058,1,0,3:0:0:0:
335,181,96147,1,0,3:0:0:0:
329,231,96236,1,0,3:0:0:0:
294,268,96326,1,0,3:0:0:0:
244,276,96415,1,0,3:0:0:0:
199,253,96504,1,0,3:0:0:0:
177,208,96593,1,0,3:0:0:0:
190,134,96684,22,0,P|291:126|389:116,1,200,4|8,3:1|2:1,2:0:0:0:
494,180,97226,1,0,2:0:0:0:
332,31,97407,1,2,3:1:0:0:
353,257,97588,1,2,3:1:0:0:
332,31,97768,1,8,2:1:0:0:
418,314,97949,6,0,P|319:337|268:244,1,200,2|2,3:1|2:1,2:0:0:0:
388,116,98492,1,10,2:1:0:0:
353,257,98673,2,0,B|254:282|263:189|155:219,1,200,2|2,2:1|3:1,2:0:0:0:
4,285,99215,1,10,2:1:0:0:
163,367,99396,1,2,3:1:0:0:
128,140,99577,102,0,P|82:196|97:267,1,150,0|0,3:0|0:0,0:0:0:0:
171,291,99938,2,0,P|220:283|270:278,1,100,10|0,2:1|0:0,2:0:0:0:
433,106,100300,2,0,P|402:68|353:65,1,100,2|0,3:1|3:0,0:0:0:0:
258,179,100662,2,0,P|259:228|269:277,1,100,10|0,2:1|0:0,2:0:0:0:
432,374,101023,5,2,2:1:0:0:
469,203,101204,1,2,2:1:0:0:
338,319,101385,1,10,2:1:0:0:
512,302,101566,1,2,2:1:0:0:
361,213,101747,101,2,2:1:0:0:
487,84,101928,1,0,3:0:0:0:
303,40,102108,1,10,2:1:0:0:
380,124,102289,5,2,3:1:0:0:
380,124,102380,1,0,2:0:0:0:
380,124,102470,2,0,B|309:114|309:114|258:145|258:145|189:137,1,200,4|8,3:1|2:1,2:0:0:0:
189,138,103193,1,2,3:1:0:0:
170,17,103374,1,2,3:1:0:0:
83,190,103555,1,8,2:1:0:0:
265,262,103736,102,0,B|234:204|162:217|162:217|144:273|70:276,1,200,2|2,3:1|2:1,2:0:0:0:
10,77,104278,2,0,P|64:86|109:92,1,100,10|0,2:1|0:0,2:0:0:0:
200,310,104640,1,2,3:1:0:0:
6,265,104821,1,2,3:1:0:0:
189,138,105002,1,10,2:1:0:0:
135,364,105183,5,2,3:1:0:0:
135,364,105273,1,0,2:0:0:0:
135,364,105363,2,0,P|190:336|284:358,1,150,2|0,3:1|0:0,2:0:0:0:
345,339,105725,2,0,P|369:292|343:226,1,100,10|0,2:1|2:0,0:0:0:0:
180,40,106087,2,0,P|188:99|190:139,1,100,2|0,3:1|3:0,2:0:0:0:
461,124,106448,2,0,P|423:74|361:72,1,100,10|0,2:1|3:0,0:0:0:0:
158,224,106810,69,2,2:1:0:0:
387,146,106991,1,2,2:1:0:0:
121,109,107172,1,10,2:1:0:0:
379,222,107353,1,2,2:1:0:0:
201,16,107533,1,2,2:1:0:0:
315,266,107714,69,10,3:1:0:0:
297,240,107805,1,8,0:1:0:0:
305,205,107895,2,0,P|279:201|257:189,1,50,10|0,2:1|0:0,0:0:0:0:
201,16,108076,37,10,3:1:0:0:
171,60,108166,1,8,3:1:0:0:
198,108,108257,2,0,B|117:97|135:152|47:140,1,150,4|0,3:1|0:0,2:0:0:0:
22,78,108618,2,0,P|71:73|113:98,1,100,10|0,2:1|2:0,0:0:0:0:
321,120,108980,2,0,P|301:165|258:189,1,100,2|0,3:1|3:0,2:0:0:0:
138,351,109342,2,0,P|109:311|110:262,1,100,10|0,2:1|3:0,2:0:0:0:
247,115,109703,22,0,P|244:72|234:15,1,100,2|0,2:1|2:0,0:0:0:0:
183,289,110065,2,0,P|237:337|309:331,1,150,10|0,2:1|0:0,2:0:0:0:
365,276,110427,1,2,3:1:0:0:
159,180,110608,1,0,3:0:0:0:
364,99,110788,1,10,2:1:0:0:
266,217,110969,5,2,3:1:0:0:
452,202,111150,2,0,P|378:190|309:160,1,150,0|0,3:0|2:0,2:0:0:0:
266,217,111512,2,0,P|236:166|259:106,1,100,10|0,2:1|2:0,2:0:0:0:
462,2,111873,2,0,P|479:77|427:127,1,150,2|0,3:1|0:0,2:0:0:0:
364,99,112235,1,10,2:1:0:0:
378,274,112416,1,2,3:1:0:0:
364,99,112597,102,0,P|361:55|357:0,1,100,2|0,2:1|0:0,2:0:0:0:
498,263,112958,1,10,2:1:0:0:
254,325,113139,2,0,B|173:341|189:272|91:290,1,150,2|0,2:1|0:0,2:0:0:0:
34,338,113501,2,0,P|37:296|38:238,1,100,2|8,3:1|2:1,2:0:0:0:
19,53,113863,5,2,3:1:0:0:
19,53,113953,1,0,2:0:0:0:
19,53,114043,2,0,B|89:23|139:93|139:93|103:125|101:173,1,200,4|10,3:1|2:1,2:0:0:0:
208,234,114586,1,2,2:1:0:0:
243,39,114767,1,2,3:1:0:0:
19,131,114948,1,2,3:1:0:0:
243,39,115128,1,10,2:1:0:0:
153,355,115309,102,0,P|167:255|177:156,1,200,2|2,3:1|2:1,2:0:0:0:
63,269,115852,1,10,2:1:0:0:
341,233,116033,2,0,P|328:139|322:33,1,200,2|2,2:1|3:1,2:0:0:0:
444,184,116575,1,10,2:1:0:0:
247,122,116756,1,0,3:0:0:0:
461,260,116937,6,0,P|516:213|508:142,1,150,4|0,3:2|0:0,0:0:0:0:
446,102,117298,2,0,P|397:111|347:117,1,100,10|0,2:1|2:0,0:0:0:0:
189,242,117660,2,0,P|178:289|204:331,1,100,4|0,3:2|3:0,0:0:0:0:
211,74,118022,2,0,P|161:66|111:61,1,100,10|0,2:1|3:0,0:0:0:0:
64,190,118383,101,2,2:1:0:0:
249,151,118564,1,0,2:0:0:0:
453,258,118745,5,10,2:1:0:0:
266,224,118926,1,0,2:0:0:0:
280,30,119107,101,2,2:1:0:0:
237,354,119287,1,8,3:1:0:0:
342,172,119468,5,10,2:1:0:0:
180,201,119649,1,10,3:1:0:0:
180,201,119740,1,8,3:1:0:0:
180,201,119830,1,2,2:0:0:0:
180,201,122716,69,2,2:0:0:0:
155,174,122806,1,0,2:0:0:0:
149,138,122897,1,0,2:0:0:0:
163,104,122988,1,0,2:0:0:0:
194,84,123079,1,2,2:0:0:0:
230,84,123170,1,0,2:0:0:0:
261,104,123261,1,0,2:0:0:0:
275,138,123352,1,0,2:0:0:0:
274,174,123443,1,2,2:0:0:0:
288,208,123534,1,0,2:0:0:0:
319,228,123625,1,2,2:0:0:0:
355,228,123716,1,0,2:0:0:0:
386,208,123807,1,2,2:0:0:0:
400,174,123898,1,0,2:0:0:0:
394,138,123989,1,2,2:0:0:0:
369,111,124079,1,0,2:0:0:0:
377,79,124170,69,0,2:0:0:0:
416,118,124260,1,0,2:0:0:0:
426,172,124351,1,2,2:0:0:0:
404,223,124442,1,0,2:0:0:0:
357,253,124533,1,2,2:0:0:0:
301,251,124624,1,0,2:0:0:0:
257,218,124715,1,2,2:0:0:0:
240,165,124806,1,0,2:0:0:0:
250,113,124897,1,0,2:0:0:0:
233,60,124989,1,0,2:0:0:0:
189,27,125080,1,2,2:0:0:0:
133,25,125171,1,0,2:0:0:0:
86,55,125262,1,2,2:0:0:0:
64,106,125353,1,0,2:0:0:0:
74,160,125444,1,2,2:0:0:0:
113,199,125534,1,0,2:0:0:0:
113,199,125625,38,0,L|179:189,2,50,2|2|2,2:0|2:0|2:0,2:0:0:0:
0,216,126361,69,4,3:1:0:0:
159,296,126541,1,0,3:0:0:0:
157,117,126722,1,8,2:1:0:0:
0,216,126903,1,2,3:1:0:0:
300,253,127263,1,0,0:0:0:0:
357,194,127444,37,8,2:1:0:0:
220,240,127625,1,2,2:1:0:0:
319,327,127806,1,0,3:0:0:0:
194,233,127987,1,0,3:0:0:0:
280,62,128167,2,0,P|273:122|270:161,1,100,8|0,2:1|3:0,0:0:0:0:
437,323,128529,70,0,B|455:344|452:372|452:372|398:313|307:328,1,200,2|12,3:1|2:1,2:0:0:0:
318,326,129252,2,0,P|316:287|309:226,1,100,0|0,3:1|3:0,0:0:0:0:
218,345,129614,1,8,2:1:0:0:
417,239,129795,38,0,P|452:192|347:132,1,200,2|2,3:1|2:1,2:0:0:0:
241,197,130337,1,8,2:1:0:0:
125,267,130518,2,0,P|56:256|57:187,1,150,2|0,2:1|0:0,2:0:0:0:
53,116,130880,2,0,P|100:127|127:191,1,100,2|10,3:1|2:1,0:0:0:0:
123,357,131242,69,0,3:0:0:0:
123,357,131332,1,0,2:0:0:0:
123,357,131422,2,0,L|17:347,2,100,2|0|12,3:1|0:0|2:1,2:0:0:0:
429,335,132146,37,0,3:1:0:0:
249,368,132327,1,0,3:0:0:0:
312,200,132507,1,8,2:1:0:0:
429,335,132688,1,2,3:1:0:0:
176,126,133050,1,2,2:1:0:0:
104,150,133231,69,8,2:1:0:0:
230,179,133412,1,2,2:1:0:0:
190,53,133592,1,0,3:1:0:0:
242,202,133773,1,0,3:0:0:0:
41,234,133954,2,0,P|35:186|26:135,1,100,8|0,2:1|3:0,0:0:0:0:
274,81,134316,38,0,B|287:97|318:103|318:103|233:129|182:40,1,200,2|12,3:1|2:1,2:0:0:0:
189,52,135039,2,0,P|187:106|178:151,1,100,0|0,3:1|3:0,0:0:0:0:
112,22,135401,1,8,2:1:0:0:
157,222,135582,70,0,P|207:224|253:168,1,100,2|0,3:1|2:0,2:0:0:0:
396,338,135943,2,0,P|374:295|328:277,1,100,2|8,2:1|2:1,2:0:0:0:
379,73,136305,2,0,P|352:115|377:183,1,100,2|0,2:1|3:0,2:0:0:0:
243,193,136667,37,0,3:0:0:0:
327,276,136847,1,8,2:1:0:0:
359,162,137028,1,0,3:0:0:0:
330,170,137119,1,0,0:0:0:0:
319,194,137209,86,0,P|343:194|369:205,2,50,2|0|0,2:0|2:0|0:0,2:0:0:0:
434,177,137932,2,0,P|467:213|477:261,1,100
243,93,138656,5,4,2:3:0:0:
236,16,138837,1,4,2:3:0:0:
256,183,139379,101,4,2:3:0:0:
266,110,139560,1,4,2:3:0:0:
237,274,140102,5,4,2:3:0:0:
270,209,140283,1,4,2:3:0:0:
237,274,140826,2,0,L|252:382,1,100
87,136,141549,101,4,2:3:0:0:
7,125,141730,1,4,2:3:0:0:
176,90,142272,5,4,2:3:0:0:
105,113,142453,1,4,2:3:0:0:
232,18,142996,101,4,2:3:0:0:
174,64,143177,1,4,2:3:0:0:
231,18,143719,2,0,P|280:26|320:56,1,100
455,283,144442,5,4,2:3:0:0:
447,205,144623,1,4,2:3:0:0:
355,185,145166,101,4,2:3:0:0:
422,215,145347,1,4,2:3:0:0:
482,146,145889,5,4,2:3:0:0:
425,188,146070,1,4,2:3:0:0:
482,146,146612,2,0,L|489:39,1,100
193,245,147336,101,4,2:3:0:0:
205,325,147516,1,4,2:3:0:0:
225,157,148059,5,8,2:0:0:0:
215,229,148240,1,8,2:0:0:0:
275,83,148421,101,8,2:0:0:0:
250,151,148601,1,8,2:0:0:0:
275,83,148782,86,0,B|200:66|204:116|129:98,1,150.000005722046,0|0,2:0|3:0,0:0:0:0:
371,78,149506,2,0,B|296:95|300:45|225:63,1,150.000005722046,0|0,2:0|3:0,2:0:0:0:
361,160,150048,5,0,2:0:0:0:
361,160,150229,2,0,P|419:171|453:265,1,150.000005722046,0|0,2:0|3:0,2:0:0:0:
290,192,150771,1,0,2:0:0:0:
290,192,150952,2,0,P|274:226|281:262,2,75.0000028610231,0|8|0,2:0|2:0|3:0,0:0:0:0:
214,303,151495,101,8,2:0:0:0:
214,303,151676,2,0,B|289:286|285:336|360:318,1,150.000005722046,0|0,2:0|3:0,0:0:0:0:
132,354,152399,2,0,B|207:371|203:321|278:339,1,150.000005722046,0|0,2:0|3:0,2:0:0:0:
76,304,152941,5,0,2:0:0:0:
76,304,153122,2,0,P|77:248|-8:194,1,150.000005722046,0|0,2:0|3:0,2:0:0:0:
181,267,153665,1,0,2:0:0:0:
181,267,153846,2,0,P|150:236|150:191,2,75.0000028610231,0|8|0,2:0|2:0|3:0,0:0:0:0:
178,133,154388,101,8,2:0:0:0:
203,111,154479,1,0,2:0:0:0:
242,106,154569,2,0,B|181:59|169:108|90:63,1,150.000005722046,0|0,2:0|3:0,2:0:0:0:
331,9,155292,2,0,B|270:56|258:7|179:52,1,150.000005722046,0|0,2:0|3:0,2:0:0:0:
387,67,155835,5,0,2:0:0:0:
387,67,156016,2,0,P|420:131|491:132,1,150.000005722046,0|0,2:0|3:0,2:0:0:0:
339,183,156558,1,0,2:0:0:0:
339,183,156739,2,0,P|375:187|407:169,2,75.0000028610231,0|8|0,2:0|2:0|3:0,0:0:0:0:
278,321,157281,101,8,2:0:0:0:
278,321,157462,2,0,B|339:274|366:329|430:278,1,150.000005722046,0|0,2:0|3:0,2:0:0:0:
189,226,158185,2,0,B|250:273|277:221|341:269,1,150.000005722046,0|0,2:0|3:0,2:0:0:0:
108,276,158728,5,0,2:0:0:0:
108,276,158909,2,0,P|155:219|141:148,1,150.000005722046,0|0,2:0|3:0,2:0:0:0:
255,60,159451,1,0,2:0:0:0:
255,60,159628,2,0,P|214:86|170:84,1,75.0000028610231,0|8,2:0|2:0,0:0:0:0:
153,73,159904,1,0,2:0:0:0:
190,69,159996,1,0,3:0:0:0:
225,81,160088,1,0,2:0:0:0:
248,109,160180,1,8,2:0:0:0:
255,145,160272,1,0,2:0:0:0:
248,183,160364,102,0,L|366:172,2,100,2|2|2,2:0|2:0|2:0,0:0:0:0:
203,243,161267,1,2,2:0:0:0:
130,230,161448,1,2,2:0:0:0:
203,243,161629,1,2,2:0:0:0:
288,262,161990,21,2,2:0:0:0:
215,277,162171,1,2,2:0:0:0:
383,257,162532,5,2,2:0:0:0:
316,288,162713,1,2,2:0:0:0:
383,257,162894,1,2,2:0:0:0:
316,288,163074,1,2,2:0:0:0:
440,299,163255,102,0,P|433:260|429:199,1,100,2|2,2:0|2:0,0:0:0:0:
365,122,163978,2,0,P|361:147|359:172,1,50,2|2,2:0|2:0,2:0:0:0:
296,247,164339,2,0,P|291:222|289:197,1,50,2|2,2:0|2:0,0:0:0:0:
215,190,164701,5,2,2:0:0:0:
143,215,164882,1,2,2:0:0:0:
215,190,165062,1,2,2:0:0:0:
289,197,165243,101,2,2:0:0:0:
158,333,165604,1,2,2:0:0:0:
100,155,165966,1,2,2:0:0:0:
100,155,166056,1,2,2:0:0:0:
100,155,166147,6,0,L|-7:143,2,100,2|2|2,2:0|2:0|2:0,0:0:0:0:
160,112,167050,1,2,2:0:0:0:
233,124,167231,1,2,2:0:0:0:
160,112,167412,1,2,2:0:0:0:
289,208,167773,101,2,2:0:0:0:
240,154,167954,1,2,2:0:0:0:
299,303,168315,5,2,2:0:0:0:
276,232,168496,1,2,2:0:0:0:
299,303,168677,1,2,2:0:0:0:
249,355,168857,101,2,2:0:0:0:
249,355,168948,1,0,2:0:0:0:
249,355,169038,1,2,0:0:0:0:
249,355,169400,38,2,B|297:334|356:342|338:347|397:355|445:328,1,200,0|0,2:0|2:1,0:1:0:0:
444,328,171959,6,0,P|379:321|280:278,1,150,4|0,3:1|2:0,2:0:0:0:
236,260,172319,2,0,P|270:225|319:219,1,100,10|0,2:1|2:0,2:0:0:0:
126,94,172679,2,0,P|139:141|120:186,1,100,2|0,3:1|3:0,2:0:0:0:
324,81,173039,2,0,P|277:69|247:30,1,100,10|0,2:1|3:0,0:0:0:0:
154,264,173399,6,0,P|166:323|171:363,1,100,2|0,2:1|0:0,2:0:0:0:
10,156,173759,2,0,P|70:157|127:88,1,150,10|0,2:1|0:0,2:0:0:0:
80,38,174119,1,2,3:1:0:0:
252,148,174299,1,0,3:0:0:0:
74,240,174480,1,10,2:1:0:0:
176,184,174660,101,2,3:1:0:0:
154,264,174840,2,0,B|235:245|221:298|303:279,1,150,0|0,3:0|2:0,2:0:0:0:
361,324,175200,2,0,P|404:288|394:226,1,100,10|0,2:1|3:0,2:0:0:0:
253,31,175560,2,0,P|321:64|320:151,1,150,2|0,3:1|0:0,2:0:0:0:
268,170,175920,1,10,2:1:0:0:
154,143,176100,1,2,3:1:0:0:
407,83,176280,6,0,P|460:79|506:73,1,100,2|0,2:1|0:0,2:0:0:0:
335,215,176640,1,10,2:1:0:0:
509,372,176820,2,0,B|488:321|432:322|432:322|413:357|372:362,1,150,2|0,2:1|0:0,2:0:0:0:
365,291,177181,102,0,L|291:282,1,50,2|0,3:1|0:0,0:0:0:0:
196,206,177361,1,10,2:1:0:0:
108,351,177541,6,0,L|197:340,1,50,2|0,3:1|0:0,0:0:0:0:
287,162,177721,2,0,L|302:361,1,200,4|10,3:1|2:1,2:0:0:0:
198,280,178263,1,2,2:1:0:0:
391,202,178444,1,2,3:1:0:0:
154,143,178625,1,2,3:1:0:0:
230,361,178806,1,10,2:1:0:0:
391,202,178987,102,0,B|396:132|413:69|413:69|354:25,1,200,2|2,3:1|2:1,2:0:0:0:
63,171,179530,1,10,2:1:0:0:
123,314,179711,2,0,B|118:244|101:181|101:181|160:137,1,200,2|2,2:1|3:1,2:0:0:0:
437,282,180254,1,10,2:1:0:0:
264,338,180435,1,0,3:0:0:0:
361,369,180616,6,0,P|358:310|348:220,1,150,4|0,3:2|0:0,0:0:0:0:
320,154,180977,2,0,P|283:186|277:235,1,100,10|0,2:1|2:0,0:0:0:0:
115,347,181339,2,0,P|64:342|16:335,1,100,4|0,3:2|3:0,0:0:0:0:
104,64,181701,2,0,P|149:105|147:161,1,100,10|0,2:1|3:0,0:0:0:0:
30,231,182063,101,2,2:1:0:0:
213,351,182244,1,0,2:0:0:0:
225,88,182425,5,10,2:1:0:0:
278,304,182606,1,0,2:0:0:0:
469,114,182787,101,2,2:1:0:0:
359,314,182968,1,8,3:1:0:0:
209,200,183149,5,10,2:1:0:0:
240,161,183239,1,8,2:1:0:0:
286,178,183330,1,10,3:1:0:0:
283,227,183420,1,8,3:1:0:0:
236,241,183511,1,2,2:0:0:0:
236,241,186393,69,2,2:0:0:0:
249,243,186484,1,0,2:0:0:0:
262,241,186575,1,0,2:0:0:0:
274,236,186666,1,0,2:0:0:0:
283,226,186757,1,2,2:0:0:0:
288,214,186848,1,0,2:0:0:0:
289,201,186940,1,0,2:0:0:0:
286,188,187031,1,0,2:0:0:0:
279,177,187122,1,2,2:0:0:0:
268,169,187213,1,0,2:0:0:0:
256,165,187304,1,2,2:0:0:0:
242,165,187396,1,0,2:0:0:0:
230,170,187487,1,2,2:0:0:0:
220,178,187578,1,0,2:0:0:0:
213,190,187669,1,2,2:0:0:0:
211,203,187760,1,0,2:0:0:0:
186,240,187851,69,0,2:0:0:0:
178,201,187942,1,0,2:0:0:0:
193,163,188033,1,2,2:0:0:0:
225,141,188124,1,0,2:0:0:0:
266,140,188215,1,2,2:0:0:0:
299,159,188306,1,0,2:0:0:0:
317,194,188398,1,2,2:0:0:0:
313,234,188489,1,0,2:0:0:0:
310,292,188581,37,0,2:0:0:0:
255,312,188672,1,0,2:0:0:0:
199,301,188763,1,2,2:0:0:0:
156,262,188854,1,0,2:0:0:0:
139,206,188945,1,2,2:0:0:0:
156,152,189036,1,0,2:0:0:0:
199,113,189128,1,2,2:0:0:0:
255,101,189219,1,0,2:0:0:0:
255,101,189286,70,0,L|255:42,1,50,2|2,2:0|2:0,2:0:0:0:
331,123,190736,38,0,B|319:231|267:159|259:295,1,175,2|0,2:0|0:0,2:0:0:0:
294,343,191461,2,0,B|318:237|245:288|282:157,1,175,2|0,2:0|0:0,2:0:0:0:
255,101,192186,70,0,L|255:42,1,50,2|2,2:0|2:0,2:0:0:0:
