osu file format v14

[General]
AudioFilename: audio.mp3
AudioLeadIn: 0
PreviewTime: 44986
Countdown: 0
SampleSet: Soft
StackLeniency: 0.4
Mode: 0
LetterboxInBreaks: 0
WidescreenStoryboard: 0

[Editor]
Bookmarks: 15164,22264,33625,44986,68146,73946,85306,96684,119834,125625,137209,148782,160364,171959,183511,189286
DistanceSpacing: 1.6
BeatDivisor: 4
GridSize: 32
TimelineZoom: 1.3

[Metadata]
Title:good 4 u
TitleUnicode:good 4 u
Artist:Olivia Rodrigo
ArtistUnicode:Olivia Rodrigo
Creator:hehe
Version:Sour
Source:
Tags:pop punk for sour isabel rock english marianna toybot vikala
BeatmapID:3030980
BeatmapSetID:1477257

[Difficulty]
HPDrainRate:5
CircleSize:4
OverallDifficulty:8.5
ApproachRate:9.2
SliderMultiplier:1.4
SliderTickRate:1

[Events]
//Background and Video events
0,0,"good.jpg",0,0
Video,0,"good4u.avi"
//Break Periods
//Storyboard Layer 0 (Background)
//Storyboard Layer 1 (Fail)
//Storyboard Layer 2 (Pass)
//Storyboard Layer 3 (Foreground)
//Storyboard Layer 4 (Overlay)
//Storyboard Sound Samples

[TimingPoints]
15164,355.029585798817,4,2,1,30,1,0
16229,-125,4,2,1,30,0,0
22264,-125,4,2,1,40,0,0
22619,-100,4,2,1,40,0,0
33625,-100,4,2,1,50,0,0
34335,-83.3333333333333,4,2,1,50,0,0
44986,361.881785283474,4,2,1,70,1,1
44986,-71.4285714285714,4,2,1,70,0,1
68146,361.44578313253,4,2,1,50,1,0
71037,363.636363636364,4,2,1,70,1,1
73946,355.029585798817,4,2,1,70,1,0
75543,-100,4,2,1,40,0,0
85306,-100,4,2,1,50,0,0
86017,-83.3333333333333,4,2,1,50,0,0
93827,357.142857142857,4,2,1,60,1,0
96684,361.663652802893,4,2,1,70,1,1
96684,-71.4285714285714,4,2,1,70,0,1
119834,360.360360360361,4,2,1,50,1,0
122716,363.636363636364,4,2,1,70,1,1
125625,368.098159509203,4,2,1,50,1,0
126361,361.445783132531,4,2,1,50,1,0
127083,361.663652802893,4,2,1,50,1,0
127083,-83.3333333333333,4,2,1,50,0,0
148782,-83.3333333333333,4,2,1,40,0,0
149144,-125,4,2,1,40,0,0
154569,-100,4,2,1,50,0,0
159628,368.098159509202,4,2,1,50,1,0
160364,361.44578313253,4,2,1,40,1,0
161086,-166.666666666667,4,2,1,40,0,0
170845,400,4,2,1,40,1,0
171445,342.857142857143,4,2,1,40,1,0
171959,360.144057623049,4,2,1,80,1,1
171959,-71.4285714285714,4,2,1,80,0,1
177721,361.881785283474,4,2,1,80,1,1
177721,-71.4285714285714,4,2,1,80,0,1
183511,360.360360360361,4,2,1,50,1,0
186393,364.741641337386,4,2,1,80,1,1
189286,362.537764350454,4,2,1,50,1,0

[Colours]
Combo1 : 255,47,52
Combo2 : 174,85,255
Combo3 : 255,45,155
Combo4 : 181,255,81
Combo5 : 64,255,193
Combo6 : 250,255,47
Combo7 : 255,134,13
Combo8 : 79,132,255

[HitObjects]
380,153,16229,70,0,L|364:263,1,112,4|8,2:3|2:3,2:0:0:0:
277,277,16939,2,0,B|370:261|337:333|431:321,2,168,8|8|8,2:3|2:3|2:3,2:0:0:0:
251,70,19069,6,0,B|232:121|232:121|256:173,1,112,4|8,2:3|2:3,2:0:0:0:
338,72,19779,2,0,P|264:33|181:24,2,168,8|8|8,2:3|2:3|2:3,2:0:0:0:
135,197,21554,101,0,2:0:0:0:
135,197,21909,2,0,P|126:142|107:90,1,112,4|8,2:3|2:3,2:0:0:0:
70,265,22619,86,0,L|37:340,1,70,8|0,2:3|2:0,2:0:0:0:
127,384,22974,2,0,L|142:294,1,70,0|8,3:0|2:3,2:0:0:0:
232,225,23329,2,0,L|199:150,1,70,0|0,2:0|2:0,2:0:0:0:
289,106,23684,2,0,L|304:196,1,70,8|0,2:3|2:0,2:0:0:0:
494,295,24039,5,0,2:0:0:0:
302,277,24217,1,0,2:0:0:0:
484,285,24394,1,0,3:0:0:0:
312,287,24572,1,0,2:0:0:0:
382,355,24749,2,0,L|414:205,1,140,4|8,2:3|2:3,2:0:0:0:
486,41,25459,102,0,P|451:37|417:44,1,70,8|0,2:3|2:0,2:0:0:0:
382,125,25814,2,0,P|416:128|450:121,1,70,0|8,3:0|2:3,2:0:0:0:
330,243,26169,2,0,P|295:246|261:239,1,70,0|0,2:0|2:0,2:0:0:0:
225,159,26524,2,0,P|259:155|293:162,1,70,8|0,2:3|2:0,2:0:0:0:
182,265,26879,5,0,2:0:0:0:
153,116,27057,1,0,2:0:0:0:
30,208,27235,1,0,3:0:0:0:
161,101,27412,1,0,2:0:0:0:
114,185,27590,2,0,P|131:252|141:321,1,140,4|8,2:3|2:3,2:0:0:0:
198,381,28122,1,0,2:0:0:0:
276,335,28300,102,0,B|274:299|274:299|302:246,1,70,8|0,2:3|2:0,2:0:0:0:
397,190,28655,2,0,B|399:226|399:226|371:279,1,70,0|8,3:0|2:3,2:0:0:0:
234,209,29010,2,0,B|236:173|236:173|208:120,1,70,0|0,2:0|2:0,2:0:0:0:
113,64,29365,2,0,B|111:100|111:100|139:153,1,70,8|0,2:3|2:0,2:0:0:0:
202,57,29720,5,0,2:0:0:0:
143,208,29897,1,0,2:0:0:0:
232,135,30075,2,0,B|292:133|272:106|352:100,2,105,0|0|0,3:0|2:0|2:0,2:0:0:0:
378,171,30785,1,8,2:3:0:0:
256,192,31495,12,8,33625,2:3:0:0:
454,286,33980,101,8,2:3:0:0:
283,262,34158,1,0,2:0:0:0:
375,236,34335,2,0,L|364:320,1,84,8|8,3:2|2:3,2:0:0:0:
216,145,34690,1,0,2:0:0:0:
387,121,34868,1,0,2:0:0:0:
294,95,35045,2,0,L|306:179,1,84,8|0,2:3|2:0,2:0:0:0:
308,18,35400,5,0,2:0:0:0:
298,191,35578,1,0,2:0:0:0:
151,94,35755,1,8,3:2:0:0:
151,94,35933,1,0,2:0:0:0:
317,105,36110,102,0,L|218:122,1,84,4|0,2:3|2:0,2:0:0:0:
122,6,36465,2,0,L|221:23,1,84,8|0,2:3|2:0,2:0:0:0:
4,182,36820,5,8,2:3:0:0:
151,94,36998,1,0,2:0:0:0:
84,220,37175,2,0,P|86:164|72:121,1,84,8|8,3:2|2:3,2:0:0:0:
319,268,37530,101,0,2:0:0:0:
172,180,37708,1,0,2:0:0:0:
239,306,37885,2,0,P|237:250|251:207,1,84,8|0,2:3|2:0,2:0:0:0:
101,362,38240,5,0,2:0:0:0:
252,214,38418,1,0,2:0:0:0:
101,128,38595,1,8,3:2:0:0:
134,257,38773,1,0,2:0:0:0:
183,97,38950,102,0,P|184:139|171:179,1,84,4|0,2:3|2:0,2:0:0:0:
274,332,39306,2,0,P|272:290|285:250,1,84,8|0,2:3|2:0,2:0:0:0:
411,191,39661,5,8,2:3:0:0:
269,166,39838,1,0,2:0:0:0:
422,101,40016,2,0,B|379:101|379:101|333:129,1,84,8|8,3:2|2:3,2:0:0:0:
248,250,40371,101,0,2:0:0:0:
390,275,40548,1,0,2:0:0:0:
237,340,40726,2,0,B|279:339|279:339|325:311,1,84,8|0,2:3|2:0,2:0:0:0:
376,146,41081,5,0,2:0:0:0:
229,169,41258,1,0,2:0:0:0:
446,332,41436,1,8,3:2:0:0:
163,272,41613,1,0,2:0:0:0:
298,384,41791,38,0,L|288:329,3,42,0|0|0|0,2:0|2:0|2:0|2:0,2:0:0:0:
351,290,42146,1,8,2:3:0:0:
377,258,42235,1,0,2:0:0:0:
386,217,42323,1,0,2:0:0:0:
373,178,42412,1,0,2:0:0:0:
343,149,42501,1,8,2:3:0:0:
302,139,42590,1,0,2:0:0:0:
262,150,42678,1,0,2:0:0:0:
233,179,42767,1,0,2:0:0:0:
221,219,42856,1,8,3:2:0:0:
153,257,42945,1,0,2:0:0:0:
76,248,43033,1,8,2:3:0:0:
19,196,43122,1,0,2:0:0:0:
4,120,43211,1,0,2:0:0:0:
37,50,43300,1,0,2:0:0:0:
105,13,43388,1,0,2:0:0:0:
182,23,43477,1,0,2:0:0:0:
238,76,43566,1,8,2:3:0:0:
189,224,44276,70,0,L|202:284,1,42,8|0,2:1|2:0,2:0:0:0:
344,342,44453,1,0,3:0:0:0:
188,363,44631,2,0,P|245:330|302:325,1,84,0|0,3:0|2:0,2:0:0:0:
344,342,44986,70,0,P|422:307|404:190,1,196,4|8,3:1|2:1,2:0:0:0:
259,107,45528,1,0,2:0:0:0:
171,308,45709,5,2,3:1:0:0:
350,257,45890,2,0,P|276:246|221:250,1,98,2|8,3:1|2:1,2:0:0:0:
94,158,46252,2,0,P|168:169|223:165,1,98,2|0,3:1|2:0,2:0:0:0:
371,108,46614,101,2,2:1:0:0:
305,276,46795,1,10,2:1:0:0:
305,276,46885,1,0,2:0:0:0:
305,276,46976,2,0,B|315:230|315:230|301:180,1,98,2|0,2:1|3:0,2:0:0:0:
94,107,47338,5,2,3:1:0:0:
183,274,47519,1,10,2:1:0:0:
183,274,47609,1,0,2:0:0:0:
183,274,47700,2,0,B|173:228|173:228|186:178,1,98,2|0,3:1|3:0,2:0:0:0:
101,12,48061,101,0,2:0:0:0:
229,58,48242,2,0,B|158:58|179:109|90:107,1,147,10|0,2:1|2:0,2:0:0:0:
22,57,48604,1,2,3:1:0:0:
231,155,48785,5,0,3:0:0:0:
103,201,48966,2,0,B|174:201|153:252|242:250,1,147,10|0,2:1|2:0,2:0:0:0:
310,200,49328,101,2,2:1:0:0:
411,340,49509,1,2,2:1:0:0:
219,332,49690,1,10,2:1:0:0:
219,332,49871,1,2,2:1:0:0:
410,257,50052,6,0,L|344:270,1,49,2|0,2:1|2:0,2:0:0:0:
289,375,50233,2,0,L|355:388,1,49,0|0,3:0|2:0,2:0:0:0:
229,231,50414,1,10,2:1:0:0:
195,216,50504,1,0,2:0:0:0:
159,217,50595,1,2,3:1:0:0:
126,233,50685,1,0,2:0:0:0:
101,260,50776,102,0,B|49:245|49:245|21:212|22:152|69:117,1,196,4|8,3:1|2:1,2:0:0:0:
277,126,51318,1,0,2:0:0:0:
139,179,51499,5,2,3:1:0:0:
177,1,51680,2,0,L|197:120,1,98,2|8,3:1|2:1,2:0:0:0:
274,216,52042,2,0,L|294:97,1,98,2|0,3:1|2:0,2:0:0:0:
358,283,52404,101,2,2:1:0:0:
265,22,52585,2,0,P|348:35|393:116,1,147,10|0,2:1|2:0,2:0:0:0:
451,135,52947,5,2,3:1:0:0:
203,152,53128,1,2,3:1:0:0:
429,234,53309,1,10,2:1:0:0:
122,197,53490,101,2,3:1:0:0:
111,174,53580,1,0,2:0:0:0:
109,150,53671,1,4,3:2:0:0:
231,72,53852,1,0,2:0:0:0:
295,180,54033,2,0,P|247:160|170:150,1,98,10|0,2:1|2:0,2:0:0:0:
34,287,54394,5,4,3:2:0:0:
153,353,54575,1,0,3:0:0:0:
217,245,54756,2,0,P|169:265|92:275,1,98,10|0,2:1|3:0,2:0:0:0:
285,308,55118,69,2,2:1:0:0:
226,158,55299,1,2,2:1:0:0:
357,255,55480,1,10,2:1:0:0:
394,47,55661,1,2,2:1:0:0:
222,169,55842,2,0,L|291:159,1,49,2|0,2:1|2:0,2:0:0:0:
425,204,56023,69,10,3:1:0:0:
144,94,56204,1,10,2:1:0:0:
46,384,56385,1,10,3:1:0:0:
46,384,56475,1,8,3:1:0:0:
46,383,56566,86,0,P|112:315|207:316,1,196,4|10,3:1|2:1,2:0:0:0:
436,315,57109,1,0,2:0:0:0:
324,364,57289,2,0,P|321:315|325:266,1,98,2|0,3:1|3:0,2:0:0:0:
430,112,57651,2,0,P|434:160|431:209,1,98,10|0,2:1|3:0,2:0:0:0:
310,47,58013,102,0,P|236:64|222:149,1,146.999995513916,2|0,2:1|2:0,2:0:0:0:
142,159,58375,2,0,L|38:150,1,98,10|0,2:1|2:0,2:0:0:0:
106,62,58737,5,2,3:1:0:0:
68,248,58918,1,0,3:0:0:0:
230,9,59099,1,10,2:1:0:0:
311,205,59280,1,2,3:1:0:0:
193,89,59461,2,0,B|275:80|235:134|339:122,1,147,0|0,3:0|2:0,2:0:0:0:
406,97,59823,102,0,L|393:-4,1,98,10|0,2:1|2:0,2:0:0:0:
479,220,60185,2,0,L|466:317,1,98,2|0,3:1|3:0,2:0:0:0:
253,296,60546,5,10,2:1:0:0:
386,183,60727,1,2,3:1:0:0:
468,340,60908,2,0,P|417:300|326:273,1,147,2|0,2:1|2:0,2:0:0:0:
253,296,61270,101,10,2:1:0:0:
281,107,61451,2,0,B|297:154|297:154|275:219,1,98,2|0,2:1|2:0,2:0:0:0:
154,348,61813,2,0,B|138:302|138:302|154:255,1,98,2|8,3:1|2:1,2:0:0:0:
37,66,62175,1,2,3:1:0:0:
37,66,62265,1,0,2:0:0:0:
37,66,62356,6,0,P|117:57|194:157,1,196,4|10,3:1|2:1,2:0:0:0:
276,209,62899,1,2,2:1:0:0:
85,154,63080,2,0,L|72:268,1,98,2|2,3:1|3:1,2:0:0:0:
299,368,63441,101,10,2:1:0:0:
55,359,63622,2,0,B|126:345|126:345|164:308|164:308|249:298,1,195.999994018555,2|2,3:1|2:1,2:0:0:0:
431,241,64165,5,10,2:1:0:0:
243,206,64346,2,0,B|360:229,1,97.9999970092774,2|0,2:1|3:0,2:0:0:0:
510,291,64708,1,2,3:1:0:0:
386,160,64889,1,10,2:1:0:0:
420,146,64979,1,0,2:0:0:0:
456,149,65070,1,0,3:0:0:0:
488,164,65160,1,0,2:0:0:0:
512,192,65251,101,4,3:2:0:0:
341,275,65432,1,0,2:0:0:0:
350,84,65613,1,10,2:1:0:0:
350,84,65794,1,0,2:0:0:0:
406,326,65975,5,4,3:2:0:0:
221,367,66156,1,0,3:0:0:0:
280,185,66337,1,10,2:1:0:0:
280,185,66517,1,0,3:0:0:0:
324,364,66698,102,0,P|330:316|329:267,1,98,2|0,2:1|2:0,2:0:0:0:
158,22,67060,2,0,P|151:70|152:119,1,98,10|0,2:1|2:0,2:0:0:0:
80,247,67422,5,2,2:1:0:0:
280,185,67603,1,8,3:1:0:0:
36,56,67784,1,10,2:1:0:0:
341,125,67965,1,10,3:1:0:0:
335,101,68055,1,8,3:1:0:0:
339,76,68146,38,0,B|256:73|291:110|196:105,2,140,2|2|2,2:0|2:0|2:0,2:0:0:0:
429,57,69049,2,0,P|423:99|423:139,1,70,2|2,2:0|2:0,2:0:0:0:
495,329,69411,6,0,L|479:179,1,140,2|2,2:0|2:0,2:0:0:0:
480,189,69953,1,2,2:0:0:0:
379,374,70133,102,0,L|395:224,1,140,2|2,2:0|2:0,2:0:0:0:
290,294,70676,2,0,L|195:314,1,70,2|2,2:0|2:0,2:0:0:0:
151,365,71037,21,2,2:0:0:0:
117,371,71127,1,0,2:0:0:0:
84,360,71218,1,0,2:0:0:0:
61,334,71309,1,0,2:0:0:0:
55,300,71400,1,2,2:0:0:0:
67,267,71491,1,0,2:0:0:0:
93,245,71582,1,0,2:0:0:0:
127,239,71673,1,0,2:0:0:0:
160,251,71764,1,2,2:0:0:0:
209,236,71855,1,0,2:0:0:0:
246,200,71946,1,2,2:0:0:0:
262,150,72037,1,0,2:0:0:0:
253,99,72127,1,2,2:0:0:0:
221,58,72218,1,0,2:0:0:0:
173,37,72309,1,2,2:0:0:0:
121,40,72400,1,0,2:0:0:0:
77,67,72491,1,0,2:0:0:0:
45,129,72582,1,0,2:0:0:0:
35,198,72673,1,2,2:0:0:0:
47,266,72764,1,0,2:0:0:0:
89,322,72855,1,2,2:0:0:0:
146,362,72946,1,0,2:0:0:0:
215,372,73037,1,2,2:0:0:0:
283,358,73127,1,0,2:0:0:0:
342,323,73218,1,0,2:0:0:0:
395,258,73309,1,0,2:0:0:0:
439,186,73400,1,2,2:0:0:0:
454,103,73491,1,0,2:0:0:0:
400,37,73582,1,2,2:0:0:0:
316,28,73673,1,0,2:0:0:0:
232,19,73764,1,2,2:0:0:0:
148,10,73855,1,0,2:0:0:0:
62,1,73946,1,0,2:0:0:0:
180,268,75543,53,0,2:0:0:0:
264,248,75721,1,0,2:0:0:0:
169,272,75898,1,0,2:0:0:0:
276,243,76076,2,0,P|306:260|328:287,1,70,8|0,2:0|2:0,2:0:0:0:
160,275,76431,2,0,L|187:126,1,140,4|8,2:3|2:3,2:0:0:0:
137,64,76963,1,0,2:0:0:0:
300,25,77141,6,0,P|326:51|337:82,1,70,4|0,2:3|2:0,2:0:0:0:
252,95,77496,1,0,2:0:0:0:
415,128,77673,2,0,P|389:154|378:185,1,70,4|0,2:3|2:0,2:0:0:0:
463,198,78028,1,0,2:0:0:0:
286,248,78206,2,0,P|341:263|389:347,1,140,4|0,2:3|2:0,2:0:0:0:
289,350,78738,1,0,2:0:0:0:
366,179,78916,101,8,2:1:0:0:
203,234,79093,1,0,2:0:0:0:
366,179,79271,2,0,P|297:169|229:154,1,140,4|8,2:3|2:3,2:0:0:0:
55,35,79981,6,0,L|31:115,1,70,8|0,2:3|2:0,2:0:0:0:
6,182,80336,1,8,2:1:0:0:
136,101,80514,2,0,L|155:182,1,70,8|0,2:3|2:0,2:0:0:0:
167,252,80869,1,0,2:0:0:0:
239,116,81046,2,0,L|352:236,1,140,8|0,2:3|2:0,2:0:0:0:
433,322,81579,1,0,2:0:0:0:
442,211,81756,54,2,B|294:204|365:331|201:329,1,280,8|8,2:1|2:3,2:1:0:0:
293,352,82999,21,0,2:0:0:0:
120,326,83176,2,0,L|127:276,1,35,8|0,2:3|2:0,2:0:0:0:
76,228,83709,1,0,2:0:0:0:
384,90,83886,2,0,L|398:136,1,35,8|0,2:3|2:0,2:0:0:0:
297,86,84596,22,0,L|210:78,1,70,8|0,2:1|2:0,2:0:0:0:
299,167,84951,1,4,2:3:0:0:
299,167,85129,2,0,L|212:175,1,70,8|8,2:1|2:3,2:0:0:0:
158,135,85484,1,0,2:0:0:0:
382,120,85661,101,8,2:3:0:0:
261,3,85839,1,0,2:0:0:0:
270,166,86017,2,0,L|303:71,1,84,8|8,2:1|2:3,2:0:0:0:
463,252,86372,5,0,2:0:0:0:
342,369,86549,1,0,2:0:0:0:
351,206,86727,2,0,L|384:301,1,84,8|0,2:3|2:0,2:0:0:0:
260,172,87082,101,0,2:0:0:0:
478,248,87259,1,0,2:0:0:0:
276,273,87437,2,0,P|248:313|241:370,1,84,8|0,2:1|2:0,2:0:0:0:
32,278,87792,2,0,P|68:347|174:363,1,168,4|8,2:3|2:3,2:0:0:0:
133,274,88324,1,0,2:0:0:0:
69,100,88502,5,8,2:3:0:0:
69,100,88679,1,0,2:0:0:0:
37,190,88857,2,0,L|138:179,1,84,8|8,2:1|2:3,2:0:0:0:
239,308,89212,101,0,2:0:0:0:
239,308,89389,1,0,2:0:0:0:
207,218,89567,2,0,L|308:229,1,84,8|0,2:3|2:0,2:0:0:0:
451,88,89922,5,0,2:0:0:0:
271,137,90099,1,0,2:0:0:0:
400,176,90277,2,0,P|357:115|349:85,1,84,8|0,2:1|2:0,2:0:0:0:
509,174,90632,2,0,P|491:234|480:296,1,126,4|0,2:3|2:0,2:0:0:0:
482,376,90987,101,8,2:3:0:0:
279,302,91164,1,0,2:0:0:0:
279,302,91253,1,0,2:0:0:0:
279,302,91342,1,8,2:3:0:0:
413,178,91519,1,0,2:0:0:0:
361,361,91697,6,0,P|363:282|352:220,2,126,8|0|0,2:1|2:0|2:0,2:0:0:0:
200,365,92407,2,0,P|191:302|195:240,1,126,8|0,2:3|2:0,2:0:0:0:
212,228,92762,1,0,2:0:0:0:
198,31,92940,1,0,2:0:0:0:
86,146,93117,102,0,L|188:132,1,84,8|0,2:1|2:0,2:0:0:0:
428,209,93472,2,0,L|326:195,1,84,0|0,2:0|2:0,2:0:0:0:
185,239,93827,53,10,2:0:0:0:
321,87,94005,1,2,2:0:0:0:
146,44,94184,1,2,2:0:0:0:
268,228,94362,1,2,3:2:0:0:
72,93,94541,69,10,2:0:0:0:
331,80,94719,1,2,2:0:0:0:
256,317,94898,1,10,2:0:0:0:
62,92,95077,1,2,2:0:0:0:
391,142,95255,1,10,2:0:0:0:
254,304,95969,37,0,3:0:0:0:
221,277,96059,1,0,3:0:0:0:
209,235,96148,1,0,3:0:0:0:
221,196,96237,1,0,3:0:0:0:
254,169,96327,1,0,3:0:0:0:
274,132,96416,1,0,3:0:0:0:
265,91,96505,1,0,3:0:0:0:
232,64,96594,1,0,3:0:0:0:
191,66,96684,22,0,L|-18:43,1,196,4|8,3:1|2:1,2:0:0:0:
110,242,97226,1,0,2:0:0:0:
220,174,97407,5,2,3:1:0:0:
41,160,97588,2,0,L|146:145,1,98,2|8,3:1|2:1,2:0:0:0:
304,282,97949,2,0,L|199:267,1,98,2|0,3:1|2:0,2:0:0:0:
386,117,98311,101,2,2:1:0:0:
422,337,98492,2,0,L|412:280,1,49,10|0,2:1|2:0,2:0:0:0:
386,117,98673,2,0,B|411:161|411:161|394:210,1,98,2|0,2:1|3:0,2:0:0:0:
242,48,99034,5,2,3:1:0:0:
206,268,99215,2,0,L|216:211,1,49,10|0,2:1|2:0,2:0:0:0:
242,48,99396,2,0,B|217:92|217:92|234:141,1,98,2|0,3:1|3:0,2:0:0:0:
59,46,99758,101,0,2:0:0:0:
100,240,99938,2,0,B|156:226|156:226|191:239|191:239|272:236,1,147,10|0,2:1|2:0,2:0:0:0:
316,197,100300,1,2,3:1:0:0:
52,131,100481,5,0,3:0:0:0:
93,325,100662,2,0,B|149:311|149:311|184:324|184:324|265:321,1,147,10|0,2:1|2:0,2:0:0:0:
309,282,101023,101,2,2:1:0:0:
100,240,101204,1,2,2:1:0:0:
241,66,101385,1,10,2:1:0:0:
20,34,101566,1,2,2:1:0:0:
179,187,101747,6,0,L|184:121,1,49,2|0,2:1|2:0,2:0:0:0:
107,29,101928,2,0,L|112:95,1,49,0|0,3:0|2:0,2:0:0:0:
241,66,102108,1,10,2:1:0:0:
270,44,102199,1,0,2:0:0:0:
306,38,102289,1,2,3:1:0:0:
340,49,102380,1,0,2:0:0:0:
366,75,102470,102,0,B|396:223|396:223|443:247,1,196,4|8,3:1|2:1,2:0:0:0:
282,300,103013,1,0,2:0:0:0:
475,155,103193,5,2,3:1:0:0:
213,230,103374,2,0,P|255:206|304:204,1,98,2|8,3:1|2:1,2:0:0:0:
463,339,103736,2,0,P|414:337|371:315,1,98,2|0,3:1|2:0,2:0:0:0:
150,168,104098,101,2,2:1:0:0:
351,78,104278,2,0,B|348:162|393:132|391:215,1,147,10|0,2:1|2:0,2:0:0:0:
368,303,104640,5,2,3:1:0:0:
211,113,104821,1,2,3:1:0:0:
290,357,105002,1,10,2:1:0:0:
147,299,105183,101,2,3:1:0:0:
147,299,105273,1,0,2:0:0:0:
147,299,105363,2,0,L|278:279,1,98,2|0,3:1|2:0,2:0:0:0:
377,179,105725,1,10,2:1:0:0:
451,360,105906,1,0,2:0:0:0:
151,215,106087,6,0,L|282:195,1,98,2|0,3:1|3:0,2:0:0:0:
381,95,106448,1,10,2:1:0:0:
455,276,106629,1,0,3:0:0:0:
259,336,106810,69,2,2:1:0:0:
383,213,106991,1,2,2:1:0:0:
201,157,107172,1,10,2:1:0:0:
274,249,107353,1,2,2:1:0:0:
253,50,107533,2,0,L|261:112,1,49,2|0,2:1|2:0,2:0:0:0:
120,156,107714,69,10,3:1:0:0:
360,351,107895,1,10,2:1:0:0:
347,0,108076,1,10,3:1:0:0:
347,0,108166,1,8,3:1:0:0:
347,0,108257,70,0,L|332:219,1,196,4|10,3:1|2:1,2:0:0:0:
506,249,108799,1,0,2:0:0:0:
347,358,108980,6,0,P|368:301|404:254,1,98,2|0,3:1|3:0,2:0:0:0:
249,122,109342,2,0,P|223:66|215:8,1,98,10|0,2:1|3:0,2:0:0:0:
63,247,109703,2,0,P|141:255|192:330,1,146.999995513916,2|0,2:1|0:0,0:0:0:0:
243,348,110065,2,0,L|119:378,1,97.9999970092774,10|0,2:1|2:0,2:0:0:0:
295,249,110427,101,2,3:1:0:0:
144,222,110608,1,0,3:0:0:0:
320,72,110788,1,10,2:1:0:0:
115,130,110969,1,2,3:1:0:0:
261,317,111150,2,0,B|271:263|271:263|265:224|265:224|277:166,1,147,0|0,3:0|2:0,2:0:0:0:
223,87,111512,6,0,L|325:71,1,97.9999970092774,10|0,2:1|2:0,2:0:0:0:
118,252,111873,2,0,L|13:236,1,97.9999970092774,2|0,3:1|3:0,2:0:0:0:
366,162,112235,101,10,2:1:0:0:
256,1,112416,1,2,3:1:0:0:
170,185,112597,2,0,P|205:128|291:98,1,147,2|0,2:1|2:0,2:0:0:0:
367,67,112958,5,10,2:1:0:0:
369,258,113139,2,0,P|357:210|336:166,1,98,2|0,2:1|2:0,2:0:0:0:
452,1,113501,2,0,P|463:48|484:92,1,98,2|8,3:1|2:1,2:0:0:0:
215,28,113863,1,2,3:1:0:0:
215,28,113953,1,0,2:0:0:0:
215,28,114043,102,0,B|105:27|158:102|47:111,1,196,4|10,3:1|2:1,2:0:0:0:
195,269,114586,1,2,2:1:0:0:
24,209,114767,2,0,L|135:201,1,98,2|2,3:1|3:1,2:0:0:0:
166,355,115128,5,10,2:1:0:0:
410,289,115309,2,0,P|380:200|263:174,1,196,2|2,3:1|2:1,2:0:0:0:
461,140,115852,101,10,2:1:0:0:
316,364,116033,2,0,B|298:321|298:321|313:242,1,98,2|0,2:1|3:0,2:0:0:0:
217,237,116394,5,2,3:1:0:0:
400,311,116575,1,10,2:1:0:0:
216,367,116756,1,0,3:0:0:0:
216,367,116846,1,0,2:0:0:0:
216,367,116937,101,4,3:2:0:0:
165,161,117117,1,0,2:0:0:0:
59,298,117298,1,10,2:1:0:0:
96,110,117479,1,0,2:0:0:0:
282,280,117660,5,4,3:2:0:0:
333,74,117841,1,0,3:0:0:0:
439,211,118022,1,10,2:1:0:0:
402,23,118202,1,0,3:0:0:0:
142,153,118383,102,0,B|130:199|130:199|143:248,1,98,2|0,2:1|2:0,2:0:0:0:
512,360,118745,2,0,B|524:314|524:314|511:265,1,98,10|0,2:1|2:0,2:0:0:0:
232,283,119107,5,2,2:1:0:0:
328,68,119287,1,8,3:1:0:0:
347,337,119468,1,10,2:1:0:0:
252,25,119649,1,10,3:1:0:0:
246,48,119740,1,8,3:1:0:0:
241,72,119834,38,0,P|179:84|148:174,2,140,2|2|2,2:0|2:0|2:0,2:0:0:0:
229,158,120734,2,0,L|238:241,1,70,2|2,2:0|2:0,2:0:0:0:
11,274,121095,6,0,P|78:251|178:245,1,140,2|2,2:0|2:0,2:0:0:0:
146,243,121635,1,2,2:0:0:0:
99,340,121815,102,0,P|170:335|268:355,1,140,2|2,2:0|2:0,2:0:0:0:
245,255,122356,2,0,L|233:173,1,70,2|2,2:0|2:0,2:0:0:0:
307,58,122716,21,2,2:0:0:0:
332,34,122806,1,0,2:0:0:0:
366,27,122897,1,0,2:0:0:0:
399,38,122988,1,0,2:0:0:0:
422,63,123079,1,2,2:0:0:0:
430,97,123170,1,0,2:0:0:0:
419,130,123261,1,0,2:0:0:0:
393,153,123352,1,0,2:0:0:0:
360,161,123443,1,2,2:0:0:0:
308,152,123534,1,0,2:0:0:0:
259,169,123625,1,2,2:0:0:0:
223,206,123716,1,0,2:0:0:0:
209,256,123806,1,2,2:0:0:0:
219,307,123897,1,0,2:0:0:0:
252,347,123988,1,2,2:0:0:0:
300,367,124079,1,0,2:0:0:0:
352,363,124170,1,0,2:0:0:0:
414,328,124261,1,0,2:0:0:0:
453,269,124352,1,2,2:0:0:0:
475,202,124443,1,0,2:0:0:0:
482,132,124534,1,2,2:0:0:0:
465,64,124625,1,0,2:0:0:0:
403,33,124716,1,2,2:0:0:0:
343,67,124806,1,0,2:0:0:0:
312,128,124897,1,0,2:0:0:0:
307,211,124988,1,0,2:0:0:0:
283,291,125079,1,2,2:0:0:0:
218,343,125170,1,0,2:0:0:0:
136,359,125261,1,2,2:0:0:0:
61,319,125352,1,0,2:0:0:0:
53,235,125443,1,2,2:0:0:0:
104,168,125534,1,0,2:0:0:0:
187,165,125625,70,0,L|180:75,2,70,2|2|2,2:0|2:0|2:0,2:0:0:0:
187,165,126361,37,4,3:1:0:0:
482,243,126541,1,0,3:0:0:0:
481,243,126722,2,0,L|473:154,1,70,8|2,2:1|3:1,2:0:0:0:
351,144,127083,70,0,B|295:136|267:179|267:179|285:236,1,126,0|0,2:0|2:0,2:0:0:0:
289,216,127444,2,0,L|274:313,1,84,8|2,2:1|2:1,2:0:0:0:
383,263,127806,37,0,3:0:0:0:
186,254,127987,1,0,3:0:0:0:
186,254,128167,1,8,2:1:0:0:
273,378,128348,1,0,3:0:0:0:
273,378,128439,1,0,2:0:0:0:
273,378,128529,70,0,L|121:381,1,126,2|0,3:1|2:0,2:0:0:0:
146,366,128891,2,0,B|156:324|156:324|138:261,1,84,12|0,2:1|2:0,2:0:0:0:
239,282,129252,37,0,3:1:0:0:
66,329,129433,1,0,3:0:0:0:
66,329,129614,1,8,2:1:0:0:
61,148,129795,70,0,P|53:190|64:231,1,83.9999974365235,2|0,3:1|3:0,3:0:0:0:
319,319,130157,2,0,P|327:277|316:237,1,83.9999974365235,2|8,2:1|2:1,2:0:0:0:
63,229,130518,1,2,0:1:0:0:
296,138,130880,37,2,3:1:0:0:
319,319,131061,1,10,2:1:0:0:
461,199,131242,2,0,L|448:269,1,42,0|0,3:0|2:0,2:0:0:0:
422,326,131422,70,0,P|407:252|332:226,1,126,2|0,3:1|2:0,2:0:0:0:
355,226,131784,2,0,L|257:232,1,84,12|0,2:1|2:0,2:0:0:0:
395,120,132146,37,0,3:1:0:0:
209,74,132327,1,0,3:0:0:0:
209,74,132507,1,8,2:1:0:0:
392,21,132688,70,0,P|317:53|302:144,1,168,2|2,3:1|2:1,2:0:0:0:
269,235,133231,2,0,L|362:224,1,84,8|2,2:1|2:1,2:0:0:0:
432,296,133592,37,0,3:1:0:0:
227,328,133773,1,0,3:0:0:0:
227,328,133954,1,8,2:1:0:0:
298,131,134135,1,0,3:0:0:0:
298,131,134225,1,0,2:0:0:0:
298,131,134316,2,0,L|150:119,1,126,2|0,3:1|2:0,2:0:0:0:
161,118,134677,2,0,P|146:65|153:23,1,84,12|0,2:1|2:0,2:0:0:0:
252,4,135039,69,0,3:1:0:0:
221,250,135220,1,0,3:0:0:0:
221,250,135401,1,8,2:1:0:0:
383,178,135582,38,0,B|394:133|394:133|377:77,1,84,2|0,3:1|2:0,2:0:0:0:
57,31,135943,2,0,B|46:76|46:76|63:132,1,84,2|8,2:1|2:1,2:0:0:0:
217,367,136305,2,0,L|220:271,1,84,2|0,2:1|3:0,2:0:0:0:
64,241,136667,69,0,3:0:0:0:
295,137,136847,1,8,2:1:0:0:
415,366,137028,1,0,3:0:0:0:
415,366,137119,1,0,0:0:0:0:
415,366,137209,6,0,B|410:313|428:344|418:267,1,84,2|0,2:0|2:0,2:0:0:0:
392,48,138656,5,4,2:3:0:0:
468,37,138837,1,4,2:3:0:0:
392,48,139379,101,4,2:3:0:0:
468,37,139560,1,4,2:3:0:0:
392,48,140102,5,4,2:3:0:0:
468,37,140283,1,4,2:3:0:0:
88,324,141549,101,4,2:3:0:0:
77,253,141730,1,4,2:3:0:0:
88,324,142272,5,4,2:3:0:0:
77,253,142453,1,4,2:3:0:0:
88,324,142996,101,4,2:3:0:0:
77,253,143177,1,4,2:3:0:0:
394,274,144442,5,4,2:3:0:0:
385,362,144623,1,4,2:3:0:0:
394,274,145166,101,4,2:3:0:0:
385,362,145347,1,4,2:3:0:0:
394,274,145889,5,4,2:3:0:0:
385,362,146070,1,4,2:3:0:0:
55,92,147336,101,4,2:3:0:0:
184,74,147516,1,4,2:3:0:0:
55,92,148059,5,8,2:0:0:0:
184,74,148240,1,8,2:0:0:0:
90,165,148421,1,8,2:0:0:0:
164,176,148601,1,8,2:0:0:0:
29,305,148782,69,0,2:0:0:0:
204,267,148963,1,0,2:0:0:0:
114,317,149144,2,0,L|121:246,1,56,0|0,3:0|2:0,2:0:0:0:
210,356,149506,2,0,P|268:330|295:269,1,112,0|0,2:0|3:0,2:0:0:0:
408,202,150048,1,0,2:0:0:0:
195,155,150229,6,0,L|203:266,1,112,0|0,2:0|3:0,2:0:0:0:
203,266,150771,1,0,2:0:0:0:
278,114,150952,101,0,2:0:0:0:
278,114,151133,1,8,2:0:0:0:
113,226,151314,1,0,3:0:0:0:
113,226,151495,1,8,2:0:0:0:
331,256,151676,5,0,2:0:0:0:
150,131,151856,1,0,2:0:0:0:
204,214,152037,2,0,P|228:202|256:199,1,56,0|0,3:0|2:0,2:0:0:0:
442,267,152399,2,0,L|311:254,1,112,0|0,2:0|3:0,2:0:0:0:
175,286,152941,1,0,2:0:0:0:
244,364,153122,102,0,B|256:338|256:338|251:294,1,56,0|0,2:0|2:0,2:0:0:0:
114,188,153484,2,0,B|102:214|102:214|107:258,1,56,0|0,3:0|2:0,2:0:0:0:
196,156,153846,5,0,2:0:0:0:
99,325,154026,1,8,2:0:0:0:
279,201,154207,1,0,3:0:0:0:
329,323,154388,1,8,2:0:0:0:
329,323,154479,1,0,2:0:0:0:
329,323,154569,102,0,L|231:308,1,70,0|0,2:0|2:0,2:0:0:0:
419,224,154931,2,0,L|517:209,1,70,0|0,3:0|2:0,2:0:0:0:
321,229,155292,2,0,P|344:157|407:131,1,140,0|0,2:0|3:0,2:0:0:0:
239,120,155835,1,0,2:0:0:0:
322,0,156016,6,0,L|313:96,1,70,0|0,2:0|2:0,2:0:0:0:
141,89,156377,2,0,L|150:185,1,70,0|0,3:0|2:0,2:0:0:0:
257,247,156739,1,0,2:0:0:0:
80,211,156920,1,8,2:0:0:0:
238,146,157101,1,0,3:0:0:0:
65,214,157281,1,8,2:0:0:0:
185,328,157462,102,0,P|169:297|163:262,1,70,0|0,2:0|2:0,2:0:0:0:
310,85,157824,2,0,P|325:115|331:150,1,70,0|0,3:0|2:0,2:0:0:0:
376,326,158186,2,0,P|321:282|253:269,1,140,0|0,2:0|3:0,2:0:0:0:
400,218,158728,1,0,2:0:0:0:
254,171,158909,6,0,L|349:180,1,70,0|0,2:0|2:0,2:0:0:0:
140,30,159271,2,0,L|235:21,1,70,0|0,3:0|2:0,2:0:0:0:
131,268,159628,1,0,2:0:0:0:
75,85,159812,101,8,2:0:0:0:
70,141,159904,1,0,2:0:0:0:
107,185,159996,1,0,3:0:0:0:
163,191,160088,1,0,2:0:0:0:
205,228,160180,1,8,2:0:0:0:
215,283,160272,1,0,2:0:0:0:
189,332,160364,1,2,2:0:0:0:
448,336,160725,21,2,2:0:0:0:
448,336,161086,2,0,L|444:282,3,41.9999999999999,2|2|2|2,2:0|2:0|2:0|2:0,2:0:0:0:
316,152,161990,5,2,2:0:0:0:
316,152,162171,1,2,2:0:0:0:
375,85,162532,2,0,L|365:36,2,41.9999999999999,2|2|2,2:0|2:0|2:0,2:0:0:0:
457,106,163074,2,0,L|460:74,2,21,2|2|2,2:0|2:0|2:0,2:0:0:0:
121,68,163617,101,2,2:0:0:0:
121,68,163978,2,0,L|67:64,3,41.9999999999999,2|2|2|2,2:0|2:0|2:0|2:0,2:0:0:0:
201,79,164701,5,2,2:0:0:0:
149,148,164882,1,2,2:0:0:0:
223,188,165062,1,2,2:0:0:0:
149,148,165243,2,0,L|139:195,1,41.9999999999999,2|0,2:0|2:0,2:0:0:0:
61,189,165604,2,0,L|71:236,1,41.9999999999999,2|0,2:0|2:0,2:0:0:0:
13,293,165966,2,0,L|-4:268,2,21,2|2|2,2:0|2:0|2:0,2:0:0:0:
215,325,166508,101,2,2:0:0:0:
215,325,166870,2,0,L|204:366,3,41.9999999999999,2|2|2|2,2:0|2:0|2:0|2:0,2:0:0:0:
147,182,167773,5,2,2:0:0:0:
147,182,167954,1,2,2:0:0:0:
263,138,168315,2,0,L|210:143,2,41.9999999999999,2|2|2,2:0|2:0|2:0,2:0:0:0:
341,205,168857,2,0,L|310:200,2,21,2|0|2,2:0|2:0|2:0,2:0:0:0:
65,71,169400,22,2,B|80:46|80:46|158:76|170:186|126:234,1,252,2|0,2:0|2:0,2:1:0:0:
217,35,171959,6,0,P|147:48|104:106,1,147,4|0,3:1|2:0,2:0:0:0:
157,176,172319,6,0,B|115:194|115:194|55:179,1,98,10|0,2:1|2:0,2:0:0:0:
309,300,172679,2,0,B|351:282|351:282|411:297,1,98,2|0,3:1|3:0,2:0:0:0:
472,137,173039,101,10,2:1:0:0:
355,372,173219,1,0,3:0:0:0:
251,167,173399,2,0,B|310:179|310:179|329:197|329:197|428:206,1,147,2|0,2:1|2:0,2:0:0:0:
490,233,173759,6,0,L|469:121,1,98,10|0,2:1|2:0,2:0:0:0:
260,264,174119,2,0,L|239:376,1,98,2|0,3:1|3:0,2:0:0:0:
374,115,174480,101,10,2:1:0:0:
171,229,174660,1,2,3:1:0:0:
179,18,174840,2,0,P|259:36|292:122,1,147,0|0,3:0|2:0,2:0:0:0:
208,207,175200,6,0,P|195:159|193:110,1,98,10|0,2:1|3:0,2:0:0:0:
70,350,175560,2,0,P|81:303|85:254,1,98,2|0,3:1|2:0,2:0:0:0:
324,281,175920,101,10,2:1:0:0:
101,165,176100,1,2,3:1:0:0:
324,281,176280,2,0,B|283:271|283:271|164:316,1,147,2|0,2:1|2:0,2:0:0:0:
106,343,176640,5,10,2:1:0:0:
3,153,176820,2,0,L|119:167,1,98,2|0,2:1|2:0,2:0:0:0:
318,75,177181,1,2,3:1:0:0:
418,315,177361,1,10,2:1:0:0:
381,321,177451,1,0,0:0:0:0:
345,327,177541,1,2,3:1:0:0:
309,333,177631,1,0,0:0:0:0:
274,340,177721,102,0,B|261:348|261:348|213:294|249:226,1,147,4|0,3:1|2:0,2:0:0:0:
297,162,178082,5,10,2:1:0:0:
491,201,178263,1,2,2:1:0:0:
318,75,178444,1,2,3:1:0:0:
466,17,178625,1,2,3:1:0:0:
363,242,178806,101,10,2:1:0:0:
181,46,178987,2,0,P|269:69|293:172,1,196,2|2,3:1|2:1,2:0:0:0:
398,335,179530,5,10,2:1:0:0:
186,243,179711,2,0,P|186:168|212:124,1,98,2|0,2:1|3:0,2:0:0:0:
356,28,180073,1,2,3:1:0:0:
456,154,180254,1,10,2:1:0:0:
422,167,180344,1,0,2:0:0:0:
385,166,180435,1,0,3:0:0:0:
352,151,180525,1,0,2:0:0:0:
329,123,180616,101,4,3:2:0:0:
246,323,180796,1,0,2:0:0:0:
217,100,180977,1,10,2:1:0:0:
244,336,181158,1,0,2:0:0:0:
62,51,181339,5,4,3:2:0:0:
145,251,181520,1,0,3:0:0:0:
174,28,181701,1,10,2:1:0:0:
147,264,181882,1,0,3:0:0:0:
446,57,182063,102,0,L|458:171,1,98,2|0,2:1|2:0,2:0:0:0:
280,338,182425,2,0,L|268:224,1,98,10|0,2:1|2:0,2:0:0:0:
499,257,182787,5,2,2:1:0:0:
345,25,182968,1,8,3:1:0:0:
115,119,183149,1,10,2:1:0:0:
118,179,183239,1,8,2:1:0:0:
153,228,183330,1,10,3:1:0:0:
209,251,183420,1,8,3:1:0:0:
269,240,183511,38,0,B|276:152|301:197|308:103,2,140,2|2|2,2:0|2:0|2:0,2:0:0:0:
357,241,184411,2,0,L|368:319,1,70,2|2,2:0|2:0,2:0:0:0:
441,35,184772,6,0,B|459:103|459:103|417:163,1,140,2|2,2:0|2:0,2:0:0:0:
419,160,185312,1,2,2:0:0:0:
342,21,185492,102,0,B|360:89|360:89|318:149,1,140,2|2,2:0|2:0,2:0:0:0:
258,64,186033,2,0,L|186:49,1,70,2|2,2:0|2:0,2:0:0:0:
115,3,186393,21,2,2:0:0:0:
91,28,186484,1,0,2:0:0:0:
76,59,186575,1,0,2:0:0:0:
74,94,186666,1,0,2:0:0:0:
82,128,186757,1,2,2:0:0:0:
103,155,186848,1,0,2:0:0:0:
134,171,186940,1,0,2:0:0:0:
169,171,187031,1,0,2:0:0:0:
199,154,187122,1,2,2:0:0:0:
226,109,187213,1,0,2:0:0:0:
224,56,187304,1,2,2:0:0:0:
183,23,187396,1,0,2:0:0:0:
130,28,187487,1,2,2:0:0:0:
89,60,187578,1,0,2:0:0:0:
78,111,187669,1,2,2:0:0:0:
89,162,187760,1,0,2:0:0:0:
119,204,187851,1,0,2:0:0:0:
184,229,187943,1,0,2:0:0:0:
253,236,188034,1,2,2:0:0:0:
322,223,188125,1,0,2:0:0:0:
385,192,188216,1,2,2:0:0:0:
421,132,188307,1,0,2:0:0:0:
410,62,188399,1,2,2:0:0:0:
356,16,188490,1,0,2:0:0:0:
287,5,188581,1,0,2:0:0:0:
215,49,188672,1,0,2:0:0:0:
179,125,188763,1,2,2:0:0:0:
181,209,188855,1,0,2:0:0:0:
214,286,188946,1,2,2:0:0:0:
278,340,189037,1,0,2:0:0:0:
359,361,189128,1,2,2:0:0:0:
438,332,189219,1,0,2:0:0:0:
494,266,189286,70,0,B|487:217|487:217|501:191,1,70,2|2,2:0|2:0,2:0:0:0:
255,159,190736,38,0,B|248:208|248:208|262:234,1,70,2|2,2:0|2:0,2:0:0:0:
257,226,191461,2,0,B|264:177|264:177|250:151,1,70,2|2,2:0|2:0,2:0:0:0:
18,118,192186,70,0,B|25:167|25:167|11:193,1,70,2|2,2:0|2:0,2:0:0:0:
