osu file format v14

[General]
AudioFilename: audio.mp3
AudioLeadIn: 0
PreviewTime: 44986
Countdown: 0
SampleSet: Soft
StackLeniency: 0.7
Mode: 0
LetterboxInBreaks: 0
WidescreenStoryboard: 1

[Editor]
Bookmarks: 15164,22264,33625,44986,68146,73946,85306,96684,119834,125625,137209,148782,160364,171959,183511,189286
DistanceSpacing: 1.6
BeatDivisor: 4
GridSize: 32
TimelineZoom: 1.3

[Metadata]
Title:good 4 u
TitleUnicode:good 4 u
Artist:Olivia Rodrigo
ArtistUnicode:Olivia Rodrigo
Creator:hehe
Version:Normal
Source:
Tags:pop punk for sour isabel rock english marianna toybot vikala
BeatmapID:3032844
BeatmapSetID:1477257

[Difficulty]
HPDrainRate:3
CircleSize:3
OverallDifficulty:4
ApproachRate:5
SliderMultiplier:0.8
SliderTickRate:1

[Events]
//Background and Video events
0,0,"good.jpg",0,0
Video,0,"good4u.avi"
//Break Periods
2,68345,69837
2,120030,121516
2,137409,147582
//Storyboard Layer 0 (Background)
//Storyboard Layer 1 (Fail)
//Storyboard Layer 2 (Pass)
//Storyboard Layer 3 (Foreground)
//Storyboard Layer 4 (Overlay)
//Storyboard Sound Samples

[TimingPoints]
15164,355.029585798817,4,2,1,30,1,0
16229,-100,4,2,1,30,0,0
22264,-100,4,2,1,40,0,0
33625,-100,4,2,1,50,0,0
44986,361.881785283474,4,2,1,70,1,1
44986,-83.3333333333333,4,2,1,70,0,1
68146,361.44578313253,4,2,1,50,1,0
71037,363.636363636364,4,2,1,70,1,1
73946,355.029585798817,4,2,1,70,1,0
75543,-100,4,2,1,40,0,0
85306,-100,4,2,1,50,0,0
93827,357.142857142857,4,2,1,60,1,0
93827,-100,4,2,1,60,0,0
96684,361.663652802893,4,2,1,70,1,1
96684,-83.3333333333333,4,2,1,70,0,1
119830,-100,4,2,1,50,0,1
119834,360.360360360361,4,2,1,50,1,0
122716,363.636363636364,4,2,1,70,1,1
125625,368.098159509203,4,2,1,50,1,0
126361,361.445783132531,4,2,1,50,1,0
127083,361.663652802893,4,2,1,50,1,0
127083,-100,4,2,1,50,0,0
148782,-100,4,2,1,40,0,0
154569,-100,4,2,1,50,0,0
159628,368.098159509202,4,2,1,50,1,0
160364,361.44578313253,4,2,1,40,1,0
170845,400,4,2,1,40,1,0
171445,342.857142857143,4,2,1,40,1,0
171959,360.144057623049,4,2,1,80,1,1
171959,-83.3333333333333,4,2,1,80,0,1
177721,361.881785283474,4,2,1,80,1,1
177721,-100,4,2,1,80,0,1
183511,360.360360360361,4,2,1,50,1,0
186393,364.741641337386,4,2,1,80,1,1
189286,362.537764350454,4,2,1,50,1,0

[Colours]
Combo1 : 255,47,52
Combo2 : 174,85,255
Combo3 : 255,45,155
Combo4 : 181,255,81
Combo5 : 64,255,193
Combo6 : 250,255,47
Combo7 : 255,134,13
Combo8 : 79,132,255

[HitObjects]
188,313,16229,70,0,L|180:229,1,80,4|8,2:3|2:3,0:0:0:0:
91,176,16939,2,0,B|38:205|38:205|25:280,2,120,8|8|8,2:3|2:3|2:3,0:0:0:0:
281,197,19069,2,0,L|289:113,1,80,4|8,2:3|2:3,0:0:0:0:
378,60,19779,2,0,B|431:89|431:89|444:164,2,120,8|8|8,2:3|2:3|2:3,0:0:0:0:
191,13,21554,1,0,0:0:0:0:
100,44,21909,6,0,L|106:133,1,80,4|8,2:3|2:3,0:0:0:0:
31,186,22619,2,0,P|21:224|21:264,1,80,8|0,2:3|3:0,0:0:0:0:
41,307,23152,1,8,2:3:0:0:
41,307,23329,2,0,L|151:320,1,80,0|8,0:0|2:3,0:0:0:0:
212,344,24039,2,0,L|220:384,2,40,0|0|0,0:0|0:0|3:0,0:0:0:0:
275,271,24749,70,0,B|316:270|316:270|355:311,1,80,4|8,2:3|2:3,0:0:0:0:
419,358,25459,2,0,L|439:268,1,80,8|0,2:3|3:0,0:0:0:0:
482,265,25992,1,8,2:3:0:0:
482,265,26169,2,0,P|468:226|459:162,1,80,0|8,0:0|2:3,0:0:0:0:
439,94,26879,2,0,L|491:84,2,40,0|0|0,0:0|0:0|3:0,0:0:0:0:
363,32,27590,6,0,P|344:66|336:105,1,80,4|8,2:3|2:3,0:0:0:0:
258,161,28300,2,0,L|171:168,1,80,8|0,2:3|3:0,0:0:0:0:
159,123,28832,1,8,2:3:0:0:
159,123,29010,2,0,B|168:83|168:83|161:22,1,80,0|8,0:0|2:3,0:0:0:0:
69,65,29720,2,0,L|57:23,2,40,0|0|0,0:0|0:0|3:0,0:0:0:0:
1,133,30430,102,0,L|-16:227,1,80,4|8,0:3|2:3,0:0:0:0:
62,270,31140,2,0,B|141:254|101:231|185:215,2,120,8|8|8,0:3|0:3|0:3,0:0:0:0:
11,351,32560,1,4,0:2:0:0:
201,371,33270,6,0,L|215:263,1,80,4|8,0:2|2:3,0:0:0:0:
306,306,33980,2,0,P|338:267|381:241,1,80,8|8,2:3|3:2,0:0:0:0:
407,264,34513,1,8,2:3:0:0:
407,264,34690,2,0,L|510:250,1,80,0|8,0:0|2:3,0:0:0:0:
510,160,35400,1,0,0:0:0:0:
427,111,35755,2,0,L|372:122,1,40,8|0,3:2|0:0,0:0:0:0:
346,143,36110,102,0,P|331:98|327:41,1,80,4|8,2:3|2:3,0:0:0:0:
239,25,36820,2,0,L|144:38,1,80,8|8,2:3|3:2,0:0:0:0:
116,14,37353,1,8,2:3:0:0:
116,14,37530,2,0,B|74:31|74:31|51:85,1,80,0|8,0:0|2:3,0:0:0:0:
134,123,38240,1,0,0:0:0:0:
52,173,38595,2,0,L|41:237,1,40,8|0,3:2|0:0,0:0:0:0:
13,248,38950,6,0,L|21:332,1,80,4|8,2:3|2:3,0:0:0:0:
104,374,39661,2,0,P|153:352|180:317,1,80,8|8,2:3|3:2,0:0:0:0:
216,320,40193,1,8,2:3:0:0:
216,320,40371,2,0,P|231:258|219:211,1,80,0|8,0:0|2:3,0:0:0:0:
157,178,41081,1,0,0:0:0:0:
218,104,41436,2,0,P|199:66|188:10,2,80,8|0|8,3:2|0:0|2:3,0:0:0:0:
256,192,42323,12,8,43566,2:3:0:0:
396,289,44276,38,0,L|446:280,2,40,8|0|0,2:1|3:0|3:0,0:0:0:0:
313,366,44986,22,0,P|276:321|215:295,1,95.9999970703126,4|8,3:1|2:1,0:0:0:0:
189,322,45528,1,0,0:0:0:0:
189,322,45709,2,0,L|129:343,1,47.9999985351563,2|2,3:1|3:1,0:0:0:0:
100,299,46071,2,0,L|45:291,1,47.9999985351563,8|2,2:1|3:1,0:0:0:0:
4,187,46614,1,2,2:1:0:0:
4,187,46795,2,0,L|23:76,1,95.9999970703126,10|0,2:1|3:0,0:0:0:0:
1,37,47338,1,2,3:1:0:0:
1,37,47519,6,0,B|48:23|48:23|134:35,1,95.9999970703126,10|0,2:1|3:0,0:0:0:0:
158,125,48242,1,10,2:1:0:0:
208,21,48604,2,0,B|255:7|255:7|341:19,1,95.9999970703126,2|10,3:1|2:1,0:0:0:0:
385,93,49328,2,0,L|420:51,2,47.9999985351563,2|2|10,2:1|2:1|2:1,0:0:0:0:
403,147,49871,1,2,2:1:0:0:
403,147,50052,2,0,L|379:248,1,95.9999970703126,2|10,2:1|2:1,0:0:0:0:
410,290,50595,1,2,3:1:0:0:
410,290,50776,102,0,P|361:316|319:366,1,95.9999970703126,4|8,3:1|2:1,0:0:0:0:
286,376,51318,1,0,0:0:0:0:
286,376,51499,2,0,L|268:312,1,47.9999985351563,2|2,3:1|3:1,0:0:0:0:
235,286,51861,2,0,L|253:222,1,47.9999985351563,8|2,2:1|3:1,0:0:0:0:
341,172,52404,1,2,2:1:0:0:
341,172,52585,2,0,P|333:111|290:67,1,95.9999970703126,10|2,2:1|3:1,0:0:0:0:
259,104,53128,1,2,3:1:0:0:
259,104,53309,6,0,L|140:123,1,95.9999970703126,10|4,2:1|3:2,0:0:0:0:
87,205,54033,1,10,2:1:0:0:
179,273,54394,2,0,L|273:257,1,95.9999970703126,4|10,3:2|2:1,0:0:0:0:
366,327,55118,2,0,L|353:374,2,47.9999985351563,2|2|10,2:1|2:1|2:1,0:0:0:0:
423,319,55661,1,2,2:1:0:0:
423,319,55842,2,0,B|446:272|446:272|425:214,1,95.9999970703126,2|10,2:1|2:1,0:0:0:0:
404,179,56385,1,10,3:1:0:0:
404,179,56566,101,4,3:1:0:0:
455,75,56928,2,0,P|417:48|371:35,1,95.9999970703126,10|2,2:1|3:1,0:0:0:0:
294,121,57651,2,0,P|246:128|205:152,1,95.9999970703126,10|2,2:1|2:1,0:0:0:0:
193,267,58375,1,10,2:1:0:0:
101,196,58737,2,0,L|89:78,1,95.9999970703126,2|10,3:1|2:1,0:0:0:0:
86,42,59280,1,2,3:1:0:0:
86,42,59461,5,0,3:0:0:0:
196,9,59823,2,0,P|238:31|268:68,1,95.9999970703126,10|2,2:1|3:1,0:0:0:0:
383,72,60546,2,0,L|362:136,1,47.9999985351563,10|2,2:1|3:1,0:0:0:0:
325,156,60908,2,0,L|341:265,1,95.9999970703126,2|10,2:1|2:1,0:0:0:0:
352,307,61451,1,2,2:1:0:0:
251,363,61813,2,0,L|211:329,1,47.9999985351563,2|8,3:1|2:1,0:0:0:0:
159,350,62175,2,0,L|141:290,1,47.9999985351563,2|4,3:1|3:1,0:0:0:0:
37,262,62718,102,0,P|73:208|86:150,1,95.9999970703126,10|2,2:1|3:1,0:0:0:0:
195,201,63441,1,10,2:1:0:0:
195,201,63622,2,0,L|312:187,1,95.9999970703126,2|2,3:1|2:1,0:0:0:0:
325,143,64165,1,10,2:1:0:0:
325,143,64346,2,0,B|367:165|367:165|394:232,1,95.9999970703126,2|2,2:1|3:1,0:0:0:0:
398,266,64889,2,0,L|473:291,1,47.9999985351563,10|0,2:1|3:0,0:0:0:0:
499,296,65251,5,4,3:2:0:0:
476,141,65613,1,10,2:1:0:0:
321,164,65975,1,4,3:2:0:0:
344,319,66337,1,10,2:1:0:0:
499,296,66698,2,0,L|506:221,1,47.9999985351563,2|0,2:1|0:0,0:0:0:0:
458,211,67060,2,0,L|451:136,1,47.9999985351563,10|0,2:1|0:0,0:0:0:0:
490,118,67422,2,0,P|459:76|399:51,2,95.9999970703126,2|10|2,2:1|2:1|2:0,0:0:0:0:
256,192,71037,12,0,73946,0:0:0:0:
338,159,75543,6,0,L|342:214,2,40
335,111,76076,1,0,0:0:0:0:
239,108,76431,6,0,B|198:109|198:109|159:68,1,80
93,26,77141,2,0,L|73:116,1,80
30,119,77673,1,0,0:0:0:0:
30,119,77851,2,0,P|44:158|53:222,1,80
73,290,78561,2,0,L|21:300,2,40,0|0|8,0:0|0:0|2:1,0:0:0:0:
149,352,79271,102,0,P|168:318|176:279,1,80,4|8,2:3|2:3,0:0:0:0:
254,223,79981,2,0,L|341:216,1,80,8|8,2:3|2:1,0:0:0:0:
353,261,80514,1,8,2:3:0:0:
353,261,80691,2,0,B|344:301|344:301|351:362,1,80,0|8,0:0|2:3,0:0:0:0:
443,351,81401,2,0,L|497:335,1,40
498,294,81756,70,0,B|483:219|483:219|469:202|469:202|465:110,1,160,8|8,2:1|2:3,0:0:0:0:
328,273,83176,2,0,P|254:238|239:142,1,160,8|8,2:3|2:3,0:0:0:0:
385,54,84596,2,0,L|337:45,1,40,8|0,2:1|0:0,0:0:0:0:
311,13,84951,54,0,L|297:121,1,80,4|8,2:3|2:3,0:0:0:0:
206,78,85661,2,0,P|174:117|131:143,1,80,8|8,2:3|2:1,0:0:0:0:
105,120,86194,1,8,2:3:0:0:
105,120,86372,2,0,L|2:134,1,80,0|8,0:0|2:3,0:0:0:0:
2,224,87082,1,0,0:0:0:0:
85,273,87437,2,0,L|140:262,1,40,8|0,2:1|0:0,0:0:0:0:
166,241,87792,102,0,P|181:286|185:343,1,80,4|8,2:3|2:3,0:0:0:0:
273,359,88502,2,0,L|368:346,1,80,8|8,2:3|2:1,0:0:0:0:
396,370,89034,1,8,2:3:0:0:
396,370,89212,2,0,B|438:353|438:353|461:299,1,80,0|8,0:0|2:3,0:0:0:0:
378,261,89922,1,0,0:0:0:0:
460,211,90277,2,0,L|471:147,1,40,8|0,2:1|0:0,0:0:0:0:
429,140,90632,2,0,L|421:79,1,40,4|0,2:3|0:0,0:0:0:0:
443,56,90987,6,0,L|353:30,1,80,8|8,2:3|2:3,0:0:0:0:
321,118,91697,2,0,L|231:144,1,80,8|0,2:1|0:0,0:0:0:0:
205,167,92230,1,0,0:0:0:0:
205,167,92407,2,0,B|215:131|215:131|198:59,1,80,8|0,2:3|0:0,0:0:0:0:
119,46,93117,2,0,B|109:82|109:82|126:154,1,80,8|0,2:1|0:0,0:0:0:0:
51,191,93827,37,10,2:0:0:0:
87,304,94184,1,2,2:0:0:0:
189,243,94541,1,10,2:0:0:0:
277,323,94898,2,0,L|380:335,1,80,10|10,2:0|2:0,0:0:0:0:
217,185,95969,70,0,L|203:63,1,120,0|0,3:0|3:0,0:0:0:0:
199,18,96684,70,0,P|236:63|297:89,1,95.9999970703126,4|8,3:1|2:1,0:0:0:0:
323,62,97226,1,0,0:0:0:0:
323,62,97407,2,0,L|383:41,1,47.9999985351563,2|2,3:1|3:1,0:0:0:0:
412,85,97768,2,0,L|467:93,1,47.9999985351563,8|2,2:1|3:1,0:0:0:0:
508,197,98311,1,2,2:1:0:0:
508,197,98492,2,0,L|489:308,1,95.9999970703126,10|0,2:1|3:0,0:0:0:0:
511,347,99034,1,2,3:1:0:0:
511,347,99215,6,0,B|464:361|464:361|378:349,1,95.9999970703126,10|0,2:1|3:0,0:0:0:0:
354,259,99938,1,10,2:1:0:0:
304,363,100300,2,0,B|257:377|257:377|171:365,1,95.9999970703126,2|10,3:1|2:1,0:0:0:0:
127,291,101023,2,0,L|92:333,2,47.9999985351563,2|2|10,2:1|2:1|2:1,0:0:0:0:
109,237,101566,1,2,2:1:0:0:
109,237,101747,2,0,L|133:136,1,95.9999970703126,2|10,2:1|2:1,0:0:0:0:
102,94,102289,1,2,3:1:0:0:
102,94,102470,102,0,P|151:68|193:18,1,95.9999970703126,4|8,3:1|2:1,0:0:0:0:
226,8,103013,1,0,0:0:0:0:
226,8,103193,2,0,L|244:72,1,47.9999985351563,2|2,3:1|3:1,0:0:0:0:
277,98,103555,2,0,L|259:162,1,47.9999985351563,8|2,2:1|3:1,0:0:0:0:
171,212,104098,1,2,2:1:0:0:
171,212,104278,2,0,P|179:273|222:317,1,95.9999970703126,10|2,2:1|3:1,0:0:0:0:
253,280,104821,1,2,3:1:0:0:
253,280,105002,6,0,L|372:261,1,95.9999970703126,10|2,2:1|3:1,0:0:0:0:
425,179,105725,1,10,2:1:0:0:
333,111,106087,2,0,L|239:127,1,95.9999970703126,2|10,3:1|2:1,0:0:0:0:
146,57,106810,2,0,L|159:10,2,47.9999985351563,2|2|10,2:1|2:1|2:1,0:0:0:0:
89,65,107353,1,2,2:1:0:0:
89,65,107533,2,0,B|66:112|66:112|87:170,1,95.9999970703126,2|10,2:1|2:1,0:0:0:0:
108,205,108076,1,10,3:1:0:0:
108,205,108257,101,4,3:1:0:0:
57,309,108618,2,0,P|95:336|141:349,1,95.9999970703126,10|2,2:1|3:1,0:0:0:0:
218,263,109342,2,0,P|266:256|307:232,1,95.9999970703126,10|2,2:1|2:1,0:0:0:0:
319,117,110065,1,10,2:1:0:0:
411,188,110427,2,0,L|423:306,1,95.9999970703126,2|10,3:1|2:1,0:0:0:0:
426,342,110969,1,2,3:1:0:0:
426,342,111150,5,0,3:0:0:0:
316,375,111512,2,0,P|274:353|244:316,1,95.9999970703126,10|2,2:1|3:1,0:0:0:0:
129,312,112235,2,0,L|150:248,1,47.9999985351563,10|2,2:1|3:1,0:0:0:0:
187,228,112597,2,0,L|171:119,1,95.9999970703126,2|10,2:1|2:1,0:0:0:0:
160,77,113139,1,2,2:1:0:0:
261,21,113501,2,0,L|301:55,1,47.9999985351563,2|8,3:1|2:1,0:0:0:0:
353,34,113863,2,0,L|371:94,1,47.9999985351563,2|4,3:1|3:1,0:0:0:0:
475,122,114405,102,0,P|439:176|426:234,1,95.9999970703126,10|2,2:1|3:1,0:0:0:0:
317,183,115128,1,10,2:1:0:0:
317,183,115309,2,0,L|200:197,1,95.9999970703126,2|2,3:1|2:1,0:0:0:0:
187,241,115852,1,10,2:1:0:0:
187,241,116033,2,0,B|145:219|145:219|118:152,1,95.9999970703126,2|2,2:1|3:1,0:0:0:0:
114,118,116575,2,0,L|39:93,1,47.9999985351563,10|0,2:1|3:0,0:0:0:0:
13,88,116937,5,4,3:2:0:0:
36,243,117298,1,10,2:1:0:0:
191,220,117660,1,4,3:2:0:0:
168,65,118022,1,10,2:1:0:0:
13,88,118383,2,0,L|6:163,1,47.9999985351563,2|0,2:1|0:0,0:0:0:0:
54,173,118745,2,0,L|61:248,1,47.9999985351563,10|0,2:1|0:0,0:0:0:0:
22,266,119107,2,0,P|53:308|113:333,2,95.9999970703126,2|10|2,2:1|2:1|2:0,0:0:0:0:
256,192,122716,12,2,125625,2:0:0:0:
474,323,126361,70,0,L|478:215,1,80,4|8,3:1|2:1,0:0:0:0:
385,214,127083,2,0,L|381:322,1,80,0|8,0:0|2:1,0:0:0:0:
291,326,127806,2,0,L|295:218,1,80,0|8,3:0|2:1,0:0:0:0:
202,217,128529,2,0,L|198:325,1,80,2|12,3:1|2:1,0:0:0:0:
107,327,129252,70,0,L|119:375,2,40,0|0|8,3:1|3:0|2:1,0:0:0:0:
63,305,129795,2,0,P|28:252|24:216,1,80,2|2,3:1|2:1,0:0:0:0:
43,192,130337,1,8,2:1:0:0:
43,192,130518,1,2,2:1:0:0:
71,100,130880,2,0,L|111:126,2,40,2|10|0,3:1|2:1|3:0,0:0:0:0:
54,54,131422,38,0,L|160:36,1,80,2|12,3:1|2:1,0:0:0:0:
222,6,132146,2,0,P|255:28|280:58,1,80,0|8,3:1|2:1,0:0:0:0:
374,39,132869,2,0,P|381:78|378:117,1,80,0|8,0:0|2:1,0:0:0:0:
458,170,133592,2,0,P|435:203|405:228,1,80,0|8,3:1|2:1,0:0:0:0:
425,321,134316,2,0,P|385:328|346:325,1,80,2|12,3:1|2:1,0:0:0:0:
250,320,135039,70,0,L|245:370,2,40,0|0|8,3:1|3:0|2:1,0:0:0:0:
214,287,135582,2,0,B|226:245|226:245|277:204,1,80,2|2,3:1|2:1,0:0:0:0:
302,222,136124,1,8,2:1:0:0:
302,222,136305,1,2,2:1:0:0:
387,264,136667,2,0,L|396:314,2,40,0|8|0,3:0|2:1|3:0,0:0:0:0:
422,231,137209,1,2,2:0:0:0:
422,231,148782,102,0,L|431:284,2,40,0|0|0,0:0|0:0|3:0,0:0:0:0:
502,178,149506,2,0,P|507:123|487:69,1,80,0|0,0:0|3:0,0:0:0:0:
483,4,150229,2,0,L|382:25,1,80,0|0,0:0|3:0,0:0:0:0:
308,21,150952,2,0,L|301:78,1,40,0|8,0:0|2:0,0:0:0:0:
337,94,151314,2,0,L|344:151,1,40,0|8,3:0|2:0,0:0:0:0:
369,173,151676,6,0,P|387:227|384:271,1,80,0|0,0:0|3:0,0:0:0:0:
313,311,152399,2,0,P|295:257|298:213,1,80,0|0,0:0|3:0,0:0:0:0:
220,172,153122,2,0,L|121:162,1,80,0|0,0:0|3:0,0:0:0:0:
44,176,153846,2,0,L|33:115,1,40,0|8,0:0|2:0,0:0:0:0:
4,101,154207,2,0,L|15:40,1,40,0|8,3:0|2:0,0:0:0:0:
47,29,154569,102,0,B|88:36|88:36|132:78,1,80,0|0,0:0|3:0,0:0:0:0:
127,157,155292,2,0,B|168:150|168:150|212:108,1,80,0|0,0:0|3:0,0:0:0:0:
274,67,156016,2,0,L|366:86,1,80,0|0,0:0|3:0,0:0:0:0:
448,77,156739,2,0,L|465:144,1,40,0|8,0:0|2:0,0:0:0:0:
426,152,157101,2,0,L|409:219,1,40,0|8,3:0|2:0,0:0:0:0:
440,232,157462,6,0,L|451:324,1,80,0|0,0:0|3:0,0:0:0:0:
366,359,158186,2,0,L|355:267,1,80,0|0,0:0|3:0,0:0:0:0:
269,237,158909,2,0,P|235:257|216:291,1,80,0|0,0:0|3:0,0:0:0:0:
160,366,159628,1,0,0:0:0:0:
160,366,159812,2,0,L|58:336,1,80,8|8,2:0|2:0,0:0:0:0:
34,331,160364,102,0,P|30:292|22:253,1,80,2|2,2:0|2:0,0:0:0:0:
112,220,161086,1,2,2:0:0:0:
112,220,161267,2,0,L|112:117,1,80,2|2,2:0|2:0,0:0:0:0:
205,118,161990,1,2,2:0:0:0:
205,118,162171,2,0,P|216:71|252:11,1,80,2|2,2:0|2:0,0:0:0:0:
276,50,162713,1,2,2:0:0:0:
276,50,162894,2,0,L|383:43,1,80,2|2,2:0|2:0,0:0:0:0:
435,99,163617,1,2,2:0:0:0:
378,176,163978,2,0,L|271:183,1,80,2|2,2:0|2:0,0:0:0:0:
266,271,164701,22,0,B|256:314|256:314|269:368,1,80,2|2,2:0|2:0,0:0:0:0:
306,372,165243,1,2,2:0:0:0:
306,372,165424,2,0,L|389:366,1,80
477,331,166147,6,0,P|481:292|489:253,1,80,2|2,2:0|2:0,0:0:0:0:
400,220,166870,1,2,2:0:0:0:
400,220,167050,2,0,L|400:117,1,80,2|2,2:0|2:0,0:0:0:0:
307,118,167773,1,2,2:0:0:0:
307,118,167954,2,0,P|296:71|260:11,1,80,2|2,2:0|2:0,0:0:0:0:
236,50,168496,1,2,2:0:0:0:
236,50,168677,2,0,L|129:43,1,80,2|2,2:0|2:0,0:0:0:0:
77,99,169400,1,2,2:0:0:0:
134,176,169761,22,0,L|321:192,1,160,2|0,0:0|0:0,0:0:0:0:
466,250,171959,5,4,3:1:0:0:
421,143,172319,2,0,B|372:139|372:139|314:177,1,95.9999970703126,10|2,2:1|3:1,0:0:0:0:
309,277,173039,2,0,B|260:281|260:281|202:243,1,95.9999970703126,10|2,2:1|2:1,0:0:0:0:
212,140,173759,1,10,2:1:0:0:
121,211,174119,2,0,L|13:196,1,95.9999970703126,2|10,3:1|2:1,0:0:0:0:
13,141,174660,1,2,3:1:0:0:
13,141,174840,5,0,3:0:0:0:
48,31,175200,2,0,P|89:55|120:92,1,95.9999970703126,10|2,2:1|3:1,0:0:0:0:
225,136,175920,2,0,L|216:70,1,47.9999985351563,10|2,2:1|3:1,0:0:0:0:
253,42,176280,2,0,L|352:58,1,95.9999970703126,2|10,2:1|2:1,0:0:0:0:
391,19,176820,1,2,2:1:0:0:
457,113,177181,2,0,L|465:182,1,47.9999985351563,2|10,3:1|2:1,0:0:0:0:
416,195,177541,2,0,L|409:252,1,47.9999985351563,2|4,3:1|3:1,0:0:0:0:
453,328,178082,102,0,B|418:341|418:341|354:328,1,80,10|2,2:1|3:1,0:0:0:0:
283,359,178806,1,10,2:1:0:0:
283,359,178987,2,0,L|258:256,1,80,2|2,3:1|2:1,0:0:0:0:
221,272,179530,1,10,2:1:0:0:
221,272,179711,2,0,L|228:157,1,80,2|2,2:1|3:1,0:0:0:0:
229,144,180254,2,0,L|294:129,1,40,10|0,2:1|3:0,0:0:0:0:
315,126,180616,5,4,3:2:0:0:
166,72,180977,1,10,2:1:0:0:
112,221,181339,1,4,3:2:0:0:
261,275,181701,1,10,2:1:0:0:
315,126,182063,2,0,L|382:112,1,40,2|0,2:1|0:0,0:0:0:0:
378,76,182425,2,0,L|445:90,1,40,10|0,2:1|0:0,0:0:0:0:
451,117,182787,2,0,P|452:157|457:197,2,80,2|10|2,2:1|2:1|2:0,0:0:0:0:
256,192,186393,12,0,189286,0:0:0:0:
315,238,190736,70,0,B|262:182|262:182|178:158,2,160,2|2|2,2:0|2:0|2:0,0:0:0:0:
316,285,192367,1,2,2:0:0:0:
