osu file format v14

[General]
AudioFilename: audio.mp3
AudioLeadIn: 0
PreviewTime: 44986
Countdown: 0
SampleSet: Soft
StackLeniency: 0.7
Mode: 0
LetterboxInBreaks: 0
WidescreenStoryboard: 0

[Editor]
Bookmarks: 15164,22264,33625,44986,68146,73946,85306,96684,119834,125625,137209,148782,160364,171959,183511,189286
DistanceSpacing: 1.3
BeatDivisor: 4
GridSize: 32
TimelineZoom: 1.3

[Metadata]
Title:good 4 u
TitleUnicode:good 4 u
Artist:Olivia Rodrigo
ArtistUnicode:Olivia Rodrigo
Creator:hehe
Version:Hard
Source:
Tags:pop punk for sour isabel rock english marianna toybot vikala
BeatmapID:3032180
BeatmapSetID:1477257

[Difficulty]
HPDrainRate:4
CircleSize:4
OverallDifficulty:6.5
ApproachRate:7.5
SliderMultiplier:1
SliderTickRate:1

[Events]
//Background and Video events
0,0,"good.jpg",0,0
Video,0,"good4u.avi"
//Break Periods
2,68346,70212
2,120030,121891
2,137409,147234
//Storyboard Layer 0 (Background)
//Storyboard Layer 1 (Fail)
//Storyboard Layer 2 (Pass)
//Storyboard Layer 3 (Foreground)
//Storyboard Layer 4 (Overlay)
//Storyboard Sound Samples

[TimingPoints]
15164,355.029585798817,4,2,1,30,1,0
16229,-100,4,2,1,30,0,0
22264,-100,4,2,1,40,0,0
33625,-100,4,2,1,50,0,0
44986,361.881785283474,4,2,1,70,1,1
44986,-71.4285714285714,4,2,1,70,0,1
68146,361.44578313253,4,2,1,50,1,0
71037,363.636363636364,4,2,1,70,1,1
73946,355.029585798817,4,2,1,70,1,0
75543,-100,4,2,1,40,0,0
85306,-100,4,2,1,50,0,0
93827,357.142857142857,4,2,1,60,1,0
93827,-83.3333333333333,4,2,1,60,0,0
96684,361.663652802893,4,2,1,70,1,1
96684,-71.4285714285714,4,2,1,70,0,1
119830,-71.4285714285714,4,2,1,50,0,1
119834,360.360360360361,4,2,1,50,1,0
122716,363.636363636364,4,2,1,70,1,1
125625,368.098159509203,4,2,1,50,1,0
126361,361.445783132531,4,2,1,50,1,0
127083,361.663652802893,4,2,1,50,1,0
127083,-100,4,2,1,50,0,0
148782,-100,4,2,1,40,0,0
154569,-100,4,2,1,50,0,0
159628,368.098159509202,4,2,1,50,1,0
160364,361.44578313253,4,2,1,40,1,0
170845,400,4,2,1,40,1,0
171445,342.857142857143,4,2,1,40,1,0
171959,360.144057623049,4,2,1,80,1,1
171959,-71.4285714285714,4,2,1,80,0,1
177721,361.881785283474,4,2,1,80,1,1
177721,-71.4285714285714,4,2,1,80,0,1
183511,360.360360360361,4,2,1,50,1,0
186393,364.741641337386,4,2,1,80,1,1
189286,362.537764350454,4,2,1,50,1,0

[Colours]
Combo1 : 255,47,52
Combo2 : 174,85,255
Combo3 : 255,45,155
Combo4 : 181,255,81
Combo5 : 64,255,193
Combo6 : 250,255,47
Combo7 : 255,134,13
Combo8 : 79,132,255

[HitObjects]
84,362,16229,70,0,L|96:248,1,100,4|8,2:3|2:3,0:0:0:0:
61,168,16939,2,0,P|134:169|189:229,2,150,8|8|8,2:3|2:3|2:3,0:0:0:0:
208,26,19069,6,0,L|220:140,1,100,4|8,2:3|2:3,0:0:0:0:
185,220,19779,2,0,P|258:219|313:159,2,150,8|8|8,2:3|2:3|2:3,0:0:0:0:
435,321,21554,101,0,0:0:0:0:
345,364,21909,2,0,P|336:306|359:255,1,100,4|8,2:3|2:3,0:0:0:0:
487,207,22619,86,0,P|465:194|446:178,1,50,8|0,2:3|0:0,0:0:0:0:
367,190,22974,2,0,P|354:168|345:144,1,50,0|8,3:0|2:3,0:0:0:0:
271,115,23329,2,0,P|271:90|275:65,1,50
183,37,23684,2,0,P|191:103|194:151,2,100,8|0|0,2:3|0:0|3:0,0:0:0:0:
61,144,24749,2,0,P|53:78|50:30,1,100,4|8,2:3|2:3,0:0:0:0:
13,240,25459,6,0,L|73:231,1,50,8|0,2:3|0:0,0:0:0:0:
98,312,25814,2,0,L|145:274,1,50,0|8,3:0|2:3,0:0:0:0:
207,331,26169,2,0,L|229:274,1,50
312,275,26524,2,0,P|351:296|376:364,2,100,8|0|0,2:3|0:0|3:0,0:0:0:0:
179,213,27590,2,0,P|200:168|243:144,1,100,4|8,2:3|2:3,0:0:0:0:
359,65,28300,102,0,L|351:5,1,50,8|0,2:3|0:0,0:0:0:0:
435,126,28655,2,0,L|443:66,1,50,0|8,3:0|2:3,0:0:0:0:
360,201,29010,2,0,L|352:141,1,50
435,258,29365,2,0,B|384:262|402:292|342:295,2,100,8|0|0,2:3|0:0|3:0,0:0:0:0:
291,362,30430,2,0,B|240:358|258:328|198:325,1,100,4|8,0:3|2:3,0:0:0:0:
48,361,31140,2,0,P|63:299|152:269,2,150,8|8|8,0:3|0:3|0:3,0:0:0:0:
41,172,32560,6,0,L|47:68,1,100,4|0,0:2|3:0,0:0:0:0:
134,74,33092,1,0,0:0:0:0:
134,74,33270,2,0,L|139:173,1,100,4|8,0:2|2:3,0:0:0:0:
29,264,33980,102,0,P|11:281|1:304,1,50,8|0,2:3|0:0,0:0:0:0:
84,332,34335,2,0,P|84:356|93:380,1,50,8|8,3:2|2:3,0:0:0:0:
170,341,34690,2,0,P|187:358|210:368,1,50
288,327,35045,2,0,P|328:332|396:372,2,100,8|0|8,2:3|0:0|3:2,0:0:0:0:
478,191,36110,2,0,P|438:196|370:236,1,100,4|8,2:3|2:3,0:0:0:0:
395,13,36820,6,0,L|376:68,1,50,8|0,2:3|0:0,0:0:0:0:
311,120,37175,2,0,L|292:65,1,50,8|8,3:2|2:3,0:0:0:0:
222,14,37530,2,0,L|203:69,1,50
132,108,37885,2,0,B|88:84|88:84|73:26,2,100,8|0|8,2:3|0:0|3:2,0:0:0:0:
21,248,38950,2,0,B|65:224|65:224|80:166,1,100,4|8,2:3|2:3,0:0:0:0:
248,159,39661,102,0,P|224:157|199:160,1,50,8|0,2:3|0:0,0:0:0:0:
279,70,40016,2,0,P|293:49|303:26,1,50,8|8,3:2|2:3,0:0:0:0:
341,140,40371,2,0,P|351:162|366:182,1,50
460,183,40726,2,0,P|466:235|463:303,1,100,8|0,2:3|0:0,0:0:0:0:
376,359,41258,1,0,0:0:0:0:
376,359,41436,2,0,P|375:309|381:259,1,100,8|0,3:2|0:0,0:0:0:0:
311,208,41968,1,0,0:0:0:0:
311,208,42146,54,0,L|268:200,3,25,8|0|0|0,2:3|0:0|0:0|0:0,0:0:0:0:
233,265,42501,2,0,L|190:273,3,25,8|0|0|0,2:3|0:0|0:0|0:0,0:0:0:0:
161,201,42856,2,0,L|118:193,3,25,8|0|8|0,3:2|0:0|2:3|0:0,0:0:0:0:
75,252,43211,1,0,0:0:0:0:
62,253,43300,1,0,0:0:0:0:
50,255,43388,1,0,0:0:0:0:
37,257,43477,1,0,0:0:0:0:
25,259,43566,1,8,2:3:0:0:
194,45,44276,70,0,L|206:98,1,50,8|0,2:1|3:0,0:0:0:0:
274,139,44631,1,0,3:0:0:0:
48,150,44986,70,0,P|90:162|128:238,1,104.999996795654,4|0,3:1|0:0,0:0:0:0:
119,221,45347,2,0,L|108:299,1,69.9999978637696,8|0,2:1|0:0,0:0:0:0:
206,362,45709,1,2,3:1:0:0:
206,362,45890,2,0,L|195:284,1,69.9999978637696,2|8,3:1|2:1,0:0:0:0:
272,247,46252,6,0,P|310:279|413:311,1,139.999995727539,2|2,3:1|2:1,0:0:0:0:
463,369,46795,2,0,P|481:330|482:277,1,69.9999978637696,10|2,2:1|2:1,0:0:0:0:
407,169,47157,2,0,P|412:203|428:234,1,69.9999978637696,0|2,3:0|3:1,0:0:0:0:
483,118,47519,1,10,2:1:0:0:
430,42,47700,102,0,L|277:57,1,139.999995727539,2|0,3:1|0:0,0:0:0:0:
196,32,48242,2,0,P|204:65|209:100,1,69.9999978637696,10|0,2:1|0:0,0:0:0:0:
252,192,48604,1,2,3:1:0:0:
252,192,48785,1,0,3:0:0:0:
160,169,48966,2,0,P|151:202|146:237,1,69.9999978637696,10|0,2:1|3:0,0:0:0:0:
89,310,49328,5,2,2:1:0:0:
159,363,49509,1,2,2:1:0:0:
210,295,49690,1,10,2:1:0:0:
288,326,49871,1,2,2:1:0:0:
350,276,50052,2,0,B|381:216|381:216|344:135,1,139.999995727539,2|10,2:1|2:1,0:0:0:0:
278,106,50595,1,2,3:1:0:0:
278,106,50685,1,0,0:0:0:0:
278,106,50776,102,0,L|165:117,1,104.999996795654,4|0,3:1|0:0,0:0:0:0:
161,117,51137,2,0,P|167:83|160:46,1,69.9999978637696,8|0,2:1|0:0,0:0:0:0:
61,13,51499,1,2,3:1:0:0:
61,13,51680,2,0,P|55:47|62:84,1,69.9999978637696,2|8,3:1|2:1,0:0:0:0:
11,160,52042,6,0,P|66:178|101:260,1,139.999995727539,2|2,3:1|2:1,0:0:0:0:
134,339,52585,2,0,L|43:327,1,69.9999978637696,10|0,2:1|0:0,0:0:0:0:
223,289,52947,1,2,3:1:0:0:
223,289,53128,1,2,3:1:0:0:
277,371,53309,2,0,L|353:363,1,69.9999978637696,10|2,2:1|3:1,0:0:0:0:
402,382,53580,1,0,0:0:0:0:
402,382,53671,102,0,P|426:326|502:284,1,139.999995727539,4|10,3:2|2:1,0:0:0:0:
425,223,54213,1,0,0:0:0:0:
346,271,54394,2,0,P|322:215|246:173,1,139.999995727539,4|10,3:2|2:1,0:0:0:0:
323,112,54937,1,0,3:0:0:0:
266,29,55118,86,0,L|341:18,1,69.9999978637696,2|2,2:1|2:1,0:0:0:0:
479,62,55480,2,0,L|404:73,1,69.9999978637696,10|2,2:1|2:1,0:0:0:0:
351,142,55842,1,2,2:1:0:0:
411,201,56023,1,10,3:1:0:0:
354,263,56204,1,10,2:1:0:0:
412,333,56385,1,10,3:1:0:0:
412,333,56475,1,8,3:1:0:0:
412,333,56566,1,4,3:1:0:0:
270,373,56928,38,0,P|277:312|267:217,1,139.999995727539,10|2,2:1|3:1,0:0:0:0:
181,281,57470,1,0,3:0:0:0:
181,281,57651,2,0,P|173:211|180:141,1,139.999995727539,10|2,2:1|2:1,0:0:0:0:
251,92,58194,1,0,0:0:0:0:
198,26,58375,102,0,L|124:14,1,69.9999978637696,10|0,2:1|0:0,0:0:0:0:
36,108,58737,2,0,L|110:96,1,69.9999978637696,2|0,3:1|3:0,0:0:0:0:
166,163,59099,1,10,2:1:0:0:
86,209,59280,6,0,P|117:245|220:240,1,139.999995727539,2|0,3:1|0:0,0:0:0:0:
278,310,59823,2,0,B|272:348|272:348|281:382,1,69.9999978637696,10|0,2:1|0:0,0:0:0:0:
368,325,60185,2,0,B|374:287|374:287|365:253,1,69.9999978637696,2|0,3:1|3:0,0:0:0:0:
285,205,60546,1,10,2:1:0:0:
285,205,60727,1,2,3:1:0:0:
355,147,60908,102,0,B|455:128|455:128|476:86,1,139.999995727539,2|10,2:1|2:1,0:0:0:0:
317,0,61451,2,0,P|335:32|338:83,1,69.9999978637696,2|0,2:1|0:0,0:0:0:0:
268,133,61813,2,0,P|250:101|247:50,1,69.9999978637696,2|8,3:1|2:1,0:0:0:0:
202,44,62084,1,0,0:0:0:0:
202,44,62175,2,0,L|161:54,2,34.9999989318848,2|0|4,3:1|0:0|3:1,0:0:0:0:
23,239,62718,5,10,2:1:0:0:
103,216,62899,1,2,2:1:0:0:
141,286,63080,2,0,P|128:335|113:366,1,69.9999978637696,2|2,3:1|3:1,0:0:0:0:
236,331,63441,1,10,2:1:0:0:
236,331,63622,102,0,L|220:187,1,139.999995727539,2|2,3:1|2:1,0:0:0:0:
224,60,64165,1,10,2:1:0:0:
224,60,64346,2,0,B|191:83|191:83|179:121,1,69.9999978637696,2|0,2:1|3:0,0:0:0:0:
86,49,64708,1,2,3:1:0:0:
86,49,64889,2,0,B|78:88|78:88|97:123,1,69.9999978637696,10|0,2:1|3:0,0:0:0:0:
26,184,65251,6,0,P|90:209|122:270,1,139.999995727539,4|10,3:2|2:1,0:0:0:0:
86,351,65794,1,0,0:0:0:0:
170,381,65975,2,0,P|233:356|265:295,1,139.999995727539,4|10,3:2|2:1,0:0:0:0:
229,214,66517,1,0,3:0:0:0:
315,176,66698,102,0,P|347:191|374:213,1,69.9999978637696,2|0,2:1|0:0,0:0:0:0:
364,309,67060,2,0,P|396:296|431:293,1,69.9999978637696,10|0,2:1|0:0,0:0:0:0:
462,212,67422,1,2,2:1:0:0:
478,128,67603,1,8,3:1:0:0:
423,64,67784,1,10,2:1:0:0:
338,66,67965,1,10,3:1:0:0:
338,66,68055,1,8,3:1:0:0:
338,66,68146,1,2,2:0:0:0:
256,192,71037,12,0,73946,0:0:0:0:
356,80,75543,22,0,L|289:75,1,50
329,159,75898,2,0,L|262:164,1,50,0|8,0:0|0:0,0:0:0:0:
451,240,76431,2,0,P|459:306|462:354,1,100,4|8,0:3|0:3,0:0:0:0:
499,144,77141,6,0,L|439:153,1,50,8|0,0:3|0:0,0:0:0:0:
414,72,77496,2,0,L|367:110,1,50,0|8,0:0|0:3,0:0:0:0:
305,53,77851,2,0,L|283:110,1,50
200,109,78206,2,0,P|161:88|136:20,2,100,8|0|8,0:3|0:0|2:1,0:0:0:0:
333,171,79271,2,0,P|312:216|269:240,1,100,4|8,2:3|2:3,0:0:0:0:
153,319,79981,102,0,L|161:379,1,50,8|0,2:3|0:0,0:0:0:0:
77,258,80336,2,0,L|69:318,1,50,8|8,2:1|2:3,0:0:0:0:
152,183,80691,2,0,L|160:243,1,50
77,126,81046,2,0,B|128:122|110:92|170:89,1,100,8|0,2:3|0:0,0:0:0:0:
231,15,81756,70,0,B|337:14|306:81|416:77,1,200,8|8,2:1|2:3,0:0:0:0:
487,204,83176,1,8,2:3:0:0:
391,346,83886,1,8,2:3:0:0:
317,198,84596,53,8,2:1:0:0:
317,198,84951,2,0,L|325:255,2,50,4|8|8,2:3|2:1|2:3,0:0:0:0:
483,120,85661,102,0,P|501:103|511:80,1,50,8|0,2:3|0:0,0:0:0:0:
428,52,86017,2,0,P|428:28|419:4,1,50,8|8,2:1|2:3,0:0:0:0:
342,43,86372,2,0,P|325:26|302:16,1,50
224,57,86727,2,0,P|184:52|116:12,2,100,8|0|8,2:3|0:0|2:1,0:0:0:0:
34,193,87792,2,0,P|74:188|142:148,1,100,4|8,2:3|2:3,0:0:0:0:
117,371,88502,6,0,L|136:316,1,50,8|0,2:3|0:0,0:0:0:0:
201,264,88857,2,0,L|220:319,1,50,8|8,2:1|2:3,0:0:0:0:
290,370,89212,2,0,L|309:315,1,50
380,276,89567,2,0,B|424:300|424:300|439:358,2,100,8|0|8,2:3|0:0|2:1,0:0:0:0:
491,136,90632,2,0,B|447:160|447:160|432:218,1,100,4|8,2:3|2:3,0:0:0:0:
264,225,91342,102,0,P|288:227|313:224,1,50,8|0,2:3|0:0,0:0:0:0:
233,314,91697,2,0,P|219:335|209:358,1,50,8|8,2:1|0:3,0:0:0:0:
171,244,92052,2,0,P|161:222|146:202,1,50
52,201,92407,2,0,P|46:149|49:81,1,100,8|0,2:3|0:0,0:0:0:0:
136,25,92940,1,0,0:0:0:0:
136,25,93117,2,0,P|137:75|131:125,1,100,8|0,2:1|0:0,0:0:0:0:
201,176,93650,1,0,0:0:0:0:
261,113,93827,54,0,L|334:101,1,59.9999981689454,10|2,2:0|2:0,0:0:0:0:
445,150,94184,2,0,L|372:162,1,59.9999981689454,2|2,2:0|3:2,0:0:0:0:
262,210,94541,2,0,L|335:217,1,59.9999981689454,10|2,2:0|2:0,0:0:0:0:
430,293,94898,2,0,L|356:285,1,59.9999981689454,10|2,2:0|2:0,0:0:0:0:
309,349,95255,1,10,2:0:0:0:
309,349,95969,70,0,L|323:301,3,29.9999990844727,0|0|0|0,3:0|3:0|3:0|3:0,0:0:0:0:
397,293,96327,2,0,L|383:245,3,29.9999990844727,0|0|0|0,3:0|3:0|3:0|3:0,0:0:0:0:
464,234,96684,70,0,P|422:222|384:146,1,104.999996795654,4|0,3:1|0:0,0:0:0:0:
393,163,97045,2,0,L|404:85,1,69.9999978637696,8|0,2:1|0:0,0:0:0:0:
306,22,97407,1,2,3:1:0:0:
306,22,97588,2,0,L|317:100,1,69.9999978637696,2|8,3:1|2:1,0:0:0:0:
240,137,97949,6,0,P|202:105|99:73,1,139.999995727539,2|2,3:1|2:1,0:0:0:0:
49,15,98492,2,0,P|31:54|30:107,1,69.9999978637696,10|2,2:1|2:1,0:0:0:0:
105,215,98853,2,0,P|100:181|84:150,1,69.9999978637696,0|2,3:0|3:1,0:0:0:0:
29,266,99215,1,10,2:1:0:0:
82,342,99396,102,0,L|235:327,1,139.999995727539,2|0,3:1|0:0,0:0:0:0:
316,352,99938,2,0,P|308:319|303:284,1,69.9999978637696,10|0,2:1|0:0,0:0:0:0:
260,192,100300,1,2,3:1:0:0:
260,192,100481,1,0,3:0:0:0:
352,215,100662,2,0,P|361:182|366:147,1,69.9999978637696,10|0,2:1|3:0,0:0:0:0:
423,74,101023,5,2,2:1:0:0:
353,21,101204,1,2,2:1:0:0:
302,89,101385,1,10,2:1:0:0:
224,58,101566,1,2,2:1:0:0:
162,108,101747,2,0,B|131:168|131:168|168:249,1,139.999995727539,2|10,2:1|2:1,0:0:0:0:
234,278,102289,1,2,3:1:0:0:
234,278,102380,1,0,0:0:0:0:
234,278,102470,102,0,L|347:267,1,104.999996795654,4|0,3:1|0:0,0:0:0:0:
351,267,102832,2,0,P|345:301|352:338,1,69.9999978637696,8|0,2:1|0:0,0:0:0:0:
451,371,103193,1,2,3:1:0:0:
451,371,103374,2,0,P|457:337|450:300,1,69.9999978637696,2|8,3:1|2:1,0:0:0:0:
501,224,103736,6,0,P|446:206|411:124,1,139.999995727539,2|2,3:1|2:1,0:0:0:0:
363,37,104278,2,0,L|454:49,1,69.9999978637696,10|0,2:1|0:0,0:0:0:0:
280,89,104640,1,2,3:1:0:0:
280,89,104821,1,2,3:1:0:0:
221,13,105002,2,0,L|145:21,1,69.9999978637696,10|2,2:1|3:1,0:0:0:0:
110,2,105273,1,0,0:0:0:0:
110,2,105363,102,0,P|86:58|10:100,1,139.999995727539,2|10,3:1|2:1,0:0:0:0:
87,161,105906,1,0,0:0:0:0:
166,113,106087,2,0,P|190:169|266:211,1,139.999995727539,2|10,3:1|2:1,0:0:0:0:
189,272,106629,1,0,3:0:0:0:
246,355,106810,86,0,L|171:366,1,69.9999978637696,2|2,2:1|2:1,0:0:0:0:
33,322,107172,2,0,L|108:311,1,69.9999978637696,10|2,2:1|2:1,0:0:0:0:
161,242,107533,1,2,2:1:0:0:
101,183,107714,1,10,3:1:0:0:
158,121,107895,1,10,2:1:0:0:
100,51,108076,1,10,3:1:0:0:
100,51,108166,1,8,3:1:0:0:
100,51,108257,1,4,3:1:0:0:
242,11,108618,22,0,P|235:72|245:167,1,139.999995727539,10|2,2:1|3:1,0:0:0:0:
331,103,109161,1,0,3:0:0:0:
331,103,109342,2,0,P|339:173|332:243,1,139.999995727539,10|2,2:1|2:1,0:0:0:0:
261,292,109884,1,0,0:0:0:0:
314,358,110065,6,0,L|388:370,1,69.9999978637696,10|0,2:1|0:0,0:0:0:0:
476,276,110427,2,0,L|402:288,1,69.9999978637696,2|0,3:1|3:0,0:0:0:0:
346,221,110788,1,10,2:1:0:0:
426,175,110969,102,0,P|395:139|292:144,1,139.999995727539,2|0,3:1|0:0,0:0:0:0:
234,74,111512,2,0,B|240:36|240:36|231:2,1,69.9999978637696,10|0,2:1|0:0,0:0:0:0:
144,59,111873,2,0,B|138:97|138:97|147:131,1,69.9999978637696,2|0,3:1|3:0,0:0:0:0:
227,179,112235,1,10,2:1:0:0:
227,179,112416,1,2,3:1:0:0:
157,237,112597,6,0,B|57:256|57:256|36:298,1,139.999995727539,2|10,2:1|2:1,0:0:0:0:
195,384,113139,2,0,P|177:352|174:301,1,69.9999978637696,2|0,2:1|0:0,0:0:0:0:
244,251,113501,2,0,P|262:283|265:334,1,69.9999978637696,2|8,3:1|2:1,0:0:0:0:
345,356,113863,1,2,3:1:0:0:
345,356,113953,1,0,0:0:0:0:
345,356,114043,1,4,3:1:0:0:
489,145,114405,101,10,2:1:0:0:
409,168,114586,1,2,2:1:0:0:
371,98,114767,2,0,P|384:49|399:18,1,69.9999978637696,2|2,3:1|3:1,0:0:0:0:
276,53,115128,1,10,2:1:0:0:
276,53,115309,6,0,L|292:197,1,139.999995727539,2|2,3:1|2:1,0:0:0:0:
288,324,115852,1,10,2:1:0:0:
288,324,116033,2,0,B|321:301|321:301|333:263,1,69.9999978637696,2|0,2:1|3:0,0:0:0:0:
426,335,116394,1,2,3:1:0:0:
426,335,116575,2,0,B|434:296|434:296|415:261,1,69.9999978637696,10|0,2:1|3:0,0:0:0:0:
486,200,116937,102,0,P|422:175|390:114,1,139.999995727539,4|10,3:2|2:1,0:0:0:0:
426,33,117479,1,0,0:0:0:0:
342,3,117660,2,0,P|279:28|247:89,1,139.999995727539,4|10,3:2|2:1,0:0:0:0:
283,170,118202,1,0,3:0:0:0:
197,208,118383,6,0,P|165:193|138:171,1,69.9999978637696,2|0,2:1|0:0,0:0:0:0:
148,75,118745,2,0,P|116:88|81:91,1,69.9999978637696,10|0,2:1|0:0,0:0:0:0:
50,172,119107,1,2,2:1:0:0:
34,256,119287,1,8,3:1:0:0:
89,320,119468,1,10,2:1:0:0:
174,318,119649,1,10,3:1:0:0:
174,318,119740,1,8,3:1:0:0:
174,318,119830,1,2,2:0:0:0:
256,192,122716,12,2,125625,2:0:0:0:
55,144,126361,70,0,L|64:78,2,50,4|0|8,3:1|3:0|2:1,0:0:0:0:
16,225,126903,2,0,P|64:179|110:159,1,100,2|2,3:1|0:1,0:0:0:0:
169,250,127444,2,0,L|171:193,1,50,8|2,2:1|2:1,0:0:0:0:
229,131,127806,2,0,L|221:71,2,50,0|0|8,3:0|3:0|2:1,0:0:0:0:
290,26,128348,1,0,3:0:0:0:
290,26,128439,1,0,0:0:0:0:
290,26,128529,70,0,P|339:43|375:96,1,100,2|12,3:1|2:1,0:0:0:0:
460,102,129072,1,0,0:0:0:0:
460,102,129252,2,0,L|472:32,2,50,0|0|8,3:1|3:0|2:1,0:0:0:0:
389,160,129795,38,0,P|380:180|381:227,1,50,2|0,3:1|0:0,0:0:0:0:
281,171,130157,2,0,P|283:192|307:232,1,50,2|8,2:1|2:1,0:0:0:0:
194,235,130518,2,0,P|207:252|248:275,1,50,2|0,2:1|3:0,0:0:0:0:
261,349,130880,1,2,3:1:0:0:
327,299,131061,1,10,2:1:0:0:
388,369,131242,1,0,3:0:0:0:
388,369,131332,1,0,0:0:0:0:
388,369,131422,70,0,B|465:375|465:375|501:351,1,100,2|12,3:1|2:1,0:0:0:0:
457,240,131965,1,0,0:0:0:0:
457,240,132146,2,0,L|448:306,2,50,0|0|8,3:1|3:0|2:1,0:0:0:0:
496,159,132688,2,0,P|448:205|402:225,1,100,2|2,3:1|2:1,0:0:0:0:
343,134,133231,2,0,L|341:191,1,50,8|2,2:1|2:1,0:0:0:0:
283,253,133592,2,0,L|291:313,2,50,0|0|8,3:1|3:0|2:1,0:0:0:0:
222,358,134135,1,0,3:0:0:0:
222,358,134225,1,0,0:0:0:0:
222,358,134316,38,0,P|173:341|137:288,1,100,2|12,3:1|2:1,0:0:0:0:
52,282,134858,1,0,0:0:0:0:
52,282,135039,2,0,L|40:352,2,50,0|0|8,3:1|3:0|2:1,0:0:0:0:
123,224,135582,70,0,P|131:203|130:156,1,50,2|0,3:1|0:0,0:0:0:0:
231,213,135943,2,0,P|228:191|204:151,1,50,2|8,2:1|2:1,0:0:0:0:
318,149,136305,2,0,P|304:131|263:108,1,50,2|0,2:1|3:0,0:0:0:0:
251,35,136667,1,0,3:0:0:0:
185,85,136847,1,8,2:1:0:0:
124,15,137028,1,0,3:0:0:0:
124,15,137119,1,0,0:0:0:0:
124,15,137209,5,2,2:0:0:0:
83,139,148059,6,0,L|143:132,1,50,8|8,2:0|2:0,0:0:0:0:
116,218,148421,2,0,L|176:225,1,50,8|8,2:0|2:0,0:0:0:0:
228,164,148782,70,0,L|214:57,1,100,0|0,0:0|3:0,0:0:0:0:
434,25,149506,2,0,L|420:132,1,100,0|0,0:0|3:0,0:0:0:0:
457,358,150229,2,0,P|409:358|371:326,1,100,0|0,0:0|3:0,0:0:0:0:
217,369,150952,6,0,L|228:308,1,50,0|8,0:0|2:0,0:0:0:0:
140,326,151314,2,0,L|129:265,1,50,0|8,3:0|2:0,0:0:0:0:
96,192,151676,102,0,P|173:205|208:223,1,100,0|0,0:0|3:0,0:0:0:0:
219,65,152399,2,0,P|296:52|331:34,1,100,0|0,0:0|3:0,0:0:0:0:
456,139,153122,2,0,P|490:174|485:244,1,100,0|0,0:0|3:0,0:0:0:0:
427,348,153846,6,0,P|400:352|379:370,1,50,0|8,0:0|2:0,0:0:0:0:
316,315,154207,1,0,3:0:0:0:
246,353,154388,1,8,2:0:0:0:
246,353,154479,1,0,0:0:0:0:
246,353,154569,102,0,L|135:365,1,100,0|0,0:0|3:0,0:0:0:0:
99,292,155111,1,0,0:0:0:0:
99,292,155292,2,0,L|-12:280,1,100,0|0,0:0|3:0,0:0:0:0:
62,202,155835,1,0,0:0:0:0:
62,202,156016,6,0,P|51:156|20:105,1,100,0|0,0:0|3:0,0:0:0:0:
114,88,156558,1,0,0:0:0:0:
114,88,156739,2,0,L|107:21,1,50,0|8,0:0|2:0,0:0:0:0:
201,6,157101,2,0,L|195:55,1,50,0|8,3:0|2:0,0:0:0:0:
260,108,157462,102,0,P|304:88|347:40,1,100,0|0,0:0|3:0,0:0:0:0:
409,116,158005,1,0,0:0:0:0:
409,116,158186,2,0,P|453:136|496:184,1,100,0|0,0:0|3:0,0:0:0:0:
436,239,158728,1,0,0:0:0:0:
436,239,158909,6,0,L|450:347,1,100,0|0,0:0|3:0,0:0:0:0:
376,376,159451,1,0,0:0:0:0:
342,301,159628,1,0,0:0:0:0:
269,333,159812,1,8,2:0:0:0:
224,269,159996,1,0,3:0:0:0:
226,256,160088,1,0,0:0:0:0:
228,244,160180,1,8,2:0:0:0:
230,232,160272,1,0,0:0:0:0:
232,219,160364,102,0,P|227:173|203:100,1,100,2|2,2:0|2:0,0:0:0:0:
130,27,161086,2,0,L|72:19,1,50,2|2,2:0|2:0,0:0:0:0:
83,104,161448,2,0,L|25:112,1,50,2|2,2:0|2:0,0:0:0:0:
19,283,162171,21,2,2:0:0:0:
19,283,162532,2,0,L|78:273,1,50,2|2,2:0|2:0,0:0:0:0:
128,334,162894,2,0,L|110:388,2,50,2|2|2,2:0|2:0|2:0,0:0:0:0:
288,335,163617,5,2,2:0:0:0:
288,335,163978,2,0,L|281:277,1,50,2|2,2:0|2:0,0:0:0:0:
366,378,164339,2,0,L|374:323,1,50,2|2,2:0|2:0,0:0:0:0:
453,298,164701,102,0,P|471:249|460:190,1,100,2|2,2:0|2:0,0:0:0:0:
385,167,165243,2,0,L|376:49,2,100,2|2|2,2:0|2:0|2:0,0:0:0:0:
319,212,166056,1,2,2:0:0:0:
319,212,166147,6,0,L|214:201,1,100,2|2,2:0|2:0,0:0:0:0:
139,278,166870,2,0,P|133:308|114:343,1,50,2|2,2:0|2:0,0:0:0:0:
39,332,167231,2,0,P|45:302|64:267,1,50,2|2,2:0|2:0,0:0:0:0:
13,134,167954,101,2,2:0:0:0:
13,134,168315,2,0,P|47:146|69:160,1,50,2|2,2:0|2:0,0:0:0:0:
97,78,168677,2,0,P|131:66|153:52,1,50,2|2,2:0|2:0,0:0:0:0:
213,106,168948,1,0,0:0:0:0:
213,106,169038,2,0,P|209:164|211:223,1,100,2|2,2:0|2:0,0:0:0:0:
281,369,169761,38,0,B|175:370|206:303|96:307,1,200,2|0,0:0|0:0,0:0:0:0:
56,301,171959,6,0,L|141:291,1,69.9999978637696,4|0,3:1|0:0,0:0:0:0:
196,357,172319,2,0,B|168:291|168:291|205:213,1,139.999995727539,10|2,2:1|3:1,0:0:0:0:
281,207,172859,1,0,3:0:0:0:
347,275,173039,2,0,B|375:209|375:209|338:131,1,139.999995727539,10|2,2:1|2:1,0:0:0:0:
410,84,173579,1,0,0:0:0:0:
350,21,173759,6,0,L|272:8,1,69.9999978637696,10|0,2:1|0:0,0:0:0:0:
170,106,174119,2,0,L|248:93,1,69.9999978637696,2|0,3:1|3:0,0:0:0:0:
189,17,174480,1,10,2:1:0:0:
98,44,174660,102,0,P|32:61|7:123,1,139.999995727539,2|0,3:1|0:0,0:0:0:0:
110,201,175200,2,0,P|108:160|95:124,1,69.9999978637696,10|0,2:1|0:0,0:0:0:0:
21,245,175560,2,0,P|11:278|10:313,1,69.9999978637696,2|0,3:1|2:0,0:0:0:0:
85,368,175920,1,10,2:1:0:0:
85,368,176100,1,2,3:1:0:0:
146,308,176280,6,0,B|203:326|203:326|221:342|221:342|280:361,1,139.999995727539,2|10,2:1|2:1,0:0:0:0:
369,384,176820,2,0,L|355:309,1,69.9999978637696,2|0,2:1|0:0,0:0:0:0:
453,333,177181,2,0,L|467:258,1,69.9999978637696,2|10,3:1|2:1,0:0:0:0:
382,225,177541,1,2,3:1:0:0:
382,225,177631,1,0,0:0:0:0:
382,225,177721,1,4,3:1:0:0:
181,59,178082,101,10,2:1:0:0:
169,143,178263,1,2,2:1:0:0:
248,110,178444,2,0,L|331:103,1,69.9999978637696,2|2,3:1|3:1,0:0:0:0:
359,36,178806,1,10,2:1:0:0:
359,36,178987,6,0,P|400:72|441:151,1,139.999995727539,2|2,3:1|2:1,0:0:0:0:
374,206,179530,1,10,2:1:0:0:
374,206,179711,2,0,L|289:193,1,69.9999978637696,2|0,2:1|3:0,0:0:0:0:
434,291,180073,1,2,3:1:0:0:
434,291,180254,2,0,L|349:304,1,69.9999978637696,10|0,2:1|3:0,0:0:0:0:
295,363,180616,102,0,B|212:346|254:321|167:311,1,139.999995727539,4|10,3:2|2:1,0:0:0:0:
79,339,181158,1,0,0:0:0:0:
24,262,181339,2,0,B|107:245|65:220|152:210,1,139.999995727539,4|10,3:2|2:1,0:0:0:0:
240,238,181882,1,0,3:0:0:0:
213,151,182063,6,0,L|202:76,1,69.9999978637696,2|0,2:1|0:0,0:0:0:0:
346,28,182425,2,0,L|335:97,1,69.9999978637696,10|0,2:1|0:0,0:0:0:0:
384,178,182787,1,2,2:1:0:0:
297,226,182968,1,8,3:1:0:0:
351,311,183149,1,10,2:1:0:0:
352,328,183239,1,8,3:1:0:0:
354,345,183330,1,10,3:1:0:0:
356,363,183420,1,8,3:1:0:0:
357,380,183511,1,2,2:0:0:0:
256,192,186393,12,2,189286,2:0:0:0:
173,255,190736,70,0,P|205:218|346:147,2,200,2|2|2,2:0|2:0|2:0,0:0:0:0:
178,332,192367,1,2,2:0:0:0:
