osu file format v14

[General]
AudioFilename: audio.mp3
AudioLeadIn: 0
PreviewTime: 40958
Countdown: 0
SampleSet: Soft
StackLeniency: 0.4
Mode: 0
LetterboxInBreaks: 0
WidescreenStoryboard: 0

[Editor]
Bookmarks: 29392,41244,64948,75318,88651,112355,118281,136059,150874,153837,165688,183466,204207
DistanceSpacing: 1.4
BeatDivisor: 6
GridSize: 32
TimelineZoom: 2.699999

[Metadata]
Title:get him back!
TitleUnicode:get him back!
Artist:Olivia Rodrigo
ArtistUnicode:Olivia Rodrigo
Creator:Haruto
Version:sweet revenge
Source:
Tags:GUTS english teenage angsty pop rock dan nigro haruto_aizawa jas kyouren alevi muya- kittyadventure gokugohan12468 craezy
BeatmapID:4313952
BeatmapSetID:2062732

[Difficulty]
HPDrainRate:6
CircleSize:4.5
OverallDifficulty:8.5
ApproachRate:9
SliderMultiplier:1.65
SliderTickRate:1

[Events]
//Background and Video events
0,0,"guts.jpg",0,0
Video,-140,"gethimbackvid.avi"
//Break Periods
2,1907,4533
//Storyboard Layer 0 (Background)
//Storyboard Layer 1 (Fail)
//Storyboard Layer 2 (Pass)
//Storyboard Layer 3 (Foreground)
//Storyboard Layer 4 (Overlay)
//Storyboard Sound Samples

[TimingPoints]
226,740.740740740741,4,2,1,45,1,0
1707,740.740740740741,4,2,1,45,1,0
5133,370.37037037037,4,2,1,45,1,0
5689,370.37037037037,4,2,2,65,1,0
6244,-100,4,2,1,65,0,0
6429,-100,4,2,2,65,0,0
6614,-100,4,2,3,65,0,0
6800,-100,4,2,2,65,0,0
6985,-100,4,2,4,65,0,0
7170,-100,4,2,5,65,0,0
7355,-100,4,2,4,65,0,0
7540,-100,4,2,5,65,0,0
7726,-100,4,2,1,65,0,0
7911,-100,4,2,2,65,0,0
8096,-100,4,2,1,65,0,0
8466,-100,4,2,3,65,0,0
8651,-100,4,2,5,65,0,0
8837,-100,4,2,1,65,0,0
9022,-100,4,2,5,65,0,0
9207,-100,4,2,1,65,0,0
9392,-100,4,2,6,65,0,0
9577,-100,4,2,3,65,0,0
9763,-100,4,2,2,65,0,0
10133,-100,4,2,5,65,0,0
10318,-100,4,2,4,65,0,0
10503,-100,4,2,3,65,0,0
10688,-100,4,2,1,65,0,0
10874,-100,4,2,6,65,0,0
11059,-100,4,2,1,65,0,0
11244,-100,4,2,2,65,0,0
11429,-100,4,2,3,65,0,0
11614,-100,4,2,5,65,0,0
11800,-100,4,2,1,65,0,0
11985,-100,4,2,2,65,0,0
12170,-100,4,2,1,65,0,0
12355,-100,4,2,2,65,0,0
12540,-100,4,2,3,65,0,0
12726,-100,4,2,2,65,0,0
12911,-100,4,2,4,65,0,0
13096,-100,4,2,5,65,0,0
13281,-100,4,2,4,65,0,0
13466,-100,4,2,5,65,0,0
13651,-100,4,2,1,65,0,0
13837,-100,4,2,6,65,0,0
14022,-100,4,2,1,65,0,0
14207,-100,4,2,2,65,0,0
14392,-100,4,2,3,65,0,0
14577,-100,4,2,5,65,0,0
14763,-100,4,2,1,65,0,0
14948,-100,4,2,3,65,0,0
15318,-100,4,2,6,65,0,0
15503,-100,4,2,3,65,0,0
15688,-100,4,2,2,65,0,0
15874,-100,4,2,4,65,0,0
16059,-66.6666666666667,4,2,5,65,0,0
16244,-66.6666666666667,4,2,7,65,0,0
16614,-66.6666666666667,4,2,1,65,0,0
16800,-66.6666666666667,4,2,2,65,0,0
16985,-133.333333333333,4,2,1,65,0,0
17170,-133.333333333333,4,2,2,65,0,0
17355,-133.333333333333,4,2,3,65,0,0
17540,-100,4,2,5,65,0,0
17726,-100,4,2,1,65,0,0
18281,-100,4,2,6,65,0,0
18466,-100,4,2,3,65,0,0
18651,-100,4,2,2,65,0,0
18837,-100,4,2,4,65,0,0
19022,-100,4,2,5,65,0,0
19207,-100,4,2,4,65,0,0
19392,-100,4,2,3,65,0,0
19577,-100,4,2,1,65,0,0
19763,-100,4,2,6,65,0,0
19948,-90.9090909090909,4,2,1,65,0,0
20133,-90.9090909090909,4,2,2,65,0,0
20318,-90.9090909090909,4,2,3,65,0,0
20503,-100,4,2,5,65,0,0
20688,-100,4,2,1,65,0,0
20874,-100,4,2,5,65,0,0
21059,-100,4,2,1,65,0,0
21244,-100,4,2,2,65,0,0
21429,-100,4,2,3,65,0,0
21614,-100,4,2,2,65,0,0
21800,-100,4,2,4,65,0,0
21985,-100,4,2,5,65,0,0
22170,-100,4,2,4,65,0,0
22355,-100,4,2,5,65,0,0
22540,-100,4,2,1,65,0,0
22726,-100,4,2,2,65,0,0
22911,-100,4,2,1,65,0,0
23096,-100,4,2,2,65,0,0
23281,-100,4,2,3,65,0,0
23466,-100,4,2,5,65,0,0
23651,-100,4,2,1,65,0,0
23837,-100,4,2,7,65,0,0
24022,-100,4,2,1,65,0,0
24207,-100,4,2,2,65,0,0
24392,-100,4,2,3,65,0,0
24577,-100,4,2,7,65,0,0
24763,-100,4,2,4,65,0,0
24948,-100,4,2,5,65,0,0
25133,-100,4,2,4,65,0,0
25318,-100,4,2,7,65,0,0
25503,-100,4,2,1,65,0,0
25688,-100,4,2,2,65,0,0
25874,-100,4,2,1,65,0,0
26059,-100,4,2,2,65,0,0
26244,-100,4,2,3,65,0,0
26429,-100,4,2,5,65,0,0
26614,-100,4,2,1,65,0,0
26800,-100,4,2,7,65,0,0
26985,-100,4,2,1,65,0,0
27170,-100,4,2,2,65,0,0
27355,-100,4,2,5,65,0,0
27726,-100,4,2,4,65,0,0
27911,-100,4,2,5,65,0,0
28096,-100,4,2,4,65,0,0
28281,-100,4,2,5,65,0,0
28466,-100,4,2,1,65,0,0
28651,-100,4,2,8,65,0,0
28837,-100,4,2,5,65,0,0
29207,-100,4,2,3,65,0,0
29392,-100,4,2,5,65,0,0
29577,-100,4,2,1,65,0,0
29763,-100,4,2,5,65,0,0
30133,-100,4,2,2,65,0,0
30318,-100,4,2,5,65,0,0
30688,-100,4,2,4,65,0,0
30874,-100,4,2,5,65,0,0
31059,-100,4,2,4,65,0,0
31244,-100,4,2,5,65,0,0
31429,-100,4,2,1,65,0,0
31614,-83.3333333333333,4,2,6,65,0,0
31800,-83.3333333333333,4,2,1,65,0,0
31985,-83.3333333333333,4,2,2,65,0,0
32170,-83.3333333333333,4,2,3,65,0,0
32355,-100,4,2,5,65,0,0
32540,-100,4,2,1,65,0,0
32726,-100,4,2,5,65,0,0
32911,-100,4,2,1,65,0,0
33096,-100,4,2,2,65,0,0
33281,-100,4,2,3,65,0,0
33466,-100,4,2,2,65,0,0
33651,-100,4,2,4,65,0,0
33837,-100,4,2,5,65,0,0
34022,-100,4,2,4,65,0,0
34207,-100,4,2,5,65,0,0
34392,-100,4,2,1,65,0,0
34577,-100,4,2,6,65,0,0
34763,-100,4,2,1,65,0,0
34948,-100,4,2,2,65,0,0
35133,-100,4,2,3,65,0,0
35318,-100,4,2,5,65,0,0
35503,-100,4,2,1,65,0,0
35688,-100,4,2,7,65,0,0
35874,-100,4,2,1,65,0,0
36059,-100,4,2,2,65,0,0
36244,-100,4,2,3,65,0,0
36429,-100,4,2,2,65,0,0
36614,-100,4,2,4,65,0,0
36800,-100,4,2,5,65,0,0
36985,-100,4,2,4,65,0,0
37170,-100,4,2,7,65,0,0
37355,-100,4,2,1,65,0,0
37540,-100,4,2,2,65,0,0
37726,-100,4,2,1,65,0,0
37911,-100,4,2,2,65,0,0
38096,-100,4,2,3,65,0,0
38281,-100,4,2,5,65,0,0
38651,-100,4,2,4,65,0,0
38744,-100,4,2,3,65,0,0
38837,-100,4,2,4,65,0,0
39577,-100,4,2,3,65,0,0
39763,-100,4,2,3,45,0,0
40874,-83.3333333333333,4,2,3,45,0,0
41244,-83.3333333333333,4,2,9,80,0,1
41614,-83.3333333333333,4,2,4,80,0,1
41985,-83.3333333333333,4,2,7,80,0,1
42170,-83.3333333333333,4,2,3,80,0,1
42540,-83.3333333333333,4,2,4,80,0,1
42726,-83.3333333333333,4,2,2,80,0,1
42911,-83.3333333333333,4,2,4,80,0,1
43096,-83.3333333333333,4,2,3,80,0,1
43281,-83.3333333333333,4,2,1,80,0,1
43466,-83.3333333333333,4,2,8,80,0,1
43651,-83.3333333333333,4,2,3,80,0,1
43837,-83.3333333333333,4,2,2,80,0,1
44022,-83.3333333333333,4,2,4,80,0,1
44207,-83.3333333333333,4,2,9,80,0,1
44392,-83.3333333333333,4,2,1,80,0,1
44577,-83.3333333333333,4,2,10,80,0,1
44763,-83.3333333333333,4,2,1,80,0,1
44948,-83.3333333333333,4,2,7,80,0,1
45133,-83.3333333333333,4,2,3,80,0,1
45318,-83.3333333333333,4,2,10,80,0,1
45503,-83.3333333333333,4,2,4,80,0,1
45688,-83.3333333333333,4,2,2,80,0,1
45874,-83.3333333333333,4,2,4,80,0,1
46059,-83.3333333333333,4,2,5,80,0,1
46244,-83.3333333333333,4,2,1,80,0,1
46429,-83.3333333333333,4,2,7,80,0,1
46614,-83.3333333333333,4,2,3,80,0,1
46800,-83.3333333333333,4,2,2,80,0,1
46985,-83.3333333333333,4,2,3,80,0,1
47170,-83.3333333333333,4,2,11,80,0,1
47540,-83.3333333333333,4,2,4,80,0,1
47911,-83.3333333333333,4,2,7,80,0,1
48096,-83.3333333333333,4,2,3,80,0,1
48466,-83.3333333333333,4,2,4,80,0,1
48651,-83.3333333333333,4,2,2,80,0,1
48837,-83.3333333333333,4,2,4,80,0,1
49022,-83.3333333333333,4,2,3,80,0,1
49207,-83.3333333333333,4,2,1,80,0,1
49392,-83.3333333333333,4,2,8,80,0,1
49577,-100,4,2,3,80,0,1
49763,-100,4,2,2,80,0,1
49948,-100,4,2,4,80,0,1
50133,-100,4,2,9,80,0,1
50318,-100,4,2,1,80,0,1
50503,-83.3333333333333,4,2,10,80,0,1
50688,-83.3333333333333,4,2,1,80,0,1
50874,-83.3333333333333,4,2,7,80,0,1
51059,-83.3333333333333,4,2,3,80,0,1
51244,-83.3333333333333,4,2,10,80,0,1
51429,-83.3333333333333,4,2,4,80,0,1
51614,-83.3333333333333,4,2,2,80,0,1
51800,-90.9090909090909,4,2,4,80,0,1
51985,-90.9090909090909,4,2,5,80,0,1
52170,-90.9090909090909,4,2,1,80,0,1
52355,-83.3333333333333,4,2,7,80,0,1
52540,-83.3333333333333,4,2,3,80,0,1
52726,-83.3333333333333,4,2,2,80,0,1
52911,-83.3333333333333,4,2,3,80,0,1
53096,-83.3333333333333,4,2,12,80,0,1
53281,-83.3333333333333,4,2,1,80,0,1
53466,-83.3333333333333,4,2,2,80,0,1
53837,-111.111111111111,4,2,7,80,0,1
54022,-111.111111111111,4,2,3,80,0,1
54392,-90.9090909090909,4,2,2,80,0,1
54948,-90.9090909090909,4,2,5,80,0,1
55133,-83.3333333333333,4,2,1,80,0,1
55318,-83.3333333333333,4,2,8,80,0,1
55503,-83.3333333333333,4,2,5,80,0,1
55874,-83.3333333333333,4,2,2,80,0,1
56059,-83.3333333333333,4,2,12,80,0,1
56244,-83.3333333333333,4,2,1,80,0,1
56429,-83.3333333333333,4,2,10,80,0,1
56614,-83.3333333333333,4,2,1,80,0,1
56800,-100,4,2,7,80,0,1
56985,-100,4,2,5,80,0,1
57355,-100,4,2,2,80,0,1
57540,-83.3333333333333,4,2,2,80,0,1
57911,-83.3333333333333,4,2,5,80,0,1
58096,-90.9090909090909,4,2,1,80,0,1
58281,-90.9090909090909,4,2,8,80,0,1
58466,-90.9090909090909,4,2,3,80,0,1
58651,-90.9090909090909,4,2,2,80,0,1
58837,-90.9090909090909,4,2,3,80,0,1
59022,-83.3333333333333,4,2,13,80,0,1
59207,-83.3333333333333,4,2,1,80,0,1
59392,-90.9090909090909,4,2,10,80,0,1
59763,-90.9090909090909,4,2,7,80,0,1
59948,-90.9090909090909,4,2,3,80,0,1
60318,-90.9090909090909,4,2,4,80,0,1
60874,-90.9090909090909,4,2,3,80,0,1
61059,-90.9090909090909,4,2,1,80,0,1
61244,-90.9090909090909,4,2,7,80,0,1
61429,-90.9090909090909,4,2,3,80,0,1
61800,-90.9090909090909,4,2,4,80,0,1
61985,-90.9090909090909,4,2,9,80,0,1
62170,-90.9090909090909,4,2,1,80,0,1
62355,-90.9090909090909,4,2,6,80,0,1
62540,-90.9090909090909,4,2,1,80,0,1
62726,-90.9090909090909,4,2,8,80,0,1
62911,-90.9090909090909,4,2,5,80,0,1
63281,-90.9090909090909,4,2,4,80,0,1
63837,-90.9090909090909,4,2,3,80,0,1
64022,-90.9090909090909,4,2,8,80,0,1
64392,-90.9090909090909,4,2,3,80,0,1
64577,-90.9090909090909,4,2,2,80,0,1
64670,-90.9090909090909,4,2,3,80,0,1
64948,-285.714285714284,4,2,3,45,0,0
65596,-285.714285714284,4,2,3,5,0,0
65688,-285.714285714284,4,2,3,45,0,0
66244,-285.714285714284,4,2,3,5,0,0
67355,-125,4,2,3,45,0,0
67818,-125,4,2,3,5,0,0
67911,-200,4,2,3,45,0,0
68559,-200,4,2,3,5,0,0
68651,-222.222222222222,4,2,3,45,0,0
69207,-222.222222222222,4,2,3,5,0,0
70318,-153.846153846154,4,2,3,45,0,0
70781,-153.846153846154,4,2,3,5,0,0
70874,-222.222222222222,4,2,3,45,0,0
71522,-222.222222222222,4,2,3,5,0,0
71614,-400,4,2,3,45,0,0
72170,-400,4,2,3,5,0,0
72355,-153.846153846154,4,2,3,45,0,0
73188,-153.846153846154,4,2,3,5,0,0
73281,-222.222222222223,4,2,3,45,0,0
73744,-222.222222222223,4,2,3,5,0,0
73837,-222.222222222223,4,2,3,45,0,0
74577,-153.846153846154,4,2,3,45,0,0
74948,-105.263157894737,4,2,3,45,0,0
75318,-105.263157894737,4,2,14,55,0,0
75503,-105.263157894737,4,2,7,55,0,0
75688,-105.263157894737,4,2,8,55,0,0
75874,-105.263157894737,4,2,9,55,0,0
76059,-105.263157894737,4,2,8,55,0,0
76244,-105.263157894737,4,2,1,55,0,0
76429,-105.263157894737,4,2,7,55,0,0
76614,-105.263157894737,4,2,10,55,0,0
76800,-105.263157894737,4,2,5,65,0,0
76985,-105.263157894737,4,2,1,65,0,0
77170,-86.9565217391306,4,2,5,65,0,0
77355,-86.9565217391306,4,2,1,65,0,0
77540,-80,4,2,6,65,0,0
77726,-80,4,2,3,65,0,0
77911,-80,4,2,2,65,0,0
78096,-80,4,2,4,65,0,0
78281,-105.263157894737,4,2,5,65,0,0
78466,-105.263157894737,4,2,4,65,0,0
78651,-105.263157894737,4,2,5,65,0,0
78837,-105.263157894737,4,2,1,65,0,0
79022,-105.263157894737,4,2,6,65,0,0
79207,-104.166666666667,4,2,1,65,0,0
79392,-131.578947368421,4,2,2,65,0,0
79577,-131.578947368421,4,2,3,65,0,0
79670,-131.578947368421,4,2,3,5,0,0
79763,-105.263157894737,4,2,5,65,0,0
79948,-105.263157894737,4,2,1,65,0,0
80133,-105.263157894737,4,2,5,65,0,0
80318,-105.263157894737,4,2,1,65,0,0
80503,-105.263157894737,4,2,2,65,0,0
80688,-105.263157894737,4,2,3,65,0,0
80874,-105.263157894737,4,2,2,65,0,0
81059,-105.263157894737,4,2,4,65,0,0
81244,-105.263157894737,4,2,5,65,0,0
81429,-105.263157894737,4,2,4,65,0,0
81614,-105.263157894737,4,2,5,65,0,0
81800,-105.263157894737,4,2,1,65,0,0
81985,-105.263157894737,4,2,6,65,0,0
82170,-105.263157894737,4,2,1,65,0,0
82355,-105.263157894737,4,2,2,65,0,0
82540,-105.263157894737,4,2,3,65,0,0
82726,-105.263157894737,4,2,5,65,0,0
82911,-105.263157894737,4,2,1,65,0,0
83096,-105.263157894737,4,2,7,65,0,0
83281,-105.263157894737,4,2,1,65,0,0
83466,-105.263157894737,4,2,2,65,0,0
83651,-105.263157894737,4,2,3,65,0,0
83837,-105.263157894737,4,2,7,65,0,0
84022,-105.263157894737,4,2,4,65,0,0
84207,-105.263157894737,4,2,5,65,0,0
84392,-105.263157894737,4,2,4,65,0,0
84577,-105.263157894737,4,2,7,65,0,0
84763,-105.263157894737,4,2,1,65,0,0
84948,-105.263157894737,4,2,2,65,0,0
85040,-105.263157894737,4,2,1,65,0,0
85318,-105.263157894737,4,2,2,65,0,0
85503,-105.263157894737,4,2,3,65,0,0
85688,-105.263157894737,4,2,5,65,0,0
85874,-105.263157894737,4,2,4,65,0,0
86059,-105.263157894737,4,2,7,65,0,0
86151,-105.263157894737,4,2,3,65,0,0
86244,-105.263157894737,4,2,4,65,0,0
86429,-105.263157894737,4,2,15,65,0,0
86614,-105.263157894737,4,2,4,65,0,0
86800,-105.263157894737,4,2,2,65,0,0
86985,-105.263157894737,4,2,3,65,0,0
87170,-105.263157894737,4,2,1,45,0,0
88281,-71.4285714285714,4,2,1,45,0,1
88559,-71.4285714285714,4,2,1,5,0,1
88651,-83.3333333333333,4,2,9,80,0,1
89022,-83.3333333333333,4,2,4,80,0,1
89392,-83.3333333333333,4,2,7,80,0,1
89577,-83.3333333333333,4,2,3,80,0,1
89948,-83.3333333333333,4,2,4,80,0,1
90133,-83.3333333333333,4,2,2,80,0,1
90318,-83.3333333333333,4,2,4,80,0,1
90503,-83.3333333333333,4,2,3,80,0,1
90688,-83.3333333333333,4,2,1,80,0,1
90874,-83.3333333333333,4,2,8,80,0,1
91059,-83.3333333333333,4,2,3,80,0,1
91244,-83.3333333333333,4,2,2,80,0,1
91429,-83.3333333333333,4,2,4,80,0,1
91614,-83.3333333333333,4,2,9,80,0,1
91800,-83.3333333333333,4,2,1,80,0,1
91985,-83.3333333333333,4,2,10,80,0,1
92170,-83.3333333333333,4,2,1,80,0,1
92355,-83.3333333333333,4,2,7,80,0,1
92540,-83.3333333333333,4,2,3,80,0,1
92726,-83.3333333333333,4,2,10,80,0,1
92911,-83.3333333333333,4,2,4,80,0,1
93096,-83.3333333333333,4,2,2,80,0,1
93281,-83.3333333333333,4,2,4,80,0,1
93466,-83.3333333333333,4,2,5,80,0,1
93651,-83.3333333333333,4,2,1,80,0,1
93837,-83.3333333333333,4,2,7,80,0,1
94022,-83.3333333333333,4,2,3,80,0,1
94207,-83.3333333333333,4,2,2,80,0,1
94392,-83.3333333333333,4,2,3,80,0,1
94577,-83.3333333333333,4,2,11,80,0,1
94948,-83.3333333333333,4,2,4,80,0,1
95318,-83.3333333333333,4,2,7,80,0,1
95503,-83.3333333333333,4,2,3,80,0,1
95874,-83.3333333333333,4,2,4,80,0,1
96059,-83.3333333333333,4,2,2,80,0,1
96244,-83.3333333333333,4,2,4,80,0,1
96429,-83.3333333333333,4,2,3,80,0,1
96614,-83.3333333333333,4,2,1,80,0,1
96800,-83.3333333333333,4,2,8,80,0,1
96985,-100,4,2,3,80,0,1
97170,-100,4,2,2,80,0,1
97355,-100,4,2,4,80,0,1
97540,-100,4,2,9,80,0,1
97726,-100,4,2,1,80,0,1
97911,-100,4,2,10,80,0,1
98096,-100,4,2,1,80,0,1
98281,-83.3333333333333,4,2,7,80,0,1
98466,-83.3333333333333,4,2,3,80,0,1
98651,-83.3333333333333,4,2,10,80,0,1
98837,-83.3333333333333,4,2,4,80,0,1
99022,-83.3333333333333,4,2,2,80,0,1
99207,-83.3333333333333,4,2,4,80,0,1
99392,-83.3333333333333,4,2,5,80,0,1
99577,-83.3333333333333,4,2,1,80,0,1
99763,-83.3333333333333,4,2,7,80,0,1
99948,-83.3333333333333,4,2,3,80,0,1
100133,-83.3333333333333,4,2,2,80,0,1
100318,-83.3333333333333,4,2,3,80,0,1
100503,-76.9230769230769,4,2,12,80,0,1
100688,-76.9230769230769,4,2,1,80,0,1
100874,-76.9230769230769,4,2,2,80,0,1
101244,-111.111111111111,4,2,7,80,0,1
101429,-111.111111111111,4,2,3,80,0,1
101800,-111.111111111111,4,2,2,80,0,1
101985,-90.9090909090908,4,2,2,80,0,1
102355,-90.9090909090908,4,2,5,80,0,1
102540,-90.9090909090908,4,2,1,80,0,1
102726,-90.9090909090908,4,2,8,80,0,1
102911,-83.3333333333333,4,2,5,80,0,1
103281,-83.3333333333333,4,2,2,80,0,1
103466,-90.9090909090909,4,2,12,80,0,1
103651,-90.9090909090909,4,2,1,80,0,1
103837,-100,4,2,10,80,0,1
104022,-100,4,2,1,80,0,1
104207,-100,4,2,7,80,0,1
104392,-100,4,2,5,80,0,1
104763,-100,4,2,2,80,0,1
104948,-83.3333333333333,4,2,2,80,0,1
105318,-83.3333333333333,4,2,5,80,0,1
105503,-100,4,2,1,80,0,1
105688,-100,4,2,8,80,0,1
105874,-100,4,2,3,80,0,1
106059,-100,4,2,2,80,0,1
106244,-100,4,2,3,80,0,1
106429,-100,4,2,13,80,0,1
106614,-100,4,2,1,80,0,1
106800,-83.3333333333333,4,2,10,80,0,1
107170,-90.9090909090909,4,2,7,80,0,1
107355,-90.9090909090909,4,2,3,80,0,1
107726,-90.9090909090909,4,2,4,80,0,1
108281,-90.9090909090909,4,2,3,80,0,1
108466,-90.9090909090909,4,2,1,80,0,1
108651,-90.9090909090909,4,2,7,80,0,1
108837,-90.9090909090909,4,2,3,80,0,1
109207,-90.9090909090909,4,2,4,80,0,1
109392,-83.3333333333333,4,2,9,80,0,1
109577,-83.3333333333333,4,2,1,80,0,1
109763,-90.9090909090909,4,2,6,80,0,1
109948,-90.9090909090909,4,2,8,80,0,1
110318,-90.9090909090909,4,2,3,80,0,1
110503,-90.9090909090909,4,2,10,80,0,1
110688,-50,4,2,4,80,0,0
110874,-50,4,2,11,80,0,0
111059,-83.3333333333333,4,2,2,80,0,0
111244,-83.3333333333333,4,2,8,80,0,0
111429,-83.3333333333333,4,2,9,80,0,0
111614,-83.3333333333333,4,2,1,80,0,0
111985,-83.3333333333333,4,2,2,80,0,0
112170,-83.3333333333333,4,2,3,80,0,0
112263,-83.3333333333333,4,2,3,80,0,0
112355,-83.3333333333333,4,2,13,80,0,1
112540,-83.3333333333333,4,2,1,80,0,1
112726,-83.3333333333333,4,2,6,80,0,1
113096,-83.3333333333333,4,2,7,80,0,1
113281,-83.3333333333333,4,2,3,80,0,1
113651,-83.3333333333333,4,2,4,80,0,1
114022,-100,4,2,4,80,0,1
114207,-100,4,2,3,80,0,1
114392,-100,4,2,1,80,0,1
114577,-100,4,2,7,80,0,1
114763,-83.3333333333333,4,2,3,80,0,1
115133,-83.3333333333333,4,2,4,80,0,1
115318,-83.3333333333333,4,2,9,80,0,1
115503,-83.3333333333333,4,2,1,80,0,1
115688,-83.3333333333333,4,2,6,80,0,1
115874,-83.3333333333333,4,2,1,80,0,1
116059,-83.3333333333333,4,2,8,80,0,1
116244,-83.3333333333333,4,2,5,80,0,1
116614,-83.3333333333333,4,2,4,80,0,1
116985,-83.3333333333333,4,2,3,80,0,1
117170,-142.857142857143,4,2,3,80,0,1
117540,-142.857142857143,4,2,8,80,0,1
117726,-111.111111111111,4,2,5,80,0,1
118096,-111.111111111111,4,2,16,80,0,1
118188,-111.111111111111,4,2,16,5,0,1
118281,-142.857142857143,4,2,16,45,0,0
120318,-111.111111111111,4,2,16,45,0,0
121244,-142.857142857143,4,2,16,45,0,0
123466,-111.111111111111,4,2,16,45,0,0
124207,-142.857142857143,4,2,16,45,0,0
125688,-153.846153846154,4,2,16,45,0,0
126429,-111.111111111111,4,2,16,45,0,0
127170,-142.857142857143,4,2,16,45,0,0
128837,-142.857142857143,4,2,16,45,0,0
129392,-111.111111111111,4,2,16,45,0,0
130133,-125,4,2,16,50,0,0
131614,-166.666666666667,4,2,16,50,0,0
132170,-133.333333333333,4,2,16,50,0,0
132726,-111.111111111111,4,2,16,50,0,0
136059,-133.333333333333,4,2,17,55,0,0
136800,-133.333333333333,4,2,18,55,0,0
137170,-133.333333333333,4,2,1,55,0,0
137540,-133.333333333333,4,2,17,55,0,0
137726,-133.333333333333,4,2,1,55,0,0
138281,-133.333333333333,4,2,19,55,0,0
138651,-133.333333333333,4,2,17,55,0,0
138837,-133.333333333333,4,2,1,55,0,0
139022,-133.333333333333,4,2,17,55,0,0
139207,-133.333333333333,4,2,1,55,0,0
139763,-133.333333333333,4,2,19,55,0,0
139948,-133.333333333333,4,2,1,55,0,0
140503,-133.333333333333,4,2,17,55,0,0
140688,-133.333333333333,4,2,1,55,0,0
141244,-133.333333333333,4,2,18,55,0,0
141429,-133.333333333333,4,2,1,55,0,0
141614,-133.333333333333,4,2,17,55,0,0
141800,-133.333333333333,4,2,1,55,0,0
141985,-117.647058823529,4,2,17,60,0,0
142170,-117.647058823529,4,2,1,60,0,0
142726,-117.647058823529,4,2,19,60,0,0
142911,-117.647058823529,4,2,1,60,0,0
143096,-117.647058823529,4,2,17,60,0,0
143281,-117.647058823529,4,2,1,60,0,0
143466,-117.647058823529,4,2,17,60,0,0
143651,-117.647058823529,4,2,1,60,0,0
144207,-117.647058823529,4,2,19,60,0,0
144392,-117.647058823529,4,2,1,60,0,0
144577,-117.647058823529,4,2,17,60,0,0
144763,-117.647058823529,4,2,1,60,0,0
144948,-117.647058823529,4,2,17,65,0,0
145133,-117.647058823529,4,2,1,65,0,0
145688,-117.647058823529,4,2,19,65,0,0
145874,-117.647058823529,4,2,1,65,0,0
146059,-117.647058823529,4,2,17,65,0,0
146244,-117.647058823529,4,2,1,65,0,0
146429,-117.647058823529,4,2,17,65,0,0
146614,-117.647058823529,4,2,1,65,0,0
147170,-105.263157894737,4,2,19,65,0,0
147355,-105.263157894737,4,2,1,65,0,0
147540,-105.263157894737,4,2,17,65,0,0
147726,-105.263157894737,4,2,1,65,0,0
147911,-100,4,2,14,70,0,0
148096,-100,4,2,9,70,0,0
148281,-100,4,2,14,70,0,0
148466,-100,4,2,9,70,0,0
148651,-100,4,2,14,70,0,0
148837,-100,4,2,1,70,0,0
149022,-100,4,2,14,70,0,0
149207,-76.9230769230769,4,2,9,70,0,0
149392,-76.9230769230769,4,2,14,75,0,0
149577,-76.9230769230769,4,2,12,75,0,0
149763,-76.9230769230769,4,2,14,75,0,0
149948,-76.9230769230769,4,2,12,75,0,0
150133,-76.9230769230769,4,2,14,75,0,0
150318,-76.9230769230769,4,2,12,75,0,0
150503,-76.9230769230769,4,2,14,75,0,0
150688,-76.9230769230769,4,2,12,75,0,0
150874,-76.9230769230769,4,2,14,80,0,0
150966,-76.9230769230769,4,2,4,80,0,0
151059,-76.9230769230769,4,2,9,80,0,0
151151,-76.9230769230769,4,2,1,80,0,0
151244,-76.9230769230769,4,2,14,80,0,0
151337,-76.9230769230769,4,2,4,80,0,0
151429,-76.9230769230769,4,2,9,80,0,0
151522,-76.9230769230769,4,2,1,80,0,0
151614,-76.9230769230769,4,2,14,80,0,0
151707,-76.9230769230769,4,2,4,80,0,0
151800,-76.9230769230769,4,2,9,80,0,0
151892,-76.9230769230769,4,2,1,80,0,0
151985,-76.9230769230769,4,2,14,80,0,0
152077,-76.9230769230769,4,2,4,80,0,0
152170,-76.9230769230769,4,2,9,80,0,0
152263,-76.9230769230769,4,2,1,80,0,0
152355,-76.9230769230769,4,2,14,81,0,0
152448,-76.9230769230769,4,2,14,82,0,0
152540,-76.9230769230769,4,2,14,83,0,0
152633,-76.9230769230769,4,2,14,84,0,0
152818,-76.9230769230769,4,2,14,85,0,0
152911,-76.9230769230769,4,2,14,86,0,0
153003,-76.9230769230769,4,2,14,87,0,0
153096,-76.9230769230769,4,2,14,88,0,0
153188,-76.9230769230769,4,2,14,89,0,0
153281,-76.9230769230769,4,2,14,90,0,0
153374,-76.9230769230769,4,2,14,91,0,0
153466,-76.9230769230769,4,2,14,92,0,0
153559,-76.9230769230769,4,2,14,93,0,0
153651,-76.9230769230769,4,2,14,94,0,0
153744,-76.9230769230769,4,2,14,95,0,0
153837,-181.818181818182,4,2,3,85,0,0
154577,-181.818181818182,4,2,3,55,0,0
155318,-133.333333333333,4,2,3,55,0,0
159763,-181.818181818181,4,2,3,55,0,0
161429,-133.333333333333,4,2,3,55,0,0
164207,-133.333333333333,4,2,4,70,0,0
164392,-76.9230769230769,4,2,16,70,0,0
164948,-76.9230769230769,4,2,4,70,0,0
165133,-100,4,2,16,70,0,0
165688,-83.3333333333333,4,2,20,80,0,1
165874,-83.3333333333333,4,2,1,80,0,1
166059,-83.3333333333333,4,2,2,80,0,1
166429,-100,4,2,7,80,0,1
166614,-100,4,2,3,80,0,1
166985,-100,4,2,2,80,0,1
167170,-90.9090909090909,4,2,2,80,0,1
167540,-90.9090909090909,4,2,5,80,0,1
167726,-90.9090909090909,4,2,1,80,0,1
167911,-90.9090909090909,4,2,8,80,0,1
168096,-83.3333333333333,4,2,5,80,0,1
168466,-83.3333333333333,4,2,2,80,0,1
168651,-83.3333333333333,4,2,12,80,0,1
168837,-83.3333333333333,4,2,1,80,0,1
169022,-83.3333333333333,4,2,10,80,0,1
169207,-83.3333333333333,4,2,1,80,0,1
169392,-100,4,2,7,80,0,1
169577,-100,4,2,5,80,0,1
169948,-100,4,2,2,80,0,1
170133,-83.3333333333333,4,2,2,80,0,1
170503,-83.3333333333333,4,2,5,80,0,1
170688,-83.3333333333333,4,2,1,80,0,1
170874,-83.3333333333333,4,2,8,80,0,1
171059,-83.3333333333333,4,2,3,80,0,1
171244,-83.3333333333333,4,2,2,80,0,1
171429,-83.3333333333333,4,2,3,80,0,1
171614,-83.3333333333333,4,2,13,80,0,1
171800,-83.3333333333333,4,2,1,80,0,1
171985,-100,4,2,10,80,0,1
172355,-83.3333333333333,4,2,7,80,0,1
172540,-83.3333333333333,4,2,3,80,0,1
172911,-83.3333333333333,4,2,4,80,0,1
173466,-90.9090909090909,4,2,3,80,0,1
173651,-90.9090909090909,4,2,1,80,0,1
173837,-90.9090909090909,4,2,7,80,0,1
174022,-90.9090909090909,4,2,3,80,0,1
174392,-90.9090909090909,4,2,4,80,0,1
174577,-76.9230769230769,4,2,9,80,0,1
174763,-76.9230769230769,4,2,1,80,0,1
174948,-76.9230769230769,4,2,6,80,0,1
175133,-76.9230769230769,4,2,8,80,0,1
175318,-83.3333333333333,4,2,8,80,0,1
175503,-83.3333333333333,4,2,3,80,0,1
175688,-83.3333333333333,4,2,10,80,0,1
175874,-83.3333333333333,4,2,4,80,0,1
176244,-83.3333333333333,4,2,2,80,0,1
176429,-83.3333333333333,4,2,8,80,0,1
176614,-83.3333333333333,4,2,9,80,0,1
176800,-83.3333333333333,4,2,1,80,0,1
177170,-83.3333333333333,4,2,2,80,0,1
177355,-83.3333333333333,4,2,3,80,0,1
177540,-71.4285714285714,4,2,13,80,0,1
177726,-71.4285714285714,4,2,1,80,0,1
177911,-83.3333333333333,4,2,6,80,0,1
178281,-83.3333333333333,4,2,7,80,0,1
178466,-83.3333333333333,4,2,3,80,0,1
178837,-83.3333333333333,4,2,4,80,0,1
179392,-83.3333333333333,4,2,3,80,0,1
179577,-83.3333333333333,4,2,1,80,0,1
179763,-83.3333333333333,4,2,7,80,0,1
179948,-83.3333333333333,4,2,3,80,0,1
180318,-83.3333333333333,4,2,4,80,0,1
180503,-83.3333333333333,4,2,9,80,0,1
180688,-83.3333333333333,4,2,1,80,0,1
180874,-83.3333333333333,4,2,6,80,0,1
181059,-83.3333333333333,4,2,1,80,0,1
181244,-83.3333333333333,4,2,8,80,0,1
181429,-83.3333333333333,4,2,5,80,0,1
181800,-83.3333333333333,4,2,4,80,0,1
181985,-83.3333333333333,4,2,21,80,0,1
182170,-83.3333333333333,4,2,5,80,0,1
182355,-83.3333333333333,4,2,3,80,0,1
182540,-83.3333333333333,4,2,6,80,0,1
182726,-83.3333333333333,4,2,2,80,0,1
182911,-83.3333333333333,4,2,11,80,0,1
183096,-83.3333333333333,4,2,15,80,0,1
183281,-83.3333333333333,4,2,8,80,0,0
183466,-83.3333333333333,4,2,22,80,0,1
183837,-83.3333333333333,4,2,4,80,0,1
184207,-83.3333333333333,4,2,7,80,0,1
184392,-83.3333333333333,4,2,3,80,0,1
184763,-83.3333333333333,4,2,4,80,0,1
184948,-83.3333333333333,4,2,2,80,0,1
185133,-83.3333333333333,4,2,4,80,0,1
185318,-83.3333333333333,4,2,3,80,0,1
185503,-83.3333333333333,4,2,1,80,0,1
185688,-83.3333333333333,4,2,8,80,0,1
185874,-83.3333333333333,4,2,3,80,0,1
186059,-83.3333333333333,4,2,2,80,0,1
186244,-83.3333333333333,4,2,4,80,0,1
186429,-83.3333333333333,4,2,2,80,0,1
186614,-83.3333333333333,4,2,4,80,0,1
187170,-83.3333333333333,4,2,7,80,0,1
187355,-83.3333333333333,4,2,3,80,0,1
187726,-83.3333333333333,4,2,4,80,0,1
187911,-83.3333333333333,4,2,2,80,0,1
188096,-83.3333333333333,4,2,4,80,0,1
188281,-83.3333333333333,4,2,3,80,0,1
188466,-83.3333333333333,4,2,1,80,0,1
188651,-83.3333333333333,4,2,7,80,0,1
188837,-83.3333333333333,4,2,3,80,0,1
189022,-83.3333333333333,4,2,6,80,0,1
189207,-83.3333333333333,4,2,3,80,0,1
189392,-90.9090909090909,4,2,2,80,0,1
189763,-83.3333333333333,4,2,4,80,0,1
190133,-83.3333333333333,4,2,7,80,0,1
190318,-83.3333333333333,4,2,3,80,0,1
190688,-83.3333333333333,4,2,4,80,0,1
190874,-83.3333333333333,4,2,2,80,0,1
191059,-83.3333333333333,4,2,4,80,0,1
191244,-83.3333333333333,4,2,3,80,0,1
191429,-83.3333333333333,4,2,1,80,0,1
191614,-83.3333333333333,4,2,7,80,0,1
191800,-83.3333333333333,4,2,3,80,0,1
191985,-83.3333333333333,4,2,2,80,0,1
192170,-83.3333333333333,4,2,4,80,0,1
192355,-83.3333333333333,4,2,2,80,0,1
192726,-71.4285714285714,4,2,4,80,0,1
193096,-83.3333333333333,4,2,7,80,0,1
193281,-83.3333333333333,4,2,3,80,0,1
193466,-83.3333333333333,4,2,2,80,0,1
193651,-83.3333333333333,4,2,4,80,0,1
193837,-83.3333333333333,4,2,2,80,0,1
194207,-83.3333333333333,4,2,5,80,0,1
194392,-83.3333333333333,4,2,1,80,0,1
194577,-83.3333333333333,4,2,8,80,0,1
194763,-83.3333333333333,4,2,3,80,0,1
194948,-83.3333333333333,4,2,2,80,0,1
195133,-83.3333333333333,4,2,3,80,0,1
195318,-83.3333333333333,4,2,2,70,0,1
195688,-71.4285714285714,4,2,3,70,0,1
196059,-83.3333333333333,4,2,7,70,0,1
196244,-83.3333333333333,4,2,1,70,0,1
196429,-83.3333333333333,4,2,2,70,0,1
196614,-83.3333333333333,4,2,4,70,0,1
196800,-83.3333333333333,4,2,2,70,0,1
196985,-83.3333333333333,4,2,4,70,0,1
197170,-83.3333333333333,4,2,3,70,0,1
197355,-83.3333333333333,4,2,1,70,0,1
197540,-83.3333333333333,4,2,8,70,0,1
197726,-83.3333333333333,4,2,3,70,0,1
197911,-83.3333333333333,4,2,2,70,0,1
198096,-83.3333333333333,4,2,4,70,0,1
198281,-83.3333333333333,4,2,5,65,0,0
198651,-133.333333333333,4,2,1,65,0,0
199022,-133.333333333333,4,2,23,65,0,0
199392,-133.333333333333,4,2,1,65,0,0
200503,-133.333333333333,4,2,23,65,0,0
200874,-133.333333333333,4,2,1,65,0,0
201985,-133.333333333333,4,2,9,45,0,0

[Colours]
Combo1 : 193,193,193
Combo2 : 220,153,234
Combo3 : 168,125,219
Combo4 : 154,156,175

[HitObjects]
165,113,226,5,8,2:2:0:0:
257,193,966,1,8,2:2:0:0:
347,271,1707,1,8,2:2:0:0:
347,271,5133,5,2,2:2:0:0:
417,244,5318,1,2,2:2:0:0:
464,302,5503,1,2,2:2:0:0:
300,213,5689,6,0,B|209:188|259:149|165:124,1,165,6|2,1:2|2:2,0:0:0:0:
166,124,6244,1,2,2:2:0:0:
70,165,6429,2,0,P|86:129|101:88,1,82.5,10|10,2:2|2:2,0:0:0:0:
101,88,6800,1,2,2:2:0:0:
260,281,6985,5,10,2:2:0:0:
368,188,7170,1,10,2:2:0:0:
395,328,7355,1,10,2:2:0:0:
147,244,7540,6,0,P|185:229|223:212,1,82.5,2|2,1:2|1:2,0:0:0:0:
426,137,7911,1,10,2:2:0:0:
368,188,8096,6,0,B|343:97|304:147|279:53,1,165,0|10,1:1|2:2,0:0:0:0:
477,82,8651,2,0,P|505:125|490:172,1,82.5,2|2,1:2|1:2,0:0:0:0:
359,45,9022,2,0,P|402:17|449:32,1,82.5,2|2,1:2|2:2,0:0:0:0:
186,309,9392,5,10,2:2:0:0:
149,244,9577,2,0,P|108:200|46:194,1,123.75,10|0,2:2|0:0,0:0:0:0:
47,193,9948,1,8,2:2:0:0:
45,353,10133,5,10,2:2:0:0:
260,281,10318,1,10,2:2:0:0:
87,127,10503,1,2,1:3:0:0:
91,131,10688,1,2,1:2:0:0:
317,341,10874,5,10,2:2:0:0:
395,328,11059,2,0,P|413:274|509:213,1,165,2|10,1:2|2:2,0:0:0:0:
327,132,11614,6,0,P|337:171|371:192,1,82.5,2|2,1:2|1:2,0:0:0:0:
436,149,11985,2,0,P|426:109|392:88,1,82.5,2|2,2:2|2:2,0:0:0:0:
110,29,12355,5,10,2:2:0:0:
91,131,12540,1,10,2:2:0:0:
191,98,12726,5,2,2:2:0:0:
12,66,12911,1,10,2:2:0:0:
193,272,13096,6,0,P|180:233|165:188,1,82.5,10|10,2:2|2:2,0:0:0:0:
0,253,13466,1,2,1:2:0:0:
0,253,13651,1,2,1:2:0:0:
266,163,13837,5,10,2:2:0:0:
75,284,14022,2,0,B|161:307|117:349|208:372,1,165,2|10,1:2|2:2,0:0:0:0:
208,372,14485,1,8,2:2:0:0:
208,372,14577,1,2,1:2:0:0:
431,260,14855,5,2,2:2:0:0:
431,260,14948,2,0,B|471:245|458:228|501:213,1,82.5,2|2,1:3|2:2,0:0:0:0:
190,98,15318,5,10,2:2:0:0:
285,65,15503,1,10,2:2:0:0:
266,163,15688,1,2,2:2:0:0:
207,0,15874,1,10,2:2:0:0:
464,69,16059,5,10,2:2:0:0:
174,200,16244,1,8,2:2:0:0:
464,69,16429,6,0,P|405:85|363:130,1,123.750004720688,2|0,1:2|1:1,0:0:0:0:
249,375,16800,1,10,2:2:0:0:
201,314,16985,6,0,P|171:260|173:199,1,123.750004720688,2|10,1:2|2:2,0:0:0:0:
279,302,17448,1,8,2:2:0:0:
285,304,17540,2,0,P|325:337|331:374,1,82.5,2|2,1:2|1:2,0:0:0:0:
52,185,17911,5,2,2:3:0:0:
52,185,18096,2,0,B|138:162|94:120|185:97,1,165,2|10,2:2|2:2,0:0:0:0:
185,96,18651,1,2,2:2:0:0:
12,45,18836,6,0,P|-5:81|1:121,1,82.5,10|10,2:2|2:2,0:0:0:0:
240,158,19207,2,0,P|279:145|319:132,1,82.5,10|2,2:2|1:3,0:0:0:0:
503,70,19577,5,2,1:2:0:0:
344,22,19763,1,10,2:2:0:0:
381,184,19948,2,0,P|422:106|503:71,1,181.500005538941,2|10,1:2|2:2,0:0:0:0:
364,264,20503,6,0,P|334:253|306:206,1,82.5,2|2,1:2|1:2,0:0:0:0:
440,240,20874,2,0,P|447:271|422:320,1,82.5,2|2,1:2|2:2,0:0:0:0:
239,157,21244,5,10,2:2:0:0:
220,245,21429,1,10,2:2:0:0:
156,185,21614,5,2,2:2:0:0:
115,360,21800,1,10,2:2:0:0:
73,213,21985,5,10,2:2:0:0:
201,333,22170,1,10,2:2:0:0:
296,309,22355,6,0,B|336:294|323:277|366:262,1,82.5,2|2,1:2|1:2,0:0:0:0:
512,192,22726,1,10,2:2:0:0:
488,307,22911,6,0,P|446:269|412:144,1,165,2|10,1:2|2:2,0:0:0:0:
296,309,23466,6,0,P|244:273|257:199,1,123.75,2|0,1:2|0:0,0:0:0:0:
243,217,23837,2,0,P|281:201|319:186,1,82.5,2|2,2:2|2:2,0:0:0:0:
474,126,24207,2,0,B|461:85|443:101|427:56,1,82.5,10|10,2:2|2:2,0:0:0:0:
360,266,24577,5,2,2:2:0:0:
253,132,24763,1,10,2:2:0:0:
169,246,24948,1,10,2:2:0:0:
253,132,25133,1,10,2:2:0:0:
169,246,25318,2,0,P|130:261|92:277,1,82.5,2|2,1:2|1:2,0:0:0:0:
199,366,25688,5,10,2:2:0:0:
124,384,25874,2,0,P|86:311|11:279,1,165,0|10,1:1|2:2,0:0:0:0:
234,294,26337,5,0,0:0:0:0:
240,296,26429,2,0,B|324:274|282:231|373:208,1,165,2|2,1:2|1:2,0:0:0:0:
445,245,26985,1,2,2:2:0:0:
474,126,27170,2,0,P|460:86|448:45,1,82.5,10|8,2:2|2:2,0:0:0:0:
304,78,27540,6,0,P|270:128|239:131,1,82.5,2|10,2:2|2:2,0:0:0:0:
87,4,27911,1,10,2:2:0:0:
304,78,28096,1,10,2:2:0:0:
227,51,28281,6,0,P|195:13|80:7,1,165,2|10,1:2|2:2,0:0:0:0:
11,158,28837,2,0,P|84:149|128:55,1,165,8|10,2:2|2:2,0:0:0:0:
219,206,29392,6,0,B|197:290|154:248|131:339,1,165,2|2,1:2|1:2,0:0:0:0:
197,380,29948,1,0,0:0:0:0:
392,211,30133,6,0,B|369:120|326:162|304:78,1,165,10|2,2:2|2:2,0:0:0:0:
489,65,30688,2,0,P|451:110|412:113,1,82.5,10|10,2:2|2:2,0:0:0:0:
253,15,31059,1,10,2:2:0:0:
191,63,31244,2,0,P|178:103|165:141,1,82.5,2|2,1:2|1:2,0:0:0:0:
8,129,31614,5,10,2:2:0:0:
129,267,31800,2,0,P|117:214|-9:127,1,197.99999395752,2|10,1:2|2:2,0:0:0:0:
199,216,32355,6,0,B|243:207|230:190|272:181,1,82.5,2|2,1:2|1:2,0:0:0:0:
80,335,32726,2,0,P|49:298|48:261,1,82.5,2|2,1:2|2:2,0:0:0:0:
205,299,33096,6,0,P|283:324|362:349,1,165,10|2,2:2|2:2,0:0:0:0:
512,267,33651,1,10,2:2:0:0:
449,224,33837,1,10,2:2:0:0:
512,142,34022,5,10,2:2:0:0:
512,142,34207,2,0,B|503:102|483:117|470:73,1,82.5,2|2,1:2|1:2,0:0:0:0:
386,181,34577,1,10,2:2:0:0:
271,335,34763,2,0,P|206:307|226:217,1,165,0|10,1:1|2:2,0:0:0:0:
335,378,35318,6,0,P|369:358|358:300,1,82.5,2|2,1:2|1:2,0:0:0:0:
161,174,35688,1,2,1:2:0:0:
234,146,35874,1,2,2:2:0:0:
69,0,36059,1,10,2:2:0:0:
172,99,36244,6,0,P|138:79|149:21,1,82.5,10|2,2:2|2:3,0:0:0:0:
241,70,36614,1,10,2:2:0:0:
94,183,36800,1,10,2:2:0:0:
220,224,36985,5,10,2:2:0:0:
60,358,37170,1,2,1:2:0:0:
60,358,37355,1,2,1:2:0:0:
26,145,37540,1,10,2:2:0:0:
107,261,37726,6,0,B|191:239|149:196|240:173,1,165,0|10,1:1|2:2,0:0:0:0:
251,172,38188,1,0,0:0:0:0:
262,170,38281,1,2,1:2:0:0:
465,274,38466,1,8,2:2:0:0:
404,333,38651,5,10,2:2:0:0:
381,299,38743,1,8,2:2:0:0:
377,258,38836,1,10,2:2:0:0:
392,220,38928,1,8,2:2:0:0:
424,194,39021,1,8,2:2:0:0:
481,357,39207,5,8,2:2:0:0:
296,235,39392,1,10,2:2:0:0:
494,135,39577,1,2,1:2:0:0:
494,135,39763,5,2,2:2:0:0:
296,235,40133,5,2,2:2:0:0:
481,357,40503,5,2,2:2:0:0:
215,212,40874,6,0,B|196:135|155:173|134:90,1,148.49999546814
236,33,41244,6,0,P|263:72|247:117,1,98.9999969787599,6|0,1:2|0:0,0:0:0:0:
65,42,41614,2,0,P|104:29|165:10,1,98.9999969787599,2|0,1:3|0:0,0:0:0:0:
436,221,41985,2,0,P|364:202|293:184,1,148.49999546814,10|0,2:2|0:0,0:0:0:0:
290,186,42355,1,2,2:3:0:0:
57,122,42540,1,10,2:2:0:0:
311,58,42726,5,2,2:2:0:0:
239,307,42911,2,0,P|228:260|214:212,1,98.9999969787599,10|2,2:2|1:3,0:0:0:0:
159,11,43281,1,2,1:2:0:0:
366,133,43466,2,0,P|400:101|397:42,1,98.9999969787599,10|10,2:2|2:2,0:0:0:0:
135,170,43837,1,2,2:2:0:0:
311,264,44022,5,10,2:2:0:0:
311,264,44114,1,0,0:0:0:0:
311,264,44207,2,0,P|356:282|402:301,1,98.9999969787599,2|2,1:2|2:2,0:0:0:0:
473,333,44577,1,2,1:2:0:0:
436,221,44763,1,2,2:2:0:0:
239,307,44948,5,10,2:2:0:0:
311,58,45133,1,10,2:2:0:0:
159,256,45318,5,2,2:2:0:0:
113,83,45503,1,10,2:2:0:0:
26,231,45688,5,2,2:2:0:0:
50,147,45874,1,10,2:2:0:0:
135,170,46059,6,0,B|184:160|165:135|221:126,1,98.9999969787599,2|0,1:2|1:1,0:0:0:0:
142,6,46429,2,0,P|105:37|113:83,1,98.9999969787599,10|8,2:2|2:2,0:0:0:0:
267,287,46800,2,0,P|228:245|256:195,1,98.9999969787599,10|8,2:2|2:2,0:0:0:0:
303,152,47170,6,0,P|374:170|446:189,1,148.49999546814,6|0,1:2|0:0,0:0:0:0:
452,192,47540,2,0,B|442:143|417:162|408:106,1,98.9999969787599,2|0,1:3|0:0,0:0:0:0:
451,16,47911,2,0,P|483:32|468:110,1,98.9999969787599,10|8,2:2|2:2,0:0:0:0:
489,90,48281,1,2,2:3:0:0:
450,283,48466,1,10,2:2:0:0:
303,152,48651,1,2,2:2:0:0:
264,345,48837,1,10,2:2:0:0:
336,262,49022,2,0,P|288:249|240:237,1,98.9999969787599,2|2,1:3|1:2,0:0:0:0:
452,192,49392,1,10,2:2:0:0:
303,152,49577,6,0,B|319:68|362:101|377:6,1,165,10|10,2:2|2:2,0:0:0:0:
377,8,50040,1,0,0:0:0:0:
377,8,50133,1,2,1:2:0:0:
235,84,50318,1,2,2:2:0:0:
167,121,50503,1,2,1:2:0:0:
167,121,50688,1,2,2:2:0:0:
74,13,50874,6,0,P|122:26|170:38,1,98.9999969787599,10|10,2:2|2:2,0:0:0:0:
435,101,51244,1,2,2:2:0:0:
512,119,51429,1,10,2:2:0:0:
240,237,51614,5,2,2:2:0:0:
166,267,51800,2,0,B|157:220|133:238|125:186,1,90.7500027694703,10|2,2:2|1:2,0:0:0:0:
305,289,52170,1,0,1:1:0:0:
230,318,52355,6,0,P|190:347|167:395,1,98.9999969787599,10|8,2:2|2:2,0:0:0:0:
380,260,52726,1,10,2:2:0:0:
87,120,52911,1,8,2:2:0:0:
314,209,53096,6,0,P|309:152|386:68,1,148.49999546814,6|0,1:2|0:0,0:0:0:0:
409,20,53466,2,0,P|443:54|434:101,1,98.9999969787599,2|0,1:2|0:0,0:0:0:0:
230,157,53837,2,0,P|158:138|86:119,1,148.49999546814,10|2,2:2|2:3,0:0:0:0:
0,95,54392,1,8,2:2:0:0:
252,78,54577,6,0,B|242:30|218:48|210:-4,1,90.7500027694703,2|8,2:2|2:2,0:0:0:0:
25,180,54948,1,2,1:2:0:0:
25,180,55133,1,2,1:2:0:0:
64,34,55318,1,10,2:2:0:0:
230,157,55503,6,0,P|181:194|161:341,1,197.99999395752,8|8,2:2|2:2,0:0:0:0:
217,368,55966,1,0,0:0:0:0:
224,375,56059,2,0,P|272:327|196:300,1,148.49999546814,2|0,1:2|0:0,0:0:0:0:
153,321,56429,2,0,B|102:330|119:354|65:365,1,98.9999969787599,2|0,1:2|1:1,0:0:0:0:
332,263,56800,6,0,P|310:183|289:103,1,165,10|2,2:2|2:3,0:0:0:0:
269,21,57355,1,8,2:2:0:0:
428,104,57540,2,0,B|380:86|401:65|351:46,1,98.9999969787599,2|8,2:2|2:2,0:0:0:0:
209,84,57911,5,2,1:2:0:0:
130,110,58096,2,0,B|83:126|102:148|59:164,1,90.7500027694703,2|10,1:2|2:2,0:0:0:0:
191,166,58466,5,8,2:2:0:0:
47,35,58651,1,10,2:2:0:0:
6,228,58837,1,8,2:2:0:0:
213,89,59022,6,0,P|266:64|372:62,1,148.49999546814,6|0,1:2|0:0,0:0:0:0:
428,104,59392,2,0,P|439:60|451:16,1,90.7500027694703,2|0,1:2|0:0,0:0:0:0:
352,289,59763,6,0,B|389:271|404:226|390:188|390:188|357:174|348:143,1,181.500005538941,10|2,2:2|2:3,0:0:0:0:
512,79,60318,1,8,2:2:0:0:
512,79,60503,1,2,2:3:0:0:
302,222,60688,1,8,2:2:0:0:
492,379,60874,2,0,P|448:367|404:355,1,90.7500027694703,2|2,1:3|1:2,0:0:0:0:
222,242,61244,5,10,2:2:0:0:
143,263,61429,2,0,P|99:274|55:286,1,90.7500027694703,10|2,2:2|2:3,0:0:0:0:
258,378,61800,5,10,2:2:0:0:
258,378,61892,1,8,2:2:0:0:
258,378,61985,2,0,P|211:354|201:298,1,90.7500027694703,2|0,1:2|1:1,0:0:0:0:
245,163,62355,2,0,B|254:119|278:134|288:85,1,90.7500027694703,2|2,1:3|1:2,0:0:0:0:
215,45,62726,2,0,P|126:21|38:-1,1,181.500005538941,10|2,2:2|2:3,0:0:0:0:
302,222,63281,1,10,2:2:0:0:
330,19,63466,5,2,2:3:0:0:
141,97,63651,1,8,2:2:0:0:
382,202,63837,1,2,1:3:0:0:
215,45,64022,1,0,1:1:0:0:
198,320,64207,5,10,2:2:0:0:
325,143,64392,1,8,2:2:0:0:
245,163,64577,1,10,2:2:0:0:
302,222,64763,1,10,2:2:0:0:
382,202,64948,6,0,B|430:192|413:165|467:154,1,101.062496915817,2|0,2:2|0:0,0:0:0:0:
360,282,65688,6,0,P|347:325|336:369,1,86.6249973564149,2|0,2:2|0:0,0:0:0:0:
337,365,67355,6,0,B|311:350|280:363|280:363|247:347|227:308|240:273,1,165,2|0,2:2|0:0,0:0:0:0:
302,222,67911,6,0,P|283:152|264:82,1,144.375,2|0,2:2|0:0,0:0:0:0:
194,119,68651,6,0,B|134:106|156:78|96:66,1,111.374996601105,2|0,2:2|0:0,0:0:0:0:
382,202,70318,6,0,P|445:211|468:147,1,134.062493863106,2|0,2:2|0:0,0:0:0:0:
399,123,70874,6,0,P|343:84|320:21,1,129.937496034622,2|0,2:2|0:0,0:0:0:0:
403,31,71614,6,0,B|437:23|424:7|459:0,1,61.875,2|0,2:2|0:0,0:0:0:0:
303,168,72355,6,0,P|223:261|211:385,1,241.312488953591,2|0,2:2|0:0,0:0:0:0:
290,376,73281,6,0,P|294:350|241:303,1,92.8124971675874,2|0,2:2|0:0,0:0:0:0:
131,364,73837,6,0,P|95:354|59:344,1,74.2499977340699,2|0,2:2|0:0,0:0:0:0:
322,250,74577,6,0,P|363:238|404:227,1,80.4374963178636,2|0,2:2|0:0,0:0:0:0:
512,272,74948,2,0,B|499:210|470:233|457:170,1,117.562496860743,2|0,2:2|0:0,0:0:0:0:
381,152,75318,2,0,P|386:133|391:114,1,39.1874989535809,2|0,2:2|0:0,0:0:0:0:
369,0,75503,5,10,2:3:0:0:
301,172,75688,1,10,2:3:0:0:
497,107,75874,1,10,2:3:0:0:
312,56,76059,1,6,1:3:0:0:
367,244,76244,1,8,2:3:0:0:
446,22,76429,1,10,2:3:0:0:
209,63,76614,1,14,2:3:0:0:
482,206,76800,6,0,B|420:193|443:164|380:151,1,117.562496860743,2|0,1:2|0:0,0:0:0:0:
301,172,77170,6,0,P|279:129|352:84,1,142.312502714396,2|0,1:2|0:0,0:0:0:0:
367,244,77540,6,0,P|328:254|257:281,1,103.125,10|10,2:2|2:2,0:0:0:0:
196,306,77911,1,2,2:2:0:0:
45,371,78096,1,10,2:2:0:0:
0,309,78281,6,0,B|8:270|25:284|36:241,1,78.3749979071618,10|10,2:2|2:2,0:0:0:0:
258,355,78651,1,2,1:2:0:0:
204,227,78837,1,2,1:2:0:0:
121,338,79022,1,10,2:2:0:0:
368,242,79207,2,0,P|339:165|318:87,1,158.400003867188,2|0,1:2|0:0,0:0:0:0:
439,193,79763,6,0,P|449:155|463:118,1,78.3749979071618,2|2,1:2|1:2,0:0:0:0:
247,41,80133,2,0,P|236:78|222:115,1,78.3749979071618,2|2,1:2|2:2,0:0:0:0:
440,45,80503,5,10,2:2:0:0:
365,20,80688,1,10,2:2:0:0:
293,220,80874,5,2,2:2:0:0:
367,244,81059,1,10,2:2:0:0:
158,55,81244,6,0,P|119:44|80:33,1,78.3749979071618,10|10,2:2|2:2,0:0:0:0:
218,193,81614,1,2,1:2:0:0:
218,193,81800,1,2,1:2:0:0:
11,232,81985,1,10,2:2:0:0:
93,138,82170,6,0,B|106:200|135:177|148:240,1,117.562496860743,2|0,1:2|0:0,0:0:0:0:
147,245,82540,1,10,2:2:0:0:
28,341,82726,6,0,P|66:329|104:319,1,78.3749979071618,2|2,1:2|1:2,0:0:0:0:
219,384,83096,2,0,P|217:345|190:318,1,78.3749979071618,2|2,1:2|2:2,0:0:0:0:
190,318,83374,1,0,0:0:0:0:
190,318,83466,1,10,2:2:0:0:
11,232,83651,1,10,2:2:0:0:
18,155,83837,1,2,2:2:0:0:
239,117,84022,6,0,P|226:155|216:194,1,78.3749979071618,10|10,2:2|2:2,0:0:0:0:
272,10,84392,1,10,2:2:0:0:
308,181,84577,1,2,1:2:0:0:
308,181,84763,1,2,1:2:0:0:
141,126,84948,1,10,2:2:0:0:
324,92,85133,2,0,B|404:76|375:36|458:19,1,156.749995814324,0|10,1:1|2:2,0:0:0:0:
141,126,85688,5,2,1:2:0:0:
396,196,85874,1,10,2:2:0:0:
207,381,86059,5,2,1:2:0:0:
196,343,86151,1,8,2:2:0:0:
200,304,86244,1,10,2:2:0:0:
219,270,86336,1,8,2:2:0:0:
250,246,86429,1,10,1:2:0:0:
485,215,86614,1,10,2:2:0:0:
414,106,86800,1,10,2:3:0:0:
340,263,86985,1,2,1:2:0:0:
239,117,87170,5,2,1:2:0:0:
308,177,87355,1,2,2:2:0:0:
340,263,87540,1,2,2:2:0:0:
329,354,87726,1,2,2:2:0:0:
78,313,87911,5,2,2:2:0:0:
78,313,88281,6,0,P|101:251|188:182,1,173.24999471283,2|0,2:2|0:0,0:0:0:0:
155,104,88651,6,0,P|107:104|81:149,1,98.9999969787599,6|0,1:2|0:0,0:0:0:0:
250,246,89022,2,0,P|301:259|351:276,1,98.9999969787599,2|0,1:3|0:0,0:0:0:0:
512,335,89392,2,0,B|498:258|462:289|442:206,1,148.49999546814,10|0,2:2|0:0,0:0:0:0:
446,204,89763,1,2,2:3:0:0:
273,339,89948,1,10,2:2:0:0:
243,122,90133,1,2,2:2:0:0:
344,273,90318,6,0,P|328:226|316:178,1,98.9999969787599,10|2,2:2|1:3,0:0:0:0:
352,0,90688,1,2,1:2:0:0:
425,62,90874,2,0,P|378:77|331:90,1,98.9999969787599,10|10,2:2|2:2,0:0:0:0:
155,123,91244,1,2,2:2:0:0:
344,273,91429,5,10,2:2:0:0:
344,273,91522,1,0,0:0:0:0:
344,273,91614,2,0,B|397:282|375:307|428:320,1,98.9999969787599,2|2,1:2|2:2,0:0:0:0:
511,349,91985,5,2,1:2:0:0:
455,237,92170,1,2,2:2:0:0:
316,358,92355,5,10,2:2:0:0:
357,166,92540,1,10,2:2:0:0:
256,246,92726,5,2,2:2:0:0:
233,163,92911,1,10,2:2:0:0:
228,376,93096,5,2,2:2:0:0:
127,220,93281,1,10,2:2:0:0:
141,375,93466,6,0,B|88:362|110:337|57:328,1,98.9999969787599,2|0,1:2|1:1,0:0:0:0:
127,220,93837,2,0,P|168:249|159:297,1,98.9999969787599,10|8,2:2|2:2,0:0:0:0:
32,233,94207,2,0,P|48:186|60:138,1,98.9999969787599,10|8,2:2|2:2,0:0:0:0:
317,183,94577,6,0,P|387:172|455:84,1,148.49999546814,6|0,1:2|0:0,0:0:0:0:
444,42,94948,2,0,P|389:46|375:98,1,98.9999969787599,2|0,1:3|0:0,0:0:0:0:
295,265,95318,2,0,P|245:242|239:195,1,98.9999969787599,10|8,2:2|2:2,0:0:0:0:
512,159,95688,5,2,2:3:0:0:
295,106,95874,1,10,2:2:0:0:
358,321,96059,1,2,2:2:0:0:
416,69,96244,1,10,2:2:0:0:
169,145,96429,2,0,P|185:98|197:50,1,98.9999969787599,2|2,1:3|1:2,0:0:0:0:
454,267,96800,1,10,2:2:0:0:
317,183,96985,6,0,B|401:201|368:246|454:267,1,165,10|10,2:2|2:2,0:0:0:0:
454,267,97448,1,0,0:0:0:0:
454,267,97540,1,2,1:2:0:0:
355,318,97726,1,2,2:2:0:0:
286,354,97911,1,2,1:2:0:0:
286,354,98096,1,2,2:2:0:0:
141,239,98281,6,0,P|157:192|169:144,1,98.9999969787599,10|10,2:2|2:2,0:0:0:0:
197,1,98651,1,2,2:2:0:0:
58,47,98837,1,10,2:2:0:0:
221,80,99022,1,2,2:2:0:0:
384,113,99207,6,0,B|434:102|414:75|466:62,1,98.9999969787599,10|2,2:2|1:2,0:0:0:0:
142,65,99577,1,0,1:1:0:0:
167,141,99763,6,0,P|193:188|191:259,1,98.9999969787599,10|8,2:2|2:2,0:0:0:0:
58,47,100133,1,10,2:2:0:0:
287,171,100318,1,8,2:2:0:0:
65,306,100503,6,0,P|120:250|197:232,1,160.874992635727,6|0,1:2|0:0,0:0:0:0:
276,250,100874,2,0,P|260:308|205:298,1,107.249995090485,2|0,1:2|0:0,0:0:0:0:
65,188,101244,2,0,B|81:111|122:140|141:63,1,148.49999546814,10|2,2:2|2:3,0:0:0:0:
58,47,101800,1,8,2:2:0:0:
287,171,101985,6,0,P|238:183|192:198,1,90.7500027694703,2|8,2:2|2:2,0:0:0:0:
65,306,102355,1,2,1:2:0:0:
65,306,102540,1,2,1:2:0:0:
139,144,102726,1,10,2:2:0:0:
255,291,102911,6,0,P|327:345|449:356,1,197.99999395752,8|8,2:2|2:2,0:0:0:0:
501,384,103374,1,0,0:0:0:0:
506,382,103466,2,0,P|530:337|471:293,1,136.125004154205,2|0,1:2|0:0,0:0:0:0:
394,288,103837,2,0,B|393:246|417:257|415:208,1,82.5,2|0,1:2|1:1,0:0:0:0:
463,54,104207,6,0,P|384:73|303:95,1,165,10|2,2:2|2:3,0:0:0:0:
222,120,104763,1,8,2:2:0:0:
61,202,104948,2,0,B|109:184|88:163|138:144,1,98.9999969787599,2|8,2:2|2:2,0:0:0:0:
284,177,105318,5,2,1:2:0:0:
246,44,105503,2,0,B|201:36|218:15|169:8,1,82.5,2|10,1:2|2:2,0:0:0:0:
368,154,105874,5,8,2:2:0:0:
116,65,106059,1,10,2:2:0:0:
165,328,106244,1,8,2:2:0:0:
284,177,106429,6,0,P|254:230|247:317,1,123.75,6|0,1:2|0:0,0:0:0:0:
235,377,106800,2,0,P|188:369|165:328,1,98.9999969787599,2|0,1:2|0:0,0:0:0:0:
329,273,107170,6,0,B|358:261|389:278|389:278|428:270|452:232|445:187,1,181.500005538941,10|2,2:2|2:3,0:0:0:0:
307,96,107726,1,8,2:2:0:0:
307,96,107911,1,2,2:3:0:0:
454,22,108096,1,8,2:2:0:0:
401,97,108281,2,0,P|378:57|370:13,1,90.7500027694703,2|2,1:3|1:2,0:0:0:0:
119,251,108651,5,10,2:2:0:0:
190,205,108837,2,0,P|212:165|220:121,1,90.7500027694703,10|2,2:2|2:3,0:0:0:0:
1,81,109207,5,10,2:2:0:0:
1,81,109300,1,8,2:2:0:0:
1,81,109392,2,0,B|76:103|40:140|118:167,1,148.49999546814,2|0,1:2|0:0,0:0:0:0:
196,290,109763,6,0,B|246:284|227:260|277:254,1,90.7500027694703,2|0,1:3|1:1,0:0:0:0:
288,256,110040,1,0,0:0:0:0:
301,259,110133,1,10,2:2:0:0:
384,282,110318,1,8,2:2:0:0:
466,305,110503,1,2,2:2:0:0:
360,198,110688,6,0,B|354:162|389:121|413:157|489:163|512:86|458:-28|341:41|371:117,1,247.5,10|0,2:2|0:0,0:0:0:0:
396,53,111059,5,8,2:3:0:0:
466,305,111244,1,10,2:3:0:0:
360,198,111429,5,10,2:3:0:0:
324,345,111614,1,4,1:3:0:0:
420,135,111800,5,8,2:3:0:0:
480,384,111985,1,8,2:3:0:0:
338,117,112170,5,12,2:3:0:0:
279,174,112355,2,0,B|200:154|232:116|154:97,1,148.49999546814,6|0,1:2|0:0,0:0:0:0:
72,122,112726,2,0,P|59:91|94:38,1,98.9999969787599,2|0,1:3|0:0,0:0:0:0:
134,179,113096,6,0,P|87:226|57:311,1,148.49999546814,10|0,2:2|0:0,0:0:0:0:
58,301,113466,1,2,2:3:0:0:
274,364,113651,1,8,2:2:0:0:
274,364,113837,1,2,2:3:0:0:
182,374,114022,6,0,P|157:340|143:302,1,82.5,8|2,2:2|1:3,0:0:0:0:
199,235,114392,1,2,1:2:0:0:
17,186,114577,1,10,2:2:0:0:
73,122,114763,6,0,B|175:97|126:46|237:20,1,197.99999395752,10|10,2:2|2:2,0:0:0:0:
308,96,115226,5,0,0:0:0:0:
308,96,115318,2,0,P|320:44|336:-5,1,98.9999969787599,2|0,1:2|1:1,0:0:0:0:
463,184,115688,2,0,P|415:169|367:157,1,98.9999969787599,2|2,1:3|1:2,0:0:0:0:
198,234,116059,2,0,P|278:264|280:179,1,197.99999395752,10|2,2:2|2:3,0:0:0:0:
223,115,116614,5,10,2:2:0:0:
223,115,116800,1,2,2:3:0:0:
418,67,116985,1,0,1:1:0:0:
402,156,117170,6,0,B|339:140|369:109|301:94,1,115.49999647522,2|10,1:3|2:2,0:0:0:0:
198,234,117726,6,0,B|96:258|141:307|46:332,1,185.624994335175,8|0,2:2|0:0,0:0:0:0:
44,335,118281,6,0,P|35:307|27:279,1,57.7499982376099,2|0,2:2|0:0,0:0:0:0:
62,201,118651,2,0,P|89:192|117:184,1,57.7499982376099,2|0,2:2|0:0,0:0:0:0:
256,302,119022,6,0,P|312:322|347:368,1,115.49999647522,10|0,2:2|0:0,0:0:0:0:
345,365,119577,1,2,2:2:0:0:
445,317,119763,5,2,2:2:0:0:
445,317,119948,2,0,P|436:344|428:372,2,57.7499982376099,2|0|2,2:2|0:0|2:2,0:0:0:0:
376,273,120503,2,0,B|368:235|351:249|340:208,1,74.2499977340699,8|2,2:2|2:2,0:0:0:0:
409,168,120874,2,0,B|417:130|434:144|444:103,1,74.2499977340699,2|2,2:2|2:2,0:0:0:0:
364,84,121244,6,0,P|307:63|272:17,1,115.49999647522,2|2,2:2|2:2,0:0:0:0:
274,20,121985,1,10,2:2:0:0:
117,183,122355,5,0,0:0:0:0:
57,130,122540,1,2,2:2:0:0:
134,107,122726,5,2,2:2:0:0:
134,107,122911,2,0,P|161:98|189:90,2,57.7499982376099,2|0|2,2:2|0:0|2:2,0:0:0:0:
39,208,123466,2,0,B|49:247|66:233|74:271,1,74.2499977340699,8|2,2:2|2:2,0:0:0:0:
148,297,123837,2,0,B|137:336|120:322|112:360,1,74.2499977340699,2|2,2:2|2:2,0:0:0:0:
256,352,124207,6,0,P|259:307|197:246,1,115.49999647522,2|2,2:2|2:2,0:0:0:0:
218,254,124948,1,10,2:2:0:0:
57,130,125318,5,0,0:0:0:0:
134,107,125503,1,2,2:2:0:0:
77,50,125688,5,2,2:2:0:0:
77,50,125874,2,0,P|68:23|59:-5,2,53.6249975452424,2|0|2,2:2|0:0|2:2,0:0:0:0:
191,164,126429,2,0,B|230:153|216:136|254:128,1,74.2499977340699,8|2,2:2|2:2,0:0:0:0:
279,53,126800,2,0,B|318:63|304:80|342:88,1,74.2499977340699,2|2,2:2|2:2,0:0:0:0:
473,126,127170,6,0,P|457:72|383:44,1,115.49999647522,2|2,2:2|2:2,0:0:0:0:
408,43,127911,1,10,2:2:0:0:
191,164,128281,1,2,2:2:0:0:
191,164,128466,1,2,2:2:0:0:
134,107,128651,5,2,2:2:0:0:
215,86,128837,2,0,P|224:59|233:31,2,57.7499982376099,2|0|2,2:2|0:0|2:2,0:0:0:0:
112,186,129392,6,0,P|127:222|125:267,1,74.2499977340699,8|0,2:2|0:0,0:0:0:0:
285,218,129763,2,0,P|270:182|272:137,1,74.2499977340699,2|2,2:2|2:2,0:0:0:0:
162,333,130133,6,0,P|216:303|294:306,1,132,2|2,2:2|2:2,0:0:0:0:
495,370,130874,1,10,2:2:0:0:
495,370,131244,1,0,0:0:0:0:
426,328,131429,1,2,2:2:0:0:
497,291,131614,6,0,P|506:264|515:236,1,49.4999984893799,2|2,2:2|2:2,0:0:0:0:
351,350,131985,1,0,0:0:0:0:
351,350,132170,2,0,P|331:290|311:228,1,123.750004720688,2|0,2:2|0:0,0:0:0:0:
382,194,132726,2,0,B|420:184|407:167|445:158,1,74.2499977340699,2|2,2:2|2:2,0:0:0:0:
427,17,133096,6,0,P|377:35|356:134,1,148.49999546814,2|2,2:2|2:2,0:0:0:0:
495,370,133837,1,10,2:2:0:0:
245,279,134207,5,0,0:0:0:0:
245,279,134392,1,2,2:2:0:0:
167,246,134577,6,0,P|132:234|96:223,1,74.2499977340699,2|2,2:2|2:2,0:0:0:0:
64,331,134948,1,0,0:0:0:0:
25,261,135133,2,0,B|45:185|82:220|101:137,1,148.49999546814,2|2,2:2|2:2,0:0:0:0:
5,65,135688,2,0,P|6:112|39:139,1,74.2499977340699,2|2,2:2|2:2,0:0:0:0:
235,199,136059,6,0,P|246:164|257:128,1,61.875002360344,2|0,1:2|0:0,0:0:0:0:
334,140,136429,2,0,P|323:105|312:69,1,61.875002360344,2|0,1:2|0:0,0:0:0:0:
237,62,136800,6,0,P|180:51|126:-6,1,123.750004720688,10|2,1:2|1:3,0:0:0:0:
132,7,137355,1,2,2:2:0:0:
398,89,137540,6,0,P|409:54|420:18,1,61.875002360344,2|2,1:2|2:2,0:0:0:0:
483,74,137911,2,0,P|492:103|501:133,1,61.875002360344,2|2,1:3|2:2,0:0:0:0:
427,165,138281,6,0,P|370:176|316:233,1,123.750004720688,10|2,1:2|1:2,0:0:0:0:
322,219,138837,1,2,2:2:0:0:
388,311,139022,5,2,1:2:0:0:
388,311,139207,2,0,P|390:275|407:250,1,61.875002360344,2|2,2:2|1:3,0:0:0:0:
283,291,139577,2,0,P|297:317|298:348,1,61.875002360344,2|10,2:2|1:2,0:0:0:0:
218,338,139948,2,0,P|157:318|94:299,1,123.750004720688,2|2,2:2|2:2,0:0:0:0:
0,269,140503,6,0,B|64:252|42:223|106:208,1,123.750004720688,2|2,1:2|1:3,0:0:0:0:
177,240,141059,1,0,0:0:0:0:
144,134,141244,2,0,P|134:104|125:74,1,61.875002360344,10|2,1:2|2:2,0:0:0:0:
220,167,141614,2,0,P|249:157|279:148,1,61.875002360344,2|2,1:2|2:2,0:0:0:0:
364,38,141985,6,0,B|421:51|397:75|454:89,1,105.187502006292,2|0,1:2|0:0,0:0:0:0:
455,93,142355,2,0,P|430:123|426:159,1,70.1250013375282,2|2,1:3|2:2,0:0:0:0:
483,301,142726,2,0,P|505:274|512:240,1,70.1250013375282,10|2,1:2|2:2,0:0:0:0:
431,235,143096,2,0,P|397:244|363:255,1,70.1250013375282,2|2,1:2|2:2,0:0:0:0:
295,275,143374,1,0,0:0:0:0:
289,277,143466,1,2,1:2:0:0:
177,240,143651,1,2,2:2:0:0:
88,360,143837,5,2,1:3:0:0:
29,222,144022,1,2,2:2:0:0:
29,222,144207,2,0,P|17:184|5:146,1,70.1250013375282,10|2,1:2|2:2,0:0:0:0:
69,105,144577,2,0,P|106:116|144:128,1,70.1250013375282,2|2,1:2|2:2,0:0:0:0:
230,305,144948,6,0,B|283:290|265:266|319:253,1,105.187502006292,2|0,1:2|0:0,0:0:0:0:
323,257,145318,2,0,P|298:226|294:190,1,70.1250013375282,2|2,1:3|2:2,0:0:0:0:
408,64,145688,2,0,P|432:94|436:130,1,70.1250013375282,10|2,1:2|2:2,0:0:0:0:
375,193,146059,2,0,P|364:159|354:126,1,70.1250013375282,2|2,1:2|2:2,0:0:0:0:
511,240,146429,6,0,P|457:256|403:273,1,105.187502006292,2|0,1:2|0:0,0:0:0:0:
410,275,146800,2,0,P|399:308|389:341,1,70.1250013375282,2|2,1:3|2:2,0:0:0:0:
296,192,147170,2,0,P|282:151|270:112,1,78.3749979071618,10|2,1:2|2:2,0:0:0:0:
152,312,147540,2,0,P|141:348|126:394,1,78.3749979071618,2|2,1:2|2:2,0:0:0:0:
19,271,147911,5,2,1:2:0:0:
176,230,148096,1,10,2:3:0:0:
200,108,148281,5,2,1:3:0:0:
100,251,148466,1,10,2:3:0:0:
233,340,148651,2,0,P|246:301|259:261,1,82.5,2|8,1:3|2:3,0:0:0:0:
144,161,149022,5,2,1:2:0:0:
71,142,149207,2,0,P|43:134|15:126,1,53.6249975452424,10|0,2:3|0:0,0:0:0:0:
221,33,149392,5,2,1:2:0:0:
256,259,149577,1,10,2:3:0:0:
421,133,149763,5,2,1:3:0:0:
341,128,149948,1,10,2:3:0:0:
310,325,150133,5,2,1:3:0:0:
425,52,150318,1,10,2:3:0:0:
425,52,150503,1,2,1:2:0:0:
296,193,150688,5,10,2:3:0:0:
292,189,150781,1,0,0:0:0:0:
288,185,150874,1,2,1:2:0:0:
307,149,150966,1,8,2:3:0:0:
339,124,151059,1,10,2:3:0:0:
380,117,151151,1,4,2:3:0:0:
421,133,151244,5,2,1:3:0:0:
448,163,151337,1,8,2:3:0:0:
457,202,151429,1,10,2:3:0:0:
446,242,151522,1,4,2:3:0:0:
419,272,151614,5,2,1:3:0:0:
381,288,151707,1,8,2:3:0:0:
340,285,151800,1,10,2:3:0:0:
303,266,151892,1,4,2:3:0:0:
271,304,151985,5,2,1:2:0:0:
226,326,152077,1,8,2:3:0:0:
176,318,152170,1,10,2:3:0:0:
131,294,152263,1,4,2:3:0:0:
109,239,152355,5,10,1:2:0:0:
120,180,152448,1,8,2:2:0:0:
163,140,152540,1,8,1:2:0:0:
182,84,152633,1,8,2:2:0:0:
165,26,152726,1,10,1:2:0:0:
106,0,152818,1,8,2:2:0:0:
43,11,152911,1,8,1:2:0:0:
3,62,153003,1,8,2:2:0:0:
5,125,153096,5,10,1:2:0:0:
49,175,153188,1,8,2:2:0:0:
114,180,153281,1,8,1:2:0:0:
163,140,153374,1,8,2:2:0:0:
224,127,153466,5,10,1:2:0:0:
296,127,153559,1,8,2:2:0:0:
357,164,153651,1,8,1:2:0:0:
395,227,153744,1,8,2:2:0:0:
397,299,153837,6,0,P|318:318|233:385,1,181.500005538941,14|2,1:2|2:2,0:0:0:0:
507,208,155133,5,2,2:2:0:0:
510,342,155318,1,2,2:2:0:0:
510,342,155503,2,0,B|505:314|491:320|484:286,1,61.875002360344,2|0,2:2|0:0,0:0:0:0:
460,133,155874,2,0,P|411:166|423:224,1,123.750004720688,2|2,2:2|2:2,0:0:0:0:
507,208,156429,1,2,2:2:0:0:
507,208,156614,1,2,2:2:0:0:
331,156,156800,6,0,P|286:143|241:130,1,92.812503540516,2|0,2:2|0:0,0:0:0:0:
208,58,157170,2,0,P|163:70|118:83,1,92.812503540516,2|0,2:2|0:0,0:0:0:0:
44,104,157540,1,2,2:2:0:0:
288,34,158096,5,2,2:2:0:0:
288,34,158281,1,2,2:2:0:0:
208,58,158466,2,0,B|203:30|189:36|182:2,1,61.875002360344,2|0,2:2|0:0,0:0:0:0:
371,47,158837,2,0,P|346:84|335:168,1,123.750004720688,2|2,2:2|2:2,0:0:0:0:
481,142,159392,2,0,P|451:134|421:125,1,61.875002360344,2|2,2:2|2:2,0:0:0:0:
283,228,159763,6,0,B|183:235|219:290|120:298,1,181.500005538941,2|2,2:2|2:2,0:0:0:0:
409,381,161059,5,2,2:2:0:0:
409,381,161244,1,2,2:2:0:0:
385,302,161429,2,0,P|376:272|368:242,1,61.875002360344,2|0,2:2|0:0,0:0:0:0:
330,359,161800,2,0,P|271:342|209:325,1,123.750004720688,2|2,2:2|2:2,0:0:0:0:
466,321,162355,2,0,P|474:291|482:261,1,61.875002360344,2|2,2:2|2:2,0:0:0:0:
485,254,162633,1,0,0:0:0:0:
488,247,162726,5,2,2:2:0:0:
479,167,163096,5,2,2:2:0:0:
407,132,163466,5,2,2:2:0:0:
333,157,163837,5,0,0:0:0:0:
328,159,164022,1,2,2:2:0:0:
256,363,164207,5,10,2:2:0:0:
255,191,164392,2,0,B|270:120|213:98|216:122|144:96|158:20|228:-23|286:36|267:78,1,268.124987726212,2|0,1:2|0:0,0:0:0:0:
268,55,164948,5,10,2:2:0:0:
398,181,165133,6,0,P|299:197|231:272,1,206.25,0|0,1:1|0:0,0:0:0:0:
351,379,165688,6,0,B|347:326|318:344|313:289,1,98.9999969787599,6|0,1:2|1:1,0:0:0:0:
155,333,166059,2,0,P|203:345|249:360,1,98.9999969787599,2|0,1:2|0:0,0:0:0:0:
478,209,166429,2,0,P|494:134|426:101,1,165,10|2,2:2|2:3,0:0:0:0:
398,181,166985,1,8,2:2:0:0:
493,292,167170,6,0,P|445:304|399:319,1,90.7500027694703,2|8,2:2|2:2,0:0:0:0:
252,365,167540,1,2,1:2:0:0:
252,365,167726,1,2,1:2:0:0:
398,181,167911,1,10,2:2:0:0:
313,290,168096,6,0,B|305:185|248:221|238:112,1,197.99999395752,8|8,2:2|2:2,0:0:0:0:
313,88,168559,1,0,0:0:0:0:
318,86,168651,2,0,P|305:33|211:38,1,148.49999546814,2|0,1:2|0:0,0:0:0:0:
63,56,169022,6,0,P|111:67|159:83,1,98.9999969787599,2|0,1:2|1:1,0:0:0:0:
398,181,169392,2,0,P|417:101|476:38,1,165,10|2,2:2|2:3,0:0:0:0:
173,164,169948,1,8,2:2:0:0:
7,233,170133,6,0,B|60:227|42:200|97:195,1,98.9999969787599,2|8,2:2|2:2,0:0:0:0:
226,229,170503,1,2,1:2:0:0:
186,349,170688,6,0,P|174:301|149:259,1,98.9999969787599,2|10,1:2|2:2,0:0:0:0:
12,126,171059,1,8,2:2:0:0:
226,229,171244,1,10,2:2:0:0:
29,362,171429,1,8,2:2:0:0:
173,164,171614,6,0,B|190:141|222:140|222:140|249:116|251:75|225:43,1,148.49999546814,6|0,1:2|0:0,0:0:0:0:
135,0,171985,2,0,P|147:39|157:79,1,82.5,2|0,1:2|0:0,0:0:0:0:
310,238,172355,6,0,B|415:246|379:303|488:313,1,197.99999395752,10|2,2:2|2:3,0:0:0:0:
371,168,172911,1,8,2:2:0:0:
371,168,173096,1,2,2:3:0:0:
512,66,173281,1,8,2:2:0:0:
463,200,173466,2,0,P|453:159|439:107,1,90.7500027694703,2|2,1:3|1:2,0:0:0:0:
260,306,173837,5,10,2:2:0:0:
184,327,174022,2,0,B|137:346|157:362|113:381,1,90.7500027694703,10|2,2:2|2:3,0:0:0:0:
69,170,174392,5,10,2:2:0:0:
69,170,174485,1,8,2:2:0:0:
69,170,174577,2,0,B|105:171|126:147|126:147|188:149|219:200|196:262,1,214.49999018097,2|2,1:2|1:3,0:0:0:0:
126,276,175133,1,0,1:1:0:0:
324,352,175318,2,0,P|336:303|350:255,1,98.9999969787599,10|8,2:2|2:2,0:0:0:0:
69,90,175688,5,2,2:2:0:0:
146,67,175874,2,0,P|217:45|288:25,1,148.49999546814,10|0,2:2|0:0,0:0:0:0:
295,24,176244,5,8,2:3:0:0:
374,154,176429,2,0,P|324:116|276:104,1,98.9999969787599,10|10,2:3|2:3,0:0:0:0:
490,51,176800,5,4,1:3:0:0:
293,189,176985,1,8,2:3:0:0:
511,290,177170,1,8,2:3:0:0:
293,189,177355,1,12,2:3:0:0:
447,239,177540,6,0,B|404:223|360:252|361:298|361:298|381:318|380:344,1,173.24999471283,6|0,1:2|0:0,0:0:0:0:
300,351,177911,2,0,P|251:338|204:328,1,98.9999969787599,2|0,1:3|0:0,0:0:0:0:
33,384,178281,2,0,B|41:279|98:315|108:206,1,197.99999395752,10|2,2:2|2:3,0:0:0:0:
25,213,178837,1,8,2:2:0:0:
203,327,179022,1,2,2:3:0:0:
212,115,179207,1,8,2:2:0:0:
111,210,179392,2,0,P|159:220|207:232,1,98.9999969787599,2|2,1:3|1:2,0:0:0:0:
506,293,179763,5,10,2:2:0:0:
447,239,179948,2,0,B|443:186|414:204|409:149,1,98.9999969787599,10|2,2:2|2:3,0:0:0:0:
484,41,180318,5,10,2:2:0:0:
484,41,180411,1,0,0:0:0:0:
484,41,180503,2,0,P|387:67|288:93,1,197.99999395752,2|2,1:2|1:3,0:0:0:0:
212,115,181059,1,2,1:2:0:0:
23,0,181244,6,0,B|3:48|37:99|90:97|90:97|111:74|143:75,1,197.99999395752,10|2,2:2|2:3,0:0:0:0:
274,173,181800,1,10,2:2:0:0:
166,292,181985,2,0,P|178:244|191:196,1,98.9999969787599,10|8,2:2|1:3,0:0:0:0:
229,34,182355,5,6,1:3:0:0:
307,257,182540,1,8,2:3:0:0:
75,214,182726,1,10,2:3:0:0:
292,91,182911,1,8,2:3:0:0:
206,369,183096,1,6,1:3:0:0:
8,155,183281,1,10,2:3:0:0:
361,187,183466,6,0,B|436:213|395:246|476:277,1,148.49999546814,6|0,1:2|0:0,0:0:0:0:
512,207,183837,2,0,P|499:159|486:111,1,98.9999969787599,2|0,1:3|0:0,0:0:0:0:
307,257,184207,1,10,2:2:0:0:
396,326,184392,6,0,B|342:325|357:355|304:356,1,98.9999969787599,10|2,2:2|2:3,0:0:0:0:
187,159,184763,1,10,2:2:0:0:
212,241,184948,5,2,2:2:0:0:
246,96,185133,1,10,2:2:0:0:
103,140,185318,1,2,1:3:0:0:
103,140,185503,1,2,1:2:0:0:
361,187,185688,1,10,2:2:0:0:
361,187,185874,6,0,P|374:139|387:91,1,98.9999969787599,10|2,2:2|2:2,0:0:0:0:
140,0,186244,5,10,2:2:0:0:
274,177,186429,1,2,1:2:0:0:
274,177,186614,1,2,2:2:0:0:
53,204,186800,1,2,1:3:0:0:
164,77,186985,5,2,2:2:0:0:
187,159,187170,1,10,2:2:0:0:
109,142,187355,1,10,2:2:0:0:
109,142,187540,1,2,2:3:0:0:
331,113,187726,5,10,2:2:0:0:
153,303,187911,1,2,2:2:0:0:
86,60,188096,1,10,2:2:0:0:
86,60,188281,1,2,1:3:0:0:
307,257,188466,5,2,1:2:0:0:
53,204,188651,1,10,2:2:0:0:
223,14,188837,1,10,2:2:0:0:
223,14,189022,1,10,2:2:0:0:
193,156,189207,5,10,2:2:0:0:
153,303,189392,6,0,B|224:326|187:358|259:383,1,136.125004154205,2|0,1:2|0:0,0:0:0:0:
332,352,189763,2,0,P|319:304|306:256,1,98.9999969787599,2|0,1:3|0:0,0:0:0:0:
512,226,190133,2,0,B|532:274|498:325|445:323|445:323|424:300|392:301,1,197.99999395752,10|2,2:2|2:3,0:0:0:0:
93,361,190688,1,10,2:2:0:0:
73,282,190874,6,0,B|55:232|31:255|14:204,1,98.9999969787599,2|10,2:2|2:2,0:0:0:0:
175,146,191244,2,0,P|164:203|114:219,1,98.9999969787599,2|0,1:3|1:1,0:0:0:0:
4,119,191614,1,10,2:2:0:0:
183,14,191800,1,10,2:2:0:0:
81,151,191985,2,0,P|94:103|107:55,1,98.9999969787599,2|10,2:2|2:2,0:0:0:0:
261,173,192355,6,0,B|311:186|311:186|338:218|338:218|392:233,1,148.49999546814,2|0,1:2|0:0,0:0:0:0:
478,384,192726,2,0,B|436:365|428:312|463:282|463:282|490:284|512:267,1,173.24999471283,2|0,1:3|0:0,0:0:0:0:
465,195,193096,5,10,2:2:0:0:
344,361,193281,1,10,2:2:0:0:
261,173,193466,1,2,2:2:0:0:
390,232,193651,5,10,2:2:0:0:
329,285,193837,1,2,2:2:0:0:
216,366,194022,5,8,2:2:0:0:
261,173,194207,1,2,1:2:0:0:
261,173,194392,1,2,1:2:0:0:
405,309,194577,1,10,2:2:0:0:
72,230,194763,5,10,2:2:0:0:
261,173,194948,1,10,2:2:0:0:
118,38,195133,1,10,2:2:0:0:
150,145,195318,6,0,B|175:70|210:105|237:29,1,148.49999546814,2|0,1:2|0:0,0:0:0:0:
33,22,195688,2,0,P|27:77|72:111,1,115.49999647522,2|0,1:3|0:0,0:0:0:0:
150,330,196059,6,0,P|189:239|260:172,1,197.99999395752,10|2,2:2|2:2,0:0:0:0:
422,124,196614,1,10,2:2:0:0:
422,124,196800,1,2,2:2:0:0:
299,7,196985,1,10,2:2:0:0:
348,188,197170,6,0,P|335:140|322:92,1,98.9999969787599,2|2,1:3|1:2,0:0:0:0:
512,221,197540,2,0,P|464:234|416:247,1,98.9999969787599,10|10,2:2|2:2,0:0:0:0:
142,321,197911,1,2,2:2:0:0:
246,343,198096,5,10,2:2:0:0:
186,384,198281,5,2,1:2:0:0:
186,384,198466,1,0,0:0:0:0:
205,282,198651,2,0,P|194:252|188:222,1,61.875002360344,2|0,2:3|0:0,0:0:0:0:
127,175,199022,2,0,B|62:199|93:226|30:248,1,123.750004720688,10|2,2:2|2:3,0:0:0:0:
30,247,199577,1,0,0:0:0:0:
200,146,199763,6,0,P|205:115|216:86,1,61.875002360344,2|0,2:3|0:0,0:0:0:0:
282,38,200133,2,0,P|287:68|298:97,1,61.875002360344,2|0,2:3|0:0,0:0:0:0:
415,250,200503,5,10,2:2:0:0:
415,250,200874,2,0,P|420:219|431:190,2,41.2500015735627,2|0|0,2:3|0:0|0:0,0:0:0:0:
490,247,201244,1,0,0:0:0:0:
490,247,201985,5,8,2:2:0:0:
257,290,203466,5,8,2:2:0:0:
24,333,204330,5,2,0:0:0:0:
24,333,204948,1,8,2:2:0:0:
