osu file format v14

[General]
AudioFilename: audio.mp3
AudioLeadIn: 0
PreviewTime: 52986
Countdown: 0
SampleSet: Soft
StackLeniency: 0.4
Mode: 0
LetterboxInBreaks: 0
WidescreenStoryboard: 1

[Editor]
Bookmarks: 37562,53046,76272,91756
DistanceSpacing: 0.8
BeatDivisor: 2
GridSize: 32
TimelineZoom: 0.9

[Metadata]
Title:brutal
TitleUnicode:brutal
Artist:Olivia Rodrigo
ArtistUnicode:Olivia Rodrigo
Creator:muya-
Version:easy
Source:
Tags:SOUR grunge pop punk rock english tiktok tik tok Kiyoshi Guarden nymphe some hero vanchanical seolv lukas [_l_u_k_a_s_]
BeatmapID:3130658
BeatmapSetID:1530520

[Difficulty]
HPDrainRate:3
CircleSize:2.4
OverallDifficulty:2.5
ApproachRate:3
SliderMultiplier:1.2
SliderTickRate:1

[Events]
//Background and Video events
0,0,"E2BHDFdXEAEsD855.jpg",0,0
Video,0,"vid.mp4"
//Break Periods
2,22278,32251
2,76472,82574
//Storyboard Layer 0 (Background)
//Storyboard Layer 1 (Fail)
//Storyboard Layer 2 (Pass)
//Storyboard Layer 3 (Foreground)
//Storyboard Layer 4 (Overlay)
//Storyboard Sound Samples

[TimingPoints]
305,483.870967741935,4,2,1,90,1,0
14337,483.870967741935,4,2,1,90,1,0
22078,-100,4,2,2,40,0,0
37562,-100,4,2,1,70,0,0
53046,-100,4,2,1,90,0,1
60546,-100,4,2,1,90,0,0
60788,-100,4,2,1,90,0,1
66595,-100,4,2,1,90,0,0
75576,-100,4,2,1,25,0,0
75788,-100,4,2,1,90,0,0
75818,-100,4,2,1,25,0,0
76272,-100,4,2,1,65,0,0
89820,-100,4,2,1,70,0,0
91030,-100,4,2,1,75,0,0
91756,-100,4,2,1,90,0,1
99256,-100,4,2,1,90,0,0
99498,-100,4,2,1,90,0,1
105304,-100,4,2,1,90,0,0
114982,508.474576271186,4,2,1,90,1,0
117015,535.714285714285,4,2,1,80,1,0
119157,582.524271844659,4,2,1,70,1,0
121487,612.244897959183,4,2,1,60,1,0
123935,571.428571428571,4,2,2,50,1,0
126220,566.037735849056,4,2,2,50,1,0
128484,576.923076923076,4,2,2,50,1,0
130791,571.428571428571,4,2,2,50,1,0
133076,600,4,2,2,50,1,0
134276,631.57894736842,4,2,2,50,1,0
135539,722.891566265058,4,2,2,50,1,0
136261,882.352941176467,4,2,2,50,1,0
137143,749.999999999998,4,2,2,50,1,0
138643,1200,4,2,2,50,1,0

[Colours]
Combo1 : 243,150,194
Combo2 : 150,199,252
Combo3 : 207,163,243
Combo4 : 159,159,242

[HitObjects]
332,133,14337,6,0,B|359:113|359:113|461:144,2,120,6|2|2,3:2|1:2|3:2,0:0:0:0:
256,192,15788,1,2,1:2:0:0:
180,251,16272,2,0,B|153:271|153:271|51:240,2,120,2|2|2,3:2|1:2|3:2,0:0:0:0:
256,192,17723,1,2,1:2:0:0:
345,228,18207,6,0,B|375:241|375:241|400:345,2,120,6|2|2,3:2|1:2|3:2,0:0:0:0:
256,192,19658,1,2,1:2:0:0:
166,155,20143,2,0,B|136:142|136:142|111:38,2,120,2|2|2,3:2|1:2|3:2,0:0:0:0:
256,192,21594,1,2,1:2:0:0:
332,133,22078,1,2,3:2:0:0:
256,192,33691,12,2,35627,0:0:0:0:
254,276,37562,6,0,P|167:273|204:160,1,240,2|2,3:2|3:2,0:0:0:0:
294,145,39014,1,2,3:2:0:0:
336,58,39498,2,0,P|396:34|479:174,1,240,2|2,3:2|3:2,0:0:0:0:
456,242,40949,1,2,3:2:0:0:
360,229,41433,6,0,B|293:246|293:246|245:333|245:333|170:355,1,240,2|2,3:2|3:2,0:0:0:0:
82,375,42885,1,2,3:2:0:0:
14,307,43369,2,0,B|-23:185|82:191|18:51,1,240,2|2,3:2|3:2,0:0:0:0:
96,7,44820,1,2,3:2:0:0:
191,17,45304,6,0,P|248:29|282:79,1,120,2|2,3:2|3:2,0:0:0:0:
290,173,46272,1,2,3:2:0:0:
235,251,46756,1,2,3:2:0:0:
276,337,47240,2,0,B|339:296|411:336|382:359|445:403|522:358,1,240,2|2,3:2|3:2,0:0:0:0:
487,273,48691,1,2,3:2:0:0:
511,180,49175,6,0,P|495:120|442:76,1,120,2|2,3:2|3:2,0:0:0:0:
361,52,50143,1,2,3:2:0:0:
277,98,50627,1,2,3:2:0:0:
202,37,51111,2,0,P|178:20|126:19,1,60,2|2,3:2|3:2,0:0:0:0:
100,20,51595,1,2,3:2:0:0:
19,72,52078,1,2,3:2:0:0:
17,119,52320,1,2,1:2:0:0:
14,166,52562,1,2,1:2:0:0:
109,175,53046,6,0,B|166:166|166:166|178:159|178:159|234:152,1,120,6|2,3:2|1:2,0:0:0:0:
324,152,54014,2,0,P|350:167|371:191,1,60,2|2,3:2|3:2,0:0:0:0:
394,230,54498,1,2,1:2:0:0:
371,323,54982,2,0,B|308:316|318:357|255:356,1,120,2|2,3:2|1:2,0:0:0:0:
191,287,55949,2,0,P|166:274|129:271,1,60,2|2,3:2|3:3,0:0:0:0:
87,280,56433,1,10,1:2:0:0:
14,217,56917,6,0,P|7:156|-10:87,2,120,6|2|2,3:2|1:2|3:2,0:0:0:0:
87,280,58369,2,0,B|159:288|188:220|159:207|213:135|275:161,1,240,2|0,1:2|1:2,0:0:0:0:
356,199,59820,1,0,3:2:0:0:
449,176,60304,1,8,1:2:0:0:
499,94,60788,6,0,P|470:35|422:19,1,120,6|2,3:2|1:2,0:0:0:0:
340,70,61756,2,0,L|271:65,1,60,2|2,3:2|3:2,0:0:0:0:
231,64,62240,1,2,1:2:0:0:
150,11,62724,2,0,P|88:32|65:101,1,120,2|2,3:2|1:2,0:0:0:0:
6,154,63691,2,0,L|13:225,1,60,2|2,3:2|3:3,0:0:0:0:
20,261,64175,1,10,1:2:0:0:
93,322,64659,6,0,P|138:367|217:359,2,120,6|2|2,3:2|1:2|3:2,0:0:0:0:
107,202,66111,1,2,1:2:0:0:
166,191,66353,1,0,1:2:0:0:
215,225,66595,1,6,3:2:0:0:
180,251,68530,6,0,L|72:324,2,120,6|2|2,3:2|1:2|3:2,0:0:0:0:
256,192,69981,1,10,1:2:0:0:
332,133,70466,2,0,L|440:60,2,120,2|2|2,3:2|1:2|3:2,0:0:0:0:
256,192,71917,1,2,1:1:0:0:
315,268,72401,6,0,L|388:376,2,120,6|2|2,3:2|1:2|3:2,0:0:0:0:
256,192,73852,1,10,1:2:0:0:
197,116,74336,2,0,L|123:8,2,120,2|2|2,3:2|1:2|3:2,0:0:0:0:
256,192,75787,1,2,1:2:0:0:
180,251,76272,1,2,3:2:0:0:
466,323,84014,6,0,B|399:309|399:309|349:216|349:216|269:198,1,240,2|2,3:2|3:2,0:0:0:0:
188,193,85466,1,2,3:2:0:0:
107,245,85949,2,0,P|38:224|106:86,1,240,2|2,3:2|3:2,0:0:0:0:
149,40,87401,1,2,3:2:0:0:
236,79,87885,6,0,P|280:117|356:121,1,120,2|2,3:2|3:2,0:0:0:0:
415,183,88853,2,0,P|469:163|511:100,1,120,2|2,3:2|3:2,0:0:0:0:
448,38,89820,2,0,P|418:25|377:28,1,60,2|2,3:2|3:2,0:0:0:0:
344,36,90304,1,2,3:2:0:0:
282,109,90788,1,2,3:2:0:0:
247,142,91030,1,2,1:2:0:0:
202,159,91272,1,2,1:2:0:0:
106,172,91756,6,0,P|56:122|60:57,1,120,6|2,3:2|1:2,0:0:0:0:
120,5,92724,2,0,L|201:18,1,60,2|2,3:2|3:2,0:0:0:0:
224,31,93207,1,10,1:2:0:0:
268,114,93691,2,0,L|279:242,1,120,2|2,3:2|1:2,0:0:0:0:
291,328,94659,2,0,P|319:349|354:352,1,60,2|2,3:2|3:3,0:0:0:0:
391,348,95143,1,10,1:2:0:0:
466,288,95627,6,0,B|476:238|476:238|471:215|471:215|482:156,2,120,6|2|2,3:2|1:2|3:2,0:0:0:0:
391,348,97078,2,0,P|267:357|122:379,1,240,2|0,1:2|1:2,0:0:0:0:
55,375,98530,1,0,3:2:0:0:
4,293,99014,1,8,1:2:0:0:
59,213,99498,6,0,L|179:199,1,120,6|2,3:2|1:2,0:0:0:0:
273,184,100466,2,0,L|340:176,1,60,2|2,3:2|3:2,0:0:0:0:
380,171,100949,1,2,1:2:0:0:
465,127,101433,2,0,P|458:62|374:40,1,120,2|2,3:2|1:2,0:0:0:0:
329,78,102401,2,0,P|290:89|253:80,1,60,2|2,3:2|3:3,0:0:0:0:
227,67,102885,1,10,1:2:0:0:
137,31,103369,6,0,B|79:11|76:57|8:35,2,120,6|2|2,3:2|1:2|3:2,0:0:0:0:
227,67,104820,1,2,1:2:0:0:
245,124,105062,1,0,1:2:0:0:
235,183,105304,1,6,3:2:0:0:
195,114,107240,6,0,P|139:85|78:108,2,120,6|2|2,3:2|1:2|3:2,0:0:0:0:
256,192,108691,1,10,1:2:0:0:
317,270,109175,2,0,P|373:299|434:276,2,120,6|2|2,3:2|1:2|3:2,0:0:0:0:
256,192,110626,1,2,1:1:0:0:
334,131,111111,6,0,P|363:75|340:14,2,120,6|2|2,3:2|1:2|3:2,0:0:0:0:
256,192,112562,1,10,1:2:0:0:
178,253,113046,2,0,P|149:309|172:370,2,120,6|2|2,3:2|1:2|3:2,0:0:0:0:
256,192,114497,1,2,1:2:0:0:
195,114,114982,6,0,B|126:48|28:133|80:238,1,240,6|2,3:2|3:2,0:0:0:0:
134,304,116507,1,10,1:2:0:0:
220,332,117015,2,0,B|330:257|331:392|453:330,1,240,6|2,3:2|3:2,0:0:0:0:
487,248,118622,1,2,1:2:0:0:
461,163,119157,6,0,B|346:144|346:144|286:37|286:37|140:20,1,360,6|10,3:2|1:2,0:0:0:0:
113,103,121487,2,0,B|232:116|232:116|292:223|292:223|407:242,1,360,6|2,3:2|1:2,0:0:0:0:
461,163,123935,1,2,3:2:0:0:
