osu file format v14

[General]
AudioFilename: audio.mp3
AudioLeadIn: 0
PreviewTime: 23488
Countdown: 0
SampleSet: Normal
StackLeniency: 0.7
Mode: 0
LetterboxInBreaks: 0
WidescreenStoryboard: 1

[Editor]
Bookmarks: 29266,32377
DistanceSpacing: 1
BeatDivisor: 4
GridSize: 4
TimelineZoom: 1.7

[Metadata]
Title:Hey Duggee Theme Tune!
TitleUnicode:Hey Duggee Theme Tune!
Artist:Oliver M.A Knowles
ArtistUnicode:Oliver M.A Knowles
Creator:Kurantem
Version:Normal
Source:
Tags:
BeatmapID:1616431
BeatmapSetID:768601

[Difficulty]
HPDrainRate:4.5
CircleSize:3.5
OverallDifficulty:5
ApproachRate:5
SliderMultiplier:1.25
SliderTickRate:1

[Events]
//Background and Video events
Video,0,"CBeebies Songs Hey Duggee Theme Song.mp4"
0,0,"duggee wallpaper.png",0,0
//Break Periods
//Storyboard Layer 0 (Background)
//Storyboard Layer 1 (Fail)
//Storyboard Layer 2 (Pass)
//Storyboard Layer 3 (Foreground)
//Storyboard Sound Samples

[TimingPoints]
1656,444.444444444444,4,1,0,100,1,0
1656,-125,4,1,0,100,0,0
4989,-76.9230769230769,4,1,0,100,0,0
5711,444.444444444444,4,1,0,100,1,0
9266,-90.9090909090909,4,1,0,100,0,0
12822,-83.3333333333333,4,1,0,100,0,0
19933,-100,4,1,0,100,0,0
23488,-90.9090909090909,4,1,0,100,0,0
30599,-111.111111111111,4,1,0,100,0,0

[Colours]
Combo1 : 230,216,43
Combo2 : 255,0,0
Combo3 : 17,238,238

[HitObjects]
108,75,1656,5,0,0:0:0:0:
108,75,1878,1,0,0:0:0:0:
275,246,3211,6,0,L|338:235,1,50
422,216,3767,1,0,0:0:0:0:
414,91,4322,1,0,0:0:0:0:
171,65,4989,6,0,L|243:132,1,81.2499962806704
344,203,5711,6,0,L|329:280,1,62.5
279,230,6155,2,0,L|264:307,1,62.5
209,267,6599,2,0,L|194:344,2,62.5
149,157,7488,6,0,L|80:152,1,62.5
114,96,7933,2,0,L|176:100,1,62.5
209,47,8377,2,0,L|146:42,2,62.5
345,62,9266,5,0,0:0:0:0:
345,62,9488,2,0,L|332:144,1,68.7500020980836
327,198,9933,1,0,0:0:0:0:
196,131,10155,1,0,0:0:0:0:
196,131,10377,2,0,L|183:213,1,68.7500020980836
172,266,10822,1,0,0:0:0:0:
47,194,11044,1,0,0:0:0:0:
47,194,11266,2,0,L|34:276,1,68.7500020980836
25,329,11710,1,0,0:0:0:0:
153,333,11933,5,0,0:0:0:0:
221,330,12155,1,0,0:0:0:0:
289,326,12377,1,0,0:0:0:0:
420,253,12822,6,0,L|403:180,1,74.9999977111817
378,109,13266,1,0,0:0:0:0:
312,72,13488,1,0,0:0:0:0:
237,65,13710,1,0,0:0:0:0:
182,117,13933,1,0,0:0:0:0:
307,303,14377,6,0,L|248:241,1,74.9999977111817
205,192,14822,1,0,0:0:0:0:
257,138,15044,1,0,0:0:0:0:
327,162,15266,1,0,0:0:0:0:
349,233,15488,1,0,0:0:0:0:
445,348,15933,6,0,L|446:265,1,74.9999977111817
437,198,16377,1,0,0:0:0:0:
379,149,16599,1,0,0:0:0:0:
311,182,16822,1,0,0:0:0:0:
248,141,17044,1,0,0:0:0:0:
184,181,17266,1,0,0:0:0:0:
130,128,17488,1,0,0:0:0:0:
27,237,17933,6,0,L|92:197,1,74.9999977111817
155,159,18377,1,0,0:0:0:0:
228,173,18599,1,0,0:0:0:0:
280,227,18822,1,0,0:0:0:0:
273,301,19044,1,0,0:0:0:0:
420,325,19488,6,0,L|388:246,1,74.9999977111817
365,198,19933,1,0,0:0:0:0:
342,139,20155,2,0,L|312:71,2,62.5
326,199,20822,1,0,0:0:0:0:
279,241,21044,1,0,0:0:0:0:
220,219,21266,1,0,0:0:0:0:
158,110,21710,6,0,L|131:80,6,31.25
251,193,22822,1,0,0:0:0:0:
251,193,23044,1,0,0:0:0:0:
338,87,23488,6,0,P|371:81|423:83,1,68.7500020980836
377,143,23933,2,0,P|410:142|461:153,1,68.7500020980836
419,212,24377,2,0,P|425:244|423:297,1,68.7500020980836
363,251,24822,2,0,P|363:284|352:335,1,68.7500020980836
296,286,25266,2,0,P|263:292|211:290,1,68.7500020980836
257,230,25711,2,0,P|223:230|172:219,1,68.7500020980836
215,161,26155,2,0,P|209:128|211:76,1,68.7500020980836
271,122,26600,2,0,P|270:88|281:37,1,68.7500020980836
333,92,27044,5,0,0:0:0:0:
368,150,27266,1,0,0:0:0:0:
353,217,27488,1,0,0:0:0:0:
307,268,27710,1,0,0:0:0:0:
239,253,27933,1,0,0:0:0:0:
185,209,28155,5,0,0:0:0:0:
117,194,28377,1,0,0:0:0:0:
64,238,28599,1,0,0:0:0:0:
62,306,28822,1,0,0:0:0:0:
111,353,29044,1,0,0:0:0:0:
179,359,29266,6,0,B|346:325|249:150|381:137,1,309.375009441376
434,142,30488,1,0,0:0:0:0:
434,142,30710,1,0,0:0:0:0:
399,64,31044,5,0,0:0:0:0:
399,64,31266,1,0,0:0:0:0:
345,80,31488,2,0,L|280:64,2,56.2499982833863
372,129,32155,1,0,0:0:0:0:
372,129,32377,1,0,0:0:0:0:
