osu file format v14

[General]
AudioFilename: audio.mp3
AudioLeadIn: 0
PreviewTime: 76348
Countdown: 1
SampleSet: Soft
StackLeniency: 0.7
Mode: 0
LetterboxInBreaks: 0
WidescreenStoryboard: 0

[Editor]
DistanceSpacing: 1.2
BeatDivisor: 4
GridSize: 8
TimelineZoom: 1

[Metadata]
Title:Shades Of Grey ft. Delaney Jane (Ephwurd Remix)
TitleUnicode:Shades Of Grey ft. Delaney Jane (Ephwurd Remix)
Artist:Oliver Heldens & Shaun Frank
ArtistUnicode:Oliver Heldens & Shaun Frank
Creator:DeepSeaK
Version:
Source:
Tags:
BeatmapID:1713299
BeatmapSetID:817040

[Difficulty]
HPDrainRate:5
CircleSize:4
OverallDifficulty:6
ApproachRate:8
SliderMultiplier:1.3
SliderTickRate:1

[Events]
//Background and Video events
0,0,"this is a good one.jpg",0,0
//Break Periods
//Storyboard Layer 0 (Background)
//Storyboard Layer 1 (Fail)
//Storyboard Layer 2 (Pass)
//Storyboard Layer 3 (Foreground)
//Storyboard Sound Samples

[TimingPoints]
218,476.190476190476,4,2,0,100,1,0
30694,-100,4,2,2,30,0,0
45932,-80,4,2,2,60,0,0
61170,-66.6666666666667,4,2,2,75,0,0

[Colours]
Combo1 : 180,180,180
Combo2 : 94,94,255
Combo3 : 0,0,160
Combo4 : 73,73,73

[HitObjects]
119,273,30694,6,0,P|163:269|189:269,1,65,2|0,0:0|0:0,0:0:0:0:
247,310,31170,2,0,P|282:287|332:272,1,65
379,297,31646,1,0,0:0:0:0:
379,297,32003,2,2,P|402:255|412:243,1,32.5
446,215,32360,1,0,0:0:0:0:
458,138,32598,6,0,P|416:119|391:117,1,65,2|0,0:0|0:0,0:0:0:0:
397,46,33075,2,0,P|338:54|330:57,1,65,2|0,0:0|0:0,0:0:0:0:
259,35,33551,1,2,0:0:0:0:
259,35,33908,2,0,P|235:62|225:87,1,32.5
227,133,34265,1,0,0:0:0:0:
248,217,34503,6,0,P|291:228|324:226,1,65,2|0,0:0|0:0,0:0:0:0:
362,278,34979,2,0,P|397:259|419:235,1,65,2|0,0:0|0:0,0:0:0:0:
488,215,35456,1,0,0:0:0:0:
488,215,35813,2,0,P|497:168|495:160,1,32.5
477,105,36170,1,2,0:0:0:0:
423,38,36408,6,0,P|390:35|377:31,1,32.5,2|0,0:0|0:0,0:0:0:0:
344,94,36765,2,0,P|304:93|293:97,1,32.5,2|0,0:0|0:0,0:0:0:0:
271,28,37122,2,0,P|238:25|225:21,1,32.5,2|0,0:0|0:0,0:0:0:0:
199,93,37479,1,2,0:0:0:0:
199,93,37717,2,0,P|155:98|140:104,1,32.5,2|0,0:0|0:0,0:0:0:0:
118,37,38075,1,2,0:0:0:0:
41,46,38313,6,0,P|22:92|22:110,1,65,2|0,0:0|0:0,0:0:0:0:
82,153,38789,2,0,P|88:203|86:234,1,65,2|0,0:0|0:0,0:0:0:0:
34,274,39265,1,2,0:0:0:0:
34,274,39622,2,0,P|48:309|55:317,1,32.5,2|0,0:0|0:0,0:0:0:0:
125,305,39979,1,2,0:0:0:0:
192,265,40217,6,0,P|215:238|243:217,1,65,2|0,0:0|0:0,0:0:0:0:
256,144,40694,2,0,P|314:126|328:117,1,65,2|0,0:0|0:0,0:0:0:0:
397,148,41170,1,2,0:0:0:0:
397,148,41527,2,0,P|434:154|450:168,1,32.5,2|0,0:0|0:0,0:0:0:0:
478,211,41884,1,2,0:0:0:0:
469,286,42122,6,0,P|428:302|397:306,1,65,2|0,0:0|0:0,0:0:0:0:
345,355,42598,2,0,P|284:362|270:366,1,65,2|0,0:0|0:0,0:0:0:0:
210,318,43075,1,2,0:0:0:0:
210,318,43432,2,0,P|172:310|164:304,1,32.5
99,326,43789,1,0,0:0:0:0:
42,261,44027,6,0,P|39:225|33:213,1,32.5,2|0,0:0|0:0,0:0:0:0:
101,181,44384,2,0,P|104:141|108:132,1,32.5,2|0,0:0|0:0,0:0:0:0:
64,82,44741,1,2,0:0:0:0:
64,82,44979,2,0,P|119:71|135:73,1,65,2|0,0:0|0:0,0:0:0:0:
187,118,45456,2,0,P|232:119|255:115,1,65,2|0,0:0|0:0,0:0:0:0:
320,84,45932,6,0,P|405:93|407:172,1,162.5,6|0,0:0|0:0,0:0:0:0:
332,212,46646,1,0,0:0:0:0:
246,169,46884,2,0,P|201:142|179:115,1,81.25,2|0,0:0|0:0,0:0:0:0:
137,46,47360,1,8,0:0:0:0:
54,64,47598,1,2,0:0:0:0:
54,64,47717,6,0,P|30:142|127:176,1,203.125
195,104,48551,1,0,0:0:0:0:
290,76,48789,2,0,P|337:70|376:72,1,81.25,2|0,0:0|0:0,0:0:0:0:
463,106,49265,1,8,0:0:0:0:
477,199,49503,1,0,0:0:0:0:
477,199,49622,6,0,P|446:252|336:197,1,203.125
335,108,50456,2,0,P|342:65|358:30,1,81.25
456,29,50932,2,0,P|471:69|475:108,1,81.25
447,199,51408,1,2,0:0:0:0:
373,259,51646,6,0,P|280:278|205:230,1,162.5,2|0,0:0|0:0,0:0:0:0:
129,334,52598,2,0,P|163:336|172:339,1,40.625
229,301,52956,2,0,P|314:291|355:291,1,121.875,2|0,0:0|0:0,0:0:0:0:
393,231,53551,6,0,P|415:138|388:76,1,162.5,6|0,0:0|0:0,0:0:0:0:
323,156,54265,1,0,0:0:0:0:
393,231,54503,2,0,P|428:269|448:305,1,81.25,2|0,0:0|0:0,0:0:0:0:
352,311,54979,1,8,0:0:0:0:
280,241,55217,1,2,0:0:0:0:
280,241,55337,6,0,P|306:165|417:222,1,203.125
224,321,56408,2,0,P|158:314|127:300,1,81.25,2|0,0:0|0:0,0:0:0:0:
105,220,56884,1,8,0:0:0:0:
172,150,57122,1,2,0:0:0:0:
172,150,57241,6,0,P|271:177|298:90,1,203.125
253,27,58075,2,0,P|202:27|162:37,1,81.25
126,120,58551,2,0,P|185:127|218:115,1,81.25
253,27,59027,1,2,0:0:0:0:
355,43,59265,6,0,P|390:126|346:214,1,162.5,2|0,0:0|0:0,0:0:0:0:
119,239,60217,2,0,P|122:285|131:304,1,40.625
167,336,60575,2,0,P|246:357|294:357,1,121.875
354,298,61170,6,0,P|377:249|370:189,1,97.50000371933,4|0,0:0|0:0,0:0:0:0:
313,107,61646,1,8,0:0:0:0:
197,124,61884,1,0,0:0:0:0:
154,232,62122,2,0,P|212:293|261:291,1,97.50000371933,2|0,0:0|0:0,0:0:0:0:
332,260,62598,1,8,0:0:0:0:
358,145,62837,1,0,0:0:0:0:
447,69,63075,6,0,P|479:134|460:182,1,97.50000371933,4|0,0:0|0:0,0:0:0:0:
397,243,63551,1,8,0:0:0:0:
360,132,63789,1,0,0:0:0:0:
475,155,64027,1,4,0:0:0:0:
397,243,64265,1,0,0:0:0:0:
360,132,64503,2,0,P|432:124|465:161,1,97.50000371933,8|0,0:0|0:0,0:0:0:0:
447,324,64979,5,4,0:0:0:0:
293,188,65217,1,0,0:0:0:0:
207,268,65456,2,0,P|190:324|248:365,1,97.50000371933,8|0,0:0|0:0,0:0:0:0:
318,309,65932,1,4,0:0:0:0:
207,268,66170,1,0,0:0:0:0:
293,188,66408,1,8,0:0:0:0:
184,143,66646,1,0,0:0:0:0:
272,66,66884,6,0,P|343:60|370:86,1,97.50000371933,4|0,0:0|0:0,0:0:0:0:
363,190,67360,2,0,P|297:208|255:180,1,97.50000371933,8|0,0:0|0:0,0:0:0:0:
216,91,67837,2,0,P|164:70|156:70,1,48.750001859665,4|0,0:0|0:0,0:0:0:0:
83,106,68194,2,0,P|49:167|33:246,1,146.250005578995
