osu file format v14

[General]
AudioFilename: audio.mp3
AudioLeadIn: 0
PreviewTime: 52271
Countdown: 0
SampleSet: Soft
StackLeniency: 0.7
Mode: 0
LetterboxInBreaks: 0
WidescreenStoryboard: 0

[Editor]
DistanceSpacing: 1.2
BeatDivisor: 4
GridSize: 32
TimelineZoom: 2

[Metadata]
Title:Takarabako -TREASURE BOX- (TV Size)
TitleUnicode:宝箱―TREASURE BOX― (TV Size)
Artist:Okui Masami
ArtistUnicode:奥井雅美
Creator:Flake
Version:Insane
Source:SHIROBAKO
Tags:white box anime japanese opening p.a. works aoi miyamori ema yasuhara shizuka sakaki misa tōdō toudou midori imai シロバコ 宮森あおい 安原絵麻 坂木しずか 藤堂美沙 今井みどり
BeatmapID:2432926
BeatmapSetID:1166355

[Difficulty]
HPDrainRate:7
CircleSize:4
OverallDifficulty:7
ApproachRate:8.5
SliderMultiplier:1.4
SliderTickRate:1

[Events]
//Background and Video events
0,0,"MusashinoBuilding.jpg",0,0
//Break Periods
//Storyboard Layer 0 (Background)
//Storyboard Layer 1 (Fail)
//Storyboard Layer 2 (Pass)
//Storyboard Layer 3 (Foreground)
//Storyboard Layer 4 (Overlay)
//Storyboard Sound Samples

[TimingPoints]
3474,370.37037037037,4,2,0,55,1,0

[Colours]
Combo1 : 153,234,214
Combo2 : 140,194,238
Combo3 : 134,242,115
Combo4 : 255,142,115

[HitObjects]
143,199,512,6,0,P|109:188|79:171,2,70,2|0|0,0:0|0:0|0:0,0:0:0:0:
43,288,1067,2,0,P|27:256|16:223,1,70
63,93,1437,2,0,P|93:76|127:66,1,70
230,102,1808,5,2,0:0:0:0:
230,102,2178,1,0,0:0:0:0:
305,64,2363,1,0,0:0:0:0:
403,170,2549,1,0,0:0:0:0:
464,113,2734,2,0,P|466:96|471:74,4,35,2|2|0|0|0,0:0|0:0|1:0|1:0|1:0,0:0:0:0:
403,170,3289,6,0,P|412:217|425:321,1,140,4|4,0:0|3:0,0:0:0:0:
341,290,3845,2,0,P|335:241|326:193,1,70,0|0,1:0|0:0,0:0:0:0:
305,64,4215,1,2,0:0:0:0:
230,102,4400,1,2,0:0:0:0:
183,31,4586,2,0,P|147:22|110:17,1,70,0|2,1:0|0:0,0:0:0:0:
101,17,4863,1,2,0:0:0:0:
86,18,4956,6,0,P|78:87|64:156,1,140,2|0,0:0|1:0,0:0:0:0:
12,221,5511,1,0,0:0:0:0:
184,157,5697,2,0,P|159:190|131:222,1,70,2|0,0:0|0:0,0:0:0:0:
0,94,6067,2,0,P|34:97|69:103,1,70,2|0,1:2|0:0,0:0:0:0:
41,293,6437,5,2,0:0:0:0:
12,221,6622,1,4,3:0:0:0:
184,157,6808,5,2,1:2:0:0:
136,218,6993,1,0,0:0:0:0:
70,104,7178,2,0,P|104:100|139:94,1,70,2|4,0:0|3:0,0:0:0:0:
319,46,7549,1,2,1:2:0:0:
225,24,7734,6,0,P|249:89|277:153,1,140,2|4,0:0|0:3,0:0:0:0:
411,79,8289,2,0,P|379:116|350:156,1,70,2|4,1:2|1:3,0:0:0:0:
488,200,8660,5,2,0:0:0:0:
411,208,8845,1,4,0:3:0:0:
401,292,9030,2,0,P|427:317|457:340,1,70,0|2,1:0|0:0,0:0:0:0:
465,345,9307,1,2,0:0:0:0:
478,351,9400,6,0,P|449:286|427:220,1,140,4|0,0:0|1:0,0:0:0:0:
400,148,9956,1,0,0:0:0:0:
503,185,10141,2,0,P|508:136|517:88,1,70,2|4,0:0|3:0,0:0:0:0:
341,257,10511,2,0,P|309:237|279:215,1,70,2|0,1:2|0:0,0:0:0:0:
271,209,10788,1,0,0:0:0:0:
263,197,10882,5,2,0:0:0:0:
317,142,11067,1,4,3:0:0:0:
276,76,11252,1,2,1:2:0:0:
205,105,11437,1,4,3:0:0:0:
205,105,11623,2,0,P|165:98|125:85,1,70,0|4,0:0|3:0,0:0:0:0:
82,238,11993,2,0,P|108:206|139:178,1,70,0|0,1:0|0:0,0:0:0:0:
28,64,12363,5,14,3:0:0:0:
28,64,12549,2,0,P|41:102|50:143,2,70,2|2|4,0:0|1:2|1:3,0:0:0:0:
79,240,13104,1,2,1:2:0:0:
131,184,13289,1,4,1:3:0:0:
198,221,13474,1,2,1:2:0:0:
331,122,13660,6,0,P|306:187|289:255,1,140,4|4,0:0|0:3,0:0:0:0:
489,125,14215,1,2,1:2:0:0:
489,125,14586,2,0,P|455:140|423:160,1,70,8|0,0:3|1:0,0:0:0:0:
417,167,14863,1,0,1:0:0:0:
408,177,14955,1,0,1:0:0:0:
435,248,15140,1,8,0:3:0:0:
387,307,15326,6,0,P|352:301|315:297,1,70,6|0,0:0|0:0,0:0:0:0:
209,315,15697,1,0,1:0:0:0:
278,234,15882,2,0,P|285:303|297:372,1,140,2|2,0:2|0:2,0:0:0:0:
136,327,16437,1,0,1:0:0:0:
216,380,16622,2,0,P|208:310|196:241,1,140,2|2,0:2|0:2,0:0:0:0:
43,155,17178,1,0,1:0:0:0:
119,243,17363,2,0,P|84:237|49:234,1,70,2|0,0:2|0:0,0:0:0:0:
165,94,17734,1,4,0:3:0:0:
88,85,17919,1,0,1:0:0:0:
134,23,18104,1,2,0:2:0:0:
130,66,18289,6,0,P|164:60|199:56,1,70,2|2,0:0|0:2,0:0:0:0:
361,70,18660,1,0,1:0:0:0:
288,28,18845,2,0,P|282:62|278:97,1,70,2|0,0:2|0:0,0:0:0:0:
321,228,19215,1,2,0:2:0:0:
261,179,19400,1,0,1:0:0:0:
247,255,19586,2,0,P|315:243|385:235,1,140,2|2,0:2|0:2,0:0:0:0:
448,293,20141,1,0,1:0:0:0:
414,156,20326,2,0,P|379:150|344:146,1,70,2|0,0:2|0:0,0:0:0:0:
201,130,20697,1,2,0:0:0:0:
247,255,20882,2,0,P|212:260|177:264,1,70,2|2,1:2|0:2,0:0:0:0:
0,358,21252,6,0,P|7:288|19:219,1,140,2|0,0:0|1:0,0:0:0:0:
94,270,21808,1,0,0:0:0:0:
71,146,21993,2,0,P|39:131|6:118,1,70,2|4,0:2|0:3,0:0:0:0:
103,24,22363,2,0,P|117:56|129:88,1,70,2|2,1:2|0:2,0:0:0:0:
177,263,22734,6,0,P|182:214|190:165,1,70,4|0,0:3|0:0,0:0:0:0:
286,354,23104,1,2,1:2:0:0:
286,354,23289,2,0,P|276:284|269:215,1,140,2|4,0:2|0:3,0:0:0:0:
325,27,23845,1,2,1:2:0:0:
246,76,24030,1,2,0:2:0:0:
425,73,24215,6,0,P|420:107|416:142,1,70,2|0,0:0|0:0,0:0:0:0:
469,199,24586,1,0,1:0:0:0:
373,246,24771,2,0,P|407:238|441:231,1,70,2|4,0:0|3:0,0:0:0:0:
354,368,25141,2,0,P|319:361|285:353,1,70,2|2,0:3|1:2,0:0:0:0:
0,254,25511,6,0,B|1:293|55:319|55:319|122:308,1,140,6|2,0:2|0:0,0:0:0:0:
170,262,26067,1,2,1:2:0:0:
66,45,26252,1,2,0:2:0:0:
44,126,26437,1,8,0:3:0:0:
126,148,26623,1,0,0:0:0:0:
126,148,26715,1,0,1:0:0:0:
126,148,26808,1,0,1:0:0:0:
147,66,26993,1,2,0:0:0:0:
170,262,27178,6,0,P|178:300|184:330,1,70,4|2,0:0|0:0,0:0:0:0:
184,330,27549,1,0,1:0:0:0:
288,141,27734,2,0,P|270:224|257:290,1,140,2|2,0:0|0:0,0:0:0:0:
259,278,28289,1,0,1:0:0:0:
326,340,28474,2,0,P|345:310|364:281,1,70,2|4,0:0|0:3,0:0:0:0:
458,356,28845,1,2,0:0:0:0:
443,281,29030,1,0,1:0:0:0:
424,206,29215,2,0,P|433:157|443:110,1,70,2|0,0:0|0:0,0:0:0:0:
475,56,29586,1,4,0:3:0:0:
321,87,29771,1,0,1:0:0:0:
397,69,29956,1,2,0:0:0:0:
239,65,30141,5,4,0:0:0:0:
201,131,30326,2,0,P|205:165|208:200,1,70,2|0,0:0|1:0,0:0:0:0:
105,232,30697,2,0,P|113:162|120:92,1,140,2|2,0:0|0:0,0:0:0:0:
120,92,31252,1,0,1:0:0:0:
13,142,31437,2,0,P|17:176|20:211,1,70,2|4,0:0|0:3,0:0:0:0:
84,318,31808,1,2,0:0:0:0:
22,363,31993,1,0,1:0:0:0:
75,307,32178,2,0,P|109:314|143:320,1,70,2|0,0:0|0:0,0:0:0:0:
262,300,32549,1,4,0:3:0:0:
315,356,32734,2,0,P|349:348|383:342,1,70,0|2,1:0|0:0,0:0:0:0:
448,274,33104,6,0,P|440:204|432:134,1,140,4|0,0:0|1:0,0:0:0:0:
432,134,33660,1,0,0:0:0:0:
385,63,33845,2,0,P|417:50|450:37,1,70,2|4,0:0|0:3,0:0:0:0:
292,94,34215,2,0,P|297:59|302:24,1,70,2|0,1:2|0:0,0:0:0:0:
20,67,34586,5,6,0:0:0:0:
95,51,34771,1,2,0:3:0:0:
144,110,34956,1,0,1:0:0:0:
92,292,35141,6,0,B|51:281|41:227|41:227|60:164,1,140,4|4,0:0|0:3,0:0:0:0:
221,224,35697,2,0,P|186:228|152:233,1,70,4|0,1:0|0:0,0:0:0:0:
341,310,36067,5,6,0:0:0:0:
265,292,36252,1,4,0:3:0:0:
282,367,36437,1,0,1:0:0:0:
274,160,36623,6,0,P|308:150|397:208,1,140,6|4,0:0|0:3,0:0:0:0:
494,111,37178,1,0,1:0:0:0:
441,270,37363,2,0,P|475:266|510:261,1,70,6|0,0:0|0:0,0:0:0:0:
510,261,37734,1,4,0:3:0:0:
283,339,37919,5,2,1:2:0:0:
370,365,38104,1,4,0:3:0:0:
337,192,38289,5,2,1:2:0:0:
348,282,38474,1,4,0:3:0:0:
502,201,38660,5,2,1:2:0:0:
415,228,38845,1,4,0:3:0:0:
480,289,39030,5,10,1:2:0:0:
0,167,39400,1,14,1:2:0:0:
0,167,39771,2,0,B|26:197|26:197|19:230,1,70,8|0,0:3|1:0,0:0:0:0:
16,237,40049,1,0,1:0:0:0:
13,249,40141,2,0,P|13:291|17:320,1,70,0|2,1:0|0:3,0:0:0:0:
143,356,40511,5,6,2:3:0:0:
276,266,40697,1,6,2:3:0:0:
429,314,40882,1,6,2:3:0:0:
143,356,41437,5,6,2:3:0:0:
276,266,41623,1,6,2:3:0:0:
429,314,41808,2,0,P|429:230|437:172,1,140,6|4,2:2|0:3,0:0:0:0:
284,88,42363,2,0,P|329:106|376:118,1,70,8|2,0:0|0:0,0:0:0:0:
363,113,42641,1,8,0:0:0:0:
376,114,42734,2,0,P|421:95|468:83,1,70,2|2,0:3|0:3,0:0:0:0:
341,289,43104,2,0,P|307:277|275:265,1,70,2|2,1:3|0:0,0:0:0:0:
145,358,43474,5,6,2:3:0:0:
210,211,43660,1,6,2:3:0:0:
136,69,43845,1,6,2:3:0:0:
145,358,44215,5,10,1:2:0:0:
137,269,44400,1,8,2:3:0:0:
210,211,44586,1,4,2:3:0:0:
136,69,44771,2,0,P|218:83|274:101,1,140,6|4,2:2|0:3,0:0:0:0:
435,219,45326,2,0,P|409:177|389:132,1,70,8|2,0:0|0:0,0:0:0:0:
428,83,45697,1,2,0:3:0:0:
502,101,45882,1,2,0:3:0:0:
318,163,46067,2,0,P|310:197|305:231,1,70,2|2,1:3|0:0,0:0:0:0:
512,328,46437,6,0,P|443:312|374:303,1,140,4|4,0:0|0:3,0:0:0:0:
374,303,46993,1,2,0:2:0:0:
219,361,47178,2,0,P|235:330|248:297,1,70,6|2,0:3|0:2,0:0:0:0:
122,199,47549,1,8,0:0:0:0:
165,262,47734,1,2,0:0:0:0:
109,314,47919,6,0,P|74:318|39:319,1,70,6|2,0:2|0:3,0:0:0:0:
98,133,48289,2,0,P|108:166|121:198,1,70,4|2,0:3|0:3,0:0:0:0:
224,197,48660,2,0,P|250:132|283:70,1,140,6|6,1:3|1:2,0:0:0:0:
283,70,49215,1,0,0:0:0:0:
305,240,49400,6,0,B|298:274|298:274|313:318,1,70,6|0,1:2|1:0,0:0:0:0:
313,316,49678,1,0,1:0:0:0:
318,325,49771,1,0,1:0:0:0:
400,264,49956,1,8,0:3:0:0:
401,255,50048,1,8,0:3:0:0:
402,246,50141,1,8,0:3:0:0:
490,296,50326,2,0,B|489:315|489:315|482:337,2,35,4|4|4,0:3|0:3|0:3,0:0:0:0:
403,236,50697,6,0,B|395:184|395:184|401:166|401:166|391:92,1,140,4|0,0:0|0:0,0:0:0:0:
500,21,51252,2,0,P|486:53|476:86,1,70,0|0,1:0|0:0,0:0:0:0:
448,289,51623,2,0,P|426:261|402:235,1,70,8|0,0:3|1:0,0:0:0:0:
250,115,51900,1,0,1:0:0:0:
241,109,51993,2,0,P|275:104|309:96,1,70,0|8,1:0|1:3,0:0:0:0:
138,43,52363,5,6,0:0:0:0:
36,66,52549,1,2,0:0:0:0:
172,196,52734,5,0,1:2:0:0:
34,153,52919,1,2,0:0:0:0:
96,322,53104,6,0,P|91:287|83:253,1,70,2|4,0:0|0:3,0:0:0:0:
24,369,53474,1,2,1:2:0:0:
172,196,53660,2,0,P|240:180|309:171,1,140,2|2,0:2|0:0,0:0:0:0:
262,297,54215,6,0,P|227:301|193:309,1,70,12|4,0:0|0:3,0:0:0:0:
430,131,54586,2,0,P|464:126|498:118,1,70,4|4,0:0|0:3,0:0:0:0:
292,64,54956,1,8,0:0:0:0:
292,64,55141,1,2,0:0:0:0:
421,356,55326,5,6,0:0:0:0:
438,261,55511,1,2,0:0:0:0:
230,140,55697,5,0,1:2:0:0:
322,217,55882,1,2,0:0:0:0:
499,119,56067,2,0,P|464:126|431:137,1,70,2|4,0:0|0:3,0:0:0:0:
372,80,56437,1,2,1:2:0:0:
322,217,56623,2,0,P|306:148|285:82,1,140,2|2,0:2|0:0,0:0:0:0:
122,157,57178,6,0,P|153:173|182:192,1,70,12|4,0:0|0:3,0:0:0:0:
132,43,57549,2,0,P|97:50|64:60,1,70,4|4,0:0|0:3,0:0:0:0:
76,279,57919,5,10,0:0:0:0:
13,165,58104,1,2,0:0:0:0:
46,360,58289,1,4,0:0:0:0:
158,257,58474,5,2,0:0:0:0:
265,337,58660,2,0,P|299:329|332:319,1,70,2|2,1:2|0:0,0:0:0:0:
239,180,59030,5,2,0:0:0:0:
313,199,59215,1,2,0:0:0:0:
289,125,59400,1,2,1:2:0:0:
158,257,59586,2,0,P|143:188|122:121,1,140,2|4,0:0|0:3,0:0:0:0:
232,40,60141,2,0,P|221:73|214:107,1,70,2|2,1:2|0:0,0:0:0:0:
371,62,60419,1,0,0:0:0:0:
380,64,60511,2,0,P|356:38|330:14,1,70,2|2,0:0|0:0,0:0:0:0:
285,180,60882,2,0,P|319:172|352:161,1,70,2|2,1:2|0:0,0:0:0:0:
479,46,61252,1,6,0:0:0:0:
479,46,61623,5,0,1:0:0:0:
352,160,61808,1,4,0:3:0:0:
512,202,61993,5,0,1:0:0:0:
422,110,62178,1,4,0:3:0:0:
329,235,62363,5,0,1:0:0:0:
480,309,62549,2,0,P|409:317|342:333,1,140,2|4,0:3|0:3,0:0:0:0:
335,235,63104,2,0,P|345:201|353:167,1,70,12|0,1:2|0:0,0:0:0:0:
141,106,63474,2,0,B|171:80|171:80|204:87,1,70,8|0,0:3|1:0,0:0:0:0:
211,90,63752,1,0,1:0:0:0:
223,93,63844,2,0,P|265:93|294:88,1,70,0|0,1:0|1:0,0:0:0:0:
305,83,64123,1,2,0:0:0:0:
314,77,64215,5,6,0:0:0:0:
347,10,64400,1,2,0:0:0:0:
378,151,64586,5,0,1:2:0:0:
478,115,64771,1,2,0:0:0:0:
432,284,64956,6,0,P|399:271|370:254,1,70,2|4,0:0|0:3,0:0:0:0:
309,206,65326,1,2,1:2:0:0:
246,342,65511,2,0,P|238:272|218:205,1,140,2|2,0:2|0:0,0:0:0:0:
58,255,66067,2,0,P|54:289|44:323,1,70,12|4,0:0|0:3,0:0:0:0:
212,115,66437,2,0,P|215:80|225:46,1,70,4|4,0:0|0:3,0:0:0:0:
288,238,66808,1,8,0:0:0:0:
218,205,66993,1,2,0:0:0:0:
187,275,67178,6,0,P|190:309|200:343,1,70,6|0,0:0|0:0,0:0:0:0:
428,153,67549,2,0,P|395:145|363:131,1,70,0|0,1:2|0:0,0:0:0:0:
58,255,67919,1,2,0:0:0:0:
82,182,68104,1,4,0:3:0:0:
7,199,68289,1,2,1:2:0:0:
137,239,68474,6,0,P|117:171|109:102,1,140,2|2,0:2|0:0,0:0:0:0:
7,199,69030,1,0,1:2:0:0:
24,99,69215,1,4,0:3:0:0:
204,176,69400,6,0,P|238:172|272:162,1,70,0|0,1:2|1:0,0:0:0:0:
285,156,69678,1,0,1:0:0:0:
297,150,69771,1,0,1:0:0:0:
333,82,69956,1,8,0:3:0:0:
475,282,70141,5,6,0:3:0:0:
505,211,70326,1,6,0:3:0:0:
463,146,70511,1,0,1:0:0:0:
261,282,70697,6,0,B|298:263|298:263|337:277|358:308,1,105,6|0,0:0|0:0,0:0:0:0:
351,305,71067,1,4,0:3:0:0:
100,156,71252,2,0,B|146:168|146:168|214:149|218:92,1,140,4|2,1:0|0:3,0:0:0:0:
42,86,71808,5,2,0:0:0:0:
81,241,71993,1,2,1:2:0:0:
37,314,72178,5,2,0:0:0:0:
178,351,72363,2,0,P|142:360|106:365,1,70,4|4,0:3|0:3,0:0:0:0:
100,156,72734,2,0,P|134:157|169:164,1,70,0|0,1:0|0:0,0:0:0:0:
351,305,73104,5,6,0:0:0:0:
424,327,73289,1,6,0:3:0:0:
482,277,73474,1,0,1:0:0:0:
298,80,73660,6,0,B|275:109|275:109|271:144,1,70,6|0,0:0|0:0,0:0:0:0:
482,277,74030,1,4,0:3:0:0:
381,96,74215,2,0,B|362:134|362:134|357:182|400:234,1,140,4|2,1:0|0:3,0:0:0:0:
501,61,74771,5,2,0:0:0:0:
298,80,74956,1,2,1:2:0:0:
348,21,75141,5,0,0:0:0:0:
381,96,75326,2,0,P|373:130|371:165,1,70,4|0,0:3|0:0,0:0:0:0:
491,346,75697,2,0,P|488:311|481:276,1,70,0|0,1:0|0:0,0:0:0:0:
281,184,76067,6,0,P|212:169|142:164,1,140,4|0,0:0|1:0,0:0:0:0:
142,164,76623,1,4,0:3:0:0:
75,203,76808,2,0,P|40:200|5:193,1,70,4|0,0:3|0:0,0:0:0:0:
158,0,77178,2,0,P|173:31|184:64,1,70,2|2,0:0|0:0,0:0:0:0:
187,103,77456,1,2,0:0:0:0:
179,141,77549,5,0,1:0:0:0:
434,190,77734,1,4,0:3:0:0:
179,141,77919,2,0,P|213:143|248:150,1,70,4|0,1:0|0:0,0:0:0:0:
512,208,78289,1,4,0:3:0:0:
468,272,78474,1,0,1:0:0:0:
468,272,78566,1,0,1:0:0:0:
468,272,78659,1,0,1:0:0:0:
362,58,78845,6,0,P|409:49|513:36,1,140,4|4,0:0|3:0,0:0:0:0:
478,120,79400,2,0,P|443:123|408:129,1,70,0|0,1:0|0:0,0:0:0:0:
241,107,79771,1,2,0:0:0:0:
279,182,79956,1,2,0:0:0:0:
208,229,80140,2,0,P|199:265|194:302,1,70,0|2,1:0|0:0,0:0:0:0:
194,311,80418,1,2,0:0:0:0:
195,326,80511,6,0,P|264:334|333:348,1,140,2|0,0:0|1:0,0:0:0:0:
279,182,81067,1,0,0:0:0:0:
451,118,81252,2,0,P|426:151|398:183,1,70,2|4,0:0|3:0,0:0:0:0:
267,55,81623,2,0,P|301:58|336:64,1,70,2|0,1:2|0:0,0:0:0:0:
308,254,81993,5,2,0:0:0:0:
279,182,82178,1,4,3:0:0:0:
451,118,82362,5,2,1:2:0:0:
403,179,82548,1,0,0:0:0:0:
337,65,82733,6,0,P|371:61|406:55,1,70,2|4,0:0|3:0,0:0:0:0:
485,39,83103,1,2,1:2:0:0:
449,239,83288,6,0,P|384:210|319:186,1,140,2|4,0:0|0:3,0:0:0:0:
271,318,83844,2,0,P|266:283|259:249,1,70,2|4,1:2|1:3,0:0:0:0:
124,296,84214,5,2,0:0:0:0:
172,235,84400,1,4,0:3:0:0:
120,169,84585,2,0,P|83:169|46:174,1,70,0|2,1:0|0:0,0:0:0:0:
37,177,84863,1,2,0:0:0:0:
24,182,84955,6,0,P|90:207|152:238,1,140,4|0,0:0|1:0,0:0:0:0:
123,87,85511,1,0,0:0:0:0:
264,45,85696,2,0,P|215:40|166:31,1,70,2|4,0:0|3:0,0:0:0:0:
315,182,86067,2,0,P|295:214|273:244,1,70,2|0,1:2|0:0,0:0:0:0:
265,249,86344,1,0,0:0:0:0:
253,257,86437,6,0,P|319:279|383:307,1,140,2|0,0:0|1:2,0:0:0:0:
315,182,86992,1,4,3:0:0:0:
433,238,87177,2,0,P|418:206|407:172,1,70,0|4,0:0|3:0,0:0:0:0:
511,32,87548,2,0,P|490:60|467:86,1,70,0|0,1:0|0:0,0:0:0:0:
294,68,87918,1,14,3:0:0:0:
227,16,88103,6,0,P|192:19|157:26,2,70,2|2|4,0:0|1:2|1:3,0:0:0:0:
368,109,88659,1,2,1:2:0:0:
193,165,88844,1,4,1:3:0:0:
329,288,89029,1,2,1:2:0:0:
299,194,89214,5,4,0:0:0:0:
