osu file format v14

[General]
AudioFilename: audio.mp3
AudioLeadIn: 0
PreviewTime: 52271
Countdown: 0
SampleSet: Soft
StackLeniency: 0.7
Mode: 0
LetterboxInBreaks: 0
WidescreenStoryboard: 1

[Editor]
DistanceSpacing: 1.1
BeatDivisor: 4
GridSize: 4
TimelineZoom: 2

[Metadata]
Title:Takarabako -TREASURE BOX- (TV Size)
TitleUnicode:宝箱―TREASURE BOX― (TV Size)
Artist:Okui Masami
ArtistUnicode:奥井雅美
Creator:Flake
Version:Hard
Source:SHIROBAKO
Tags:white box anime japanese opening p.a. works aoi miyamori ema yasuhara shizuka sakaki misa tōdō toudou midori imai シロバコ 宮森あおい 安原絵麻 坂木しずか 藤堂美沙 今井みどり
BeatmapID:2434199
BeatmapSetID:1166355

[Difficulty]
HPDrainRate:5
CircleSize:4
OverallDifficulty:6
ApproachRate:7.5
SliderMultiplier:1.4
SliderTickRate:1

[Events]
//Background and Video events
0,0,"MusashinoBuilding.jpg",0,0
//Break Periods
//Storyboard Layer 0 (Background)
//Storyboard Layer 1 (Fail)
//Storyboard Layer 2 (Pass)
//Storyboard Layer 3 (Foreground)
//Storyboard Layer 4 (Overlay)
//Storyboard Sound Samples

[TimingPoints]
3474,370.37037037037,4,2,0,55,1,0

[Colours]
Combo1 : 153,234,214
Combo2 : 140,194,238
Combo3 : 134,242,115
Combo4 : 255,142,115

[HitObjects]
462,95,511,6,0,P|467:58|482:21,2,70,2|0|0,0:0|0:0|0:0,0:0:0:0:
512,153,1066,2,0,P|446:128|377:120,1,140
253,28,1807,2,0,B|160:18|209:75|113:68,1,140,2|0,0:0|0:0,0:0:0:0:
71,122,2363,2,0,P|76:159|91:196,1,70
61,262,2733,2,0,P|38:264|15:261,4,35,2|2|0|0|0,0:0|0:0|1:0|1:0|1:0,0:0:0:0:
137,256,3289,6,0,B|168:236|216:236|216:236|199:289|220:338|220:338|266:331|304:285,1,280,4|0,0:0|0:0,0:0:0:0:
292,214,4214,2,0,B|376:206|338:274|431:259,1,140,2|0,0:0|1:0,0:0:0:0:
414,183,4770,1,2,0:0:0:0:
452,179,4863,1,2,0:0:0:0:
481,209,4955,2,0,P|490:172|477:133,1,70,2|4,0:0|3:0,0:0:0:0:
437,85,5326,1,0,1:0:0:0:
437,85,5696,6,0,P|403:66|362:69,1,70,2|0,0:0|0:0,0:0:0:0:
310,111,6066,2,0,P|276:129|235:126,1,70,2|0,1:2|0:0,0:0:0:0:
188,76,6437,6,0,B|201:143|201:143|197:152|197:152|209:213,2,140,2|2|2,0:0|1:2|0:0,0:0:0:0:
130,23,7363,2,0,P|96:32|72:57,1,70,4|2,3:0|1:2,0:0:0:0:
43,128,7733,2,0,B|81:143|100:176|100:176|88:238,1,140,2|4,0:0|0:3,0:0:0:0:
66,315,8288,1,2,1:2:0:0:
66,315,8659,6,0,L|139:322,1,70,2|4,0:0|0:3,0:0:0:0:
203,286,9029,1,0,1:0:0:0:
265,330,9214,2,0,L|301:326,1,35,2|2,0:0|0:0,0:0:0:0:
337,319,9400,5,4,0:0:0:0:
343,167,9770,2,0,P|309:176|279:194,1,70,0|0,1:0|0:0,0:0:0:0:
245,48,10140,2,0,P|270:74|301:90,1,70,2|4,0:0|3:0,0:0:0:0:
192,194,10511,2,0,P|201:160|200:125,1,70,2|0,1:2|0:0,0:0:0:0:
194,113,10788,1,0,0:0:0:0:
185,101,10881,6,0,B|121:106|121:106|110:113|110:113|43:119,2,140,2|2|0,0:0|1:2|0:0,0:0:0:0:
236,43,11807,1,4,3:0:0:0:
312,41,11992,2,0,P|335:66|345:99,1,70,0|0,1:0|0:0,0:0:0:0:
347,176,12363,5,14,3:0:0:0:
417,144,12548,2,0,P|450:136|484:144,2,70,2|2|4,0:0|1:2|1:3,0:0:0:0:
360,252,13103,2,0,P|369:285|393:310,1,70,2|4,1:2|1:3,0:0:0:0:
462,277,13474,1,2,1:2:0:0:
403,383,13659,6,0,B|318:390|357:335|262:346,1,140,4|4,0:0|0:3,0:0:0:0:
196,352,14214,1,2,1:2:0:0:
196,352,14585,2,0,P|200:308|204:281,1,70,8|0,0:3|1:0,0:0:0:0:
209,269,14863,1,0,1:0:0:0:
213,255,14955,1,0,1:0:0:0:
162,197,15140,1,8,0:3:0:0:
160,183,15233,1,8,0:3:0:0:
158,169,15326,6,0,P|122:155|75:155,1,70,6|0,0:0|0:0,0:0:0:0:
13,153,15696,1,0,1:0:0:0:
50,85,15881,2,0,P|119:80|189:100,1,140,2|2,0:2|0:2,0:0:0:0:
259,135,16437,1,0,1:0:0:0:
259,135,16622,2,0,P|252:204|248:274,1,140,2|2,0:2|0:2,0:0:0:0:
289,339,17177,1,0,1:0:0:0:
328,271,17363,2,0,P|332:201|339:131,1,140,2|4,0:2|0:3,0:0:0:0:
400,85,17918,1,0,1:0:0:0:
345,30,18103,1,2,0:2:0:0:
283,76,18288,6,0,P|244:86|211:100,1,70,2|2,0:0|0:2,0:0:0:0:
166,156,18659,1,0,1:0:0:0:
113,100,18844,2,0,P|132:167|142:236,1,140,2|2,0:2|0:2,0:0:0:0:
83,285,19400,1,0,1:0:0:0:
153,315,19585,2,0,B|238:322|199:267|294:278,1,140,2|2,0:2|0:2,0:0:0:0:
347,318,20140,1,0,1:0:0:0:
411,276,20326,1,2,0:2:0:0:
411,276,20696,5,2,0:0:0:0:
347,232,20881,2,0,P|352:189|358:155,1,70,2|2,1:2|0:2,0:0:0:0:
417,115,21251,6,0,P|347:126|278:133,1,140,2|0,0:0|1:0,0:0:0:0:
217,182,21807,1,0,0:0:0:0:
147,148,21992,2,0,P|148:113|161:80,1,70,2|4,0:2|0:3,0:0:0:0:
237,67,22363,2,0,P|260:92|274:124,1,70,2|2,1:2|0:2,0:0:0:0:
217,182,22733,2,0,L|210:253,1,70,4|0,0:3|0:0,0:0:0:0:
233,324,23103,1,2,1:2:0:0:
285,267,23288,2,0,P|326:266|394:344,1,140,2|4,0:2|0:3,0:0:0:0:
462,363,23844,1,2,1:2:0:0:
510,303,24029,1,2,0:2:0:0:
465,240,24214,6,0,P|477:175|462:92,1,140,2|0,0:0|1:0,0:0:0:0:
391,118,24770,2,0,P|370:146|336:168,1,70,2|4,0:0|3:0,0:0:0:0:
278,124,25140,2,0,P|281:89|300:53,1,70,2|2,0:3|1:2,0:0:0:0:
366,26,25511,6,0,B|293:24|322:79|227:79,1,140,6|2,0:2|0:0,0:0:0:0:
166,56,26066,1,2,1:2:0:0:
184,130,26251,1,2,0:2:0:0:
110,108,26437,2,0,B|76:119|76:119|54:156,1,70,8|0,0:3|0:0,0:0:0:0:
55,162,26714,1,0,1:0:0:0:
50,175,26807,2,0,L|60:254,1,70,0|2,1:0|0:0,0:0:0:0:
37,331,27177,5,4,0:0:0:0:
101,372,27363,2,0,P|136:373|170:350,1,70,2|0,0:0|1:0,0:0:0:0:
218,299,27733,2,0,P|286:299|334:348,1,140,2|2,0:0|0:0,0:0:0:0:
389,294,28288,1,0,1:0:0:0:
455,330,28474,2,0,B|493:275|429:256|471:196,1,140,2|2,0:0|0:0,0:0:0:0:
430,131,29029,1,0,1:0:0:0:
487,79,29214,1,2,0:0:0:0:
487,79,29585,5,4,0:3:0:0:
411,94,29770,1,0,1:0:0:0:
423,16,29955,1,2,0:0:0:0:
351,43,30140,6,0,P|314:45|284:61,1,70,4|2,0:0|0:0,0:0:0:0:
240,124,30511,1,0,1:0:0:0:
208,53,30696,2,0,B|132:40|155:104|64:87,1,140,2|2,0:0|0:0,0:0:0:0:
12,129,31251,1,0,1:0:0:0:
77,168,31437,2,0,P|145:176|205:212,1,140,2|2,0:0|0:0,0:0:0:0:
254,272,31992,1,0,1:0:0:0:
203,330,32177,1,2,0:0:0:0:
203,330,32548,5,4,0:3:0:0:
254,272,32733,2,0,P|238:240|229:207,1,70,0|2,1:0|0:0,0:0:0:0:
312,223,33103,6,0,P|382:212|451:205,1,140,4|0,0:0|1:0,0:0:0:0:
428,357,33844,6,0,P|377:348|349:345,1,70,2|4,0:0|0:3,0:0:0:0:
354,269,34214,2,0,P|388:264|423:257,1,70,2|0,1:2|0:0,0:0:0:0:
480,206,34585,1,6,0:0:0:0:
490,129,34770,1,2,0:3:0:0:
498,52,34955,1,0,1:0:0:0:
413,95,35140,2,0,P|375:82|286:120,1,140,4|4,0:0|0:3,0:0:0:0:
238,179,35696,2,0,P|240:213|231:247,1,70,4|0,1:0|0:0,0:0:0:0:
157,270,36066,6,0,P|130:245|113:215,1,70,6|4,0:0|0:3,0:0:0:0:
70,147,36437,1,0,1:0:0:0:
13,204,36622,2,0,B|4:270|4:270|8:286|8:286|-1:346,1,140,6|4,0:0|0:3,0:0:0:0:
68,375,37177,1,0,1:0:0:0:
109,310,37363,6,0,P|156:306|227:302,1,105,6|0,0:0|0:0,0:0:0:0:
227,301,37733,1,4,0:3:0:0:
271,363,37918,6,0,P|317:368|395:313,2,140,2|2|2,1:2|1:2|1:2,0:0:0:0:
313,216,39029,2,0,L|351:221,1,35,10|0,1:2|0:0,0:0:0:0:
347,220,39400,2,0,L|468:236,1,105,14|0,1:2|0:0,0:0:0:0:
464,237,39770,1,8,0:3:0:0:
483,162,39955,1,0,1:0:0:0:
479,148,40048,1,0,1:0:0:0:
475,134,40140,2,0,P|479:97|497:69,1,70,0|2,1:0|0:3,0:0:0:0:
442,14,40511,5,6,2:3:0:0:
365,25,40696,1,6,2:3:0:0:
288,36,40881,1,6,2:3:0:0:
288,36,41437,5,6,2:3:0:0:
211,47,41622,1,6,2:3:0:0:
134,58,41807,2,0,B|95:97|95:97|109:200,1,140,6|4,2:2|0:3,0:0:0:0:
103,261,42363,2,0,P|147:251|174:225,1,70,8|2,0:0|0:0,0:0:0:0:
176,227,42640,1,8,0:0:0:0:
181,214,42733,1,2,0:3:0:0:
250,180,42918,1,2,0:3:0:0:
310,227,43103,2,0,L|302:297,1,70,2|2,1:3|0:0,0:0:0:0:
292,372,43474,5,6,2:3:0:0:
369,361,43659,1,6,2:3:0:0:
446,350,43844,1,6,2:3:0:0:
446,350,44214,6,0,L|454:279,1,70,10|8,1:2|2:3,0:0:0:0:
460,203,44585,1,4,2:3:0:0:
390,236,44770,6,0,B|362:237|335:204|335:204|357:166|395:164,1,140,6|4,2:2|0:3,0:0:0:0:
460,203,45326,1,8,0:0:0:0:
510,144,45511,1,2,0:0:0:0:
444,103,45696,2,0,P|437:67|432:33,1,70,2|2,0:3|0:3,0:0:0:0:
354,31,46066,2,0,P|347:66|342:100,1,70,2|2,1:3|0:0,0:0:0:0:
296,161,46437,6,0,B|272:153|256:135|249:113|249:113|260:152|241:192|205:211|170:209,1,210,4|2,0:0|0:2,0:0:0:0:
125,149,47177,2,0,P|95:130|58:132,1,70,6|2,0:3|0:2,0:0:0:0:
39,204,47548,2,0,P|69:223|106:221,1,70,8|2,0:0|0:0,0:0:0:0:
175,208,47918,6,0,L|190:356,1,140,6|4,0:2|0:3,0:0:0:0:
322,347,48659,2,0,L|337:208,1,140,6|6,1:3|1:2,0:0:0:0:
354,55,49400,1,6,1:2:0:0:
430,47,49585,5,0,1:0:0:0:
440,56,49677,1,0,1:0:0:0:
447,67,49770,1,0,1:0:0:0:
403,130,49955,2,0,P|411:155|412:169,2,35,8|8|8,0:3|0:3|0:3,0:0:0:0:
341,195,50326,2,0,P|335:220|329:233,2,35,4|4|4,0:3|0:3|0:3,0:0:0:0:
290,136,50696,6,0,B|265:104|222:98|222:98|149:115,1,140,4|0,0:0|0:0,0:0:0:0:
112,169,51251,2,0,P|114:214|124:248,1,70,0|0,1:0|0:0,0:0:0:0:
110,314,51622,2,0,P|153:323|189:322,1,70,8|0,0:3|1:0,0:0:0:0:
217,326,51900,1,0,1:0:0:0:
249,353,51992,2,0,P|269:313|278:278,1,70,0|8,1:0|1:3,0:0:0:0:
287,212,52363,5,6,0:0:0:0:
253,94,52548,1,2,0:0:0:0:
350,169,52733,1,0,1:2:0:0:
227,165,52918,1,2,0:0:0:0:
328,95,53103,1,2,0:0:0:0:
328,95,53474,5,2,1:2:0:0:
354,175,53659,2,0,P|423:175|492:190,1,140,2|2,0:2|0:0,0:0:0:0:
492,190,54214,6,0,B|473:216|473:216|468:253,1,70,12|4,0:0|0:3,0:0:0:0:
344,360,54585,2,0,B|348:322|348:322|338:292,1,70,4|4,0:0|0:3,0:0:0:0:
292,229,54955,1,8,0:0:0:0:
186,340,55326,5,6,0:0:0:0:
78,285,55511,1,2,0:0:0:0:
198,265,55696,1,0,1:2:0:0:
110,354,55881,1,2,0:0:0:0:
132,233,56066,1,2,0:0:0:0:
132,233,56437,5,2,1:2:0:0:
203,270,56622,2,0,P|262:232|312:184,1,140,2|2,0:2|0:0,0:0:0:0:
312,183,57177,6,0,P|302:224|308:257,1,70,12|4,0:0|0:3,0:0:0:0:
460,226,57548,2,0,P|454:191|436:161,1,70,4|4,0:0|0:3,0:0:0:0:
369,125,57918,1,10,0:0:0:0:
363,49,58103,1,2,0:0:0:0:
298,91,58288,1,4,0:0:0:0:
298,91,58474,6,0,P|257:79|231:65,2,70,2|2|2,0:0|1:2|0:0,0:0:0:0:
446,81,59029,2,0,P|476:51|502:35,2,70,2|2|2,0:0|0:0|1:2,0:0:0:0:
382,211,59585,2,0,B|385:247|375:280|375:280|375:280|375:280|353:251|321:235,1,140,2|4,0:0|0:3,0:0:0:0:
243,241,60140,6,0,P|208:243|174:253,1,70,2|2,1:2|0:0,0:0:0:0:
163,262,60418,1,0,0:0:0:0:
150,268,60511,2,0,P|115:265|81:255,1,70,2|2,0:0|0:0,0:0:0:0:
191,125,60881,2,0,P|171:154|146:178,1,70,2|2,1:2|0:0,0:0:0:0:
86,23,61251,1,6,0:0:0:0:
86,23,61622,5,0,1:0:0:0:
72,98,61807,1,4,0:3:0:0:
228,51,61992,2,0,P|198:31|174:6,1,70,0|4,1:0|0:3,0:0:0:0:
136,164,62363,1,0,1:0:0:0:
210,143,62548,2,0,P|241:205|257:273,1,140,2|4,0:3|0:3,0:0:0:0:
331,321,63103,6,0,P|301:302|268:291,1,70,12|0,1:2|0:0,0:0:0:0:
190,305,63474,2,0,P|160:323|127:334,1,70,8|0,0:3|1:0,0:0:0:0:
113,332,63751,1,0,1:0:0:0:
99,330,63844,2,0,B|85:295|85:295|53:279,1,70,0|0,1:0|1:0,0:0:0:0:
26,198,64214,5,6,0:0:0:0:
76,140,64400,1,2,0:0:0:0:
152,126,64585,2,0,P|150:90|141:56,1,70,0|2,1:2|0:0,0:0:0:0:
230,142,64955,1,2,0:0:0:0:
230,142,65326,5,2,1:2:0:0:
283,198,65511,2,0,P|283:267|298:336,1,140,2|2,0:2|0:0,0:0:0:0:
298,336,66066,6,0,B|329:317|329:317|362:323,1,70,12|4,0:0|0:3,0:0:0:0:
481,203,66437,2,0,B|448:209|448:209|417:189,1,70,4|4,0:0|0:3,0:0:0:0:
420,108,66807,1,8,0:0:0:0:
349,139,66992,1,2,0:0:0:0:
306,74,67177,6,0,P|269:40|212:40,1,105,6|0,0:0|0:0,0:0:0:0:
203,44,67548,2,0,P|172:82|176:144,1,105,0|0,1:2|0:0,0:0:0:0:
176,150,67918,2,0,P|142:159|100:172,2,70,2|4|2,0:0|0:3|1:2,0:0:0:0:
240,108,68474,6,0,B|264:168|264:168|232:249,1,140,2|2,0:2|0:0,0:0:0:0:
174,284,69029,1,0,1:2:0:0:
241,247,69214,1,4,0:3:0:0:
281,325,69400,6,0,P|315:336|351:339,1,70,0|0,1:2|1:0,0:0:0:0:
362,337,69677,1,0,1:0:0:0:
374,330,69770,2,0,P|408:319|444:316,1,70,0|8,1:0|0:3,0:0:0:0:
459,225,70140,6,0,P|462:190|473:157,1,70,6|6,0:3|0:3,0:0:0:0:
503,86,70511,1,0,1:0:0:0:
371,241,70696,6,0,P|377:167|402:102,1,140,6|4,0:0|0:3,0:0:0:0:
281,225,71251,6,0,P|287:155|309:89,1,140,4|2,1:0|0:3,0:0:0:0:
370,35,71807,1,2,0:0:0:0:
292,14,71992,2,0,P|257:10|224:-1,1,70,2|2,1:2|0:0,0:0:0:0:
135,40,72363,2,0,P|156:106|163:175,1,140,4|0,0:3|1:0,0:0:0:0:
9,294,73103,6,0,P|43:297|76:308,1,70,6|6,0:0|0:3,0:0:0:0:
147,338,73474,1,0,1:0:0:0:
0,214,73659,6,0,P|69:220|135:242,1,140,6|4,0:0|0:3,0:0:0:0:
18,131,74214,6,0,P|87:137|153:159,1,140,4|2,1:0|0:3,0:0:0:0:
214,206,74770,1,2,0:0:0:0:
244,135,74955,2,0,P|277:124|311:120,1,70,2|0,1:2|0:0,0:0:0:0:
430,53,75326,5,4,0:3:0:0:
381,342,75696,1,0,1:0:0:0:
381,342,76066,6,0,B|410:272|337:274|372:196,1,140,4|0,0:0|1:0,0:0:0:0:
404,141,76622,1,4,0:3:0:0:
404,141,76807,2,0,B|328:150|367:213|282:221,1,140,4|2,0:3|0:0,0:0:0:0:
221,201,77363,1,2,0:0:0:0:
210,191,77455,1,2,0:0:0:0:
203,178,77548,5,0,1:0:0:0:
235,277,77733,1,4,0:3:0:0:
257,110,77918,2,0,P|219:98|183:97,1,70,4|0,1:0|0:0,0:0:0:0:
128,143,78288,2,0,P|90:155|54:156,1,70,4|0,0:3|1:0,0:0:0:0:
46,152,78566,1,0,1:0:0:0:
34,143,78659,1,0,1:0:0:0:
67,252,78844,6,0,B|105:264|147:238|147:238|125:290|142:340|142:340|188:337|230:295,1,280,4|0,0:0|0:0,0:0:0:0:
223,225,79770,2,0,P|262:208|345:259,1,140,2|0,0:0|1:0,0:0:0:0:
419,252,80326,1,2,0:0:0:0:
423,290,80418,1,2,0:0:0:0:
393,319,80511,2,0,P|430:328|469:315,1,70,2|4,0:0|3:0,0:0:0:0:
505,257,80881,1,0,1:0:0:0:
505,257,81251,6,0,P|496:221|492:180,1,70,2|4,0:0|3:0,0:0:0:0:
434,137,81622,2,0,P|429:102|421:68,1,70,2|0,1:2|0:0,0:0:0:0:
357,24,81992,6,0,B|286:21|314:76|229:77,2,140,2|2|2,0:0|1:2|0:0,0:0:0:0:
421,68,82918,1,4,3:0:0:0:
366,122,83103,1,2,1:2:0:0:
409,185,83288,2,0,B|371:200|352:233|352:233|363:295,1,140,2|4,0:0|0:3,0:0:0:0:
376,371,83844,1,2,1:2:0:0:
376,371,84214,2,0,L|303:364,1,70,2|4,0:0|0:3,0:0:0:0:
229,356,84585,1,0,1:0:0:0:
165,312,84770,2,0,L|129:316,1,35,2|2,0:0|0:0,0:0:0:0:
91,318,84955,5,4,0:0:0:0:
195,204,85326,2,0,P|185:166|167:138,1,70,0|0,1:0|0:0,0:0:0:0:
314,107,85696,2,0,P|287:133|272:163,1,70,2|4,0:0|3:0,0:0:0:0:
169,54,86066,2,0,P|207:63|241:61,1,70,2|0,1:2|0:0,0:0:0:0:
250,55,86344,1,0,0:0:0:0:
262,49,86437,6,0,P|312:28|395:88,2,140,2|0|0,0:0|1:2|0:0,0:0:0:0:
211,108,87363,1,4,3:0:0:0:
285,128,87548,2,0,P|298:159|294:194,1,70,0|0,1:0|0:0,0:0:0:0:
241,250,87918,5,14,3:0:0:0:
189,192,88103,2,0,P|164:167|131:156,2,70,2|2|4,0:0|1:2|1:3,0:0:0:0:
181,303,88659,2,0,P|155:326|121:334,1,70,2|4,1:2|1:3,0:0:0:0:
56,296,89029,1,2,1:2:0:0:
14,360,89214,5,4,0:0:0:0:
