osu file format v14

[General]
AudioFilename: audio.mp3
AudioLeadIn: 0
PreviewTime: 52271
Countdown: 0
SampleSet: Soft
StackLeniency: 0.7
Mode: 0
LetterboxInBreaks: 0
WidescreenStoryboard: 1

[Editor]
DistanceSpacing: 1.1
BeatDivisor: 2
GridSize: 16
TimelineZoom: 1.1

[Metadata]
Title:Takarabako -TREASURE BOX- (TV Size)
TitleUnicode:宝箱―TREASURE BOX― (TV Size)
Artist:Okui Masami
ArtistUnicode:奥井雅美
Creator:Flake
Version:Easy
Source:SHIROBAKO
Tags:white box anime japanese opening p.a. works aoi miyamori ema yasuhara shizuka sakaki misa tōdō toudou midori imai シロバコ 宮森あおい 安原絵麻 坂木しずか 藤堂美沙 今井みどり
BeatmapID:2438267
BeatmapSetID:1166355

[Difficulty]
HPDrainRate:2
CircleSize:3
OverallDifficulty:2
ApproachRate:3
SliderMultiplier:0.8
SliderTickRate:1

[Events]
//Background and Video events
0,0,"MusashinoBuilding.jpg",0,0
//Break Periods
//Storyboard Layer 0 (Background)
//Storyboard Layer 1 (Fail)
//Storyboard Layer 2 (Pass)
//Storyboard Layer 3 (Foreground)
//Storyboard Layer 4 (Overlay)
//Storyboard Sound Samples

[TimingPoints]
3474,370.37037037037,4,2,0,55,1,0

[Colours]
Combo1 : 153,234,214
Combo2 : 140,194,238
Combo3 : 134,242,115
Combo4 : 255,142,115

[HitObjects]
234,105,512,5,2,0:0:0:0:
314,343,1808,1,2,0:0:0:0:
485,111,3289,6,0,P|412:53|294:69,1,200,4|2,0:0|0:0,0:0:0:0:
231,102,4585,1,0,1:0:0:0:
263,183,4955,2,0,P|204:229|110:216,2,160,2|2|2,0:0|0:0|0:0,0:0:0:0:
343,146,6807,2,0,P|379:169|398:204,1,80,2|2,1:2|0:0,0:0:0:0:
378,286,7548,5,2,1:2:0:0:
350,320,7733,2,0,B|264:325|264:325|245:311|245:311|144:316,1,200,2|2,0:0|0:0,0:0:0:0:
15,207,9400,6,0,P|23:153|106:179,1,160,4|2,0:0|0:0,0:0:0:0:
278,201,10881,2,0,P|347:216|356:145,1,160,2|0,0:0|0:0,0:0:0:0:
215,37,12363,5,14,3:0:0:0:
128,54,12733,2,0,L|44:68,1,80,2|2,1:2|1:2,0:0:0:0:
85,147,13474,2,0,L|124:140,1,40,2|4,1:2|0:0,0:0:0:0:
498,8,15326,6,0,P|441:7|387:61,2,120,6|2|0,0:0|0:2|1:0,0:0:0:0:
471,92,16807,2,0,L|454:267,1,160,4|0,0:3|0:0,0:0:0:0:
279,239,18288,6,0,L|291:366,2,120,2|2|0,0:0|0:2|1:0,0:0:0:0:
238,159,19770,2,0,P|253:115|111:118,1,240,4|2,0:3|1:2,0:0:0:0:
77,173,21251,6,0,P|121:238|125:317,1,160,2|2,0:0|0:2,0:0:0:0:
265,348,22733,2,0,P|299:276|365:234,1,160,4|0,0:3|0:0,0:0:0:0:
324,95,24214,6,0,P|231:132|176:66,1,200,2|2,0:0|0:3,0:0:0:0:
107,6,25511,2,0,P|58:20|42:122,1,160,6|2,0:2|0:2,0:0:0:0:
218,101,27177,6,0,L|201:270,1,160,4|0,0:0|0:0,0:0:0:0:
251,339,28288,1,0,1:0:0:0:
251,339,28659,2,0,P|312:344|367:306,1,120,4|2,0:3|0:0,0:0:0:0:
475,246,29770,1,0,1:0:0:0:
475,246,30140,6,0,L|464:71,1,160,4|0,0:0|0:0,0:0:0:0:
394,42,31251,1,0,1:0:0:0:
394,42,31622,2,0,B|359:77|359:77|363:162,1,120,4|2,0:3|0:0,0:0:0:0:
245,97,32733,1,0,1:0:0:0:
245,97,33103,6,0,P|198:96|113:173,1,160,4|2,0:0|0:0,0:0:0:0:
110,341,34585,2,0,P|72:316|-36:320,2,120,6|4|4,0:0|0:0|1:0,0:0:0:0:
194,366,36066,2,0,L|335:354,1,120,6|6,0:0|0:0,0:0:0:0:
489,359,37363,6,0,B|429:319|429:319|453:179,1,200,6|2,0:0|1:2,0:0:0:0:
383,29,39029,2,0,L|470:20,2,80,10|14|8,1:2|1:2|0:3,0:0:0:0:
257,151,40511,6,0,L|244:71,1,80,6|6,2:3|2:3,0:0:0:0:
126,12,41437,2,0,L|113:91,1,80,6|6,2:3|2:2,0:0:0:0:
16,237,42548,2,0,B|49:215|49:215|142:225,1,120,2|2,0:0|1:3,0:0:0:0:
216,234,43474,6,0,L|203:154,1,80,6|6,2:3|2:3,0:0:0:0:
325,102,44400,2,0,L|337:181,1,80,8|6,2:3|2:2,0:0:0:0:
501,118,45511,2,0,L|482:236,1,120,2|2,0:0|1:3,0:0:0:0:
439,313,46437,6,0,P|442:270|391:166,1,160,4|6,0:0|0:3,0:0:0:0:
327,3,47918,2,0,P|330:45|279:149,1,160,6|6,0:2|1:3,0:0:0:0:
202,188,49029,1,6,1:2:0:0:
155,262,49400,2,0,P|159:208|95:77,1,200,6|4,1:2|0:3,0:0:0:0:
34,18,50696,1,4,0:0:0:0:
48,157,51251,2,0,L|56:251,2,80,0|8|0,1:0|0:3|1:0,0:0:0:0:
99,85,52363,5,6,0:0:0:0:
172,133,52733,1,0,1:2:0:0:
241,79,53103,2,0,L|374:64,1,120,2|2,0:0|0:2,0:0:0:0:
452,160,54214,1,12,0:0:0:0:
394,226,54585,2,0,L|310:216,1,80,4|8,0:0|0:0,0:0:0:0:
233,183,55326,5,6,0:0:0:0:
174,249,55696,1,0,1:2:0:0:
120,179,56066,2,0,L|108:48,1,120,2|2,0:0|0:2,0:0:0:0:
22,159,57177,1,12,0:0:0:0:
14,246,57548,2,0,L|5:337,1,80,4|10,0:0|0:0,0:0:0:0:
75,379,58288,5,4,0:0:0:0:
130,310,58659,1,2,1:2:0:0:
210,346,59029,2,0,L|335:361,2,120,2|2|2,0:0|0:0|1:2,0:0:0:0:
138,294,60511,2,0,P|142:250|167:215,1,80,2|2,0:0|1:2,0:0:0:0:
223,159,61251,5,6,0:0:0:0:
171,87,61622,1,0,1:0:0:0:
226,18,61992,1,0,1:0:0:0:
308,49,62363,2,0,L|352:42,1,40,0|2,1:0|0:3,0:0:0:0:
470,91,63103,2,0,P|481:44|506:16,2,80,12|8|0,1:2|0:3|1:0,0:0:0:0:
467,179,64214,5,6,0:0:0:0:
386,143,64585,1,0,1:2:0:0:
316,196,64955,2,0,L|331:321,1,120,2|2,0:0|0:2,0:0:0:0:
206,362,66066,1,12,0:0:0:0:
163,284,66437,2,0,L|173:196,1,80,4|8,0:0|0:0,0:0:0:0:
221,131,67177,6,0,P|217:91|209:51,1,80,6|0,0:0|1:2,0:0:0:0:
286,8,67918,2,0,P|345:18|404:24,1,120,2|2,0:0|0:2,0:0:0:0:
462,143,69029,1,0,1:2:0:0:
396,201,69400,2,0,P|388:240|384:280,1,80,0|0,1:2|1:0,0:0:0:0:
303,314,70140,6,0,L|183:326,2,120,6|6|4,0:3|0:0|1:0,0:0:0:0:
323,139,71992,1,2,1:2:0:0:
260,77,72363,2,0,P|220:76|182:90,1,80,4|0,0:3|1:0,0:0:0:0:
132,163,73103,6,0,L|119:42,2,120,6|6|4,0:0|0:0|1:0,0:0:0:0:
185,330,74955,1,2,1:2:0:0:
261,287,75326,2,0,L|345:277,1,80,4|0,0:3|1:0,0:0:0:0:
394,347,76066,6,0,P|395:267|422:192,1,160,4|4,0:0|0:3,0:0:0:0:
484,130,77177,1,2,0:0:0:0:
433,57,77548,6,0,P|394:57|356:70,1,80,0|4,1:0|1:0,0:0:0:0:
303,143,78288,1,4,0:3:0:0:
235,256,78844,6,0,P|138:265|60:205,1,200,4|2,0:0|0:0,0:0:0:0:
68,117,80140,1,0,1:0:0:0:
149,148,80511,2,0,B|162:80|162:80|177:71|177:71|192:-4,2,160,2|2|2,0:0|0:0|0:0,0:0:0:0:
235,163,82363,2,0,L|324:150,1,80,2|2,1:2|0:0,0:0:0:0:
386,101,83103,5,2,1:2:0:0:
423,123,83288,2,0,B|412:211|412:211|421:235|421:235|408:322,1,200,2|2,0:0|0:0,0:0:0:0:
237,359,84955,6,0,B|243:347|243:347|224:246|123:267,1,160,4|2,0:0|0:0,0:0:0:0:
4,156,86437,2,0,B|10:166|10:166|107:199|140:102,1,160,2|0,0:0|0:0,0:0:0:0:
298,56,87918,2,0,B|285:56|285:56|208:123|275:199,1,160,14|2,3:0|1:2,0:0:0:0:
343,284,89214,1,4,0:0:0:0:
