osu file format v14

[General]
AudioFilename: Treasure Box.mp3
AudioLeadIn: 0
PreviewTime: 52729
Countdown: 1
SampleSet: Normal
StackLeniency: 0.9
Mode: 0
LetterboxInBreaks: 1
WidescreenStoryboard: 0

[Editor]
DistanceSpacing: 1.8
BeatDivisor: 4
GridSize: 4
TimelineZoom: 3.699999

[Metadata]
Title:TREASURE BOX
TitleUnicode:宝箱-TREASURE BOX-
Artist:Okui Masami
ArtistUnicode:奥井雅美
Creator:Kutsuu
Version:Treasure
Source:SHIROBAKO
Tags:opening tv size p.a. works musashino animation
BeatmapID:802231
BeatmapSetID:302446

[Difficulty]
HPDrainRate:7
CircleSize:3.7
OverallDifficulty:8
ApproachRate:9
SliderMultiplier:1.8
SliderTickRate:1

[Events]
//Background and Video events
0,0,"shirobako_wallpaper_hd_by_corphish2-d8nqlgz.jpg",0,0
Video,103,"opening2.avi"
//Break Periods
//Storyboard Layer 0 (Background)
//Storyboard Layer 1 (Fail)
//Storyboard Layer 2 (Pass)
//Storyboard Layer 3 (Foreground)
//Storyboard Sound Samples

[TimingPoints]
897,370.37037037037,4,1,0,50,1,0
897,-100,4,1,0,30,0,0
2285,-100,4,1,0,15,0,0
2471,-100,4,1,0,30,0,0
3674,-100,4,1,0,50,0,0
14045,-200,4,1,0,50,0,0
14971,-100,4,1,0,50,0,0
25896,-100,4,1,0,60,0,0
26822,-100,4,1,0,70,0,0
27745,-100,4,1,0,60,0,0
36082,-100,4,1,0,50,0,0
38301,-133.333333333333,4,1,0,50,0,0
40896,-166.666666666667,4,1,0,40,0,0
41822,-166.666666666667,4,1,0,40,0,0
42193,-200,4,1,0,40,0,0
42748,-100,4,1,0,50,0,0
42934,-100,4,1,0,60,0,0
43119,-100,4,1,0,60,0,0
43859,-166.666666666667,4,1,0,40,0,0
45156,-200,4,1,0,40,0,0
45708,-100,4,1,0,60,0,0
45896,-133.333333333333,4,1,0,60,0,0
46082,-100,4,1,0,60,0,0
46822,-100,4,1,0,30,0,0
47193,-100,4,1,0,40,0,0
47563,-100,4,1,0,50,0,0
47934,-100,4,1,0,60,0,0
49230,-100,4,1,0,80,0,0
49971,-100,4,1,0,80,0,0
52748,-90.9090909090909,4,1,0,70,0,1
59971,-83.3333333333333,4,1,0,70,0,1
60341,-90.9090909090909,4,1,0,5,0,1
60434,-90.9090909090909,4,1,0,70,0,1
61822,-76.9230769230769,4,1,0,70,0,1
62008,-90.9090909090909,4,1,0,70,0,1
69227,-100,4,1,0,70,0,1
69230,-86.9565217391304,4,1,0,70,0,1
70526,-166.666666666667,4,1,0,60,0,0
72895,-166.666666666667,4,1,0,5,0,0
72934,-166.666666666667,4,1,0,60,0,0
76452,-200,4,1,0,60,0,0
77193,-166.666666666667,4,1,0,60,0,0
77934,-100,4,1,0,60,0,0
86822,-133.333333333333,4,1,0,60,0,0
87934,-100,4,1,0,60,0,0

[Colours]
Combo1 : 163,226,29
Combo2 : 241,222,84
Combo3 : 249,85,6
Combo4 : 180,112,209

[HitObjects]
124,68,897,5,0,1:0:0:0:
80,196,1082,1,0,1:0:0:0:
196,272,1267,2,0,B|219:185,1,90,0|0,1:0|1:0,1:0:0:0:
327,69,1822,2,0,B|347:121|347:157,1,90,0|0,1:3|1:3,1:3:0:0:
283,247,2193,2,0,P|280:291|291:335,1,90,0|0,1:0|1:0,1:0:0:0:
424,360,2563,5,0,1:0:0:0:
312,284,2748,1,0,1:0:0:0:
436,224,2934,1,0,1:0:0:0:
352,328,3119,1,0,1:0:0:0:
252,236,3304,1,0,1:0:0:0:
376,184,3489,1,0,3:0:0:0:
120,245,3674,6,0,P|143:283|179:311,1,90,4|0,2:0|2:0,2:0:0:0:
192,56,4045,1,0,2:0:0:0:
348,96,4230,1,8,2:0:0:0:
216,192,4415,1,0,2:0:0:0:
84,308,4600,2,0,P|128:300|167:279,1,90,0|0,2:0|2:0,2:0:0:0:
300,160,4971,1,8,2:0:0:0:
432,64,5156,1,0,2:3:0:0:
428,96,5248,1,0,2:3:0:0:
427,128,5341,1,0,2:3:0:0:
412,288,5526,2,0,L|325:313,1,90,0|8,2:0|2:0,2:0:0:0:
164,304,5896,1,0,2:0:0:0:
88,160,6082,6,0,L|73:248,1,90,0|0,2:0|2:0,2:0:0:0:
184,132,6452,2,0,L|234:206,1,90,8|0,2:0|2:0,2:0:0:0:
116,316,6822,2,0,B|161:324|161:324|206:327,1,90,0|0,2:0|2:0,2:0:0:0:
352,256,7193,2,8,P|304:244|260:240,1,90,8|0,2:0|2:0,2:0:0:0:
156,120,7563,2,8,P|200:107|245:103,1,90,0|0,2:0|2:0,2:0:0:0:
408,92,7934,1,8,2:0:0:0:
380,252,8119,1,0,2:2:0:0:
360,280,8211,1,0,2:2:0:0:
336,304,8304,6,0,P|246:305|161:276,1,180,0|8,2:2|2:2,2:2:0:0:
60,152,8859,1,0,2:0:0:0:
216,204,9045,1,0,2:0:0:0:
152,56,9230,1,0,2:0:0:0:
216,204,9415,1,8,2:0:0:0:
147,350,9600,2,0,L|107:370,2,45,0|0|0,2:0|2:0|2:0,2:0:0:0:
299,294,9971,5,0,2:0:0:0:
438,212,10156,1,10,2:0:0:0:
287,271,10341,1,0,2:0:0:0:
392,132,10526,1,2,2:0:0:0:
270,238,10711,1,0,2:0:0:0:
309,81,10896,1,10,2:0:0:0:
240,228,11082,1,0,2:0:0:0:
220,264,11174,1,0,2:0:0:0:
200,296,11267,1,4,0:0:0:0:
256,192,11359,12,0,12748,0:0:0:0:
316,313,12934,5,0,3:0:0:0:
312,150,13119,1,0,3:0:0:0:
170,232,13304,1,0,3:0:0:0:
328,264,13489,1,0,3:0:0:0:
292,104,13674,1,0,3:0:0:0:
172,212,13859,1,0,3:0:0:0:
151,128,14045,2,0,P|84:207|143:293,1,225,4|0,0:0|0:0,0:0:0:0:
320,272,15156,5,0,2:0:0:0:
288,232,15248,1,0,2:0:0:0:
280,184,15341,1,0,2:0:0:0:
376,72,15526,1,0,2:0:0:0:
280,204,15711,6,0,B|232:280,1,90,0|0,2:0|2:0,2:0:0:0:
100,376,16082,1,8,2:0:0:0:
104,200,16267,1,0,2:0:0:0:
104,200,16359,1,0,2:0:0:0:
104,200,16452,1,0,2:0:0:0:
256,272,16637,1,0,2:0:0:0:
188,124,16822,1,8,2:0:0:0:
332,48,17008,6,0,P|370:70|401:103,1,90,0|0,2:0|2:0,2:0:0:0:
416,264,17378,1,0,2:0:0:0:
268,196,17563,1,8,2:0:0:0:
143,83,17748,2,0,B|0:112|116:196,1,180,0|0,2:0|2:0,2:0:0:0:
340,144,18304,1,8,2:0:0:0:
216,272,18489,5,0,2:0:0:0:
216,272,18582,1,0,2:0:0:0:
216,272,18674,1,0,2:0:0:0:
248,112,18859,1,0,2:0:0:0:
92,156,19045,1,8,2:0:0:0:
324,240,19230,2,0,B|260:303,1,90,0|0,2:0|2:0,2:0:0:0:
124,384,19600,1,0,2:1:0:0:
72,232,19785,1,8,2:0:0:0:
176,108,19971,6,0,P|208:75|247:53,1,90,0|0,2:0|2:0,2:0:0:0:
412,56,20341,1,0,2:0:0:0:
496,192,20526,1,8,2:0:0:0:
412,56,20711,2,0,P|368:56|323:64,1,90,0|0,2:0|2:0,2:0:0:0:
160,80,21082,1,0,2:0:0:0:
11,155,21267,1,8,2:0:0:0:
163,215,21452,1,0,2:0:0:0:
48,332,21637,2,0,L|243:327,1,180,0|8,2:0|2:0,2:0:0:0:
392,320,22193,1,0,2:0:0:0:
275,153,22378,6,0,B|264:184|252:240,1,90,0|0,2:0|2:0,2:0:0:0:
404,56,22748,2,0,B|415:86|427:142,1,90,8|0,2:0|2:0,2:0:0:0:
280,280,23119,2,0,P|312:249|333:209,1,90,0|0,2:0|2:0,2:0:0:0:
288,56,23489,1,8,2:0:0:0:
288,56,23674,2,0,B|192:56|110:78,1,180,0|0,2:0|2:0,2:0:0:0:
60,232,24230,1,8,2:0:0:0:
60,232,24415,1,0,2:0:0:0:
200,312,24600,2,0,P|238:288|270:256,1,90,0|0,2:0|2:0,2:0:0:0:
288,96,24971,5,8,2:0:0:0:
431,22,25156,1,0,2:0:0:0:
430,185,25341,1,0,2:0:0:0:
304,284,25526,1,0,2:0:0:0:
208,112,25711,1,8,2:0:0:0:
388,128,25896,5,4,2:0:0:0:
132,220,26082,1,0,3:0:0:0:
328,92,26267,1,2,3:0:0:0:
276,304,26452,1,10,3:0:0:0:
184,88,26637,1,0,3:0:0:0:
364,236,26822,5,0,3:0:0:0:
144,152,27008,1,2,3:0:0:0:
144,152,27100,1,2,0:0:0:0:
144,152,27193,1,10,3:0:0:0:
376,168,27378,6,0,B|289:194,1,90,0|0,2:0|2:0,2:0:0:0:
144,124,27748,1,0,2:0:0:0:
280,212,27934,1,8,2:0:0:0:
160,104,28119,2,0,B|252:84,1,90,0|0,2:0|2:0,2:0:0:0:
408,64,28489,1,0,2:0:0:0:
276,160,28674,1,8,2:0:0:0:
392,48,28859,2,0,B|309:84,1,90,0|0,2:0|2:0,2:0:0:0:
160,148,29230,1,0,2:0:0:0:
332,212,29415,1,8,2:0:0:0:
116,284,29600,6,0,P|204:312|291:326,1,180,4|0,2:0|2:0,2:0:0:0:
432,244,30156,1,8,2:0:0:0:
504,100,30341,1,0,2:0:0:0:
348,144,30526,1,0,2:0:0:0:
496,204,30711,1,0,2:0:0:0:
372,308,30896,1,8,2:0:0:0:
348,144,31082,2,0,L|168:156,1,180,0|0,2:0|2:0,2:0:0:0:
48,264,31637,1,8,2:0:0:0:
196,328,31822,6,0,P|238:248|262:161,1,180,0|0,2:0|2:0,2:0:0:0:
304,4,32378,1,8,2:0:0:0:
156,72,32563,2,0,L|108:160,1,90,0|0,2:0|2:0,2:0:0:0:
32,292,32934,1,0,2:0:0:0:
192,316,33119,1,8,2:0:0:0:
96,184,33304,1,0,2:0:0:0:
248,128,33489,2,0,L|432:152,1,180,0|8,2:0|2:0,2:0:0:0:
508,292,34045,5,0,2:0:0:0:
388,180,34230,2,0,B|276:232,1,90,0|0,3:0|3:0,3:0:0:0:
176,124,34600,2,0,B|276:160,1,90,0|0,3:0|3:0,3:0:0:0:
408,224,34971,2,0,B|325:188,1,90,0|0,3:0|3:0,3:0:0:0:
188,100,35341,1,0,2:3:0:0:
84,224,35526,1,4,2:3:0:0:
56,48,36082,5,0,2:0:0:0:
216,56,36267,1,0,2:0:0:0:
128,192,36452,1,0,2:0:0:0:
128,192,36637,1,0,2:0:0:0:
288,196,36822,1,0,2:0:0:0:
136,260,37008,1,0,2:0:0:0:
348,16,37378,1,0,2:0:0:0:
460,320,37748,1,4,2:0:0:0:
300,36,38119,5,0,0:0:0:0:
300,36,38304,2,0,L|168:66,1,135.000005149842
20,260,39045,1,0,0:0:0:0:
252,328,39415,1,0,0:0:0:0:
192,92,39785,5,0,3:0:0:0:
432,44,40156,1,0,3:0:0:0:
280,236,40526,1,0,3:0:0:0:
416,324,40896,1,0,2:0:0:0:
320,320,41082,1,0,2:0:0:0:
224,308,41267,1,0,2:0:0:0:
96,44,41822,2,0,B|72:112,1,53.9999983520508
68,176,42193,2,0,B|168:288,1,135,0|2,2:0|2:0,2:0:0:0:
316,320,42934,6,0,P|328:260|332:228,1,90,0|0,2:0|2:0,2:0:0:0:
340,68,43304,1,0,2:0:0:0:
424,208,43489,1,0,2:0:0:0:
276,144,43674,1,0,2:0:0:0:
120,76,43859,1,0,2:0:0:0:
124,172,44045,1,0,2:0:0:0:
156,264,44230,1,0,2:0:0:0:
352,264,44600,1,0,2:0:0:0:
272,212,44785,1,0,2:0:0:0:
368,212,44971,1,0,2:0:0:0:
372,292,45156,2,0,B|239:317,1,135,0|2,2:0|2:0,2:0:0:0:
108,296,45896,6,0,L|120:212,1,67.5000025749208,0|0,2:0|2:0,2:0:0:0:
128,68,46267,1,0,2:0:0:0:
256,164,46452,1,0,2:0:0:0:
384,64,46637,1,0,2:0:0:0:
416,224,46822,5,0,2:0:0:0:
416,224,47008,1,0,2:0:0:0:
268,288,47193,1,0,2:0:0:0:
268,288,47378,1,0,2:0:0:0:
152,176,47563,1,0,2:0:0:0:
152,176,47748,1,0,2:0:0:0:
240,40,47934,1,2,2:0:0:0:
240,40,48119,1,2,2:0:0:0:
372,132,48304,5,0,2:0:0:0:
300,276,48489,1,0,2:0:0:0:
208,144,48674,1,0,2:0:0:0:
428,212,48859,1,0,2:0:0:0:
304,40,49045,1,0,2:0:0:0:
188,176,49230,1,0,2:0:0:0:
344,268,49415,1,2,2:0:0:0:
328,88,49600,1,2,2:0:0:0:
116,160,49785,1,0,2:0:0:0:
292,172,49971,5,0,2:0:0:0:
292,172,50063,1,0,2:0:0:0:
292,172,50156,1,0,2:0:0:0:
200,304,50341,1,0,2:0:0:0:
200,304,50434,1,0,2:0:0:0:
200,304,50526,1,0,2:0:0:0:
88,132,50711,1,0,2:0:0:0:
88,132,50804,1,0,2:0:0:0:
88,132,50896,1,0,2:0:0:0:
208,24,51082,5,4,2:0:0:0:
440,296,51637,1,0,0:0:0:0:
84,212,52008,1,0,0:0:0:0:
228,140,52193,1,0,3:0:0:0:
268,116,52285,1,0,3:0:0:0:
304,92,52378,1,0,3:0:0:0:
308,252,52563,1,0,3:3:0:0:
276,284,52656,1,0,3:3:0:0:
240,320,52748,5,4,3:3:0:0:
64,292,52934,1,0,0:0:0:0:
160,144,53119,1,8,0:0:0:0:
276,284,53304,1,0,0:0:0:0:
416,176,53489,2,0,B|358:95,1,99.0000030212403
188,44,53859,1,8,0:0:0:0:
92,196,54045,2,0,B|188:172,1,99.0000030212403
360,128,54415,1,0,0:0:0:0:
424,292,54600,6,0,L|331:327,1,99.0000030212403,8|0,0:0|0:0,0:0:0:0:
160,276,54971,2,0,B|233:209,1,99.0000030212403
360,88,55341,1,8,0:0:0:0:
360,88,55526,1,0,0:0:0:0:
464,232,55711,1,0,1:0:0:0:
304,152,55896,1,0,0:0:0:0:
348,324,56082,1,8,0:0:0:0:
172,300,56267,1,0,0:0:0:0:
15,215,56452,6,0,P|37:170|64:129,1,99.0000030212403
220,44,56822,1,8,0:0:0:0:
392,96,57008,2,0,B|331:174,1,99.0000030212403
168,240,57378,1,0,0:0:0:0:
340,200,57563,2,0,L|280:296,1,99.0000030212403,8|0,0:0|0:0,0:0:0:0:
460,240,57934,2,0,L|368:312,1,99.0000030212403
212,348,58304,5,8,0:0:0:0:
92,216,58489,1,0,0:0:0:0:
268,232,58674,2,0,B|322:149,1,99.0000030212403,4|0,0:0|0:0,0:0:0:0:
456,32,59045,1,8,0:0:0:0:
340,168,59230,1,0,0:0:0:0:
492,260,59415,1,0,0:0:0:0:
412,100,59600,1,0,0:0:0:0:
356,268,59785,1,8,0:0:0:0:
488,124,59971,6,0,P|380:80|281:63,1,215.999993408203,4|0,0:0|0:0,0:0:0:0:
104,80,60526,1,8,0:0:0:0:
64,252,60711,1,0,0:0:0:0:
232,192,60896,1,0,0:0:0:0:
56,156,61082,1,0,0:0:0:0:
216,232,61267,1,8,0:0:0:0:
356,340,61452,2,0,B|256:348,1,99.0000030212403
64,324,61822,2,0,B|117:220,1,116.999994644165,0|8,0:0|0:0,0:0:0:0:
100,92,62193,5,0,0:0:0:0:
216,224,62378,1,0,0:0:0:0:
268,52,62563,1,0,0:0:0:0:
376,204,62748,1,0,0:0:0:0:
468,32,62934,5,4,0:0:0:0:
216,296,63489,1,4,0:0:0:0:
132,80,63859,1,0,0:0:0:0:
340,188,64045,2,0,L|360:136,2,49.5000015106202
180,268,64415,2,0,L|156:316,1,49.5000015106202
296,256,64600,5,0,3:0:0:0:
256,84,64785,1,0,0:0:0:0:
168,240,64971,1,8,0:0:0:0:
120,68,65156,1,0,0:0:0:0:
376,68,65341,2,0,L|380:168,1,99.0000030212403
432,336,65711,1,8,0:0:0:0:
276,252,65896,2,0,L|212:176,1,99.0000030212403
56,88,66267,1,0,0:0:0:0:
64,264,66452,6,0,L|154:304,1,99.0000030212403,8|0,0:0|0:0,0:0:0:0:
172,128,66822,2,0,L|252:185,1,99.0000030212403
100,264,67193,1,8,0:0:0:0:
248,56,67378,5,0,0:0:0:0:
332,288,67563,1,2,0:0:0:0:
464,80,67748,1,2,0:0:0:0:
216,88,67934,1,2,0:0:0:0:
372,280,68119,1,2,0:0:0:0:
456,48,68304,1,2,0:0:0:0:
216,120,68489,1,2,0:0:0:0:
404,268,68674,1,2,0:0:0:0:
448,24,68859,2,4,B|250:30,1,198.000006042481,4|4,1:0|1:0,1:0:0:0:
64,52,69415,5,0,0:0:0:0:
200,180,69600,1,0,1:0:0:0:
28,248,69785,1,0,1:0:0:0:
148,104,69971,1,0,1:0:0:0:
324,44,70156,1,0,1:0:0:0:
364,64,70248,1,0,1:0:0:0:
400,92,70341,1,0,1:0:0:0:
432,124,70434,1,0,1:0:0:0:
468,160,70526,6,0,B|452:272,1,107.999996704102,4|0,2:0|2:0,2:0:0:0:
356,284,71082,2,0,B|308:392,1,107.999996704102,4|0,2:0|2:0,2:0:0:0:
224,344,71637,2,0,B|315:210,1,161.999995056153,4|0,2:0|2:0,2:0:0:0:
368,128,72378,1,0,2:0:0:0:
276,152,72563,1,0,2:0:0:0:
180,176,72748,2,0,L|132:228,1,53.9999983520508,0|0,2:0|2:0,2:0:0:0:
48,232,73119,1,0,2:0:0:0:
8,100,73489,6,0,L|111:68,1,107.999996704102,4|0,2:0|2:0,2:0:0:0:
164,152,74045,2,0,L|268:125,1,107.999996704102,4|0,2:0|2:0,2:0:0:0:
272,224,74600,2,0,L|427:178,1,161.999995056153,4|0,2:0|2:0,2:0:0:0:
427,178,75341,1,0,2:0:0:0:
392,88,75526,1,0,2:0:0:0:
392,88,75619,1,0,0:0:0:0:
392,88,75711,1,0,2:0:0:0:
120,84,76082,1,0,2:0:0:0:
72,240,76452,6,2,B|87:278|135:276|168:264|180:276|180:276|188:260|188:260|200:276|212:256|228:268,1,180,6|2,2:0|2:0,2:0:0:0:
332,296,77563,1,0,2:0:0:0:
400,128,77934,1,0,3:0:0:0:
80,88,78304,1,0,3:0:0:0:
296,44,78859,5,0,2:0:0:0:
296,44,78952,1,0,2:0:0:0:
296,44,79045,1,0,2:0:0:0:
412,156,79230,2,0,B|372:236,1,90,4|0,1:0|2:0,3:0:0:0:
252,344,79600,1,0,2:0:0:0:
152,216,79785,1,8,2:0:0:0:
308,168,79971,1,0,2:0:0:0:
192,280,80156,2,0,B|130:214,1,90,0|0,2:0|2:0,2:0:0:0:
48,88,80526,5,8,2:0:0:0:
204,52,80711,1,0,2:0:0:0:
248,47,80804,1,0,2:0:0:0:
292,48,80896,1,0,2:0:0:0:
440,120,81082,1,0,2:0:0:0:
316,224,81267,1,8,2:0:0:0:
452,312,81452,1,0,2:0:0:0:
348,188,81637,6,0,L|300:272,1,90,0|0,2:0|2:0,2:0:0:0:
252,112,82008,2,0,L|224:224,1,90,8|0,2:0|2:0,2:0:0:0:
344,312,82378,2,0,L|344:184,1,90,0|0,2:0|2:0,2:0:0:0:
196,284,82748,2,0,L|259:220,1,90,8|0,2:0|2:0,2:0:0:0:
144,108,83119,2,0,L|184:212,1,90,0|0,2:0|2:0,2:0:0:0:
244,340,83489,2,0,L|320:260,1,90,8|0,2:0|2:0,2:0:0:0:
348,208,83767,1,0,2:0:0:0:
348,208,83859,2,0,B|312:172|260:152|176:140,1,180,0|8,2:0|2:0,2:0:0:0:
24,112,84415,5,0,2:0:0:0:
180,64,84600,1,0,2:0:0:0:
140,220,84785,1,0,2:0:0:0:
92,64,84971,1,8,2:0:0:0:
200,184,85156,2,0,L|225:220,2,45,0|0|0,2:0|2:0|2:0,2:0:0:0:
220,24,85526,1,0,2:0:0:0:
264,180,85711,5,8,2:0:0:0:
336,324,85896,1,0,2:0:0:0:
424,188,86082,1,0,2:0:0:0:
436,348,86267,1,0,2:0:0:0:
352,208,86452,1,8,2:0:0:0:
228,312,86637,1,0,2:0:0:0:
200,276,86730,1,0,2:0:0:0:
188,240,86822,2,0,P|216:172|88:252,1,405.000015449525,0|0,2:0|2:0,2:0:0:0:
256,192,88304,12,4,89600,2:0:0:0:
