osu file format v14

[General]
AudioFilename: audio.mp3
AudioLeadIn: 0
PreviewTime: 11219
Countdown: 0
SampleSet: Soft
StackLeniency: 0.7
Mode: 0
LetterboxInBreaks: 0
WidescreenStoryboard: 1

[Editor]
Bookmarks: 5910,8606,11303,32876,43663,51752,54449,62539,65236,81415,84112,86809,113775,124561,132651,135348,143438,146134,162314,165011,167708,194674,205460,218943,221640,245910,258045
DistanceSpacing: 1.3
BeatDivisor: 4
GridSize: 16
TimelineZoom: 1

[Metadata]
Title:Good-bye crisis
TitleUnicode:Good-bye crisis
Artist:Okui Masami
ArtistUnicode:奥井雅美
Creator:Shirahane Suou
Version:Insane
Source:Hello,good-bye
Tags:goodbye japanese video game visual novel eroge op opening lump of sugar rock jrock
BeatmapID:3053424
BeatmapSetID:1479700

[Difficulty]
HPDrainRate:5
CircleSize:4
OverallDifficulty:8
ApproachRate:9
SliderMultiplier:1.7
SliderTickRate:1

[Events]
//Background and Video events
0,0,"insane.jpg",0,0
//Break Periods
2,6110,7501
//Storyboard Layer 0 (Background)
//Storyboard Layer 1 (Fail)
//Storyboard Layer 2 (Pass)
//Storyboard Layer 3 (Foreground)
//Storyboard Layer 4 (Overlay)
//Storyboard Sound Samples

[TimingPoints]
517,337.078651685393,4,2,1,60,1,0
517,-111.111111111111,4,2,1,60,0,0
5910,-111.111111111111,4,2,1,50,0,0
8606,-111.111111111111,4,2,1,60,0,0
11303,-90.9090909090909,4,2,1,70,0,1
32876,-111.111111111111,4,2,1,60,0,0
43663,-133.333333333333,4,2,1,40,0,0
51752,-111.111111111111,4,2,1,60,0,0
54449,-133.333333333333,4,2,1,40,0,0
62539,-111.111111111111,4,2,1,60,0,0
65236,-133.333333333333,4,2,1,50,0,0
73325,-111.111111111111,4,2,1,60,0,0
76022,-133.333333333333,4,2,1,50,0,0
81415,-111.111111111111,4,2,1,60,0,0
86809,-90.9090909090909,4,2,1,70,0,1
113775,-111.111111111111,4,2,1,60,0,0
124561,-133.333333333333,4,2,1,40,0,0
132651,-111.111111111111,4,2,1,60,0,0
135348,-133.333333333333,4,2,1,40,0,0
143438,-111.111111111111,4,2,1,60,0,0
146134,-133.333333333333,4,2,1,50,0,0
154224,-111.111111111111,4,2,1,60,0,0
156921,-133.333333333333,4,2,1,50,0,0
162314,-111.111111111111,4,2,1,60,0,0
167708,-90.9090909090909,4,2,1,70,0,1
194674,-125,4,2,1,50,0,0
202764,-83.3333333333333,4,2,1,60,0,0
205460,-100,4,2,1,70,0,0
218943,-200,4,2,1,50,0,0
220123,-125,4,2,1,50,0,0
221640,-100,4,2,1,70,0,1
243213,-400,4,2,1,50,0,0
244561,-100,4,2,1,70,0,1
245910,-111.111111111111,4,2,1,60,0,0
256022,-400,4,2,1,50,0,0

[Colours]
Combo1 : 252,121,165
Combo2 : 248,192,158
Combo3 : 252,153,116
Combo4 : 250,173,200

[HitObjects]
74,157,517,6,0,L|163:172,1,76.4999976654053,6|0,3:2|3:2,0:0:0:0:
269,189,854,1,0,3:2:0:0:
235,42,1022,1,10,0:2:0:0:
235,42,1191,2,0,B|209:73|209:73|225:125,1,76.4999976654053,0|0,3:2|3:2,0:0:0:0:
379,83,1528,1,10,0:2:0:0:
379,83,1696,2,0,B|348:109|348:109|313:98,1,76.4999976654053,0|0,3:2|3:2,0:0:0:0:
284,254,2033,5,10,0:2:0:0:
284,254,2202,2,0,B|258:223|258:223|269:189,1,76.4999976654053,0|0,3:2|3:2,0:0:0:0:
394,283,2539,1,10,0:2:0:0:
284,346,2708,1,8,0:2:0:0:
357,188,2876,1,10,0:2:0:0:
375,384,3045,1,8,0:2:0:0:
206,297,3213,5,6,3:2:0:0:
285,254,3382,1,8,0:2:0:0:
285,254,3466,1,8,0:2:0:0:
285,254,3550,1,8,0:2:0:0:
197,384,3719,2,0,L|107:369,1,76.4999976654053,2|8,3:2|0:2,0:0:0:0:
88,361,3972,1,8,0:2:0:0:
88,361,4056,1,8,0:2:0:0:
0,255,4224,6,0,L|90:240,1,76.4999976654053,2|8,3:2|0:2,0:0:0:0:
109,232,4477,1,8,0:2:0:0:
109,232,4561,1,8,0:2:0:0:
176,133,4730,2,0,L|86:118,1,76.4999976654053,2|8,3:2|0:2,0:0:0:0:
67,110,4983,1,8,0:2:0:0:
67,110,5067,1,8,0:2:0:0:
213,39,5236,5,10,0:2:0:0:
249,196,5404,1,8,0:2:0:0:
353,98,5573,1,10,0:2:0:0:
268,113,5741,1,8,0:2:0:0:
392,233,5910,5,6,3:2:0:0:
392,233,8101,6,0,L|384:274,1,38.2499988327027,0|0,3:2|3:2,0:0:0:0:
368,349,8269,1,8,0:2:0:0:
342,361,8353,1,8,0:2:0:0:
313,361,8437,1,0,3:2:0:0:
287,350,8521,1,0,3:2:0:0:
268,329,8606,5,2,3:2:0:0:
146,236,8775,1,2,3:2:0:0:
162,382,8943,1,10,0:2:0:0:
251,215,9112,1,2,3:2:0:0:
39,353,9449,5,2,3:2:0:0:
166,54,9786,1,2,3:2:0:0:
368,349,10123,1,10,0:2:0:0:
416,261,10292,1,0,3:2:0:0:
416,261,10460,1,2,3:2:0:0:
330,210,10629,2,0,B|271:197|271:197|202:246,1,114.749996498108,10|0,0:2|0:0,0:0:0:0:
223,247,10966,2,0,P|185:253|151:237,1,76.4999976654053,8|0,0:2|0:0,0:0:0:0:
0,81,11303,6,0,P|53:39|142:74,1,140.25000428009,6|0,3:2|0:0,0:0:0:0:
137,68,11640,2,0,L|118:159,1,93.5000028533936,10|0,0:2|0:0,0:0:0:0:
18,276,11977,2,0,L|0:184,1,93.5000028533936,2|0,3:2|3:2,0:0:0:0:
113,333,12314,1,10,0:2:0:0:
229,174,12483,6,0,B|340:152|299:237|426:202,1,187.000005706787,2|0,3:2|3:2,0:0:0:0:
264,265,12988,1,10,0:2:0:0:
378,117,13157,1,0,3:2:0:0:
378,117,13241,1,8,0:2:0:0:
378,117,13325,2,0,B|390:73|390:73|354:27,1,93.5000028533936,2|0,3:2|3:2,0:0:0:0:
177,0,13663,2,0,L|149:137,1,140.25000428009,10|0,0:2|0:0,0:0:0:0:
128,158,14000,6,0,L|155:295,1,140.25000428009,2|0,3:2|0:0,0:0:0:0:
147,320,14337,2,0,B|184:349|184:349|228:336,1,93.5000028533936,10|0,0:2|0:0,0:0:0:0:
318,220,14674,2,0,B|280:190|280:190|236:203,1,93.5000028533936,2|0,3:2|3:2,0:0:0:0:
343,329,15011,1,10,0:2:0:0:
425,175,15179,6,0,B|444:65|444:65|413:24|337:57,1,187.000005706787,2|2,3:2|3:2,0:0:0:0:
234,101,15685,1,10,0:2:0:0:
318,220,15854,1,0,3:2:0:0:
318,220,15938,1,8,0:2:0:0:
318,220,16022,2,0,L|335:124,1,93.5000028533936,2|0,3:2|3:2,0:0:0:0:
153,47,16359,2,0,B|125:93|125:93|179:194,1,140.25000428009,10|0,0:2|0:0,0:0:0:0:
185,192,16696,6,0,B|66:184|125:244|3:234,1,187.000005706787,6|8,3:2|0:2,0:0:0:0:
140,360,17202,1,0,3:2:0:0:
140,360,17286,1,8,0:2:0:0:
140,360,17370,2,0,B|168:324|168:324|143:246,1,93.5000028533936,0|0,3:2|3:2,0:0:0:0:
35,140,17708,1,8,0:2:0:0:
61,312,17876,1,2,0:2:0:0:
185,192,18045,6,0,B|215:140|286:160|286:160|286:208|355:238,1,187.000005706787,2|10,3:2|0:2,0:0:0:0:
410,72,18550,1,2,3:2:0:0:
410,72,18634,1,8,0:2:0:0:
410,72,18719,2,0,P|377:104|378:149,1,93.5000028533936,0|2,3:2|3:2,0:0:0:0:
509,286,19056,1,8,0:2:0:0:
469,140,19224,1,2,0:2:0:0:
363,315,19393,6,0,B|261:342|261:342|214:313|247:239,1,187.000005706787,6|8,3:2|0:2,0:0:0:0:
243,91,19899,1,0,3:2:0:0:
243,91,19983,1,8,0:2:0:0:
243,91,20067,2,0,P|279:134|261:188,1,93.5000028533936,0|0,3:2|3:2,0:0:0:0:
140,298,20404,1,8,0:2:0:0:
117,293,20488,1,8,0:2:0:0:
94,288,20572,1,0,3:2:0:0:
71,284,20656,1,0,3:2:0:0:
48,279,20741,6,0,B|35:225|35:225|47:200|47:200|31:110,1,140.25000428009,14|0,0:2|0:0,0:0:0:0:
21,130,21078,1,2,3:2:0:0:
169,16,21247,1,14,0:2:0:0:
169,16,21584,2,0,L|186:75,1,46.7500014266968,2|0,3:2|3:2,0:0:0:0:
242,115,21752,1,8,0:2:0:0:
232,148,21836,1,8,0:2:0:0:
222,182,21920,1,8,0:2:0:0:
212,216,22004,1,8,0:2:0:0:
203,249,22090,6,0,B|181:322|181:322|204:358|259:343,1,140.25000428009,6|0,3:2|0:0,0:0:0:0:
250,335,22427,2,0,B|294:321|294:321|333:348,1,93.5000028533936,10|0,0:2|0:0,0:0:0:0:
475,272,22764,2,0,B|430:285|430:285|391:258,1,93.5000028533936,2|0,3:2|3:2,0:0:0:0:
232,148,23101,1,10,0:2:0:0:
342,37,23269,6,0,B|321:101|321:101|341:144|341:144|312:225,1,187.000005706787,2|2,3:2|3:2,0:0:0:0:
422,94,23775,1,10,0:2:0:0:
242,51,23943,1,0,3:2:0:0:
242,51,24028,1,8,0:2:0:0:
242,51,24112,2,0,L|145:74,1,93.5000028533936,2|0,3:2|3:2,0:0:0:0:
19,155,24449,2,0,P|76:143|140:214,1,140.25000428009,10|0,0:2|0:0,0:0:0:0:
150,200,24786,6,0,L|130:343,1,140.25000428009,2|0,3:2|0:0,0:0:0:0:
135,358,25123,2,0,P|81:378|34:332,1,93.5000028533936,10|0,0:2|0:0,0:0:0:0:
233,304,25460,2,0,L|337:322,1,93.5000028533936,2|0,3:2|3:2,0:0:0:0:
465,384,25797,1,10,0:2:0:0:
512,207,25966,6,0,B|479:157|416:177|416:177|411:230|339:251,1,187.000005706787,2|2,3:2|3:2,0:0:0:0:
224,180,26472,1,10,0:2:0:0:
339,60,26640,1,0,3:2:0:0:
339,60,26724,1,8,0:2:0:0:
339,60,26809,2,0,L|308:183,1,93.5000028533936,2|0,3:2|3:2,0:0:0:0:
197,284,27146,2,0,P|247:275|320:344,1,140.25000428009,10|0,0:2|0:0,0:0:0:0:
320,356,27483,6,0,B|245:345|245:345|208:367|208:367|126:354,1,187.000005706787,6|8,3:2|0:2,0:0:0:0:
9,242,27988,1,0,3:2:0:0:
9,242,28073,1,8,0:2:0:0:
9,242,28157,2,0,P|55:253|103:225,1,93.5000028533936,0|0,3:2|3:2,0:0:0:0:
181,70,28494,1,8,0:2:0:0:
209,258,28663,1,2,0:2:0:0:
45,152,28831,6,0,B|22:47|22:47|49:6|108:33,1,187.000005706787,2|10,3:2|0:2,0:0:0:0:
231,144,29337,2,0,P|173:166|132:141,1,93.5000028533936,2|0,3:2|0:0,0:0:0:0:
279,32,29674,1,2,3:2:0:0:
315,214,29842,1,8,0:2:0:0:
444,99,30011,1,10,0:2:0:0:
444,99,30095,1,8,0:2:0:0:
444,99,30179,6,0,L|344:117,1,93.5000028533936,2|0,3:2|3:2,0:0:0:0:
467,2,30516,1,0,3:2:0:0:
490,203,30685,2,0,B|421:194|421:194|386:224|386:224|309:212,1,187.000005706787,10|0,0:2|3:2,0:0:0:0:
172,87,31191,1,8,0:2:0:0:
172,87,31359,2,0,P|217:58|263:69,1,93.5000028533936,0|0,3:0|3:2,0:0:0:0:
218,247,31696,5,8,0:2:0:0:
218,247,31781,1,8,0:2:0:0:
218,247,31865,2,0,L|236:156,1,93.5000028533936,8|0,0:2|3:2,0:0:0:0:
72,57,32202,1,8,0:2:0:0:
72,57,32287,1,8,0:2:0:0:
72,57,32371,2,0,L|90:148,1,93.5000028533936,8|8,0:2|0:2,0:0:0:0:
0,285,32708,1,8,0:2:0:0:
0,285,32792,1,8,0:2:0:0:
0,285,32876,6,0,L|92:300,1,76.4999976654053,6|2,3:2|3:2,0:0:0:0:
131,384,33213,1,10,0:2:0:0:
242,324,33382,2,0,B|326:299|299:368|411:324,1,152.999995330811,2|2,3:2|3:2,0:0:0:0:
474,249,33887,1,8,0:2:0:0:
364,117,34056,6,0,B|322:158|322:158|362:263,1,152.999995330811,2|2,3:2|3:2,0:0:0:0:
453,152,34561,1,8,0:2:0:0:
348,32,34730,1,2,3:2:0:0:
348,32,34814,1,8,0:2:0:0:
348,32,34899,2,0,L|266:20,1,76.4999976654053,0|2,3:2|3:2,0:0:0:0:
170,141,35236,2,0,L|284:124,1,114.749996498108,10|0,0:2|0:0,0:0:0:0:
298,125,35573,6,0,P|322:163|309:212,1,76.4999976654053,2|2,3:2|3:2,0:0:0:0:
259,270,35910,1,10,0:2:0:0:
369,335,36078,2,0,L|525:306,1,152.999995330811,2|2,3:2|3:2,0:0:0:0:
405,235,36584,1,8,0:2:0:0:
479,79,36752,2,0,B|496:137|496:137|483:168|483:168|505:236,1,152.999995330811,2|2,3:2|3:2,0:0:0:0:
390,131,37258,2,0,L|316:146,1,76.4999976654053,8|2,0:2|3:2,0:0:0:0:
222,222,37595,2,0,L|296:237,1,76.4999976654053,2|0,3:2|0:0,0:0:0:0:
218,127,37932,1,8,0:2:0:0:
123,218,38101,1,8,0:2:0:0:
123,218,38185,1,8,0:2:0:0:
123,218,38269,6,0,L|139:304,1,76.4999976654053,2|2,3:2|3:2,0:0:0:0:
225,370,38606,1,10,0:2:0:0:
297,237,38775,2,0,P|370:223|428:268,1,152.999995330811,2|2,3:2|3:2,0:0:0:0:
323,340,39281,1,8,0:2:0:0:
210,230,39449,6,0,L|182:79,1,152.999995330811,2|2,3:2|3:2,0:0:0:0:
120,190,39955,1,8,0:2:0:0:
279,128,40123,1,2,3:2:0:0:
279,128,40208,1,8,0:2:0:0:
279,128,40292,2,0,L|365:146,1,76.4999976654053,0|2,3:2|3:2,0:0:0:0:
496,224,40629,2,0,P|454:187|459:132,1,114.749996498108,10|0,0:2|0:0,0:0:0:0:
469,112,40966,5,6,3:2:0:0:
361,237,41134,1,2,3:2:0:0:
399,54,41303,1,10,0:2:0:0:
496,224,41472,1,2,3:2:0:0:
496,224,41809,1,2,3:2:0:0:
354,144,41977,1,0,3:2:0:0:
445,311,42146,5,10,0:2:0:0:
445,311,42483,2,0,L|368:329,1,76.4999976654053,10|0,0:2|3:2,0:0:0:0:
285,239,42820,1,2,3:2:0:0:
213,343,42988,2,0,L|222:392,2,38.2499988327027,10|8|0,0:2|0:2|3:2,0:0:0:0:
98,325,43325,1,8,0:2:0:0:
98,325,43663,6,0,L|28:312,1,63.7500024318696,6|0,3:2|0:0,0:0:0:0:
0,232,44000,2,0,L|70:219,1,63.7500024318696,10|0,0:2|0:0,0:0:0:0:
122,142,44337,1,2,3:2:0:0:
0,94,44505,1,0,3:2:0:0:
0,94,44842,6,0,P|51:92|70:13,1,127.500004863739,10|2,0:2|3:2,0:0:0:0:
122,142,45348,1,8,0:2:0:0:
233,78,45516,1,2,0:2:0:0:
233,78,45601,1,8,0:2:0:0:
233,78,45685,2,0,L|151:63,1,63.7500024318696,0|2,3:2|3:2,0:0:0:0:
128,229,46022,1,10,0:2:0:0:
128,229,46359,6,0,L|190:240,1,63.7500024318696,2|0,3:2|0:0,0:0:0:0:
274,310,46696,2,0,L|211:321,1,63.7500024318696,10|0,0:2|0:0,0:0:0:0:
276,219,47033,1,2,3:2:0:0:
376,299,47202,1,0,3:2:0:0:
376,299,47539,6,0,L|391:210,1,63.7500024318696,10|0,0:2|0:0,0:0:0:0:
459,174,47876,2,0,L|448:111,1,63.7500024318696,2|0,3:2|0:0,0:0:0:0:
365,34,48213,2,0,P|329:72|245:58,1,127.500004863739,2|2,3:2|3:2,0:0:0:0:
127,6,48719,1,10,0:2:0:0:
127,6,49056,6,0,L|110:82,1,63.7500024318696,6|0,3:2|0:0,0:0:0:0:
51,128,49393,2,0,L|68:204,1,63.7500024318696,10|0,0:2|0:0,0:0:0:0:
87,277,49730,1,2,3:2:0:0:
146,152,49899,1,0,3:2:0:0:
146,152,50236,6,0,L|178:295,1,127.500004863739,10|2,0:2|3:2,0:0:0:0:
209,384,50741,1,8,0:2:0:0:
288,272,50910,1,2,0:2:0:0:
288,272,50994,1,8,0:2:0:0:
288,272,51078,2,0,L|370:291,1,63.7500024318696,0|2,3:2|3:2,0:0:0:0:
512,237,51415,1,10,0:2:0:0:
447,384,51584,1,2,3:2:0:0:
447,384,51668,1,0,3:2:0:0:
447,384,51752,6,0,B|429:324|429:324|441:297|441:297|417:215,1,152.999995330811,6|8,3:2|0:2,0:0:0:0:
314,81,52258,2,0,B|292:169|292:169|316:204|377:184,1,152.999995330811,6|8,3:2|0:2,0:0:0:0:
510,99,52764,6,0,B|476:59|428:72|428:72|421:111|373:130,1,152.999995330811,6|0,3:2|0:0,0:0:0:0:
417,255,53269,1,0,3:2:0:0:
469,175,53438,1,8,0:2:0:0:
334,281,53606,1,0,3:2:0:0:
393,120,53775,5,8,0:2:0:0:
502,267,53943,1,8,0:2:0:0:
347,190,54112,1,8,0:2:0:0:
408,351,54281,1,8,0:2:0:0:
408,351,54365,1,8,0:2:0:0:
408,351,54449,6,0,P|376:356|345:365,1,63.7500024318696,6|0,3:2|0:0,0:0:0:0:
272,266,54786,2,0,P|302:274|334:280,1,63.7500024318696,10|0,0:2|0:0,0:0:0:0:
253,357,55123,1,2,3:2:0:0:
164,257,55292,1,0,3:2:0:0:
164,257,55629,6,0,P|191:212|160:132,1,127.500004863739,10|2,0:2|3:2,0:0:0:0:
114,25,56134,1,8,0:2:0:0:
26,128,56303,1,2,0:2:0:0:
26,128,56387,1,8,0:2:0:0:
26,128,56472,2,0,L|95:113,1,63.7500024318696,0|2,3:2|3:2,0:0:0:0:
211,70,56809,1,10,0:2:0:0:
211,70,57146,6,0,P|241:59|284:80,1,63.7500024318696,2|0,3:2|0:0,0:0:0:0:
237,219,57483,2,0,L|245:155,1,63.7500024318696,10|0,0:2|0:0,0:0:0:0:
325,234,57820,1,10,0:2:0:0:
229,316,57988,1,0,3:2:0:0:
229,316,58325,6,0,L|161:301,1,63.7500024318696,10|0,0:2|0:0,0:0:0:0:
79,260,58663,2,0,L|11:275,1,63.7500024318696,2|0,3:2|0:0,0:0:0:0:
153,210,59000,2,0,L|168:142,1,63.7500024318696,2|0,3:2|0:0,0:0:0:0:
52,40,59337,1,2,3:2:0:0:
52,40,59421,1,0,3:2:0:0:
52,40,59505,1,10,0:2:0:0:
65,154,59674,1,0,3:2:0:0:
147,57,59842,6,0,P|182:52|227:80,1,63.7500024318696,6|0,3:2|0:0,0:0:0:0:
314,150,60179,2,0,P|279:155|234:127,1,63.7500024318696,10|0,0:2|0:0,0:0:0:0:
294,60,60516,1,2,3:2:0:0:
167,148,60685,1,0,3:2:0:0:
167,148,61022,6,0,L|189:284,1,127.500004863739,10|2,0:2|3:2,0:0:0:0:
252,370,61528,1,8,0:2:0:0:
350,295,61696,1,10,0:2:0:0:
350,295,61781,1,8,0:2:0:0:
350,295,61865,2,0,L|281:282,1,63.7500024318696,8|10,0:2|0:2,0:0:0:0:
386,384,62202,1,10,0:2:0:0:
471,282,62370,1,10,0:2:0:0:
337,189,62539,6,0,B|245:175|245:175|235:207|179:241,1,152.999995330811,6|8,3:2|0:2,0:0:0:0:
61,94,63045,2,0,P|114:72|141:158,1,152.999995330811,6|8,3:2|0:2,0:0:0:0:
19,289,63550,6,0,B|4:203|4:203|28:174|65:190,1,152.999995330811,6|0,3:2|0:0,0:0:0:0:
113,350,64056,1,8,0:2:0:0:
208,221,64224,1,8,0:2:0:0:
283,380,64393,1,8,0:2:0:0:
283,380,64477,1,8,0:2:0:0:
283,380,64561,5,8,0:2:0:0:
200,325,64730,1,8,0:2:0:0:
303,276,64899,1,8,0:2:0:0:
208,221,65067,1,8,0:2:0:0:
300,129,65236,6,0,L|284:200,1,63.7500024318696,4|0,3:2|0:0,0:0:0:0:
198,128,65573,1,2,0:2:0:0:
277,40,65741,2,0,P|338:35|380:81,1,127.500004863739,0|2,3:2|3:2,0:0:0:0:
481,18,66247,2,0,P|501:50|488:91,1,63.7500024318696,10|2,0:2|0:2,0:0:0:0:
388,192,66584,6,0,P|423:167|506:189,1,127.500004863739,2|2,3:2|3:2,0:0:0:0:
366,280,67090,2,0,P|326:262|304:179,1,127.500004863739,10|2,0:2|3:2,0:0:0:0:
451,263,67595,1,8,0:2:0:0:
451,263,67764,1,2,3:2:0:0:
373,374,67932,6,0,P|310:360|247:350,1,127.500004863739,0|0,3:2|0:0,0:0:0:0:
142,282,68438,2,0,P|173:276|204:270,1,63.7500024318696,0|0,3:2|0:0,0:0:0:0:
303,186,68775,1,0,3:2:0:0:
183,157,68943,1,8,0:2:0:0:
183,157,69281,6,0,P|208:128|189:34,1,127.500004863739,0|0,3:2|3:2,0:0:0:0:
64,88,69786,2,0,L|132:97,1,63.7500024318696,8|0,0:2|0:0,0:0:0:0:
199,44,70123,1,2,3:2:0:0:
59,0,70292,2,0,L|127:9,1,63.7500024318696,10|0,0:2|0:0,0:0:0:0:
255,112,70629,6,0,L|392:93,1,127.500004863739,6|2,3:2|0:2,0:0:0:0:
491,63,71134,2,0,L|476:144,1,63.7500024318696,2|0,3:2|0:0,0:0:0:0:
373,195,71472,1,2,3:2:0:0:
475,292,71640,2,0,L|463:229,1,63.7500024318696,8|2,0:2|3:2,0:0:0:0:
373,326,71977,6,0,P|324:288|254:311,1,127.500004863739,0|2,3:2|3:2,0:0:0:0:
167,205,72483,2,0,P|227:218|275:180,1,127.500004863739,8|0,0:2|3:2,0:0:0:0:
166,107,72988,1,10,0:2:0:0:
166,107,73157,1,8,0:2:0:0:
103,271,73325,6,0,B|84:353|84:353|105:386|159:366,1,152.999995330811,6|0,3:2|3:2,0:0:0:0:
318,279,73831,2,0,B|337:197|337:197|316:164|262:184,1,152.999995330811,10|0,0:2|3:2,0:0:0:0:
277,379,74337,6,0,B|311:361|348:387|348:387|362:344|420:342,1,152.999995330811,4|0,3:2|3:2,0:0:0:0:
496,219,74842,2,0,B|452:218|438:175|438:175|401:201|366:183,1,152.999995330811,8|0,0:2|3:2,0:0:0:0:
313,35,75348,1,8,0:2:0:0:
276,180,75516,1,0,3:2:0:0:
394,89,75685,1,8,0:2:0:0:
234,96,75854,1,8,0:2:0:0:
234,96,75938,1,8,0:2:0:0:
234,96,76022,6,0,L|163:112,1,63.7500024318696,4|0,3:2|0:0,0:0:0:0:
66,175,76359,1,2,0:2:0:0:
126,311,76528,2,0,P|167:268|149:198,1,127.500004863739,0|2,3:2|3:2,0:0:0:0:
55,267,77033,1,10,0:2:0:0:
55,267,77201,1,2,0:2:0:0:
169,384,77370,6,0,P|233:374|295:360,1,127.500004863739,2|2,3:2|3:2,0:0:0:0:
413,246,77876,2,0,P|379:211|290:228,1,127.500004863739,10|2,0:2|3:2,0:0:0:0:
180,297,78382,2,0,P|211:292|243:285,1,63.7500024318696,8|0,0:2|0:2,0:0:0:0:
179,123,78719,6,0,B|224:114|224:114|250:125|250:125|325:113,1,127.500004863739,2|0,3:2|0:0,0:0:0:0:
406,9,79224,2,0,B|369:42|369:42|407:136,1,127.500004863739,2|0,3:2|3:2,0:0:0:0:
488,200,79730,2,0,L|507:128,1,63.7500024318696,10|0,0:2|0:0,0:0:0:0:
369,230,80067,6,0,L|397:354,1,127.500004863739,0|0,3:2|3:2,0:0:0:0:
287,294,80573,2,0,L|273:355,1,63.7500024318696,8|0,0:2|0:0,0:0:0:0:
195,242,80910,1,0,3:2:0:0:
281,203,81078,1,8,0:2:0:0:
187,332,81247,1,10,0:2:0:0:
187,332,81331,1,8,0:2:0:0:
187,332,81415,6,0,L|32:302,1,152.999995330811,6|10,3:2|0:2,0:0:0:0:
10,159,81921,2,0,P|60:171|127:88,1,152.999995330811,2|0,3:2|3:2,0:0:0:0:
281,203,82427,1,8,0:2:0:0:
230,58,82595,1,10,0:2:0:0:
230,58,82679,1,8,0:2:0:0:
230,58,82764,6,0,P|216:120|190:210,1,152.999995330811,6|10,3:2|0:2,0:0:0:0:
86,306,83269,2,0,P|129:301|163:331,1,76.4999976654053,2|0,3:2|0:0,0:0:0:0:
281,203,83606,1,2,3:2:0:0:
336,320,83775,2,0,P|305:313|260:300,1,76.4999976654053,8|10,0:2|0:2,0:0:0:0:
394,200,84112,5,14,0:2:0:0:
394,200,84281,1,8,0:2:0:0:
436,371,84449,1,8,0:2:0:0:
436,371,84618,1,8,0:2:0:0:
500,231,84786,1,8,0:2:0:0:
500,231,84955,1,8,0:2:0:0:
336,320,85123,1,8,0:2:0:0:
336,320,85292,1,8,0:2:0:0:
281,203,85460,6,0,L|291:145,3,38.2499988327027,10|10|2|2,0:2|0:2|3:2|3:2,0:0:0:0:
239,89,85797,5,2,3:2:0:0:
239,89,85882,1,2,0:2:0:0:
239,89,85966,2,0,L|294:68,1,38.2499988327027,2|2,3:2|0:2,0:0:0:0:
325,2,86134,5,2,3:2:0:0:
334,10,86218,1,2,0:2:0:0:
344,18,86302,1,2,3:2:0:0:
354,26,86386,1,2,0:2:0:0:
181,174,86809,6,0,L|40:146,1,140.25000428009,6|0,3:2|0:0,0:0:0:0:
12,157,87146,2,0,P|-9:113|15:67,1,93.5000028533936,10|0,0:2|0:0,0:0:0:0:
104,249,87483,2,0,L|86:355,1,93.5000028533936,2|0,3:2|3:2,0:0:0:0:
0,245,87820,1,10,0:2:0:0:
181,174,87988,6,0,B|243:160|243:160|287:182|287:182|374:164,1,187.000005706787,2|2,3:2|3:2,0:0:0:0:
190,81,88494,1,10,0:2:0:0:
322,0,88663,1,0,3:2:0:0:
322,0,88747,1,8,0:2:0:0:
322,0,88831,2,0,L|301:112,1,93.5000028533936,2|0,3:2|3:2,0:0:0:0:
226,255,89168,2,0,P|279:240|342:314,1,140.25000428009,10|0,0:2|0:0,0:0:0:0:
346,319,89505,6,0,L|195:353,1,140.25000428009,2|0,3:2|0:0,0:0:0:0:
185,364,89842,2,0,L|81:340,1,93.5000028533936,10|0,0:2|0:0,0:0:0:0:
0,191,90179,2,0,B|39:166|39:166|91:183,1,93.5000028533936,2|0,3:2|3:2,0:0:0:0:
270,152,90516,1,10,0:2:0:0:
150,13,90685,6,0,L|185:200,1,187.000005706787,2|2,3:2|3:2,0:0:0:0:
71,85,91191,1,10,0:2:0:0:
256,56,91359,1,0,3:2:0:0:
256,56,91443,1,8,0:2:0:0:
256,56,91528,2,0,L|349:73,1,93.5000028533936,2|0,3:2|3:2,0:0:0:0:
512,153,91865,2,0,P|458:140|387:209,1,140.25000428009,10|0,0:2|0:0,0:0:0:0:
377,192,92202,6,0,B|359:262|359:262|376:297|376:297|356:391,1,187.000005706787,6|8,3:2|0:2,0:0:0:0:
189,331,92708,1,0,3:2:0:0:
189,331,92792,1,8,0:2:0:0:
189,331,92876,2,0,L|293:313,1,93.5000028533936,0|0,3:2|3:2,0:0:0:0:
120,234,93213,1,8,0:2:0:0:
103,384,93382,1,2,0:2:0:0:
229,230,93550,6,0,L|194:33,1,187.000005706787,2|10,3:2|0:2,0:0:0:0:
26,119,94055,1,2,3:2:0:0:
26,119,94140,1,8,0:2:0:0:
26,119,94224,2,0,L|130:137,1,93.5000028533936,0|2,3:2|3:2,0:0:0:0:
158,322,94561,1,8,0:2:0:0:
33,220,94730,1,2,0:2:0:0:
223,133,94899,6,0,B|330:149|330:149|356:191|320:237,1,187.000005706787,6|8,3:2|0:2,0:0:0:0:
255,356,95404,1,0,3:2:0:0:
255,356,95488,1,8,0:2:0:0:
255,356,95573,2,0,L|237:235,1,93.5000028533936,0|0,3:2|3:2,0:0:0:0:
341,109,95910,1,8,0:2:0:0:
363,101,95994,1,8,0:2:0:0:
386,101,96078,1,2,3:2:0:0:
408,109,96162,1,0,3:2:0:0:
425,126,96247,6,0,B|414:183|414:183|428:208|428:208|416:289,1,140.25000428009,14|0,0:2|0:0,0:0:0:0:
411,277,96584,1,2,3:2:0:0:
246,171,96752,1,14,0:2:0:0:
246,171,97090,2,0,L|201:184,1,46.7500014266968,2|0,3:2|3:2,0:0:0:0:
158,257,97259,1,8,0:2:0:0:
124,247,97343,1,8,0:2:0:0:
90,237,97427,1,8,0:2:0:0:
56,227,97511,1,8,0:2:0:0:
23,218,97595,6,0,P|15:148|3:79,1,140.25000428009,6|0,3:2|0:0,0:0:0:0:
0,51,97932,2,0,P|44:20|100:41,1,93.5000028533936,10|0,0:2|0:0,0:0:0:0:
201,184,98269,2,0,P|170:140|191:84,1,93.5000028533936,2|0,3:2|3:2,0:0:0:0:
341,185,98606,1,10,0:2:0:0:
202,284,98775,6,0,B|131:270|131:270|106:231|106:231|11:211,1,187.000005706787,2|2,3:2|3:2,0:0:0:0:
201,184,99281,1,10,0:2:0:0:
67,384,99449,1,0,3:2:0:0:
67,384,99533,1,8,0:2:0:0:
67,384,99618,2,0,B|32:351|32:351|53:297,1,93.5000028533936,2|0,3:2|3:2,0:0:0:0:
217,384,99955,2,0,P|286:374|355:361,1,140.25000428009,10|0,0:2|0:0,0:0:0:0:
378,348,100292,6,0,P|411:287|370:217,1,140.25000428009,2|0,3:2|0:0,0:0:0:0:
363,208,100629,2,0,P|307:215|252:225,1,93.5000028533936,10|0,0:2|0:0,0:0:0:0:
123,113,100966,2,0,P|92:158|113:208,1,93.5000028533936,2|0,3:2|3:2,0:0:0:0:
238,122,101303,1,10,0:2:0:0:
35,58,101472,6,0,B|-22:96|-22:96|15:239,1,187.000005706787,2|2,3:2|3:2,0:0:0:0:
67,384,101977,1,10,0:2:0:0:
182,259,102146,1,0,3:2:0:0:
182,259,102230,1,8,0:2:0:0:
182,259,102314,2,0,L|199:356,1,93.5000028533936,2|0,3:2|3:2,0:0:0:0:
101,194,102651,2,0,P|84:137|156:74,1,140.25000428009,10|0,0:2|0:0,0:0:0:0:
156,63,102988,6,0,B|228:52|228:52|261:74|261:74|350:62,1,187.000005706787,6|8,3:2|0:2,0:0:0:0:
286,254,103494,1,0,3:2:0:0:
286,254,103578,1,8,0:2:0:0:
286,254,103663,2,0,B|258:215|258:215|279:169,1,93.5000028533936,0|0,3:2|3:2,0:0:0:0:
428,53,104000,1,8,0:2:0:0:
366,204,104168,1,2,0:2:0:0:
222,78,104337,6,0,B|110:105|110:105|81:145|130:190,1,187.000005706787,2|10,3:2|0:2,0:0:0:0:
267,345,104842,2,0,L|290:236,1,93.5000028533936,2|0,3:2|0:0,0:0:0:0:
327,74,105179,1,2,3:2:0:0:
458,211,105348,1,8,0:2:0:0:
282,156,105516,1,10,0:2:0:0:
282,156,105601,1,8,0:2:0:0:
282,156,105685,6,0,L|190:175,1,93.5000028533936,2|0,3:2|3:2,0:0:0:0:
30,268,106022,1,0,3:2:0:0:
21,89,106191,2,0,B|47:70|58:42|58:42|88:178,1,187.000005706787,10|0,0:2|3:2,0:0:0:0:
151,355,106696,1,8,0:2:0:0:
151,355,106865,2,0,P|130:314|138:268,1,93.5000028533936,0|0,3:0|3:2,0:0:0:0:
375,254,107202,6,0,B|333:274|314:324|314:324|275:288|217:297,1,187.000005706787,8|0,0:2|3:2,0:0:0:0:
86,165,107708,1,8,0:2:0:0:
86,165,107792,1,8,0:2:0:0:
86,165,107876,2,0,B|181:187,1,93.5000028533936,8|8,0:2|0:2,0:0:0:0:
360,86,108213,1,8,0:2:0:0:
360,86,108297,1,8,0:2:0:0:
360,86,108382,6,0,B|383:36|457:53|457:53|456:103|527:121,1,187.000005706787,6|8,3:2|0:2,0:0:0:0:
400,293,108887,1,0,0:0:0:0:
400,293,108972,1,2,0:2:0:0:
400,293,109056,2,0,L|379:183,1,93.5000028533936,0|0,3:2|3:2,0:0:0:0:
329,361,109393,1,8,0:2:0:0:
491,256,109561,1,2,0:2:0:0:
302,155,109730,6,0,P|209:166|116:175,1,187.000005706787,2|10,3:2|0:2,0:0:0:0:
162,5,110236,2,0,P|198:40|192:89,1,93.5000028533936,2|0,3:2|0:0,0:0:0:0:
162,261,110573,1,2,3:2:0:0:
104,76,110741,1,8,0:2:0:0:
237,210,110910,1,2,3:2:0:0:
82,327,111078,6,0,P|72:281|58:236,1,93.5000028533936,2|0,3:2|3:2,0:0:0:0:
0,384,111415,1,0,3:2:0:0:
161,260,111584,1,10,0:2:0:0:
161,260,111752,2,0,P|171:306|185:351,1,93.5000028533936,0|0,3:0|3:2,0:0:0:0:
82,146,112090,1,8,0:2:0:0:
82,146,112258,2,0,P|68:190|58:236,1,93.5000028533936,0|0,3:0|3:2,0:0:0:0:
256,277,112595,5,8,0:2:0:0:
256,277,112764,2,0,B|299:286|299:286|346:240,1,93.5000028533936,0|0,3:0|3:2,0:0:0:0:
171,149,113101,1,8,0:2:0:0:
171,149,113185,1,8,0:2:0:0:
171,149,113269,2,0,B|214:140|214:140|261:186,1,93.5000028533936,8|8,0:2|0:2,0:0:0:0:
185,351,113606,1,8,0:2:0:0:
185,351,113691,1,8,0:2:0:0:
185,351,113775,6,0,P|147:341|110:333,1,76.4999976654053,6|2,3:2|3:2,0:0:0:0:
0,308,114112,1,10,0:2:0:0:
65,215,114281,1,2,3:2:0:0:
65,215,114365,1,8,0:2:0:0:
65,215,114449,2,0,L|46:129,1,76.4999976654053,0|2,3:2|3:2,0:0:0:0:
0,38,114786,1,8,0:2:0:0:
125,0,114955,6,0,P|199:15|275:25,1,152.999995330811,2|2,3:2|3:2,0:0:0:0:
356,132,115460,1,8,0:2:0:0:
442,41,115629,1,2,3:2:0:0:
442,41,115713,1,8,0:2:0:0:
442,41,115797,2,0,P|405:31|367:50,1,76.4999976654053,2|0,3:2|3:2,0:0:0:0:
263,115,116134,2,0,P|276:170|286:227,1,114.749996498108,10|0,0:2|0:0,0:0:0:0:
301,242,116472,6,0,P|295:279|292:317,1,76.4999976654053,2|2,3:2|3:2,0:0:0:0:
200,230,116809,1,10,0:2:0:0:
367,179,116977,1,2,3:2:0:0:
367,179,117061,1,8,0:2:0:0:
367,179,117146,2,0,L|457:195,1,76.4999976654053,0|2,3:2|3:2,0:0:0:0:
378,293,117483,1,8,0:2:0:0:
264,159,117651,6,0,P|205:130|114:193,1,152.999995330811,2|2,3:2|3:2,0:0:0:0:
9,214,118157,1,8,0:2:0:0:
89,329,118325,1,2,3:2:0:0:
89,329,118410,1,8,0:2:0:0:
89,329,118494,2,0,P|94:291|105:254,1,76.4999976654053,2|0,3:2|3:2,0:0:0:0:
40,116,118831,1,8,0:2:0:0:
200,225,119000,1,8,0:2:0:0:
200,225,119084,1,8,0:2:0:0:
200,225,119168,6,0,P|231:217|274:208,1,76.4999976654053,2|2,3:2|3:2,0:0:0:0:
378,127,119505,1,10,0:2:0:0:
265,43,119674,1,2,3:2:0:0:
265,43,119758,1,8,0:2:0:0:
265,43,119842,2,0,P|273:74|282:117,1,76.4999976654053,0|2,3:2|3:2,0:0:0:0:
360,31,120179,1,8,0:2:0:0:
189,106,120348,6,0,P|132:121|56:61,1,152.999995330811,2|2,3:2|3:2,0:0:0:0:
42,175,120854,1,8,0:2:0:0:
142,39,121022,1,2,3:2:0:0:
142,39,121106,1,8,0:2:0:0:
142,39,121191,2,0,P|175:20|232:39,1,76.4999976654053,0|2,3:2|3:2,0:0:0:0:
282,117,121528,2,0,L|395:133,1,114.749996498108,10|0,0:2|0:0,0:0:0:0:
412,130,121865,6,0,P|431:169|416:209,1,76.4999976654053,6|2,3:2|3:2,0:0:0:0:
314,239,122202,1,10,0:2:0:0:
428,301,122370,1,2,3:2:0:0:
428,301,122455,1,8,0:2:0:0:
428,301,122539,2,0,L|506:281,1,76.4999976654053,0|2,3:2|3:2,0:0:0:0:
392,384,122876,1,0,3:2:0:0:
423,199,123045,5,10,0:2:0:0:
423,199,123382,2,0,L|410:123,1,76.4999976654053,10|0,0:2|3:2,0:0:0:0:
341,29,123719,1,2,3:2:0:0:
273,129,123887,2,0,L|322:118,2,38.2499988327027,10|8|0,0:2|0:2|3:2,0:0:0:0:
184,59,124224,1,8,0:2:0:0:
140,171,124393,1,8,0:2:0:0:
140,171,124477,1,8,0:2:0:0:
140,171,124561,6,0,L|159:248,1,63.7500024318696,6|0,3:2|0:0,0:0:0:0:
260,248,124899,2,0,L|241:325,1,63.7500024318696,10|0,0:2|0:0,0:0:0:0:
171,374,125236,1,2,3:2:0:0:
69,299,125404,1,0,3:2:0:0:
69,299,125741,6,0,L|38:175,1,127.500004863739,10|2,0:2|3:2,0:0:0:0:
135,96,126247,1,8,0:2:0:0:
31,21,126415,1,2,3:2:0:0:
31,21,126500,1,8,0:2:0:0:
31,21,126584,2,0,L|50:98,1,63.7500024318696,0|2,3:2|3:2,0:0:0:0:
188,174,126921,1,10,0:2:0:0:
188,174,127258,6,0,L|126:189,1,63.7500024318696,2|0,3:2|0:0,0:0:0:0:
65,265,127595,2,0,L|126:280,1,63.7500024318696,10|0,0:2|0:0,0:0:0:0:
172,353,127932,1,2,3:2:0:0:
254,248,128101,1,0,3:2:0:0:
254,248,128438,6,0,L|269:309,1,63.7500024318696,10|0,0:2|0:0,0:0:0:0:
355,370,128775,2,0,L|370:309,1,63.7500024318696,2|0,3:2|0:0,0:0:0:0:
451,213,129112,2,0,P|409:228|343:168,1,127.500004863739,2|2,3:2|3:2,0:0:0:0:
349,149,129533,1,0,3:2:0:0:
349,149,129618,2,0,L|419:128,1,63.7500024318696,10|0,0:2|0:0,0:0:0:0:
267,31,129955,6,0,L|337:52,1,63.7500024318696,2|0,3:2|0:0,0:0:0:0:
256,129,130292,2,0,L|186:108,1,63.7500024318696,10|0,0:2|0:0,0:0:0:0:
132,44,130629,1,2,3:2:0:0:
77,166,130797,1,0,3:2:0:0:
77,166,131134,6,0,P|90:228|103:290,1,127.500004863739,10|2,0:2|3:2,0:0:0:0:
191,343,131640,1,8,0:2:0:0:
251,236,131809,1,2,3:2:0:0:
251,236,131893,1,8,0:2:0:0:
251,236,131977,2,0,P|219:242|188:249,1,63.7500024318696,0|2,3:2|3:2,0:0:0:0:
272,133,132314,1,10,0:2:0:0:
350,236,132483,1,2,3:2:0:0:
350,236,132567,1,0,3:2:0:0:
350,236,132651,6,0,B|439:254|439:254|467:232|450:187,1,152.999995330811,6|8,3:2|0:2,0:0:0:0:
376,6,133157,2,0,B|363:66|363:66|380:96|380:96|364:167,1,152.999995330811,6|8,3:2|0:2,0:0:0:0:
292,312,133663,6,0,P|244:328|158:263,1,152.999995330811,6|0,3:2|0:0,0:0:0:0:
146,151,134168,1,0,3:2:0:0:
250,233,134337,1,8,0:2:0:0:
225,112,134505,1,0,3:2:0:0:
163,277,134674,5,8,0:2:0:0:
316,163,134842,1,8,0:2:0:0:
305,345,135011,1,8,0:2:0:0:
458,231,135179,1,8,0:2:0:0:
458,231,135264,1,8,0:2:0:0:
458,231,135348,6,0,L|473:160,1,63.7500024318696,2|0,3:2|0:0,0:0:0:0:
512,90,135685,2,0,L|497:19,1,63.7500024318696,10|0,0:2|0:0,0:0:0:0:
423,89,136022,1,2,3:2:0:0:
326,11,136191,1,0,3:2:0:0:
326,11,136528,6,0,P|297:51|213:40,1,127.500004863739,10|2,0:2|3:2,0:0:0:0:
115,6,137033,1,8,0:2:0:0:
135,129,137202,1,2,3:2:0:0:
135,129,137286,1,8,0:2:0:0:
135,129,137370,2,0,L|120:205,1,63.7500024318696,0|2,3:2|3:2,0:0:0:0:
22,88,137708,1,10,0:2:0:0:
22,88,138045,6,0,L|34:150,1,63.7500024318696,2|0,3:2|0:0,0:0:0:0:
0,264,138382,2,0,P|36:256|72:271,1,63.7500024318696,10|0,0:2|0:0,0:0:0:0:
115,342,138719,1,2,3:2:0:0:
201,230,138887,1,0,3:2:0:0:
201,230,139224,6,0,L|186:154,1,63.7500024318696,10|0,0:2|0:0,0:0:0:0:
148,92,139561,2,0,P|177:81|208:85,1,63.7500024318696,2|0,3:2|0:0,0:0:0:0:
306,0,139899,2,0,P|316:29|312:60,1,63.7500024318696,2|0,3:2|0:0,0:0:0:0:
277,183,140236,1,2,3:2:0:0:
277,183,140320,1,0,3:2:0:0:
277,183,140404,1,10,0:2:0:0:
209,85,140573,1,0,0:0:0:0:
361,143,140741,6,0,L|429:128,1,63.7500024318696,2|0,3:2|0:0,0:0:0:0:
512,109,141078,2,0,L|498:171,1,63.7500024318696,10|0,0:2|0:0,0:0:0:0:
477,266,141415,1,2,3:2:0:0:
357,232,141584,1,0,3:2:0:0:
357,232,141921,6,0,L|378:371,1,127.500004863739,10|2,0:2|3:2,0:0:0:0:
273,273,142427,1,8,0:2:0:0:
206,376,142595,1,10,0:2:0:0:
206,376,142679,1,8,0:2:0:0:
206,376,142764,5,8,0:2:0:0:
102,286,142932,1,10,0:2:0:0:
189,205,143101,1,10,0:2:0:0:
106,144,143269,1,10,0:2:0:0:
201,61,143438,6,0,B|261:75|261:75|279:99|279:99|362:119,1,152.999995330811,6|8,3:2|0:2,0:0:0:0:
512,147,143943,2,0,B|471:116|430:135|430:135|424:176|382:190,1,152.999995330811,6|8,3:2|0:2,0:0:0:0:
457,383,144449,6,0,L|486:222,1,152.999995330811,6|0,3:2|0:0,0:0:0:0:
351,331,144955,1,8,0:2:0:0:
393,185,145123,1,8,0:2:0:0:
276,274,145292,1,8,0:2:0:0:
276,274,145376,1,8,0:2:0:0:
276,274,145460,5,8,0:2:0:0:
433,305,145629,1,8,0:2:0:0:
305,176,145797,1,8,0:2:0:0:
351,331,145966,1,8,0:2:0:0:
402,167,146134,6,0,L|383:75,1,63.7500024318696,4|0,3:2|0:0,0:0:0:0:
318,4,146472,1,2,0:2:0:0:
251,104,146640,2,0,P|205:120|140:55,1,127.500004863739,0|2,3:2|3:2,0:0:0:0:
60,18,147146,2,0,L|42:101,1,63.7500024318696,10|2,0:2|0:2,0:0:0:0:
0,222,147483,6,0,P|46:181|106:195,1,127.500004863739,2|2,3:2|3:2,0:0:0:0:
197,300,147988,2,0,L|64:278,1,127.500004863739,10|2,0:2|3:2,0:0:0:0:
207,206,148494,1,8,0:2:0:0:
207,206,148663,1,2,3:2:0:0:
281,337,148831,6,0,P|340:351|387:310,1,127.500004863739,0|0,3:2|0:0,0:0:0:0:
452,204,149337,2,0,L|375:222,1,63.7500024318696,0|0,3:2|0:0,0:0:0:0:
297,182,149674,1,0,3:2:0:0:
387,85,149842,1,8,0:2:0:0:
387,85,150179,6,0,B|334:77|334:77|311:89|311:89|246:79,1,127.500004863739,0|0,3:2|3:2,0:0:0:0:
167,61,150685,2,0,L|189:146,1,63.7500024318696,8|2,0:2|0:2,0:0:0:0:
292,185,151022,1,0,3:2:0:0:
185,276,151191,2,0,L|200:214,1,63.7500024318696,10|0,0:2|0:0,0:0:0:0:
373,217,151528,6,0,P|342:263|260:267,1,127.500004863739,6|2,3:2|0:2,0:0:0:0:
174,366,152033,2,0,L|254:351,1,63.7500024318696,2|0,3:2|0:0,0:0:0:0:
185,276,152370,1,2,3:2:0:0:
71,336,152539,2,0,L|-9:321,1,63.7500024318696,8|2,0:2|3:2,0:0:0:0:
99,252,152876,6,0,L|124:117,1,127.500004863739,0|2,3:2|3:2,0:0:0:0:
64,5,153382,2,0,P|23:38|43:119,1,127.500004863739,8|0,0:2|3:2,0:0:0:0:
170,53,153887,2,0,P|161:22|155:-22,1,63.7500024318696,10|0,0:2|0:0,0:0:0:0:
76,214,154224,6,0,B|110:196|147:222|147:222|161:179|219:177,1,152.999995330811,6|0,3:2|3:2,0:0:0:0:
292,23,154730,2,0,B|249:11|249:11|283:122,1,152.999995330811,10|0,0:2|3:2,0:0:0:0:
339,294,155236,6,0,P|378:261|354:154,1,152.999995330811,4|0,3:2|3:2,0:0:0:0:
229,279,155741,2,0,B|168:293|168:293|149:318|149:318|66:336,1,152.999995330811,8|0,0:2|3:2,0:0:0:0:
26,173,156247,1,8,0:2:0:0:
183,202,156415,1,0,3:2:0:0:
32,265,156584,1,8,0:2:0:0:
119,122,156752,1,8,0:2:0:0:
119,122,156837,1,8,0:2:0:0:
119,122,156921,6,0,L|207:103,1,63.7500024318696,4|0,3:2|0:0,0:0:0:0:
269,187,157258,1,2,0:2:0:0:
372,79,157427,2,0,B|337:120|337:120|373:214,1,127.500004863739,0|2,3:2|3:2,0:0:0:0:
463,98,157932,1,10,0:2:0:0:
463,98,158101,1,2,0:2:0:0:
327,0,158269,6,0,P|264:10|200:18,1,127.500004863739,2|2,3:2|3:2,0:0:0:0:
118,116,158775,2,0,P|178:110|216:159,1,127.500004863739,10|2,0:2|3:2,0:0:0:0:
140,247,159281,2,0,P|109:239|78:232,1,63.7500024318696,8|0,0:2|0:0,0:0:0:0:
220,321,159618,6,0,P|281:305|344:291,1,127.500004863739,2|0,3:2|0:0,0:0:0:0:
443,216,160123,2,0,P|380:202|318:186,1,127.500004863739,2|0,3:2|3:2,0:0:0:0:
387,62,160629,2,0,P|409:97|400:136,1,63.7500024318696,10|0,0:2|0:0,0:0:0:0:
276,54,160966,6,0,B|246:27|206:41|206:41|198:75|163:96,1,127.500004863739,0|0,3:2|3:2,0:0:0:0:
58,32,161472,2,0,P|87:16|128:29,1,63.7500024318696,8|0,0:2|0:0,0:0:0:0:
250,135,161809,1,0,3:2:0:0:
102,111,161977,1,8,0:2:0:0:
214,228,162146,1,10,0:2:0:0:
214,228,162230,1,8,0:2:0:0:
214,228,162314,6,0,P|275:237|335:169,1,152.999995330811,6|10,3:2|0:2,0:0:0:0:
451,59,162820,2,0,B|411:101|411:101|449:206,1,152.999995330811,2|0,3:2|3:2,0:0:0:0:
383,357,163325,1,8,0:2:0:0:
512,287,163494,1,10,0:2:0:0:
512,287,163578,1,8,0:2:0:0:
512,287,163663,6,0,P|436:276|361:262,1,152.999995330811,6|10,3:2|0:2,0:0:0:0:
265,384,164168,2,0,P|283:347|267:301,1,76.4999976654053,2|0,3:2|0:0,0:0:0:0:
212,183,164505,1,2,3:2:0:0:
113,259,164674,2,0,P|149:269|187:275,1,76.4999976654053,8|10,0:2|0:2,0:0:0:0:
290,117,165011,5,14,0:2:0:0:
290,117,165179,1,8,0:2:0:0:
130,174,165348,1,8,0:2:0:0:
130,174,165516,1,8,0:2:0:0:
232,49,165685,1,8,0:2:0:0:
232,49,165854,1,8,0:2:0:0:
280,214,166022,1,8,0:2:0:0:
280,214,166191,1,8,0:2:0:0:
150,89,166359,6,0,L|96:77,3,38.2499988327027,10|10|2|2,0:2|0:2|3:2|3:2,0:0:0:0:
7,157,166696,5,2,3:2:0:0:
7,157,166781,1,2,0:2:0:0:
7,157,166865,2,0,L|61:145,1,38.2499988327027,2|2,3:2|0:2,0:0:0:0:
113,259,167033,5,2,3:2:0:0:
100,256,167117,1,2,0:2:0:0:
88,253,167201,1,2,3:2:0:0:
75,250,167285,1,2,0:2:0:0:
341,344,167708,6,0,B|417:326|388:393|491:355,1,140.25000428009,6|0,3:2|0:0,0:0:0:0:
497,348,168045,2,0,P|516:310|475:240,1,93.5000028533936,10|0,0:2|0:0,0:0:0:0:
384,123,168382,2,0,B|356:161|356:161|378:224,1,93.5000028533936,2|0,3:2|3:2,0:0:0:0:
512,95,168719,1,10,0:2:0:0:
327,24,168887,6,0,B|256:38|256:38|231:77|231:77|136:97,1,187.000005706787,2|2,3:2|3:2,0:0:0:0:
0,0,169393,1,10,0:2:0:0:
35,185,169561,1,0,3:2:0:0:
35,185,169646,1,8,0:2:0:0:
35,185,169730,2,0,L|58:82,1,93.5000028533936,2|0,3:2|3:2,0:0:0:0:
199,227,170067,2,0,P|225:293|168:351,1,140.25000428009,10|0,0:2|0:0,0:0:0:0:
190,360,170404,6,0,P|114:350|51:338,1,140.25000428009,2|0,3:2|0:0,0:0:0:0:
35,349,170741,2,0,P|4:309|27:254,1,93.5000028533936,10|0,0:2|0:0,0:0:0:0:
145,147,171078,2,0,B|113:181|113:181|47:171,1,93.5000028533936,2|0,3:2|3:2,0:0:0:0:
148,37,171415,1,10,0:2:0:0:
293,174,171584,6,0,B|241:133|241:133|278:15,1,187.000005706787,2|2,3:2|3:2,0:0:0:0:
404,165,172090,1,10,0:2:0:0:
277,271,172258,1,0,3:2:0:0:
277,271,172342,1,8,0:2:0:0:
277,271,172427,2,0,L|173:254,1,93.5000028533936,2|0,3:2|3:2,0:0:0:0:
0,187,172764,2,0,P|45:141|122:160,1,140.25000428009,10|0,0:2|0:0,0:0:0:0:
125,168,173101,6,0,B|109:219|67:257|67:257|95:277|117:319,1,187.000005706787,6|8,3:2|0:2,0:0:0:0:
234,162,173606,1,0,3:2:0:0:
234,162,173691,1,8,0:2:0:0:
234,162,173775,2,0,P|222:116|214:70,1,93.5000028533936,0|0,3:2|3:2,0:0:0:0:
340,213,174112,1,8,0:2:0:0:
185,256,174281,1,2,0:2:0:0:
319,113,174449,6,0,B|426:99|377:180|515:147,1,187.000005706787,2|10,3:2|0:2,0:0:0:0:
368,292,174955,1,2,3:2:0:0:
368,292,175039,1,8,0:2:0:0:
368,292,175123,2,0,P|334:240|359:190,1,93.5000028533936,0|2,3:2|3:2,0:0:0:0:
462,67,175460,1,8,0:2:0:0:
483,252,175629,1,2,0:2:0:0:
319,113,175797,6,0,B|213:96|213:96|166:127|203:197,1,187.000005706787,6|8,3:2|0:2,0:0:0:0:
24,282,176303,1,0,3:2:0:0:
24,282,176387,1,8,0:2:0:0:
24,282,176472,2,0,P|63:305|108:298,1,93.5000028533936,0|0,3:2|3:2,0:0:0:0:
298,263,176809,1,8,0:2:0:0:
281,278,176893,1,8,0:2:0:0:
272,300,176977,1,0,3:2:0:0:
272,323,177061,1,0,3:2:0:0:
283,344,177146,6,0,B|315:356|336:386|336:386|368:352|435:361,1,140.25000428009,14|0,0:2|0:0,0:0:0:0:
412,369,177483,1,2,3:2:0:0:
493,200,177651,1,14,0:2:0:0:
493,200,177988,2,0,L|442:184,1,46.7500014266968,2|0,3:2|3:2,0:0:0:0:
389,125,178157,1,8,0:2:0:0:
357,110,178241,1,8,0:2:0:0:
322,112,178325,1,8,0:2:0:0:
292,129,178409,1,8,0:2:0:0:
274,159,178494,6,0,P|291:227|304:295,1,140.25000428009,6|0,3:2|0:0,0:0:0:0:
294,311,178831,2,0,P|339:341|388:325,1,93.5000028533936,10|0,0:2|0:0,0:0:0:0:
199,255,179168,2,0,P|152:259|106:265,1,93.5000028533936,2|0,3:2|3:2,0:0:0:0:
0,146,179505,1,10,0:2:0:0:
134,0,179674,6,0,B|113:68|113:68|140:107|140:107|114:186,1,187.000005706787,2|2,3:2|3:2,0:0:0:0:
32,14,180179,1,10,0:2:0:0:
229,61,180348,1,0,3:2:0:0:
229,61,180432,1,8,0:2:0:0:
229,61,180516,2,0,L|335:43,1,93.5000028533936,2|0,3:2|3:2,0:0:0:0:
509,0,180854,2,0,P|466:30|487:127,1,140.25000428009,10|0,0:2|0:0,0:0:0:0:
483,126,181191,6,0,L|461:282,1,140.25000428009,2|0,3:2|0:0,0:0:0:0:
477,286,181528,2,0,P|434:318|395:310,1,93.5000028533936,10|0,0:2|0:0,0:0:0:0:
232,219,181865,2,0,P|275:187|314:195,1,93.5000028533936,2|0,3:2|3:2,0:0:0:0:
199,354,182202,1,10,0:2:0:0:
114,161,182370,6,0,B|91:53|91:53|113:16|176:39,1,187.000005706787,2|2,3:2|3:2,0:0:0:0:
312,194,182876,1,10,0:2:0:0:
288,8,183045,1,0,3:2:0:0:
288,8,183129,1,8,0:2:0:0:
288,8,183213,2,0,L|269:112,1,93.5000028533936,2|0,3:2|3:2,0:0:0:0:
191,309,183550,2,0,P|129:277|141:199,1,140.25000428009,10|0,0:2|0:0,0:0:0:0:
136,190,183887,6,0,B|208:179|208:179|241:205|241:205|341:189,1,187.000005706787,6|8,3:2|0:2,0:0:0:0:
491,103,184393,1,0,3:2:0:0:
491,103,184477,1,8,0:2:0:0:
491,103,184561,2,0,P|450:79|389:101,1,93.5000028533936,0|0,3:2|3:2,0:0:0:0:
289,279,184899,1,8,0:2:0:0:
440,174,185067,1,2,0:2:0:0:
271,11,185236,6,0,L|316:210,1,187.000005706787,2|10,3:2|0:2,0:0:0:0:
173,312,185741,2,0,L|195:212,1,93.5000028533936,2|0,3:2|0:0,0:0:0:0:
93,50,186078,1,2,3:2:0:0:
45,248,186247,1,8,0:2:0:0:
200,109,186415,1,10,0:2:0:0:
200,109,186500,1,8,0:2:0:0:
200,109,186584,6,0,L|315:92,1,93.5000028533936,2|0,3:2|3:2,0:0:0:0:
480,177,186921,1,0,3:2:0:0:
417,1,187090,2,0,L|365:200,1,187.000005706787,10|0,0:2|3:2,0:0:0:0:
280,351,187595,1,8,0:2:0:0:
280,351,187764,2,0,B|250:315|250:315|262:259,1,93.5000028533936,0|0,3:0|3:2,0:0:0:0:
232,76,188101,6,0,B|293:96|293:96|179:142,1,187.000005706787,8|0,0:2|3:2,0:0:0:0:
78,304,188606,1,8,0:2:0:0:
78,304,188691,1,8,0:2:0:0:
78,304,188775,2,0,B|112:335|112:335|169:322,1,93.5000028533936,8|8,0:2|0:2,0:0:0:0:
362,209,189112,1,10,0:2:0:0:
362,209,189196,1,8,0:2:0:0:
362,209,189281,6,0,B|381:98|381:98|347:64|304:87,1,187.000005706787,6|8,3:2|0:2,0:0:0:0:
296,288,189786,1,0,0:0:0:0:
296,288,189870,1,2,0:2:0:0:
296,288,189955,2,0,P|336:315|405:296,1,93.5000028533936,0|0,3:2|3:2,0:0:0:0:
261,166,190292,1,8,0:2:0:0:
223,361,190460,1,2,0:2:0:0:
362,209,190629,6,0,B|389:159|456:175|456:175|461:224|519:242,1,187.000005706787,2|10,3:2|0:2,0:0:0:0:
427,379,191134,2,0,L|406:271,1,93.5000028533936,2|0,3:2|0:0,0:0:0:0:
384,85,191472,1,2,3:2:0:0:
501,235,191640,1,8,0:2:0:0:
309,154,191809,1,2,3:2:0:0:
485,53,191977,6,0,L|463:159,1,93.5000028533936,2|0,3:2|3:2,0:0:0:0:
314,254,192314,1,0,3:2:0:0:
303,57,192483,1,10,0:2:0:0:
303,57,192651,2,0,B|348:53|348:53|394:94,1,93.5000028533936,0|0,3:0|3:2,0:0:0:0:
183,132,192988,1,8,0:2:0:0:
183,132,193157,2,0,B|157:95|157:95|169:34,1,93.5000028533936,0|0,3:0|3:2,0:0:0:0:
329,169,193494,5,8,0:2:0:0:
329,169,193663,2,0,B|339:217|339:217|314:254,1,93.5000028533936,0|0,3:0|3:2,0:0:0:0:
161,358,194000,1,8,0:2:0:0:
161,358,194084,1,8,0:2:0:0:
161,358,194168,2,0,L|181:258,1,93.5000028533936,8|8,0:2|0:2,0:0:0:0:
18,133,194505,1,8,0:2:0:0:
18,133,194590,1,8,0:2:0:0:
18,133,194674,6,0,L|46:275,1,136,4|0,3:2|3:2,0:0:0:0:
121,161,195179,1,0,3:2:0:0:
179,266,195348,2,0,P|221:282|302:211,1,136,8|0,0:2|3:2,0:0:0:0:
384,142,195854,1,8,0:2:0:0:
384,142,196191,1,8,0:2:0:0:
295,18,196359,2,0,B|281:72|281:72|293:97|293:97|277:159,1,136,2|8,3:3|0:2,0:0:0:0:
142,267,196865,2,0,B|128:216|128:216|140:191|140:191|126:137,1,136,2|0,3:3|3:2,0:0:0:0:
228,225,197370,6,0,P|270:246|349:206,1,136,4|0,3:2|3:2,0:0:0:0:
425,120,197876,1,0,3:2:0:0:
301,16,198045,2,0,L|281:158,1,136,8|0,0:2|3:2,0:0:0:0:
437,210,198550,1,8,0:2:0:0:
437,210,198887,1,8,0:2:0:0:
337,279,199056,2,0,L|346:211,1,68,0|0,3:2|3:2,0:0:0:0:
430,384,199393,5,8,0:2:0:0:
346,211,199561,1,0,3:2:0:0:
308,377,199730,1,8,0:2:0:0:
442,297,199899,1,8,0:2:0:0:
249,245,200067,6,0,L|98:270,1,136,4|0,3:2|3:2,0:0:0:0:
0,213,200573,1,0,3:2:0:0:
94,129,200741,2,0,B|172:112|140:163|230:139,1,136,8|0,0:2|3:2,0:0:0:0:
336,77,201247,1,8,0:2:0:0:
336,77,201584,1,8,0:2:0:0:
397,177,201752,2,0,L|376:325,1,136,2|8,3:3|0:2,0:0:0:0:
236,262,202258,2,0,L|303:252,1,68,2|0,3:3|0:0,0:0:0:0:
478,234,202595,1,8,0:2:0:0:
478,234,202679,1,8,0:2:0:0:
478,234,202764,5,4,3:2:0:0:
459,252,203101,1,8,0:2:0:0:
512,87,203269,5,4,3:2:0:0:
509,105,203606,1,0,3:2:0:0:
374,17,203775,1,8,0:2:0:0:
386,168,203943,1,8,0:2:0:0:
386,168,204028,1,8,0:2:0:0:
386,168,204112,5,4,3:2:0:0:
286,88,204365,1,8,0:2:0:0:
286,88,204449,1,8,0:2:0:0:
251,264,204618,5,4,3:2:0:0:
259,278,204955,1,2,3:2:0:0:
184,168,205123,1,10,0:2:0:0:
90,273,205292,1,10,0:2:0:0:
90,273,205376,1,8,0:2:0:0:
90,273,205460,6,0,B|40:229|40:229|81:114,1,170,6|10,3:2|0:2,0:0:0:0:
185,32,205966,1,0,3:2:0:0:
185,32,206050,1,8,0:2:0:0:
185,32,206134,2,0,L|299:54,1,85,2|2,3:2|3:2,0:0:0:0:
397,126,206472,1,10,0:2:0:0:
307,303,206640,6,0,B|286:240|286:240|301:204|301:204|269:105,1,170,6|2,3:2|3:2,0:0:0:0:
386,253,207146,1,10,0:2:0:0:
214,200,207314,2,0,B|101:189|159:248|52:236,1,170,2|0,3:2|3:2,0:0:0:0:
179,364,207820,2,0,B|205:331|205:331|189:278,1,85,8|0,0:2|0:0,0:0:0:0:
74,146,208157,6,0,L|95:54,1,85,2|2,3:2|0:2,0:0:0:0:
231,0,208494,2,0,B|243:49|243:49|232:71|232:71|254:154,1,127.5,10|0,0:2|0:0,0:0:0:0:
260,144,208831,1,2,3:2:0:0:
360,80,209000,1,2,3:2:0:0:
376,206,209168,1,10,0:2:0:0:
474,133,209337,6,0,L|497:226,1,85,2|0,3:2|0:0,0:0:0:0:
456,338,209674,1,2,3:2:0:0:
456,338,209758,1,2,0:2:0:0:
456,338,209842,1,10,0:2:0:0:
376,206,210011,2,0,P|337:188|297:197,1,85,2|0,3:2|0:0,0:0:0:0:
195,330,210348,1,2,3:2:0:0:
329,286,210516,1,8,0:2:0:0:
197,229,210685,1,10,0:2:0:0:
197,229,210769,1,8,0:2:0:0:
197,229,210854,6,0,L|176:130,1,85,6|2,3:2|0:2,0:0:0:0:
283,71,211191,1,10,0:2:0:0:
164,0,211359,1,2,3:2:0:0:
164,0,211443,1,8,0:2:0:0:
164,0,211528,2,0,L|53:25,1,85,0|2,3:2|3:2,0:0:0:0:
0,162,211865,1,8,0:2:0:0:
179,145,212033,6,0,L|149:326,1,170,6|2,3:2|3:2,0:0:0:0:
276,198,212539,1,10,0:2:0:0:
262,368,212708,1,2,3:2:0:0:
262,368,212792,1,8,0:2:0:0:
262,368,212876,2,0,L|247:277,1,85,0|8,3:2|0:2,0:0:0:0:
368,216,213213,1,8,0:2:0:0:
233,112,213382,1,8,0:2:0:0:
233,112,213466,1,8,0:2:0:0:
233,112,213550,6,0,P|187:104|144:134,1,85,6|2,3:2|3:2,0:0:0:0:
132,151,213803,1,2,0:2:0:0:
132,151,213887,2,0,L|152:245,1,85,10|2,0:2|3:2,0:0:0:0:
185,383,214224,1,2,3:2:0:0:
287,245,214393,1,2,3:2:0:0:
328,384,214561,1,10,0:2:0:0:
215,301,214730,1,2,0:2:0:0:
364,164,214899,6,0,L|382:246,1,85,2|2,3:2|3:2,0:0:0:0:
394,279,215151,1,2,0:2:0:0:
394,279,215236,2,0,P|441:290|485:256,1,85,10|2,0:2|3:2,0:0:0:0:
495,107,215573,1,2,3:2:0:0:
364,164,215741,1,2,3:2:0:0:
512,199,215910,1,10,0:2:0:0:
406,87,216078,1,10,0:2:0:0:
406,87,216163,1,8,0:2:0:0:
406,87,216247,6,0,L|348:75,3,42.5,6|2|2|2,3:2|0:2|0:2|0:2,0:0:0:0:
301,32,216584,2,0,L|243:44,3,42.5,2|2|10|2,3:2|0:2|0:2|0:2,0:0:0:0:
204,98,216921,5,10,0:2:0:0:
204,98,217005,1,2,0:2:0:0:
204,98,217090,2,0,P|198:123|212:167,1,42.5,10|2,0:2|0:2,0:0:0:0:
274,187,217258,1,10,0:2:0:0:
274,187,217342,1,2,0:2:0:0:
274,187,217427,2,0,P|279:213|265:257,1,42.5,2|2,3:2|3:2,0:0:0:0:
315,310,217595,5,10,0:2:0:0:
299,313,217679,1,10,0:2:0:0:
282,317,217763,1,2,3:2:0:0:
266,321,217847,1,2,0:2:0:0:
244,340,217932,1,10,0:2:0:0:
229,336,218016,1,10,0:2:0:0:
212,332,218100,1,2,3:2:0:0:
196,326,218184,1,2,0:2:0:0:
164,343,218269,5,10,0:2:0:0:
101,206,218438,1,10,0:2:0:0:
101,206,218943,6,0,B|256:170|185:279|349:228,1,255,4|0,3:2|0:0,0:0:0:0:
463,293,220123,6,0,L|445:155,1,136,4|0,3:2|3:2,0:0:0:0:
441,125,220545,1,0,3:2:0:0:
441,125,220629,2,0,B|385:120|385:120|364:136|364:136|279:128,1,136,8|0,0:2|0:0,0:0:0:0:
218,16,221134,2,0,L|208:60,1,34,0|0,3:2|3:2,0:0:0:0:
154,104,221303,1,8,0:2:0:0:
159,128,221387,1,8,0:2:0:0:
165,153,221471,1,8,0:2:0:0:
170,178,221555,1,8,0:2:0:0:
176,203,221640,6,0,P|145:244|46:217,1,127.5,6|0,3:2|0:0,0:0:0:0:
55,232,221977,2,0,P|46:274|40:316,1,85,10|0,0:2|0:0,0:0:0:0:
222,384,222314,2,0,P|216:341|207:300,1,85,2|0,3:2|3:2,0:0:0:0:
86,150,222651,1,10,0:2:0:0:
272,84,222820,6,0,B|376:70|329:136|444:111,1,170,2|2,3:2|3:2,0:0:0:0:
273,197,223325,1,10,0:2:0:0:
435,300,223494,1,0,3:2:0:0:
435,300,223578,1,8,0:2:0:0:
435,300,223663,2,0,L|415:194,1,85,2|0,3:2|3:2,0:0:0:0:
297,360,224000,2,0,P|252:320|166:350,1,127.5,10|0,0:2|0:0,0:0:0:0:
169,348,224337,6,0,L|136:154,1,170,6|8,3:2|0:2,0:0:0:0:
47,23,224842,1,0,3:2:0:0:
47,23,224927,1,8,0:2:0:0:
47,23,225011,2,0,P|17:57|32:117,1,85,0|0,3:2|3:2,0:0:0:0:
57,269,225348,1,8,0:2:0:0:
107,93,225516,1,2,0:2:0:0:
260,244,225685,6,0,P|332:257|403:185,1,170,2|10,3:2|0:2,0:0:0:0:
227,61,226191,1,2,3:2:0:0:
227,61,226275,1,8,0:2:0:0:
227,61,226359,2,0,L|206:157,1,85,0|2,3:2|3:2,0:0:0:0:
122,324,226696,1,8,0:2:0:0:
66,180,226865,1,2,0:2:0:0:
237,272,227033,6,0,L|431:237,1,170,6|8,3:2|0:2,0:0:0:0:
499,82,227539,1,0,3:2:0:0:
499,82,227623,1,8,0:2:0:0:
499,82,227708,2,0,P|456:62|413:77,1,85,0|0,3:2|3:2,0:0:0:0:
255,0,228045,1,8,0:2:0:0:
242,16,228129,1,0,0:0:0:0:
235,36,228213,1,0,3:2:0:0:
236,58,228297,1,0,0:0:0:0:
244,77,228382,6,0,B|257:100|281:115|281:115|262:135|250:210,1,127.5,14|0,0:2|0:0,0:0:0:0:
252,201,228719,1,2,3:2:0:0:
127,76,228887,1,14,0:2:0:0:
127,76,229224,2,0,L|64:99,1,42.5,2|0,3:2|3:2,0:0:0:0:
18,153,229392,1,8,0:2:0:0:
38,176,229476,1,8,0:2:0:0:
67,189,229561,1,8,0:2:0:0:
99,189,229646,1,8,0:2:0:0:
127,176,229730,6,0,P|189:189|251:201,1,127.5,6|0,3:2|0:0,0:0:0:0:
272,209,230067,2,0,P|297:167|283:120,1,85,10|0,0:2|0:0,0:0:0:0:
146,0,230404,2,0,P|120:41|134:88,1,85,2|0,3:2|3:2,0:0:0:0:
186,270,230741,1,10,0:2:0:0:
242,40,230910,6,0,B|285:47|323:13|323:13|330:59|399:84,1,170,2|2,3:2|3:2,0:0:0:0:
512,0,231415,1,10,0:2:0:0:
490,184,231584,1,0,3:2:0:0:
490,184,231668,1,10,0:2:0:0:
490,184,231752,2,0,L|466:75,1,85,2|0,3:2|3:2,0:0:0:0:
242,40,232090,2,0,L|212:174,1,127.5,10|0,0:2|0:0,0:0:0:0:
198,176,232427,6,0,P|236:218|311:196,1,127.5,2|0,3:2|0:0,0:0:0:0:
322,211,232764,2,0,P|341:172|314:119,1,85,10|0,0:2|0:0,0:0:0:0:
194,291,233101,2,0,P|205:333|211:375,1,85,2|0,3:2|3:2,0:0:0:0:
383,288,233438,5,10,0:2:0:0:
198,176,233606,1,2,3:2:0:0:
299,348,233775,5,10,0:2:0:0:
330,134,233943,1,2,3:2:0:0:
479,302,234112,5,10,0:2:0:0:
282,240,234281,1,0,3:2:0:0:
282,240,234365,1,0,3:2:0:0:
282,240,234449,6,0,L|178:269,1,85,2|0,3:2|3:2,0:0:0:0:
45,367,234786,2,0,P|88:295|64:246,1,127.5,10|0,0:2|0:0,0:0:0:0:
60,253,235123,6,0,B|51:203|28:159|28:159|59:138|91:95,1,170,6|10,3:2|0:2,0:0:0:0:
256,42,235629,1,0,3:2:0:0:
256,42,235713,1,10,0:2:0:0:
256,42,235797,2,0,P|217:21|168:34,1,85,0|0,3:2|3:2,0:0:0:0:
308,171,236135,1,10,0:2:0:0:
356,0,236303,1,2,0:2:0:0:
204,125,236472,6,0,L|231:303,1,170,2|10,3:2|0:2,0:0:0:0:
391,384,236977,2,0,L|378:299,1,85,2|0,3:2|0:0,0:0:0:0:
495,156,237314,1,2,3:2:0:0:
473,319,237483,1,10,0:2:0:0:
328,196,237651,1,10,0:2:0:0:
328,196,237736,1,10,0:2:0:0:
328,196,237820,6,0,L|441:222,1,85,2|0,3:2|3:2,0:0:0:0:
250,307,238157,1,0,3:2:0:0:
268,94,238325,2,0,B|290:41|352:51|352:51|367:100|425:110,1,170,10|0,0:2|3:2,0:0:0:0:
209,203,238831,1,10,0:2:0:0:
209,203,239000,2,0,B|167:216|167:216|133:193,1,85,0|0,3:0|3:2,0:0:0:0:
34,35,239337,6,0,B|125:19|125:19|169:51|135:120,1,170,10|0,0:2|3:0,0:0:0:0:
0,176,239842,1,10,0:2:0:0:
0,176,239927,1,10,0:2:0:0:
0,176,240011,2,0,L|20:277,1,85,10|10,0:2|0:2,0:0:0:0:
163,362,240348,1,10,0:2:0:0:
163,362,240432,1,10,0:2:0:0:
163,362,240516,6,0,B|231:350|231:350|262:364|262:364|346:349,1,170,6|10,3:2|0:2,0:0:0:0:
461,219,241022,1,0,0:0:0:0:
461,219,241106,1,2,0:2:0:0:
461,219,241191,2,0,L|446:322,1,85,0|0,3:2|3:2,0:0:0:0:
323,160,241528,1,10,0:2:0:0:
511,124,241696,1,2,0:2:0:0:
353,262,241865,6,0,L|180:236,1,170,2|10,3:2|0:2,0:0:0:0:
6,170,242370,1,2,3:2:0:0:
6,170,242455,1,8,0:2:0:0:
6,170,242539,2,0,P|47:181|95:141,1,85,0|2,3:2|3:2,0:0:0:0:
206,6,242876,1,8,0:2:0:0:
36,87,243045,1,10,0:2:0:0:
185,237,243213,6,0,L|194:188,1,42.5,2|0,0:2|0:0,0:0:0:0:
276,192,243719,2,0,L|260:275,1,85,2|0,0:2|0:0,0:0:0:0:
250,364,244561,5,0,3:2:0:0:
362,252,244730,1,10,0:2:0:0:
362,252,244814,1,10,0:2:0:0:
362,252,244899,1,10,0:2:0:0:
176,304,245067,1,0,3:2:0:0:
346,376,245236,2,0,L|333:326,3,42.5,10|10|10|0,0:2|0:2|0:2|3:2,0:0:0:0:
260,275,245573,1,10,0:2:0:0:
268,244,245657,1,10,0:2:0:0:
276,213,245741,1,10,0:2:0:0:
284,182,245825,1,10,0:2:0:0:
292,151,245910,6,0,P|326:134|379:152,1,76.4999976654053,6|2,3:2|3:2,0:0:0:0:
494,197,246247,1,10,0:2:0:0:
419,311,246415,1,2,3:2:0:0:
419,311,246500,1,8,0:2:0:0:
419,311,246584,2,0,L|402:231,1,76.4999976654053,0|2,3:2|3:2,0:0:0:0:
512,323,246921,1,8,0:2:0:0:
350,378,247090,6,0,B|286:364|286:364|272:341|272:341|192:323,1,152.999995330811,2|2,3:2|3:2,0:0:0:0:
159,186,247595,1,8,0:2:0:0:
51,293,247764,1,2,3:2:0:0:
51,293,247848,1,8,0:2:0:0:
51,293,247932,2,0,L|130:276,1,76.4999976654053,2|0,3:2|3:2,0:0:0:0:
271,199,248269,2,0,P|220:164|158:190,1,114.749996498108,10|0,0:2|0:0,0:0:0:0:
159,186,248606,6,0,L|142:107,1,76.4999976654053,2|2,3:2|3:2,0:0:0:0:
50,36,248943,1,10,0:2:0:0:
176,0,249112,1,2,3:2:0:0:
176,0,249196,1,8,0:2:0:0:
176,0,249281,2,0,L|253:9,1,76.4999976654053,0|2,3:2|3:2,0:0:0:0:
325,107,249618,1,8,0:2:0:0:
426,0,249786,6,0,B|468:43|468:43|433:139,1,152.999995330811,2|2,3:2|3:2,0:0:0:0:
303,212,250292,1,8,0:2:0:0:
424,303,250460,1,2,3:2:0:0:
424,303,250545,1,8,0:2:0:0:
424,303,250629,2,0,L|403:223,1,76.4999976654053,2|0,3:2|3:2,0:0:0:0:
325,107,250966,1,8,0:2:0:0:
207,222,251134,1,8,0:2:0:0:
207,222,251219,1,8,0:2:0:0:
207,222,251303,6,0,L|129:209,1,76.4999976654053,6|2,3:2|3:2,0:0:0:0:
41,138,251640,1,10,0:2:0:0:
154,94,251809,1,2,3:2:0:0:
154,94,251893,1,8,0:2:0:0:
154,94,251977,2,0,L|169:13,1,76.4999976654053,0|2,3:2|3:2,0:0:0:0:
53,43,252314,1,8,0:2:0:0:
252,88,252483,6,0,L|414:64,1,152.999995330811,2|2,3:2|3:2,0:0:0:0:
292,173,252988,1,8,0:2:0:0:
416,237,253157,1,2,3:2:0:0:
416,237,253241,1,8,0:2:0:0:
416,237,253325,2,0,L|396:149,1,76.4999976654053,0|2,3:2|3:2,0:0:0:0:
297,19,253663,2,0,P|249:5|181:48,1,114.749996498108,10|0,0:2|0:0,0:0:0:0:
183,43,254000,5,14,0:2:0:0:
292,173,254168,1,2,3:2:0:0:
131,223,254337,1,10,0:2:0:0:
254,96,254505,1,2,3:2:0:0:
153,349,254842,5,10,0:2:0:0:
54,85,255179,1,2,3:2:0:0:
328,251,255516,1,10,0:2:0:0:
20,289,255854,1,10,0:2:0:0:
94,188,256022,6,0,B|131:172|169:191|169:191|199:159|199:159|232:178|286:169|286:169|259:184|252:207,1,255,2|0,3:2|0:0,0:0:0:0:
